0
SECTION
2
HEADER
9
$ACADVER
1
AC1015
9
$DWGCODEPAGE
3
ANSI_1252
9
$HANDSEED
5
185
9
$ANGBASE
50
0
9
$ANGDIR
70
0
9
$ATTMODE
70
1
9
$AUNITS
70
0
9
$AUPREC
70
0
9
$CECOLOR
62
256
9
$CELTSCALE
40
1
9
$CELTYPE
6
ByLayer
9
$CELWEIGHT
370
-1
9
$CLAYER
8
0
9
$CMLJUST
70
0
9
$CMLSCALE
40
1
9
$CMLSTYLE
2
Standard
9
$DIMSTYLE
2
Standard
9
$TEXTSIZE
40
0.2
9
$TEXTSTYLE
7
Standard
9
$LUNITS
70
2
9
$LUPREC
70
4
9
$EXTNAMES
290
1
9
$INSUNITS
70
4
9
$LTSCALE
40
1
9
$LWDISPLAY
290
0
9
$PDMODE
70
0
9
$PDSIZE
40
0
9
$PLINEGEN
70
0
0
ENDSEC
0
SECTION
2
CLASSES
0
CLASS
1
RASTERVARIABLES
2
AcDbRasterVariables
3
ISM
90
0
280
0
281
0
0
ENDSEC
0
SECTION
2
TABLES
0
TABLE
2
VPORT
5
17b
100
AcDbSymbolTable
0
VPORT
5
1
100
AcDbSymbolTableRecord
100
AcDbViewportTableRecord
2
*Active
70
0
10
0
20
0
11
1
21
1
12
-1
22
1
13
0
23
0
14
0.5
24
0.5
15
10
25
10
16
0
26
0
36
1
17
0
27
0
37
0
0
ENDTAB
0
TABLE
2
LTYPE
5
17c
100
AcDbSymbolTable
0
LTYPE
5
14
100
AcDbSymbolTableRecord
100
AcDbLinetypeTableRecord
70
0
2
ByBlock
3

72
65
73
0
40
0
0
LTYPE
5
15
100
AcDbSymbolTableRecord
100
AcDbLinetypeTableRecord
70
0
2
ByLayer
3

72
65
73
0
40
0
0
LTYPE
5
16
100
AcDbSymbolTableRecord
100
AcDbLinetypeTableRecord
70
0
2
CONTINUOUS
3
Solid line
72
65
73
0
40
0
0
LTYPE
5
3B
100
AcDbSymbolTableRecord
100
AcDbLinetypeTableRecord
70
0
2
DASHED
3
__ __ __ __ __ __ __ __ __
72
65
73
2
40
25.72
49
12.86
74
0
49
-12.86
74
0
0
LTYPE
5
3C
100
AcDbSymbolTableRecord
100
AcDbLinetypeTableRecord
70
0
2
HIDDEN
3
_ _ _ _ _ _ _ _ _ _ _ _ _ _ _
72
65
73
2
40
0.5
49
0.25
74
0
49
-0.25
74
0
0
LTYPE
5
3D
100
AcDbSymbolTableRecord
100
AcDbLinetypeTableRecord
70
0
2
PHANTOM
3
____ _ _ ____ _ _ _____ _ _ ____
72
65
73
6
40
50.5
49
18
74
0
49
-6.5
74
0
49
6.5
74
0
49
-6.5
74
0
49
6.5
74
0
49
-6.5
74
0
0
LTYPE
5
3E
100
AcDbSymbolTableRecord
100
AcDbLinetypeTableRecord
70
0
2
CENTER
3
____ _ ____ _ ____ _ ____
72
65
73
4
40
47.5
49
22
74
0
49
-8.5
74
0
49
8.5
74
0
49
-8.5
74
0
0
LTYPE
5
3F
100
AcDbSymbolTableRecord
100
AcDbLinetypeTableRecord
70
0
2
DOT
3
.........................
72
65
73
2
40
10
49
0
74
0
49
-10
74
0
0
LTYPE
5
40
100
AcDbSymbolTableRecord
100
AcDbLinetypeTableRecord
70
0
2
DASHDOT
3
_._._._._._._._._._._._._._._._.
72
65
73
4
40
70
49
31
74
0
49
-13
74
0
49
13
74
0
49
-13
74
0
0
ENDTAB
0
TABLE
2
LAYER
5
17d
100
AcDbSymbolTable
0
LAYER
5
10
100
AcDbSymbolTableRecord
100
AcDbLayerTableRecord
2
0
70
0
62
7
6
CONTINUOUS
290
1
370
-3
390
0
0
LAYER
5
42
100
AcDbSymbolTableRecord
100
AcDbLayerTableRecord
2
80
70
0
62
-6
6
CONTINUOUS
290
1
370
-3
390
0
0
LAYER
5
44
100
AcDbSymbolTableRecord
100
AcDbLayerTableRecord
2
81
70
0
62
-3
6
CONTINUOUS
290
1
370
-3
390
0
0
LAYER
5
46
100
AcDbSymbolTableRecord
100
AcDbLayerTableRecord
2
1
70
0
62
4
6
CONTINUOUS
290
1
370
-3
390
0
0
LAYER
5
48
100
AcDbSymbolTableRecord
100
AcDbLayerTableRecord
2
2
70
0
62
7
6
CONTINUOUS
290
1
370
-3
390
0
0
LAYER
5
5E
100
AcDbSymbolTableRecord
100
AcDbLayerTableRecord
2
4
70
0
62
-2
6
CENTER
290
1
370
-3
390
0
0
LAYER
5
167
100
AcDbSymbolTableRecord
100
AcDbLayerTableRecord
2
SK1
70
0
62
4
6
CONTINUOUS
290
1
370
-3
390
0
0
LAYER
5
168
100
AcDbSymbolTableRecord
100
AcDbLayerTableRecord
2
SK4
70
0
62
2
6
CENTER
290
1
370
-3
390
0
0
LAYER
5
169
100
AcDbSymbolTableRecord
100
AcDbLayerTableRecord
2
SK6
70
0
62
5
6
CONTINUOUS
290
1
370
-3
390
0
0
LAYER
5
16a
100
AcDbSymbolTableRecord
100
AcDbLayerTableRecord
2
SK2
70
0
62
7
6
CONTINUOUS
290
1
370
-3
390
0
0
ENDTAB
0
TABLE
2
STYLE
5
17e
100
AcDbSymbolTable
0
STYLE
5
11
100
AcDbSymbolTableRecord
100
AcDbTextStyleTableRecord
2
Standard
3
txt
70
0
71
0
40
0
41
1
42
0
50
0
0
STYLE
5
E3
100
AcDbSymbolTableRecord
100
AcDbTextStyleTableRecord
2
DEFAULT
3
simplex.shx
70
0
71
0
40
0
41
1
42
0
50
0
0
STYLE
5
106
100
AcDbSymbolTableRecord
100
AcDbTextStyleTableRecord
2
DWGDirectTextStyle
3
SIMPLEX
70
0
71
0
40
0
41
1
42
0
50
0
0
ENDTAB
0
TABLE
2
DIMSTYLE
5
17f
100
AcDbSymbolTable
100
AcDbDimStyleTable
0
DIMSTYLE
105
27
100
AcDbSymbolTableRecord
100
AcDbDimStyleTableRecord
2
Standard
70
0
3
<>
41
0.18
42
0.0625
44
0.18
140
0.18
147
0.09
73
0
74
0
77
1
271
2
275
0
278
52
280
0
340
11
0
ENDTAB
0
TABLE
2
VIEW
5
180
100
AcDbSymbolTable
0
ENDTAB
0
TABLE
2
UCS
5
181
100
AcDbSymbolTable
0
ENDTAB
0
TABLE
2
APPID
5
182
100
AcDbSymbolTable
0
APPID
5
12
100
AcDbSymbolTableRecord
100
AcDbRegAppTableRecord
2
ACAD
70
0
0
ENDTAB
0
TABLE
2
BLOCK_RECORD
5
183
100
AcDbSymbolTable
0
BLOCK_RECORD
5
1F
100
AcDbSymbolTableRecord
100
AcDbBlockTableRecord
2
*Model_Space
340
0
70
0
0
BLOCK_RECORD
5
1B
100
AcDbSymbolTableRecord
100
AcDbBlockTableRecord
2
*Paper_Space
340
0
70
0
0
BLOCK_RECORD
5
23
100
AcDbSymbolTableRecord
100
AcDbBlockTableRecord
2
*Paper_Space0
340
0
70
0
0
BLOCK_RECORD
5
108
100
AcDbSymbolTableRecord
100
AcDbBlockTableRecord
2
DimnDraft3D1
340
0
70
0
0
BLOCK_RECORD
5
116
100
AcDbSymbolTableRecord
100
AcDbBlockTableRecord
2
_CLOSED
340
0
70
0
0
BLOCK_RECORD
5
11D
100
AcDbSymbolTableRecord
100
AcDbBlockTableRecord
2
DimnDraft3D2
340
0
70
0
0
BLOCK_RECORD
5
12C
100
AcDbSymbolTableRecord
100
AcDbBlockTableRecord
2
DimnDraft3D3
340
0
70
0
0
BLOCK_RECORD
5
13A
100
AcDbSymbolTableRecord
100
AcDbBlockTableRecord
2
DimnDraft3D4
340
0
70
0
0
ENDTAB
0
ENDSEC
0
SECTION
2
BLOCKS
0
BLOCK
5
20
100
AcDbEntity
8
0
100
AcDbBlockBegin
2
*Model_Space
70
0
10
0
20
0
30
0
3
*Model_Space
0
ENDBLK
5
21
100
AcDbEntity
8
0
100
AcDbBlockEnd
0
BLOCK
5
1C
100
AcDbEntity
8
0
100
AcDbBlockBegin
2
*Paper_Space
70
0
10
0
20
0
30
0
3
*Paper_Space
0
ENDBLK
5
1D
100
AcDbEntity
8
0
100
AcDbBlockEnd
0
BLOCK
5
24
100
AcDbEntity
8
0
100
AcDbBlockBegin
2
*Paper_Space0
70
0
10
0
20
0
30
0
3
*Paper_Space0
0
ENDBLK
5
25
100
AcDbEntity
8
0
100
AcDbBlockEnd
0
BLOCK
5
113
100
AcDbEntity
8
0
100
AcDbBlockBegin
2
DimnDraft3D1
70
0
10
0
20
0
30
0
3
DimnDraft3D1
0
MTEXT
5
109
100
AcDbEntity
8
2
62
256
6
ByLayer
370
-1
48
1
60
0
100
AcDbMText
10
107.035
20
-28.106316
30
0
210
0
220
0
230
1
1
\W01.000;\fsimplex.shx,bigfont.shx;11.0 
40
4.5
41
0
44
1.084337
50
90
71
7
72
5
7
DEFAULT
0
LINE
5
10A
100
AcDbEntity
8
2
62
256
6
ByLayer
370
-1
48
1
60
0
100
AcDbLine
10
97.91
20
-10.9
30
0
11
110.16
21
-10.9
31
0
39
0
210
0
220
0
230
1
0
LINE
5
10B
100
AcDbEntity
8
2
62
256
6
ByLayer
370
-1
48
1
60
0
100
AcDbLine
10
97.91
20
0
30
0
11
110.16
21
0
31
0
39
0
210
0
220
0
230
1
0
LINE
5
10C
100
AcDbEntity
8
2
62
256
6
ByLayer
370
-1
48
1
60
0
100
AcDbLine
10
108.16
20
0
30
0
11
108.16
21
-29.231316
31
0
39
0
210
0
220
0
230
1
0
LINE
5
10D
100
AcDbEntity
8
2
62
256
6
ByLayer
370
-1
48
1
60
0
100
AcDbLine
10
108.16
20
-10.9
30
0
11
107.742003
21
-7.725002
31
0
39
0
210
0
220
0
230
1
0
LINE
5
10E
100
AcDbEntity
8
2
62
256
6
ByLayer
370
-1
48
1
60
0
100
AcDbLine
10
108.16
20
-10.9
30
0
11
108.577997
21
-7.724998
31
0
39
0
210
0
220
0
230
1
0
LINE
5
10F
100
AcDbEntity
8
2
62
256
6
ByLayer
370
-1
48
1
60
0
100
AcDbLine
10
107.742003
20
-7.725002
30
0
11
108.577997
21
-7.724998
31
0
39
0
210
0
220
0
230
1
0
LINE
5
110
100
AcDbEntity
8
2
62
256
6
ByLayer
370
-1
48
1
60
0
100
AcDbLine
10
108.16
20
0
30
0
11
108.577997
21
-3.174998
31
0
39
0
210
0
220
0
230
1
0
LINE
5
111
100
AcDbEntity
8
2
62
256
6
ByLayer
370
-1
48
1
60
0
100
AcDbLine
10
108.16
20
0
30
0
11
107.742003
21
-3.175002
31
0
39
0
210
0
220
0
230
1
0
LINE
5
112
100
AcDbEntity
8
2
62
256
6
ByLayer
370
-1
48
1
60
0
100
AcDbLine
10
108.577997
20
-3.174998
30
0
11
107.742003
21
-3.175002
31
0
39
0
210
0
220
0
230
1
0
ENDBLK
5
114
100
AcDbEntity
8
0
100
AcDbBlockEnd
0
BLOCK
5
117
100
AcDbEntity
8
0
100
AcDbBlockBegin
2
_CLOSED
70
0
10
0
20
0
30
0
3
_CLOSED
0
LINE
5
119
100
AcDbEntity
8
0
62
256
6
ByLayer
370
-2
48
1
60
0
100
AcDbLine
10
-1
20
0.166667
30
0
11
0
21
0
31
0
39
0
210
0
220
0
230
1
0
LINE
5
11A
100
AcDbEntity
8
0
62
256
6
ByLayer
370
-2
48
1
60
0
100
AcDbLine
10
0
20
0
30
0
11
-1
21
-0.166667
31
0
39
0
210
0
220
0
230
1
0
LINE
5
11B
100
AcDbEntity
8
0
62
256
6
ByLayer
370
-2
48
1
60
0
100
AcDbLine
10
-1
20
0.166667
30
0
11
-1
21
-0.166667
31
0
39
0
210
0
220
0
230
1
0
LINE
5
11C
100
AcDbEntity
8
0
62
256
6
ByLayer
370
-2
48
1
60
0
100
AcDbLine
10
0
20
0
30
0
11
-1
21
0
31
0
39
0
210
0
220
0
230
1
0
ENDBLK
5
118
100
AcDbEntity
8
0
100
AcDbBlockEnd
0
BLOCK
5
129
100
AcDbEntity
8
0
100
AcDbBlockBegin
2
DimnDraft3D2
70
0
10
0
20
0
30
0
3
DimnDraft3D2
0
MTEXT
5
11E
100
AcDbEntity
8
SK2
62
256
6
ByLayer
370
-1
48
1
60
0
100
AcDbMText
10
-116.215
20
-3.096711
30
0
210
0
220
0
230
1
1
\W01.000;\fsimplex.shx,bigfont.shx;%%c16 
40
4.5
41
0
44
1.084337
50
90
71
7
72
5
7
DEFAULT
0
LINE
5
120
100
AcDbEntity
8
SK2
62
256
6
ByLayer
370
-1
48
1
60
0
100
AcDbLine
10
-107.34
20
-7.9925
30
0
11
-117.09
21
-7.9925
31
0
39
0
210
0
220
0
230
1
0
LINE
5
121
100
AcDbEntity
8
SK2
62
256
6
ByLayer
370
-1
48
1
60
0
100
AcDbLine
10
-107.34
20
7.9925
30
0
11
-117.09
21
7.9925
31
0
39
0
210
0
220
0
230
1
0
LINE
5
122
100
AcDbEntity
8
SK2
62
256
6
ByLayer
370
-1
48
1
60
0
100
AcDbLine
10
-115.09
20
-19.2425
30
0
11
-115.09
21
19.2425
31
0
39
0
210
0
220
0
230
1
0
LINE
5
123
100
AcDbEntity
8
SK2
62
256
6
ByLayer
370
-1
48
1
60
0
100
AcDbLine
10
-115.09
20
-7.9925
30
0
11
-114.672003
21
-11.167498
31
0
39
0
210
0
220
0
230
1
0
LINE
5
124
100
AcDbEntity
8
SK2
62
256
6
ByLayer
370
-1
48
1
60
0
100
AcDbLine
10
-115.09
20
-7.9925
30
0
11
-115.507997
21
-11.167502
31
0
39
0
210
0
220
0
230
1
0
LINE
5
125
100
AcDbEntity
8
SK2
62
256
6
ByLayer
370
-1
48
1
60
0
100
AcDbLine
10
-114.672003
20
-11.167498
30
0
11
-115.507997
21
-11.167502
31
0
39
0
210
0
220
0
230
1
0
LINE
5
126
100
AcDbEntity
8
SK2
62
256
6
ByLayer
370
-1
48
1
60
0
100
AcDbLine
10
-115.09
20
7.9925
30
0
11
-115.507997
21
11.167498
31
0
39
0
210
0
220
0
230
1
0
LINE
5
127
100
AcDbEntity
8
SK2
62
256
6
ByLayer
370
-1
48
1
60
0
100
AcDbLine
10
-115.09
20
7.9925
30
0
11
-114.672003
21
11.167502
31
0
39
0
210
0
220
0
230
1
0
LINE
5
128
100
AcDbEntity
8
SK2
62
256
6
ByLayer
370
-1
48
1
60
0
100
AcDbLine
10
-115.507997
20
11.167498
30
0
11
-114.672003
21
11.167502
31
0
39
0
210
0
220
0
230
1
0
ENDBLK
5
12A
100
AcDbEntity
8
0
100
AcDbBlockEnd
0
BLOCK
5
137
100
AcDbEntity
8
0
100
AcDbBlockBegin
2
DimnDraft3D3
70
0
10
0
20
0
30
0
3
DimnDraft3D3
0
MTEXT
5
12D
100
AcDbEntity
8
SK2
62
256
6
ByLayer
370
-1
48
1
60
0
100
AcDbMText
10
-10.405132
20
-27.025
30
0
210
0
220
0
230
1
1
\W01.000;\fsimplex.shx,bigfont.shx;200.0 
40
4.5
41
0
44
1.084337
50
0
71
7
72
5
7
DEFAULT
0
LINE
5
12E
100
AcDbEntity
8
SK2
62
256
6
ByLayer
370
-1
48
1
60
0
100
AcDbLine
10
-105.34
20
-9.9925
30
0
11
-105.34
21
-30.15
31
0
39
0
210
0
220
0
230
1
0
LINE
5
12F
100
AcDbEntity
8
SK2
62
256
6
ByLayer
370
-1
48
1
60
0
100
AcDbLine
10
95.91
20
-12.9
30
0
11
95.91
21
-30.15
31
0
39
0
210
0
220
0
230
1
0
LINE
5
130
100
AcDbEntity
8
SK2
62
256
6
ByLayer
370
-1
48
1
60
0
100
AcDbLine
10
-105.34
20
-28.15
30
0
11
95.91
21
-28.15
31
0
39
0
210
0
220
0
230
1
0
LINE
5
131
100
AcDbEntity
8
SK2
62
256
6
ByLayer
370
-1
48
1
60
0
100
AcDbLine
10
-105.34
20
-28.15
30
0
11
-102.165002
21
-27.732003
31
0
39
0
210
0
220
0
230
1
0
LINE
5
132
100
AcDbEntity
8
SK2
62
256
6
ByLayer
370
-1
48
1
60
0
100
AcDbLine
10
-105.34
20
-28.15
30
0
11
-102.164998
21
-28.567997
31
0
39
0
210
0
220
0
230
1
0
LINE
5
133
100
AcDbEntity
8
SK2
62
256
6
ByLayer
370
-1
48
1
60
0
100
AcDbLine
10
-102.165002
20
-27.732003
30
0
11
-102.164998
21
-28.567997
31
0
39
0
210
0
220
0
230
1
0
LINE
5
134
100
AcDbEntity
8
SK2
62
256
6
ByLayer
370
-1
48
1
60
0
100
AcDbLine
10
95.91
20
-28.15
30
0
11
92.735002
21
-28.567997
31
0
39
0
210
0
220
0
230
1
0
LINE
5
135
100
AcDbEntity
8
SK2
62
256
6
ByLayer
370
-1
48
1
60
0
100
AcDbLine
10
95.91
20
-28.15
30
0
11
92.734998
21
-27.732003
31
0
39
0
210
0
220
0
230
1
0
LINE
5
136
100
AcDbEntity
8
SK2
62
256
6
ByLayer
370
-1
48
1
60
0
100
AcDbLine
10
92.735002
20
-28.567997
30
0
11
92.734998
21
-27.732003
31
0
39
0
210
0
220
0
230
1
0
ENDBLK
5
138
100
AcDbEntity
8
0
100
AcDbBlockEnd
0
BLOCK
5
145
100
AcDbEntity
8
0
100
AcDbBlockBegin
2
DimnDraft3D4
70
0
10
0
20
0
30
0
3
DimnDraft3D4
0
MTEXT
5
13B
100
AcDbEntity
8
2
62
256
6
ByLayer
370
-1
48
1
60
0
100
AcDbMText
10
119.750687
20
31.136179
30
0
210
0
220
0
230
1
1
\W01.000;\fsimplex.shx,bigfont.shx;91%%d0' 
40
4.5
41
0
44
1.084337
50
315.5
71
7
72
5
7
DEFAULT
0
LINE
5
13C
100
AcDbEntity
8
2
62
256
6
ByLayer
370
-1
48
1
60
0
100
AcDbLine
10
95.683119
20
2.09802
30
0
11
95.022928
21
39.920326
31
0
39
0
210
0
220
0
230
1
0
LINE
5
13D
100
AcDbEntity
8
2
62
256
6
ByLayer
370
-1
48
1
60
0
100
AcDbLine
10
97.91
20
0
30
0
11
135.646147
21
0
31
0
39
0
210
0
220
0
230
1
0
ARC
5
13E
100
AcDbEntity
8
2
62
256
6
ByLayer
370
-1
48
1
60
0
100
AcDbCircle
39
0
10
95.71974
20
0
30
0
40
37.9264068640928
210
0
220
0
230
1
100
AcDbArc
50
0
51
91
0
LINE
5
13F
100
AcDbEntity
8
2
62
256
6
ByLayer
370
-1
48
1
60
0
100
AcDbLine
10
95.057833
20
37.92063
30
0
11
98.23426
21
38.327629
31
0
39
0
210
0
220
0
230
1
0
LINE
5
140
100
AcDbEntity
8
2
62
256
6
ByLayer
370
-1
48
1
60
0
100
AcDbLine
10
95.057833
20
37.92063
30
0
11
98.231368
21
37.491641
31
0
39
0
210
0
220
0
230
1
0
LINE
5
141
100
AcDbEntity
8
2
62
256
6
ByLayer
370
-1
48
1
60
0
100
AcDbLine
10
98.23426
20
38.327629
30
0
11
98.231368
21
37.491641
31
0
39
0
210
0
220
0
230
1
0
LINE
5
142
100
AcDbEntity
8
2
62
256
6
ByLayer
370
-1
48
1
60
0
100
AcDbLine
10
133.646147
20
0
30
0
11
133.161836
21
3.165562
31
0
39
0
210
0
220
0
230
1
0
LINE
5
143
100
AcDbEntity
8
2
62
256
6
ByLayer
370
-1
48
1
60
0
100
AcDbLine
10
133.646147
20
0
30
0
11
133.997647
21
3.183049
31
0
39
0
210
0
220
0
230
1
0
LINE
5
144
100
AcDbEntity
8
2
62
256
6
ByLayer
370
-1
48
1
60
0
100
AcDbLine
10
133.161836
20
3.165562
30
0
11
133.997647
21
3.183049
31
0
39
0
210
0
220
0
230
1
0
ENDBLK
5
146
100
AcDbEntity
8
0
100
AcDbBlockEnd
0
ENDSEC
0
SECTION
2
ENTITIES
0
ELLIPSE
5
97
100
AcDbEntity
8
1
62
256
6
ByLayer
370
-1
48
1
60
0
100
AcDbEllipse
10
88.121413
20
-6.204834
30
0
11
-1.24980961894549
21
-0.0218155080466018
31
0
210
0
220
0
230
1
40
0.99632
41
0.327596007838561
42
0.52359877559831
0
ELLIPSE
5
98
100
AcDbEntity
8
1
62
256
6
ByLayer
370
-1
48
1
60
0
100
AcDbEllipse
10
87.047181
20
-5.559302
30
0
11
1.04984007991436
21
0.0183250267591351
31
0
210
0
220
0
230
1
40
0.99632
41
-3.00801919727808
42
-1.17185620103651
0
ELLIPSE
5
99
100
AcDbEntity
8
1
62
256
6
ByLayer
370
-1
48
1
60
0
100
AcDbEllipse
10
88.228822
20
-6.628437
30
0
11
-1.24980961894549
21
-0.0218155080466018
31
0
210
0
220
0
230
1
40
0.99632
41
0.523598775598245
42
2.0943951023932
0
ELLIPSE
5
9A
100
AcDbEntity
8
1
62
256
6
ByLayer
370
-1
48
1
60
0
100
AcDbEllipse
10
88.224409
20
-6.37563
30
0
11
-1.24980961894549
21
-0.0218155080466018
31
0
210
0
220
0
230
1
40
0.99632
41
0.523598775598316
42
2.09439510239322
0
ELLIPSE
5
9B
100
AcDbEntity
8
1
62
256
6
ByLayer
370
-1
48
1
60
0
100
AcDbEllipse
10
87.052042
20
-5.837808
30
0
11
1.0498400799143
21
0.018325026759134
31
0
210
0
220
0
230
1
40
0.99632
41
0.860164223350534
42
1.46170151763518
0
ELLIPSE
5
9C
100
AcDbEntity
8
1
62
256
6
ByLayer
370
-1
48
1
60
0
100
AcDbEllipse
10
87.052042
20
-5.837817
30
0
11
-1.0498400799143
21
-0.018325026759147
31
0
210
0
220
0
230
1
40
0.99632
41
-1.67989113595459
42
1.45556903857821
0
ELLIPSE
5
9D
100
AcDbEntity
8
1
62
256
6
ByLayer
370
-1
48
1
60
0
100
AcDbEllipse
10
88.125825
20
-6.457641
30
0
11
-1.24980961894549
21
-0.0218155080466018
31
0
210
0
220
0
230
1
40
0.99632
41
0.327596007838544
42
0.523598775598285
0
ELLIPSE
5
9E
100
AcDbEntity
8
1
62
256
6
ByLayer
370
-1
48
1
60
0
100
AcDbEllipse
10
87.047629
20
-5.58501
30
0
11
-1.0498400799143
21
-0.018325026759147
31
0
210
0
220
0
230
1
40
0.99632
41
1.45556903857821
42
1.99614750379601
0
ELLIPSE
5
9F
100
AcDbEntity
8
1
62
256
6
ByLayer
370
-1
48
1
60
0
100
AcDbEllipse
10
92.651754
20
-5.759652
30
0
11
1.90439934775031
21
0.0332414142642094
31
0
210
0
220
0
230
1
40
0.99632
41
0
42
6.28318530717959
0
ELLIPSE
5
A0
100
AcDbEntity
8
1
62
256
6
ByLayer
370
-1
48
1
60
0
100
AcDbEllipse
10
95.513125
20
-10.504585
30
0
11
0.396814554015196
21
0.00692642380479121
31
0
210
0
220
0
230
1
40
0.99632
41
-2.09439510239339
42
-9.88326185984699E-14
0
ELLIPSE
5
A1
100
AcDbEntity
8
1
62
256
6
ByLayer
370
-1
48
1
60
0
100
AcDbEllipse
10
95.345787
20
-0.91775
30
0
11
0.396814554015196
21
0.00692642380479121
31
0
210
0
220
0
230
1
40
0.99632
41
0
42
2.09439510239306
0
ELLIPSE
5
A2
100
AcDbEntity
8
1
62
256
6
ByLayer
370
-1
48
1
60
0
100
AcDbEllipse
10
92.650576
20
-5.692175
30
0
11
-1.80114027624329
21
-0.0314390204666506
31
0
210
0
220
0
230
1
40
0.99632
41
0
42
6.28318530717959
0
ELLIPSE
5
A3
100
AcDbEntity
8
1
62
256
6
ByLayer
370
-1
48
1
60
0
100
AcDbEllipse
10
87.09635
20
-5.856622
30
0
11
0.396814554015196
21
0.00692642380479121
31
0
210
0
220
0
230
1
40
0.99632
41
2.09439510239306
42
-2.09439510239318
0
ELLIPSE
5
A4
100
AcDbEntity
8
1
62
256
6
ByLayer
370
-1
48
1
60
0
100
AcDbEllipse
10
92.65095
20
-5.713592
30
0
11
1.88093516011926
21
0.0328318453456218
31
0
210
0
220
0
230
1
40
0.99632
41
3.12407508313355
42
-9.47744753945103E-16
0
ELLIPSE
5
A5
100
AcDbEntity
8
1
62
256
6
ByLayer
370
-1
48
1
60
0
100
AcDbEllipse
10
92.65095
20
-5.713592
30
0
11
1.88093516011926
21
0.0328318453456218
31
0
210
0
220
0
230
1
40
0.99632
41
0
42
0.532261128631363
0
ELLIPSE
5
A6
100
AcDbEntity
8
1
62
256
6
ByLayer
370
-1
48
1
60
0
100
AcDbEllipse
10
92.65095
20
-5.713592
30
0
11
1.88093516011926
21
0.0328318453456218
31
0
210
0
220
0
230
1
40
0.99632
41
2.60924667528021
42
3.12407508313356
0
ELLIPSE
5
A7
100
AcDbEntity
8
1
62
256
6
ByLayer
370
-1
48
1
60
0
100
AcDbEllipse
10
92.650301
20
-5.676411
30
0
11
-0.747886075976982
21
-0.0130544000150865
31
0
210
0
220
0
230
1
40
0.99632
41
0.561330127515202
42
1.57122531662482
0
ELLIPSE
5
A8
100
AcDbEntity
8
1
62
256
6
ByLayer
370
-1
48
1
60
0
100
AcDbEllipse
10
92.650301
20
-5.676411
30
0
11
0.747886075976977
21
0.0130544000150772
31
0
210
0
220
0
230
1
40
0.99632
41
-2.65572522990839
42
-2.58026252607459
0
ELLIPSE
5
A9
100
AcDbEntity
8
1
62
256
6
ByLayer
370
-1
48
1
60
0
100
AcDbEllipse
10
92.651797
20
-5.762105
30
0
11
1.03484236448685
21
0.0180632406625732
31
0
210
0
220
0
230
1
40
0.99632
41
2.09439510239322
42
3.14073467392995
0
ELLIPSE
5
AA
100
AcDbEntity
8
1
62
256
6
ByLayer
370
-1
48
1
60
0
100
AcDbEllipse
10
93.088036
20
-6.402295
30
0
11
-0.184971823603932
21
-0.00322869519089706
31
0
210
0
220
0
230
1
40
0.99632
41
0.796325588772553
42
2.93574494584203
0
ELLIPSE
5
AB
100
AcDbEntity
8
1
62
256
6
ByLayer
370
-1
48
1
60
0
100
AcDbEllipse
10
92.650301
20
-5.676411
30
0
11
-0.747886075976982
21
-0.0130544000150865
31
0
210
0
220
0
230
1
40
0.99632
41
2.61756488816148
42
-2.81718280053521
0
ELLIPSE
5
AC
100
AcDbEntity
8
1
62
256
6
ByLayer
370
-1
48
1
60
0
100
AcDbEllipse
10
92.650301
20
-5.676411
30
0
11
0.747886075976977
21
0.0130544000150772
31
0
210
0
220
0
230
1
40
0.99632
41
-1.57036733696501
42
-0.524027765428287
0
ELLIPSE
5
AD
100
AcDbEntity
8
1
62
256
6
ByLayer
370
-1
48
1
60
0
100
AcDbEllipse
10
92.650301
20
-5.676411
30
0
11
-0.747886075976982
21
-0.0130544000150865
31
0
210
0
220
0
230
1
40
0.99632
41
-2.49939164109903
42
-1.80942790392151
0
ELLIPSE
5
AE
100
AcDbEntity
8
1
62
256
6
ByLayer
370
-1
48
1
60
0
100
AcDbEllipse
10
91.648644
20
-6.276095
30
0
11
-0.421935727355997
21
-0.00736491551653276
31
0
210
0
220
0
230
1
40
0.99632
41
-3.1415820053841
42
-2.6849072003074
0
ELLIPSE
5
AF
100
AcDbEntity
8
1
62
256
6
ByLayer
370
-1
48
1
60
0
100
AcDbEllipse
10
92.651797
20
-5.762105
30
0
11
1.03484236448685
21
0.0180632406625732
31
0
210
0
220
0
230
1
40
0.99632
41
-2.09353712273324
42
-1.04719755119661
0
ELLIPSE
5
B0
100
AcDbEntity
8
1
62
256
6
ByLayer
370
-1
48
1
60
0
100
AcDbEllipse
10
92.650451
20
-5.68498
30
0
11
1.72473727414478
21
0.0301054011042892
31
0
210
0
220
0
230
1
40
0.99632
41
3.12407514416166
42
-3.14153710123914
0
ELLIPSE
5
B1
100
AcDbEntity
8
1
62
256
6
ByLayer
370
-1
48
1
60
0
100
AcDbEllipse
10
92.650451
20
-5.68498
30
0
11
1.72473727414478
21
0.0301054011042892
31
0
210
0
220
0
230
1
40
0.99632
41
0
42
3.12407517302981
0
ELLIPSE
5
B2
100
AcDbEntity
8
1
62
256
6
ByLayer
370
-1
48
1
60
0
100
AcDbEllipse
10
92.651549
20
-5.747906
30
0
11
0.747886075976975
21
0.0130544000150771
31
0
210
0
220
0
230
1
40
0.99632
41
-2.65572522990831
42
-2.58026252607467
0
ELLIPSE
5
B3
100
AcDbEntity
8
1
62
256
6
ByLayer
370
-1
48
1
60
0
100
AcDbEllipse
10
93.673325
20
-6.241923
30
0
11
-0.421935727355997
21
-0.00736491551653276
31
0
210
0
220
0
230
1
40
0.99632
41
-0.524027765428323
42
-1.45138597454018E-06
0
ELLIPSE
5
B4
100
AcDbEntity
8
1
62
256
6
ByLayer
370
-1
48
1
60
0
100
AcDbEllipse
10
93.673325
20
-6.241923
30
0
11
-0.421935727355997
21
-0.00736491551653276
31
0
210
0
220
0
230
1
40
0.99632
41
-1.2989274932809
42
-0.524027765428323
0
ELLIPSE
5
B5
100
AcDbEntity
8
1
62
256
6
ByLayer
370
-1
48
1
60
0
100
AcDbEllipse
10
92.651797
20
-5.762105
30
0
11
1.29980200370335
21
0.0226881283684504
31
0
210
0
220
0
230
1
40
0.99632
41
0
42
6.28318530717959
0
ELLIPSE
5
B6
100
AcDbEntity
8
1
62
256
6
ByLayer
370
-1
48
1
60
0
100
AcDbEllipse
10
92.651797
20
-5.762105
30
0
11
1.03484236448685
21
0.0180632406625732
31
0
210
0
220
0
230
1
40
0.99632
41
1.04805553085657
42
2.09439510239322
0
ELLIPSE
5
B7
100
AcDbEntity
8
1
62
256
6
ByLayer
370
-1
48
1
60
0
100
AcDbEllipse
10
92.671147
20
-6.841919
30
0
11
-0.421935727355997
21
-0.00736491551653276
31
0
210
0
220
0
230
1
40
0.99632
41
-1.57036733696508
42
-0.795467609112607
0
ELLIPSE
5
B8
100
AcDbEntity
8
1
62
256
6
ByLayer
370
-1
48
1
60
0
100
AcDbEllipse
10
92.651797
20
-5.762105
30
0
11
1.03484236448685
21
0.0180632406625732
31
0
210
0
220
0
230
1
40
0.99632
41
-1.04719755119661
42
-0.0008579796599169
0
ELLIPSE
5
B9
100
AcDbEntity
8
1
62
256
6
ByLayer
370
-1
48
1
60
0
100
AcDbEllipse
10
91.648644
20
-6.276095
30
0
11
-0.421935727355997
21
-0.00736491551653276
31
0
210
0
220
0
230
1
40
0.99632
41
-2.55108055567551
42
-1.84090767809951
0
ELLIPSE
5
BA
100
AcDbEntity
8
1
62
256
6
ByLayer
370
-1
48
1
60
0
100
AcDbEllipse
10
92.651537
20
-5.747201
30
0
11
1.72473727414479
21
0.0301054011042893
31
0
210
0
220
0
230
1
40
0.99632
41
0
42
6.28318530717959
0
ELLIPSE
5
BB
100
AcDbEntity
8
1
62
256
6
ByLayer
370
-1
48
1
60
0
100
AcDbEllipse
10
92.651797
20
-5.762105
30
0
11
1.03484236448685
21
0.0180632406625732
31
0
210
0
220
0
230
1
40
0.99632
41
-0.0008579796599169
42
1.04805553085657
0
ELLIPSE
5
BC
100
AcDbEntity
8
1
62
256
6
ByLayer
370
-1
48
1
60
0
100
AcDbEllipse
10
92.671147
20
-6.841919
30
0
11
-0.421935727355997
21
-0.00736491551653276
31
0
210
0
220
0
230
1
40
0.99632
41
-2.34526706481757
42
-1.57036733696508
0
ELLIPSE
5
BD
100
AcDbEntity
8
1
62
256
6
ByLayer
370
-1
48
1
60
0
100
AcDbEllipse
10
92.238804
20
-6.417481
30
0
11
-0.184971823603932
21
-0.00322869519089706
31
0
210
0
220
0
230
1
40
0.99632
41
0.264730581385574
42
2.34612504447728
0
ELLIPSE
5
BE
100
AcDbEntity
8
1
62
256
6
ByLayer
370
-1
48
1
60
0
100
AcDbEllipse
10
92.651549
20
-5.747906
30
0
11
0.747886075976975
21
0.0130544000150771
31
0
210
0
220
0
230
1
40
0.99632
41
0.485867423681325
42
0.561330127515292
0
ELLIPSE
5
BF
100
AcDbEntity
8
1
62
256
6
ByLayer
370
-1
48
1
60
0
100
AcDbEllipse
10
91.800418
20
-5.690519
30
0
11
-0.184971823603932
21
-0.00322869519089706
31
0
210
0
220
0
230
1
40
0.99632
41
0.225826244222141
42
1.30068497549006
0
ELLIPSE
5
C0
100
AcDbEntity
8
1
62
256
6
ByLayer
370
-1
48
1
60
0
100
AcDbEllipse
10
92.651797
20
-5.762105
30
0
11
1.03484236448685
21
0.0180632406625732
31
0
210
0
220
0
230
1
40
0.99632
41
3.14073467392995
42
-2.09353712273324
0
ELLIPSE
5
C1
100
AcDbEntity
8
1
62
256
6
ByLayer
370
-1
48
1
60
0
100
AcDbEllipse
10
92.650301
20
-5.676411
30
0
11
-0.747886075976982
21
-0.0130544000150865
31
0
210
0
220
0
230
1
40
0.99632
41
-0.298016413974784
42
0.485867423681369
0
ELLIPSE
5
C2
100
AcDbEntity
8
1
62
256
6
ByLayer
370
-1
48
1
60
0
100
AcDbEllipse
10
93.500184
20
-5.662303
30
0
11
-0.184971823603932
21
-0.00322869519089706
31
0
210
0
220
0
230
1
40
0.99632
41
1.842665160309
42
2.92816688817281
0
ELLIPSE
5
C3
100
AcDbEntity
8
1
62
256
6
ByLayer
370
-1
48
1
60
0
100
AcDbEllipse
10
92.650301
20
-5.676411
30
0
11
-0.747886075976982
21
-0.0130544000150865
31
0
210
0
220
0
230
1
40
0.99632
41
-1.31492937660128
42
-0.62153358432423
0
POINT
5
41
100
AcDbEntity
8
80
62
256
6
ByLayer
370
-1
48
1
60
0
100
AcDbPoint
10
0
20
0
30
0
39
0
210
0
220
0
230
1
50
360
0
POINT
5
43
100
AcDbEntity
8
81
62
256
6
ByLayer
370
-1
48
1
60
0
100
AcDbPoint
10
95.91
20
-10.9
30
0
39
0
210
0
220
0
230
1
50
360
0
POINT
5
45
100
AcDbEntity
8
1
62
256
6
ByLayer
370
-1
48
1
60
0
100
AcDbPoint
10
-105.34
20
0
30
0
39
0
210
0
220
0
230
1
50
360
0
POINT
5
47
100
AcDbEntity
8
2
62
256
6
ByLayer
370
-1
48
1
60
0
100
AcDbPoint
10
95.91
20
10.9
30
0
39
0
210
0
220
0
230
1
50
360
0
SPLINE
5
C4
100
AcDbEntity
8
1
62
256
6
ByLayer
370
-1
48
1
60
0
100
AcDbSpline
70
4
71
3
72
10
73
6
40
0
40
0
40
0
40
0
40
0.5
40
0.5
40
1
40
1
40
1
40
1
41
1
10
74.2958826653605
20
0.30644523860073
30
0
41
1
10
74.9488580481554
20
2.23014353784629
30
0
41
1
10
75.9325180796913
20
3.95216539656067
30
0
41
1
10
78.4903811552847
20
6.34535713888005
30
0
41
1
10
80.0743355889665
20
7.02940547241562
30
0
41
1
10
81.8649387101428
20
7.40236462551775
30
0
0
SPLINE
5
C5
100
AcDbEntity
8
1
62
256
6
ByLayer
370
-1
48
1
60
0
100
AcDbSpline
70
4
71
3
72
8
73
4
40
0
40
0
40
0
40
0
40
1
40
1
40
1
40
1
41
1
10
82.5225185050206
20
-8.03967495781956
30
0
41
1
10
83.1894555118856
20
-8.42892406148874
30
0
41
1
10
83.8633172350085
20
-8.81660419592569
30
0
41
1
10
84.5411593546969
20
-9.20771081841602
30
0
0
SPLINE
5
C6
100
AcDbEntity
8
1
62
256
6
ByLayer
370
-1
48
1
60
0
100
AcDbSpline
70
4
71
3
72
28
73
24
40
-0.125
40
-0.125
40
0
40
0
40
0.125
40
0.125
40
0.1875
40
0.1875
40
0.25
40
0.25
40
0.375
40
0.375
40
0.5
40
0.5
40
0.625
40
0.625
40
0.6875
40
0.6875
40
0.75
40
0.75
40
0.8125
40
0.8125
40
0.875
40
0.875
40
1
40
1
40
1.125
40
1.125
41
1
10
79.1832027765611
20
-3.5612099068085
30
0
41
1
10
78.2069714626406
20
-3.21451231735455
30
0
41
1
10
77.7080527234369
20
-3.12735111459168
30
0
41
1
10
76.966296940616
20
-3.32200590268826
30
0
41
1
10
76.7223013304488
20
-3.44698145143184
30
0
41
1
10
76.3258524647968
20
-3.8702909672916
30
0
41
1
10
76.1901669104823
20
-4.1731039731969
30
0
41
1
10
76.1182644902952
20
-5.06095580485092
30
0
41
1
10
76.4460897117245
20
-5.51630120191049
30
0
41
1
10
77.2454952345773
20
-6.09571586298264
30
0
41
1
10
77.7341096565232
20
-6.25501372209214
30
0
41
1
10
78.7719707058742
20
-6.4318988167999
30
0
41
1
10
79.324042606985
20
-6.45275748314407
30
0
41
1
10
80.1769609139093
20
-6.34335657016425
30
0
41
1
10
80.4658787247326
20
-6.28736446758302
30
0
41
1
10
81.0045615519053
20
-6.03066446657945
30
0
41
1
10
81.2292108248234
20
-5.73878276742681
30
0
41
1
10
81.1003370800507
20
-5.15752838511534
30
0
41
1
10
80.9101502513387
20
-4.92496945993838
30
0
41
1
10
80.5236754203798
20
-4.50543073897063
30
0
41
1
10
80.3122312249552
20
-4.32312816201534
30
0
41
1
10
79.6550377650296
20
-3.82666183498765
30
0
41
1
10
79.1832027765611
20
-3.5612099068085
30
0
41
1
10
78.2069714626406
20
-3.21451231735455
30
0
0
SPLINE
5
C7
100
AcDbEntity
8
1
62
256
6
ByLayer
370
-1
48
1
60
0
100
AcDbSpline
70
4
71
3
72
8
73
4
40
0
40
0
40
0
40
0
40
1
40
1
40
1
40
1
41
1
10
93.3889146440303
20
-9.78365764406055
30
0
41
1
10
93.2998530839226
20
-9.77746395788841
30
0
41
1
10
93.2107915396126
20
-9.77127004665715
30
0
41
1
10
93.1217300111884
20
-9.76507590912934
30
0
0
SPLINE
5
C8
100
AcDbEntity
8
1
62
256
6
ByLayer
370
-1
48
1
60
0
100
AcDbSpline
70
4
71
3
72
16
73
12
40
0
40
0
40
0
40
0
40
0.0759441531749489
40
0.0759441531749489
40
0.329767253375576
40
0.329767253375576
40
0.585136592817874
40
0.585136592817874
40
0.86769233839918
40
0.86769233839918
40
1
40
1
40
1
40
1
41
1
10
74.2958826653605
20
0.30644523860073
30
0
41
1
10
74.2961910504327
20
0.29162219374075
30
0
41
1
10
74.2960229279935
20
0.276391524586842
30
0
41
1
10
74.2932267180594
20
0.209336690214144
30
0
41
1
10
74.2855842281514
20
0.153651776961453
30
0
41
1
10
74.2609458688265
20
0.0428637216561185
30
0
41
1
10
74.2436417768032
20
-0.0135720246991298
30
0
41
1
10
74.2004039524446
20
-0.126477799505238
30
0
41
1
10
74.1732824778102
20
-0.183684045867295
30
0
41
1
10
74.1302793191088
20
-0.260373845878377
30
0
41
1
10
74.1159769817331
20
-0.283963574121799
30
0
41
1
10
74.1013109896786
20
-0.306445238600844
30
0
0
SPLINE
5
C9
100
AcDbEntity
8
1
62
256
6
ByLayer
370
-1
48
1
60
0
100
AcDbSpline
70
4
71
3
72
14
73
10
40
0
40
0
40
0
40
0
40
0.25
40
0.25
40
0.5
40
0.5
40
0.75
40
0.75
40
1
40
1
40
1
40
1
41
1
10
82.5225185050206
20
-8.03967495781956
30
0
41
1
10
81.1023885197503
20
-8.03381339424303
30
0
41
1
10
79.7340758021533
20
-8.02325186931586
30
0
41
1
10
77.1642639256378
20
-7.78691781826456
30
0
41
1
10
75.9866359372778
20
-7.55987818625928
30
0
41
1
10
74.2282855081909
20
-6.45398698517224
30
0
41
1
10
73.7011742460638
20
-5.52052066744307
30
0
41
1
10
73.4616359949674
20
-3.11507930612572
30
0
41
1
10
73.694644292575
20
-1.68165960562246
30
0
41
1
10
74.1013109896785
20
-0.306445238600702
30
0
0
SPLINE
5
CA
100
AcDbEntity
8
1
62
256
6
ByLayer
370
-1
48
1
60
0
100
AcDbSpline
70
4
71
3
72
8
73
4
40
0
40
0
40
0
40
0
40
1
40
1
40
1
40
1
41
1
10
84.5411593546969
20
-9.20771081841602
30
0
41
1
10
84.8333389512586
20
-9.37629487634439
30
0
41
1
10
85.1255317965554
20
-9.54485614578195
30
0
41
1
10
85.41773591
20
-9.71339802366802
30
0
0
SPLINE
5
CB
100
AcDbEntity
8
1
62
256
6
ByLayer
370
-1
48
1
60
0
100
AcDbSpline
70
4
71
3
72
8
73
4
40
0
40
0
40
0
40
0
40
1
40
1
40
1
40
1
41
1
10
92.1286962915893
20
-10.1729007137963
30
0
41
1
10
89.8917073939791
20
-10.0197635960505
30
0
41
1
10
87.6547204993288
20
-9.86659748476427
30
0
41
1
10
85.41773591
20
-9.71339802366802
30
0
0
SPLINE
5
CC
100
AcDbEntity
8
1
62
256
6
ByLayer
370
-1
48
1
60
0
100
AcDbSpline
70
4
71
3
72
8
73
4
40
0
40
0
40
0
40
0
40
1
40
1
40
1
40
1
41
1
10
93.1300450865009
20
-10.2414462547381
30
0
41
1
10
92.7962621014435
20
-10.2185978446288
30
0
41
1
10
92.4624791601741
20
-10.1957488007077
30
0
41
1
10
92.1286962635945
20
-10.1728991099737
30
0
0
SPLINE
5
CD
100
AcDbEntity
8
1
62
256
6
ByLayer
370
-1
48
1
60
0
100
AcDbSpline
70
4
71
3
72
14
73
10
40
0
40
0
40
0
40
0
40
0.259230639649886
40
0.259230639649886
40
0.549610496714647
40
0.549610496714647
40
0.812428117144349
40
0.812428117144349
40
1
40
1
40
1
40
1
41
1
10
92.0355772714878
20
-5.07927551364901
30
0
41
1
10
92.0304800363923
20
-5.06159900191335
30
0
41
1
10
92.0282098062241
20
-5.04256140508892
30
0
41
1
10
92.0303984688222
20
-5.00197858092017
30
0
41
1
10
92.0357873950644
20
-4.97975688297652
30
0
41
1
10
92.0541086084565
20
-4.94038454902812
30
0
41
1
10
92.0665895410207
20
-4.92237173369517
30
0
41
1
10
92.0927638886749
20
-4.89611542817437
30
0
41
1
10
92.1053137388558
20
-4.88630283799716
30
0
41
1
10
92.1187901184862
20
-4.87823463567833
30
0
0
SPLINE
5
CE
100
AcDbEntity
8
1
62
256
6
ByLayer
370
-1
48
1
60
0
100
AcDbSpline
70
4
71
3
72
14
73
10
40
0
40
0
40
0
40
0
40
0.276342310782867
40
0.276342310782867
40
0.564579749594634
40
0.564579749594634
40
0.82565985131861
40
0.82565985131861
40
1
40
1
40
1
40
1
41
1
10
92.9314241841469
20
-4.88585215986339
30
0
41
1
10
92.945868238538
20
-4.87217071490727
30
0
41
1
10
92.9632467418908
20
-4.86045555434137
30
0
41
1
10
93.0024885187543
20
-4.84304111927761
30
0
41
1
10
93.0251458155957
20
-4.83738917367941
30
0
41
1
10
93.0693121688265
20
-4.8348352079658
30
0
41
1
10
93.0913977041389
20
-4.83715728023284
30
0
41
1
10
93.1263138339827
20
-4.84705642636405
30
0
41
1
10
93.1400658886437
20
-4.85269428829801
30
0
41
1
10
93.1528556567478
20
-4.85974284528626
30
0
0
SPLINE
5
CF
100
AcDbEntity
8
1
62
256
6
ByLayer
370
-1
48
1
60
0
100
AcDbSpline
70
4
71
3
72
16
73
12
40
0
40
0
40
0
40
0
40
0.0488801129219732
40
0.0488801129219732
40
0.273793415930187
40
0.273793415930187
40
0.50066906861831
40
0.50066906861831
40
0.741282316967029
40
0.741282316967029
40
1
40
1
40
1
40
1
41
1
10
92.1187901184862
20
-4.87823463567833
30
0
41
1
10
92.1223221787068
20
-4.87612001904955
30
0
41
1
10
92.1259275554459
20
-4.87411611018351
30
0
41
1
10
92.1463121052627
20
-4.8636275225893
30
0
41
1
10
92.1645577332292
20
-4.85743285081367
30
0
41
1
10
92.2012445976079
20
-4.85060992925366
30
0
41
1
10
92.2201518163312
20
-4.84992984048665
30
0
41
1
10
92.2572342912583
20
-4.85380679256042
30
0
41
1
10
92.2757633534474
20
-4.8587127940805
30
0
41
1
10
92.3105905298511
20
-4.8735993379841
30
0
41
1
10
92.3270480593586
20
-4.88409505476642
30
0
41
1
10
92.341018675827
20
-4.89641015111465
30
0
0
SPLINE
5
D0
100
AcDbEntity
8
1
62
256
6
ByLayer
370
-1
48
1
60
0
100
AcDbSpline
70
4
71
3
72
14
73
10
40
0
40
0
40
0
40
0
40
0.051562956696621
40
0.051562956696621
40
0.388178690582377
40
0.388178690582377
40
0.835826903853729
40
0.835826903853729
40
1
40
1
40
1
40
1
41
1
10
93.2777469830336
20
-5.34021007761413
30
0
41
1
10
93.2752477120521
20
-5.33538474892407
30
0
41
1
10
93.2728452917976
20
-5.33052254678003
30
0
41
1
10
93.2556406767171
20
-5.29397502538467
30
0
41
1
10
93.2449054444166
20
-5.2607806443248
30
0
41
1
10
93.2302258734541
20
-5.18529287502702
30
0
41
1
10
93.2292851301632
20
-5.14230820368624
30
0
41
1
10
93.2366095616408
20
-5.08715349738031
30
0
41
1
10
93.2394374677892
20
-5.07254388983759
30
0
41
1
10
93.2430598307507
20
-5.05827424319193
30
0
0
SPLINE
5
D1
100
AcDbEntity
8
1
62
256
6
ByLayer
370
-1
48
1
60
0
100
AcDbSpline
70
4
71
3
72
14
73
10
40
0
40
0
40
0
40
0
40
0.283614801219079
40
0.283614801219079
40
0.570381312872551
40
0.570381312872551
40
0.830198510171213
40
0.830198510171213
40
1
40
1
40
1
40
1
41
1
10
91.755554440005
20
-5.94883200217993
30
0
41
1
10
91.7350943612261
20
-5.94450137681605
30
0
41
1
10
91.7149163793912
20
-5.93637201066596
30
0
41
1
10
91.6785635846931
20
-5.9129359091672
30
0
41
1
10
91.6618959631174
20
-5.89715490693609
30
0
41
1
10
91.6370589139822
20
-5.86172176388757
30
0
41
1
10
91.6278947605772
20
-5.84201705119804
30
0
41
1
10
91.6190965874926
20
-5.80774697001286
30
0
41
1
10
91.6171755621654
20
-5.79350734905799
30
0
41
1
10
91.6169395400773
20
-5.77928372450958
30
0
0
SPLINE
5
D2
100
AcDbEntity
8
1
62
256
6
ByLayer
370
-1
48
1
60
0
100
AcDbSpline
70
4
71
3
72
12
73
8
40
0
40
0
40
0
40
0
40
0.460158569763755
40
0.460158569763755
40
0.842281442313356
40
0.842281442313356
40
1
40
1
40
1
40
1
41
1
10
91.755554440005
20
-5.9488320021799
30
0
41
1
10
91.7972233918599
20
-5.95765174435866
30
0
41
1
10
91.8386211382187
20
-5.97339881643265
30
0
41
1
10
91.9087485594524
20
-6.01535575192315
30
0
41
1
10
91.9391767577637
20
-6.03990826224015
30
0
41
1
10
91.9764704212849
20
-6.08100614372907
30
0
41
1
10
91.9867848530139
20
-6.09388408987869
30
0
41
1
10
91.9962893837703
20
-6.10740864707015
30
0
0
SPLINE
5
D3
100
AcDbEntity
8
1
62
256
6
ByLayer
370
-1
48
1
60
0
100
AcDbSpline
70
4
71
3
72
16
73
12
40
0
40
0
40
0
40
0
40
0.0611071136647595
40
0.0611071136647595
40
0.285668048372626
40
0.285668048372626
40
0.512883972493957
40
0.512883972493957
40
0.75439428107992
40
0.75439428107992
40
1
40
1
40
1
40
1
41
1
10
93.6866543890025
20
-5.74492646954835
30
0
41
1
10
93.6867394788125
20
-5.75005431805161
30
0
41
1
10
93.6866091563383
20
-5.75518243496248
30
0
41
1
10
93.6850078288752
20
-5.7788753427898
30
0
41
1
10
93.6807956787987
20
-5.7973418691403
30
0
41
1
10
93.667300892893
20
-5.83131335835074
30
0
41
1
10
93.6578007554764
20
-5.84721920223015
30
0
41
1
10
93.6344752966192
20
-5.87544828810098
30
0
41
1
10
93.6201389009969
20
-5.88784972748454
30
0
41
1
10
93.5890061576669
20
-5.90727500070196
30
0
41
1
10
93.5718487772079
20
-5.91444727586659
30
0
41
1
10
93.5543477625328
20
-5.91882904316344
30
0
0
SPLINE
5
D4
100
AcDbEntity
8
1
62
256
6
ByLayer
370
-1
48
1
60
0
100
AcDbSpline
70
4
71
3
72
16
73
12
40
0
40
0
40
0
40
0
40
0.0648933091675995
40
0.0648933091675995
40
0.289432009737179
40
0.289432009737179
40
0.516838589516401
40
0.516838589516401
40
0.758714713193395
40
0.758714713193395
40
1
40
1
40
1
40
1
41
1
10
91.6169395400773
20
-5.77928372450958
30
0
41
1
10
91.6168492275302
20
-5.7738411332173
30
0
41
1
10
91.6170013091109
20
-5.76837815109056
30
0
41
1
10
91.6187441746815
20
-5.74421907907643
30
0
41
1
10
91.6230425363322
20
-5.72541420270807
30
0
41
1
10
91.6366863005992
20
-5.69035465053807
30
0
41
1
10
91.6462553577448
20
-5.67368401194778
30
0
41
1
10
91.6697021691015
20
-5.64355123017219
30
0
41
1
10
91.6840934261719
20
-5.62997099794896
30
0
41
1
10
91.7150218987778
20
-5.60814267559024
30
0
41
1
10
91.7318653283701
20
-5.59962607994373
30
0
41
1
10
91.7490428741216
20
-5.59373453546863
30
0
0
SPLINE
5
D5
100
AcDbEntity
8
1
62
256
6
ByLayer
370
-1
48
1
60
0
100
AcDbSpline
70
4
71
3
72
14
73
10
40
0
40
0
40
0
40
0
40
0.0493086534204688
40
0.0493086534204688
40
0.386318415303233
40
0.386318415303233
40
0.833704430556809
40
0.833704430556809
40
1
40
1
40
1
40
1
41
1
10
92.0253512396528
20
-6.15560111618515
30
0
41
1
10
92.0277407361358
20
-6.160266770302
30
0
41
1
10
92.0300420081702
20
-6.16498097178916
30
0
41
1
10
92.0472269724548
20
-6.20195401523097
30
0
41
1
10
92.0580482349453
20
-6.23642270917887
30
0
41
1
10
92.0729153979678
20
-6.31588940503644
30
0
41
1
10
92.0739879256201
20
-6.3619717847684
30
0
41
1
10
92.0668281382485
20
-6.42211458819827
30
0
41
1
10
92.0639894836323
20
-6.43833215290937
30
0
41
1
10
92.0603298146754
20
-6.45423254818152
30
0
0
SPLINE
5
D6
100
AcDbEntity
8
1
62
256
6
ByLayer
370
-1
48
1
60
0
100
AcDbSpline
70
4
71
3
72
16
73
12
40
0
40
0
40
0
40
0
40
0.0609457940037486
40
0.0609457940037486
40
0.284889300125037
40
0.284889300125037
40
0.511480872561581
40
0.511480872561581
40
0.752327839535255
40
0.752327839535255
40
1
40
1
40
1
40
1
41
1
10
93.1528556567478
20
-4.85974284528626
30
0
41
1
10
93.1573602215678
20
-4.86222535173857
30
0
41
1
10
93.1617651247062
20
-4.86488956174387
30
0
41
1
10
93.181651589192
20
-4.87803978962015
30
0
41
1
10
93.195776577524
20
-4.89078686778126
30
0
41
1
10
93.2191028243026
20
-4.9190755141353
30
0
41
1
10
93.2285525967504
20
-4.9349998368038
30
0
41
1
10
93.2423451190862
20
-4.96869846827357
30
0
41
1
10
93.2465206625848
20
-4.98694140410848
30
0
41
1
10
93.2490961009179
20
-5.02301217157742
30
0
41
1
10
93.2473898150594
20
-5.0412170496632
30
0
41
1
10
93.2430598307507
20
-5.0582742431919
30
0
0
SPLINE
5
D7
100
AcDbEntity
8
1
62
256
6
ByLayer
370
-1
48
1
60
0
100
AcDbSpline
70
4
71
3
72
14
73
10
40
0
40
0
40
0
40
0
40
0.301703091384791
40
0.301703091384791
40
0.59470404897895
40
0.59470404897895
40
0.852585008004008
40
0.852585008004008
40
1
40
1
40
1
40
1
41
1
10
93.2678133651635
20
-6.43328806498405
30
0
41
1
10
93.2737612332429
20
-6.45577063542589
30
0
41
1
10
93.2758871695875
20
-6.48005080286219
30
0
41
1
10
93.271141576473
20
-6.52724998036516
30
0
41
1
10
93.264384933385
20
-6.5509425967953
30
0
41
1
10
93.2436923322792
20
-6.59129967429814
30
0
41
1
10
93.2303708736529
20
-6.60905289908092
30
0
41
1
10
93.2054545478098
20
-6.63209323965813
30
0
41
1
10
93.1954227934613
20
-6.63961805699219
30
0
41
1
10
93.1848038105936
20
-6.64597555837952
30
0
0
SPLINE
5
D8
100
AcDbEntity
8
1
62
256
6
ByLayer
370
-1
48
1
60
0
100
AcDbSpline
70
4
71
3
72
18
73
14
40
0
40
0
40
0
40
0
40
0.210870738018826
40
0.210870738018826
40
0.386917431535127
40
0.386917431535127
40
0.564631962210269
40
0.564631962210269
40
0.719636155410018
40
0.719636155410018
40
0.925424798985839
40
0.925424798985839
40
1
40
1
40
1
40
1
41
1
10
92.3719664525044
20
-6.62671141876967
30
0
41
1
10
92.402007374062
20
-6.59441063676942
30
0
41
1
10
92.437775446438
20
-6.56583253058065
30
0
41
1
10
92.5113713568686
20
-6.52506974882201
30
0
41
1
10
92.5487652593079
20
-6.51059391958435
30
0
41
1
10
92.6268507033475
20
-6.49352474914735
30
0
41
1
10
92.6687452315149
20
-6.49092051680341
30
0
41
1
10
92.7441870423534
20
-6.49804937196981
30
0
41
1
10
92.7790209084391
20
-6.5062711417051
30
0
41
1
10
92.8538166434047
20
-6.53421228064812
30
0
41
1
10
92.8930669674934
20
-6.55714093420215
30
0
41
1
10
92.9394116518256
20
-6.59437169329553
30
0
41
1
10
92.9512251311392
20
-6.60499554319023
30
0
41
1
10
92.9623719608243
20
-6.61615342751838
30
0
0
SPLINE
5
D9
100
AcDbEntity
8
1
62
256
6
ByLayer
370
-1
48
1
60
0
100
AcDbSpline
70
4
71
3
72
16
73
12
40
0
40
0
40
0
40
0
40
0.0662000146371574
40
0.0662000146371574
40
0.290102990323206
40
0.290102990323206
40
0.51694933531132
40
0.51694933531132
40
0.758293439682581
40
0.758293439682581
40
1
40
1
40
1
40
1
41
1
10
92.150738272332
20
-6.66446734877161
30
0
41
1
10
92.1458488418873
20
-6.66177273938936
30
0
41
1
10
92.141076049653
20
-6.6588430650977
30
0
41
1
10
92.1209266012035
20
-6.64514109828448
30
0
41
1
10
92.1068986568541
20
-6.63193290441811
30
0
41
1
10
92.0837591805159
20
-6.60232735585225
30
0
41
1
10
92.0744083708222
20
-6.58552299260765
30
0
41
1
10
92.0608161118197
20
-6.54969793059774
30
0
41
1
10
92.0567503212602
20
-6.53016300942261
30
0
41
1
10
92.0544276559043
20
-6.49176070937472
30
0
41
1
10
92.0561284074799
20
-6.47248666785592
30
0
41
1
10
92.0603298146754
20
-6.45423254818152
30
0
0
SPLINE
5
DA
100
AcDbEntity
8
1
62
256
6
ByLayer
370
-1
48
1
60
0
100
AcDbSpline
70
4
71
3
72
14
73
10
40
0
40
0
40
0
40
0
40
0.278387084358987
40
0.278387084358987
40
0.565807546168706
40
0.565807546168706
40
0.826147525158246
40
0.826147525158246
40
1
40
1
40
1
40
1
41
1
10
93.547835205421
20
-5.56367478919356
30
0
41
1
10
93.5679513332336
20
-5.56976186927832
30
0
41
1
10
93.5877883438112
20
-5.57941550462496
30
0
41
1
10
93.6240400627084
20
-5.60550776903517
30
0
41
1
10
93.6408638556754
20
-5.62259787267658
30
0
41
1
10
93.665996489989
20
-5.65996706527747
30
0
41
1
10
93.6753062225341
20
-5.68037843884863
30
0
41
1
10
93.6844009781466
20
-5.7156406256891
30
0
41
1
10
93.6864127581239
20
-5.73036483709723
30
0
41
1
10
93.6866543890025
20
-5.74492646954835
30
0
0
SPLINE
5
DB
100
AcDbEntity
8
1
62
256
6
ByLayer
370
-1
48
1
60
0
100
AcDbSpline
70
4
71
3
72
18
73
14
40
0
40
0
40
0
40
0
40
0.096474163644627
40
0.096474163644627
40
0.295356163235729
40
0.295356163235729
40
0.457956434862664
40
0.457956434862664
40
0.621234851740899
40
0.621234851740899
40
0.776114679624705
40
0.776114679624705
40
1
40
1
40
1
40
1
41
1
10
92.0355772714878
20
-5.07927551364898
30
0
41
1
10
92.0407754291917
20
-5.09730201113939
30
0
41
1
10
92.0447041104123
20
-5.11593388016954
30
0
41
1
10
92.0524307347919
20
-5.17416815839641
30
0
41
1
10
92.0517067554332
20
-5.21597534083037
30
0
41
1
10
92.037691035064
20
-5.29218486868618
30
0
41
1
10
92.0264634192574
20
-5.32738519735082
30
0
41
1
10
91.9948993221075
20
-5.39414137253888
30
0
41
1
10
91.9740886233826
20
-5.42652298862618
30
0
41
1
10
91.9276454389435
20
-5.48215020263726
30
0
41
1
10
91.9018244175448
20
-5.50646889350111
30
0
41
1
10
91.8355539687439
20
-5.55639415896098
30
0
41
1
10
91.7925602115724
20
-5.57880898482492
30
0
41
1
10
91.7490428741216
20
-5.59373453546866
30
0
0
SPLINE
5
DC
100
AcDbEntity
8
1
62
256
6
ByLayer
370
-1
48
1
60
0
100
AcDbSpline
70
4
71
3
72
16
73
12
40
0
40
0
40
0
40
0
40
0.0860651575574517
40
0.0860651575574517
40
0.310457077124724
40
0.310457077124724
40
0.538896270517409
40
0.538896270517409
40
0.782768861429712
40
0.782768861429712
40
1
40
1
40
1
40
1
41
1
10
93.1848038105936
20
-6.64597555837952
30
0
41
1
10
93.1786079484855
20
-6.64968497221309
30
0
41
1
10
93.1721796514894
20
-6.65302127945549
30
0
41
1
10
93.1485250775456
20
-6.66353085437984
30
0
41
1
10
93.1300959052439
20
-6.66840058518903
30
0
41
1
10
93.0931921192043
20
-6.67224353693783
30
0
41
1
10
93.0742556945385
20
-6.67117335128791
30
0
41
1
10
93.0372686794007
20
-6.66342615150671
30
0
41
1
10
93.0188975150259
20
-6.65629862328942
30
0
41
1
10
92.9876731627401
20
-6.63839138223989
30
0
41
1
10
92.9741578289425
20
-6.62795098403305
30
0
41
1
10
92.9623719608243
20
-6.61615342751841
30
0
0
SPLINE
5
DD
100
AcDbEntity
8
1
62
256
6
ByLayer
370
-1
48
1
60
0
100
AcDbSpline
70
4
71
3
72
18
73
14
40
0
40
0
40
0
40
0
40
0.213121548068194
40
0.213121548068194
40
0.388776754194142
40
0.388776754194142
40
0.56607339165994
40
0.56607339165994
40
0.721003653986119
40
0.721003653986119
40
0.92719412113776
40
0.92719412113776
40
1
40
1
40
1
40
1
41
1
10
92.931424184147
20
-4.88585215986342
30
0
41
1
10
92.9009952052667
20
-4.91467456584107
30
0
41
1
10
92.864711008684
20
-4.93992149684232
30
0
41
1
10
92.7904834078405
20
-4.97538398842468
30
0
41
1
10
92.7530694263799
20
-4.98778481411807
30
0
41
1
10
92.6750425993311
20
-5.00238006981138
30
0
41
1
10
92.6332348599399
20
-5.00459852982735
30
0
41
1
10
92.5579541940518
20
-4.99853032608618
30
0
41
1
10
92.5231930429628
20
-4.99150765158498
30
0
41
1
10
92.4484905397997
20
-4.96742576487935
30
0
41
1
10
92.4092912635684
20
-4.94752072943734
30
0
41
1
10
92.3633711618128
20
-4.91507645903326
30
0
41
1
10
92.3518772041433
20
-4.90598194221755
30
0
41
1
10
92.341018675827
20
-4.89641015111468
30
0
0
SPLINE
5
DE
100
AcDbEntity
8
1
62
256
6
ByLayer
370
-1
48
1
60
0
100
AcDbSpline
70
4
71
3
72
14
73
10
40
0
40
0
40
0
40
0
40
0.283641212899639
40
0.283641212899639
40
0.570964912707757
40
0.570964912707757
40
0.83131538820668
40
0.83131538820668
40
1
40
1
40
1
40
1
41
1
10
92.3719664525044
20
-6.62671141876973
30
0
41
1
10
92.357174614296
20
-6.642615988822
30
0
41
1
10
92.3392795255265
20
-6.65636030927894
30
0
41
1
10
92.2994286278888
20
-6.67674505837542
30
0
41
1
10
92.2767894749474
20
-6.68356989399035
30
0
41
1
10
92.2327246542434
20
-6.68777189373367
30
0
41
1
10
92.2107181247899
20
-6.68600126783645
30
0
41
1
10
92.176386085949
20
-6.67665396232084
30
0
41
1
10
92.1631147633004
20
-6.67128814498895
30
0
41
1
10
92.150738272332
20
-6.66446734877161
30
0
0
SPLINE
5
DF
100
AcDbEntity
8
1
62
256
6
ByLayer
370
-1
48
1
60
0
100
AcDbSpline
70
4
71
3
72
18
73
14
40
0
40
0
40
0
40
0
40
0.206325044189663
40
0.206325044189663
40
0.383167313097864
40
0.383167313097864
40
0.561730517999409
40
0.561730517999409
40
0.716893739681569
40
0.716893739681569
40
0.921878328235647
40
0.921878328235647
40
1
40
1
40
1
40
1
41
1
10
93.2678133651635
20
-6.43328806498405
30
0
41
1
10
93.2566696099585
20
-6.39116536521379
30
0
41
1
10
93.2512777182234
20
-6.34617159178435
30
0
41
1
10
93.2543666544108
20
-6.26183337681275
30
0
41
1
10
93.261113608424
20
-6.22164845760676
30
0
41
1
10
93.2859828571627
20
-6.14471134988889
30
0
41
1
10
93.3046978094254
20
-6.10690487518369
30
0
41
1
10
93.3480001098255
20
-6.04528439356849
30
0
41
1
10
93.371969752732
20
-6.01951234544921
30
0
41
1
10
93.4316979318443
20
-5.96979257303099
30
0
41
1
10
93.4697042201223
20
-5.94809687682314
30
0
41
1
10
93.5236871411943
20
-5.92747118344082
30
0
41
1
10
93.5389545803407
20
-5.92268306783427
30
0
41
1
10
93.5543477625328
20
-5.91882904316336
30
0
0
SPLINE
5
E0
100
AcDbEntity
8
1
62
256
6
ByLayer
370
-1
48
1
60
0
100
AcDbSpline
70
4
71
3
72
12
73
8
40
0
40
0
40
0
40
0
40
0.463708075365743
40
0.463708075365743
40
0.845238321892647
40
0.845238321892647
40
1
40
1
40
1
40
1
41
1
10
93.5478352054211
20
-5.56367478919356
30
0
41
1
10
93.5057795726798
20
-5.55094888056462
30
0
41
1
10
93.4639970360536
20
-5.53140613482276
30
0
41
1
10
93.3936123709307
20
-5.48381946144517
30
0
41
1
10
93.3632458119901
20
-5.45728589194041
30
0
41
1
10
93.3262515084554
20
-5.41480923728469
30
0
41
1
10
93.3161392042842
20
-5.40184390247566
30
0
41
1
10
93.3068088389161
20
-5.38840254672937
30
0
0
SPLINE
5
E1
100
AcDbEntity
8
SK1
62
256
6
ByLayer
370
-1
48
1
60
0
100
AcDbSpline
70
4
71
3
72
24
73
20
40
0
40
0
40
0
40
0
40
0.249999999999995
40
0.249999999999995
40
0.374999999999993
40
0.374999999999993
40
0.437499999999996
40
0.437499999999996
40
0.499999999999999
40
0.499999999999999
40
0.531250000000004
40
0.531250000000004
40
0.562500000000009
40
0.562500000000009
40
0.62500000000001
40
0.62500000000001
40
0.750000000000004
40
0.750000000000004
40
1
40
1
40
1
40
1
41
1
10
-32.09
20
0.208217351629059
30
0
41
1
10
-32.4988420209809
20
0.208217351629059
30
0
41
1
10
-32.9075700421796
20
0.200628106757222
30
0
41
1
10
-33.5201123303113
20
0.171073275450823
30
0
41
1
10
-33.723960835833
20
0.158342940298155
30
0
41
1
10
-34.0285633625019
20
0.129106778533128
30
0
41
1
10
-34.1299152849477
20
0.117782088577599
30
0
41
1
10
-34.3316559370228
20
0.0867855292195827
30
0
41
1
10
-34.4476642593234
20
0.0899171685781255
30
0
41
1
10
-34.5669313789905
20
-0.0136458934178734
30
0
41
1
10
-34.4784711277951
20
-0.0489364234134655
30
0
41
1
10
-34.3778903856424
20
-0.0766629766364701
30
0
41
1
10
-34.3266456087825
20
-0.0864424784147104
30
0
41
1
10
-34.1721535471284
20
-0.112538835792264
30
0
41
1
10
-34.0685119130175
20
-0.124684589520342
30
0
41
1
10
-33.7573848627505
20
-0.156042093009745
30
0
41
1
10
-33.549279040374
20
-0.169368026065086
30
0
41
1
10
-32.9242101016124
20
-0.20037077189474
30
0
41
1
10
-32.5071903882065
20
-0.208217351629059
30
0
41
1
10
-32.09
20
-0.208217351629059
30
0
0
LINE
5
49
100
AcDbEntity
8
80
62
256
6
ByLayer
370
-1
48
1
60
0
100
AcDbLine
10
0
20
0
30
0
11
-10
21
0
31
0
39
0
210
0
220
0
230
1
0
LINE
5
4A
100
AcDbEntity
8
81
62
256
6
ByLayer
370
-1
48
1
60
0
100
AcDbLine
10
95.91
20
-10.9
30
0
11
105.91
21
-10.9
31
0
39
0
210
0
220
0
230
1
0
LINE
5
4B
100
AcDbEntity
8
SK1
62
256
6
ByLayer
370
-1
48
1
60
0
100
AcDbLine
10
-104.84
20
7.9925
30
0
11
-105.34
21
7.4925
31
0
39
0
210
0
220
0
230
1
0
LINE
5
4D
100
AcDbEntity
8
SK1
62
256
6
ByLayer
370
-1
48
1
60
0
100
AcDbLine
10
-105.34
20
-7.4925
30
0
11
-104.84
21
-7.9925
31
0
39
0
210
0
220
0
230
1
0
LINE
5
4E
100
AcDbEntity
8
SK1
62
256
6
ByLayer
370
-1
48
1
60
0
100
AcDbLine
10
-104.84
20
-7.9925
30
0
11
0
21
-7.9925
31
0
39
0
210
0
220
0
230
1
0
LINE
5
4F
100
AcDbEntity
8
SK1
62
256
6
ByLayer
370
-1
48
1
60
0
100
AcDbLine
10
0
20
7.9925
30
0
11
-104.84
21
7.9925
31
0
39
0
210
0
220
0
230
1
0
LINE
5
50
100
AcDbEntity
8
1
62
256
6
ByLayer
370
-1
48
1
60
0
100
AcDbLine
10
92.050537
20
-5.179405
30
0
11
92.049213
21
-5.103534
31
0
39
0
210
0
220
0
230
1
0
LINE
5
51
100
AcDbEntity
8
1
62
256
6
ByLayer
370
-1
48
1
60
0
100
AcDbLine
10
93.230023
20
-5.084091
30
0
11
93.231346
21
-5.159908
31
0
39
0
210
0
220
0
230
1
0
LINE
5
52
100
AcDbEntity
8
1
62
256
6
ByLayer
370
-1
48
1
60
0
100
AcDbLine
10
90.925713
20
-5.715086
30
0
11
90.9268
21
-5.777306
31
0
39
0
210
0
220
0
230
1
0
LINE
5
53
100
AcDbEntity
8
1
62
256
6
ByLayer
370
-1
48
1
60
0
100
AcDbLine
10
94.376274
20
-5.717095
30
0
11
94.375188
21
-5.654875
31
0
39
0
210
0
220
0
230
1
0
LINE
5
54
100
AcDbEntity
8
1
62
256
6
ByLayer
370
-1
48
1
60
0
100
AcDbLine
10
93.251389
20
-6.249288
30
0
11
93.252712
21
-6.325053
31
0
39
0
210
0
220
0
230
1
0
LINE
5
55
100
AcDbEntity
8
1
62
256
6
ByLayer
370
-1
48
1
60
0
100
AcDbLine
10
92.071903
20
-6.344546
30
0
11
92.070579
21
-6.26873
31
0
39
0
210
0
220
0
230
1
0
LINE
5
56
100
AcDbEntity
8
1
62
256
6
ByLayer
370
-1
48
1
60
0
100
AcDbLine
10
80.522519
20
8.0425
30
0
11
62.66
21
8.0425
31
0
39
0
210
0
220
0
230
1
0
LINE
5
57
100
AcDbEntity
8
1
62
256
6
ByLayer
370
-1
48
1
60
0
100
AcDbLine
10
62.66
20
-8.0425
30
0
11
82.522519
21
-8.0425
31
0
39
0
210
0
220
0
230
1
0
LINE
5
58
100
AcDbEntity
8
1
62
256
6
ByLayer
370
-1
48
1
60
0
100
AcDbLine
10
0
20
-7.9925
30
0
11
62.66
21
-7.9925
31
0
39
0
210
0
220
0
230
1
0
LINE
5
59
100
AcDbEntity
8
1
62
256
6
ByLayer
370
-1
48
1
60
0
100
AcDbLine
10
62.66
20
7.9925
30
0
11
0
21
7.9925
31
0
39
0
210
0
220
0
230
1
0
LINE
5
5A
100
AcDbEntity
8
1
62
256
6
ByLayer
370
-1
48
1
60
0
100
AcDbLine
10
82.522519
20
-8.0425
30
0
11
83.825637
21
-8.794856
31
0
39
0
210
0
220
0
230
1
0
LINE
5
5B
100
AcDbEntity
8
SK4
62
256
6
ByLayer
370
-1
48
0.05
60
0
100
AcDbLine
10
-110.34
20
0
30
0
11
100.234616
21
0
31
0
39
0
210
0
220
0
230
1
0
LINE
5
5D
100
AcDbEntity
8
4
62
256
6
ByLayer
370
-1
48
0.05
60
0
100
AcDbLine
10
0
20
0
30
0
11
100.234616
21
0
31
0
39
0
210
0
220
0
230
1
0
LINE
5
5F
100
AcDbEntity
8
1
62
256
6
ByLayer
370
-1
48
1
60
0
100
AcDbLine
10
88.87255
20
-7.695913
30
0
11
88.87255
21
-7.695905
31
0
39
0
210
0
220
0
230
1
0
LINE
5
60
100
AcDbEntity
8
1
62
256
6
ByLayer
370
-1
48
1
60
0
100
AcDbLine
10
95.234616
20
0.045211
30
0
11
87.148198
21
-4.796063
31
0
39
0
210
0
220
0
230
1
0
LINE
5
61
100
AcDbEntity
8
1
62
256
6
ByLayer
370
-1
48
1
60
0
100
AcDbLine
10
0
20
0.208217
30
0
11
62.66
21
0.208217
31
0
39
0
210
0
220
0
230
1
0
LINE
5
62
100
AcDbEntity
8
1
62
256
6
ByLayer
370
-1
48
1
60
0
100
AcDbLine
10
0
20
-7.9925
30
0
11
0
21
-0.208217
31
0
39
0
210
0
220
0
230
1
0
LINE
5
63
100
AcDbEntity
8
1
62
256
6
ByLayer
370
-1
48
1
60
0
100
AcDbLine
10
0
20
0.208217
30
0
11
0
21
7.9925
31
0
39
0
210
0
220
0
230
1
0
LINE
5
64
100
AcDbEntity
8
1
62
256
6
ByLayer
370
-1
48
1
60
0
100
AcDbLine
10
93.130045
20
-10.241446
30
0
11
93.119457
21
-9.634858
31
0
39
0
210
0
220
0
230
1
0
LINE
5
65
100
AcDbEntity
8
1
62
256
6
ByLayer
370
-1
48
1
60
0
100
AcDbLine
10
95.234616
20
1.027011
30
0
11
95.234616
21
0.045211
31
0
39
0
210
0
220
0
230
1
0
LINE
5
66
100
AcDbEntity
8
1
62
256
6
ByLayer
370
-1
48
1
60
0
100
AcDbLine
10
81.864939
20
7.402365
30
0
11
88.196176
21
4.383303
31
0
39
0
210
0
220
0
230
1
0
LINE
5
67
100
AcDbEntity
8
1
62
256
6
ByLayer
370
-1
48
1
60
0
100
AcDbLine
10
92.118576
20
-9.593089
30
0
11
92.118575
21
-9.59308
31
0
39
0
210
0
220
0
230
1
0
LINE
5
68
100
AcDbEntity
8
1
62
256
6
ByLayer
370
-1
48
1
60
0
100
AcDbLine
10
84.541159
20
-9.207711
30
0
11
88.196176
21
4.383303
31
0
39
0
210
0
220
0
230
1
0
LINE
5
69
100
AcDbEntity
8
1
62
256
6
ByLayer
370
-1
48
1
60
0
100
AcDbLine
10
95.234616
20
-0.535928
30
0
11
95.234616
21
-0.53818
31
0
39
0
210
0
220
0
230
1
0
LINE
5
6A
100
AcDbEntity
8
1
62
256
6
ByLayer
370
-1
48
1
60
0
100
AcDbLine
10
87.049913
20
-6.846332
30
0
11
87.054326
21
-7.099139
31
0
39
0
210
0
220
0
230
1
0
LINE
5
6B
100
AcDbEntity
8
1
62
256
6
ByLayer
370
-1
48
1
60
0
100
AcDbLine
10
95.234616
20
0.04522
30
0
11
95.234616
21
-0.535928
31
0
39
0
210
0
220
0
230
1
0
LINE
5
6C
100
AcDbEntity
8
1
62
256
6
ByLayer
370
-1
48
1
60
0
100
AcDbLine
10
74.295883
20
0.306445
30
0
11
62.66
21
0.306445
31
0
39
0
210
0
220
0
230
1
0
LINE
5
6D
100
AcDbEntity
8
1
62
256
6
ByLayer
370
-1
48
1
60
0
100
AcDbLine
10
86.945063
20
-6.626158
30
0
11
86.949476
21
-6.878965
31
0
39
0
210
0
220
0
230
1
0
LINE
5
6E
100
AcDbEntity
8
1
62
256
6
ByLayer
370
-1
48
1
60
0
100
AcDbLine
10
62.66
20
-0.208217
30
0
11
0
21
-0.208217
31
0
39
0
210
0
220
0
230
1
0
LINE
5
6F
100
AcDbEntity
8
1
62
256
6
ByLayer
370
-1
48
1
60
0
100
AcDbLine
10
92.118576
20
-9.593089
30
0
11
88.765115
21
-7.760234
31
0
39
0
210
0
220
0
230
1
0
LINE
5
70
100
AcDbEntity
8
1
62
256
6
ByLayer
370
-1
48
1
60
0
100
AcDbLine
10
87.15291
20
-7.017128
30
0
11
87.157323
21
-7.269935
31
0
39
0
210
0
220
0
230
1
0
LINE
5
71
100
AcDbEntity
8
1
62
256
6
ByLayer
370
-1
48
1
60
0
100
AcDbLine
10
80.522519
20
8.0425
30
0
11
81.864939
21
7.402365
31
0
39
0
210
0
220
0
230
1
0
LINE
5
72
100
AcDbEntity
8
1
62
256
6
ByLayer
370
-1
48
1
60
0
100
AcDbLine
10
0
20
-0.208217
30
0
11
0
21
0.208217
31
0
39
0
210
0
220
0
230
1
0
LINE
5
73
100
AcDbEntity
8
1
62
256
6
ByLayer
370
-1
48
1
60
0
100
AcDbLine
10
82.522519
20
-8.0425
30
0
11
82.522519
21
-8.039675
31
0
39
0
210
0
220
0
230
1
0
LINE
5
74
100
AcDbEntity
8
1
62
256
6
ByLayer
370
-1
48
1
60
0
100
AcDbLine
10
62.66
20
-0.208217
30
0
11
62.66
21
-0.306445
31
0
39
0
210
0
220
0
230
1
0
LINE
5
75
100
AcDbEntity
8
1
62
256
6
ByLayer
370
-1
48
1
60
0
100
AcDbLine
10
87.054326
20
-7.099139
30
0
11
87.157323
21
-7.269935
31
0
39
0
210
0
220
0
230
1
0
LINE
5
76
100
AcDbEntity
8
1
62
256
6
ByLayer
370
-1
48
1
60
0
100
AcDbLine
10
87.049913
20
-6.846332
30
0
11
87.15291
21
-7.017128
31
0
39
0
210
0
220
0
230
1
0
LINE
5
77
100
AcDbEntity
8
1
62
256
6
ByLayer
370
-1
48
1
60
0
100
AcDbLine
10
88.868137
20
-7.443107
30
0
11
88.87255
21
-7.695905
31
0
39
0
210
0
220
0
230
1
0
LINE
5
78
100
AcDbEntity
8
1
62
256
6
ByLayer
370
-1
48
1
60
0
100
AcDbLine
10
88.765115
20
-7.760225
30
0
11
92.118575
21
-9.59308
31
0
39
0
210
0
220
0
230
1
0
LINE
5
79
100
AcDbEntity
8
1
62
256
6
ByLayer
370
-1
48
1
60
0
100
AcDbLine
10
89.003637
20
-7.361984
30
0
11
88.868137
21
-7.443107
31
0
39
0
210
0
220
0
230
1
0
LINE
5
7A
100
AcDbEntity
8
1
62
256
6
ByLayer
370
-1
48
1
60
0
100
AcDbLine
10
62.66
20
-0.306445
30
0
11
74.101311
21
-0.306445
31
0
39
0
210
0
220
0
230
1
0
LINE
5
7B
100
AcDbEntity
8
1
62
256
6
ByLayer
370
-1
48
1
60
0
100
AcDbLine
10
88.87255
20
-7.695913
30
0
11
88.765115
21
-7.760234
31
0
39
0
210
0
220
0
230
1
0
LINE
5
7C
100
AcDbEntity
8
1
62
256
6
ByLayer
370
-1
48
1
60
0
100
AcDbLine
10
92.118576
20
-9.593089
30
0
11
92.128696
21
-10.172901
31
0
39
0
210
0
220
0
230
1
0
LINE
5
7D
100
AcDbEntity
8
1
62
256
6
ByLayer
370
-1
48
1
60
0
100
AcDbLine
10
88.196176
20
4.383303
30
0
11
95.234616
21
1.027011
31
0
39
0
210
0
220
0
230
1
0
LINE
5
7E
100
AcDbEntity
8
1
62
256
6
ByLayer
370
-1
48
1
60
0
100
AcDbLine
10
89.225572
20
-7.484553
30
0
11
88.87255
21
-7.695905
31
0
39
0
210
0
220
0
230
1
0
LINE
5
7F
100
AcDbEntity
8
1
62
256
6
ByLayer
370
-1
48
1
60
0
100
AcDbLine
10
95.226987
20
-0.540496
30
0
11
95.234616
21
-0.535928
31
0
39
0
210
0
220
0
230
1
0
LINE
5
80
100
AcDbEntity
8
1
62
256
6
ByLayer
370
-1
48
1
60
0
100
AcDbLine
10
62.66
20
0.306445
30
0
11
62.66
21
8.0425
31
0
39
0
210
0
220
0
230
1
0
LINE
5
81
100
AcDbEntity
8
1
62
256
6
ByLayer
370
-1
48
1
60
0
100
AcDbLine
10
62.66
20
-8.0425
30
0
11
62.66
21
-0.306445
31
0
39
0
210
0
220
0
230
1
0
LINE
5
82
100
AcDbEntity
8
1
62
256
6
ByLayer
370
-1
48
1
60
0
100
AcDbLine
10
62.66
20
0.306445
30
0
11
62.66
21
0.208217
31
0
39
0
210
0
220
0
230
1
0
LINE
5
83
100
AcDbEntity
8
1
62
256
6
ByLayer
370
-1
48
1
60
0
100
AcDbLine
10
95.742601
20
-0.910823
30
0
11
95.90994
21
-10.497658
31
0
39
0
210
0
220
0
230
1
0
LINE
5
84
100
AcDbEntity
8
1
62
256
6
ByLayer
370
-1
48
1
60
0
100
AcDbLine
10
86.891967
20
-5.517698
30
0
11
95.141403
21
-0.578826
31
0
39
0
210
0
220
0
230
1
0
LINE
5
85
100
AcDbEntity
8
1
62
256
6
ByLayer
370
-1
48
1
60
0
100
AcDbLine
10
95.320695
20
-10.850435
30
0
11
86.90392
21
-6.202472
31
0
39
0
210
0
220
0
230
1
0
LINE
5
86
100
AcDbEntity
8
1
62
256
6
ByLayer
370
-1
48
1
60
0
100
AcDbLine
10
93.552954
20
-5.838958
30
0
11
93.554348
21
-5.918829
31
0
39
0
210
0
220
0
230
1
0
LINE
5
87
100
AcDbEntity
8
1
62
256
6
ByLayer
370
-1
48
1
60
0
100
AcDbLine
10
91.996289
20
-6.107409
30
0
11
91.995041
21
-6.035914
31
0
39
0
210
0
220
0
230
1
0
LINE
5
88
100
AcDbEntity
8
1
62
256
6
ByLayer
370
-1
48
1
60
0
100
AcDbLine
10
91.754161
20
-5.868989
30
0
11
91.755554
21
-5.948832
31
0
39
0
210
0
220
0
230
1
0
LINE
5
89
100
AcDbEntity
8
1
62
256
6
ByLayer
370
-1
48
1
60
0
100
AcDbLine
10
92.370572
20
-6.54684
30
0
11
92.371966
21
-6.626711
31
0
39
0
210
0
220
0
230
1
0
LINE
5
8A
100
AcDbEntity
8
1
62
256
6
ByLayer
370
-1
48
1
60
0
100
AcDbLine
10
92.960978
20
-6.536282
30
0
11
92.962372
21
-6.616153
31
0
39
0
210
0
220
0
230
1
0
LINE
5
8B
100
AcDbEntity
8
1
62
256
6
ByLayer
370
-1
48
1
60
0
100
AcDbLine
10
93.241666
20
-4.978432
30
0
11
93.24306
21
-5.058274
31
0
39
0
210
0
220
0
230
1
0
LINE
5
8C
100
AcDbEntity
8
1
62
256
6
ByLayer
370
-1
48
1
60
0
100
AcDbLine
10
92.024103
20
-6.084106
30
0
11
92.025351
21
-6.155601
31
0
39
0
210
0
220
0
230
1
0
LINE
5
8D
100
AcDbEntity
8
1
62
256
6
ByLayer
370
-1
48
1
60
0
100
AcDbLine
10
92.034183
20
-4.999405
30
0
11
92.035577
21
-5.079276
31
0
39
0
210
0
220
0
230
1
0
LINE
5
8E
100
AcDbEntity
8
SK1
62
256
6
ByLayer
370
-1
48
1
60
0
100
AcDbLine
10
0
20
-0.208217
30
0
11
0
21
0.208217
31
0
39
0
210
0
220
0
230
1
0
LINE
5
8F
100
AcDbEntity
8
SK1
62
256
6
ByLayer
370
-1
48
1
60
0
100
AcDbLine
10
-32.09
20
0.208217
30
0
11
-32.09
21
-0.208217
31
0
39
0
210
0
220
0
230
1
0
LINE
5
90
100
AcDbEntity
8
SK1
62
256
6
ByLayer
370
-1
48
1
60
0
100
AcDbLine
10
-32.09
20
0.208217
30
0
11
0
21
0.208217
31
0
39
0
210
0
220
0
230
1
0
LINE
5
91
100
AcDbEntity
8
SK1
62
256
6
ByLayer
370
-1
48
1
60
0
100
AcDbLine
10
0
20
-7.9925
30
0
11
0
21
-0.208217
31
0
39
0
210
0
220
0
230
1
0
LINE
5
92
100
AcDbEntity
8
SK1
62
256
6
ByLayer
370
-1
48
1
60
0
100
AcDbLine
10
0
20
0.208217
30
0
11
0
21
7.9925
31
0
39
0
210
0
220
0
230
1
0
LINE
5
93
100
AcDbEntity
8
SK1
62
256
6
ByLayer
370
-1
48
1
60
0
100
AcDbLine
10
0
20
-0.208217
30
0
11
-32.09
21
-0.208217
31
0
39
0
210
0
220
0
230
1
0
LINE
5
94
100
AcDbEntity
8
SK1
62
256
6
ByLayer
370
-1
48
1
60
0
100
AcDbLine
10
-105.34
20
7.4925
30
0
11
-105.34
21
-7.4925
31
0
39
0
210
0
220
0
230
1
0
LINE
5
95
100
AcDbEntity
8
SK1
62
256
6
ByLayer
370
-1
48
1
60
0
100
AcDbLine
10
-104.84
20
7.9925
30
0
11
-104.84
21
-7.9925
31
0
39
0
210
0
220
0
230
1
0
LINE
5
96
100
AcDbEntity
8
2
62
256
6
ByLayer
370
-1
48
1
60
1
100
AcDbLine
10
95.91
20
0
30
0
11
95.911
21
0.001
31
0
39
0
210
0
220
0
230
1
0
MTEXT
5
E2
100
AcDbEntity
8
SK6
62
256
6
ByLayer
370
-1
48
1
60
0
100
AcDbMText
10
-1.34
20
15.559187
30
0
210
0
220
0
230
1
1
\W00.718;\fsimplex.shx,bigfont.shx;E16R-STFCL 11-RB1 
40
3.5
41
0
44
1.084337
50
0
71
7
72
5
7
DEFAULT
0
DIMENSION
5
115
100
AcDbEntity
8
2
62
256
6
ByLayer
370
-3
48
1
60
0
100
AcDbDimension
2
DimnDraft3D1
10
108.16
20
0
30
0
11
108.16
21
-29.231316
31
0
70
32
71
5
72
1
41
1
210
0
220
0
230
1
3
Standard
100
AcDbAlignedDimension
13
97.91
23
-10.9
33
0
14
97.91
24
0
34
0
50
90
100
AcDbRotatedDimension
1001
ACAD
1000
DSTYLE
1002
{
1070
    74
1070
     0
1070
   279
1070
     0
1070
   172
1070
     1
1070
   173
1070
     1
1070
   340
1005
E3
1070
    77
1070
     1
1070
    73
1070
     0
1070
   171
1070
     4
1070
   274
1070
     4
1070
   177
1070
     2
1070
   176
1070
     2
1070
   178
1070
     7
1070
    78
1070
     8
1070
    41
1041
3.175
1070
   147
1041
2.25
1070
    42
1041
2.0
1070
    44
1041
2.0
1070
   140
1041
4.5
1070
   343
1005
116
1070
   344
1005
116
1002
}
0
DIMENSION
5
12B
100
AcDbEntity
8
SK2
62
256
6
ByLayer
370
-3
48
1
60
0
100
AcDbDimension
2
DimnDraft3D2
10
-115.09
20
7.9925
30
0
11
-115.09
21
-4.221711
31
0
70
32
71
5
72
1
41
1
210
0
220
0
230
1
3
Standard
100
AcDbAlignedDimension
13
-107.34
23
-7.9925
33
0
14
-107.34
24
7.9925
34
0
50
90
100
AcDbRotatedDimension
1001
ACAD
1000
DSTYLE
1002
{
1070
    74
1070
     0
1070
   279
1070
     0
1070
   172
1070
     1
1070
   173
1070
     1
1070
   340
1005
E3
1070
    77
1070
     1
1070
    73
1070
     0
1070
   171
1070
     4
1070
   274
1070
     4
1070
   177
1070
     2
1070
   176
1070
     2
1070
   178
1070
     7
1070
    78
1070
     8
1070
    41
1041
3.175
1070
   147
1041
2.25
1070
    42
1041
2.0
1070
    44
1041
2.0
1070
   140
1041
4.5
1070
   343
1005
116
1070
   344
1005
116
1002
}
0
DIMENSION
5
139
100
AcDbEntity
8
SK2
62
256
6
ByLayer
370
-3
48
1
60
0
100
AcDbDimension
2
DimnDraft3D3
10
95.91
20
-28.15
30
0
11
-11.530132
21
-28.15
31
0
70
32
71
5
72
1
41
1
210
0
220
0
230
1
3
Standard
100
AcDbAlignedDimension
13
-105.34
23
-9.9925
33
0
14
95.91
24
-12.9
34
0
50
0
100
AcDbRotatedDimension
1001
ACAD
1000
DSTYLE
1002
{
1070
   279
1070
     0
1070
   172
1070
     1
1070
   173
1070
     1
1070
   340
1005
E3
1070
    77
1070
     1
1070
    73
1070
     0
1070
   171
1070
     4
1070
   274
1070
     4
1070
   177
1070
     2
1070
   176
1070
     2
1070
   178
1070
     7
1070
    78
1070
     8
1070
    41
1041
3.175
1070
   147
1041
2.25
1070
    42
1041
2.0
1070
    44
1041
2.0
1070
   140
1041
4.5
1070
   343
1005
116
1070
   344
1005
116
1002
}
0
DIMENSION
5
147
100
AcDbEntity
8
2
62
256
6
ByLayer
370
-3
48
1
60
0
100
AcDbDimension
2
DimnDraft3D4
10
135.646147
20
0
30
0
11
119.736803
21
32.727109
31
0
70
34
71
5
72
1
41
1
210
0
220
0
230
1
3
Standard
100
AcDb2LineAngularDimension
13
95.683119
23
2.09802
33
0
14
95.022928
24
39.920326
34
0
15
97.91
25
0
35
0
16
125.456801
26
30.260654
36
0
40
0
0
ENDSEC
0
SECTION
2
OBJECTS
0
DICTIONARY
5
178
330
0
100
AcDbDictionary
280
0
281
1
3
ACAD_GROUP
350
179
3
ACAD_MLINESTYLE
350
17a
0
DICTIONARY
5
179
330
0
100
AcDbDictionary
280
0
281
1
0
DICTIONARY
5
17a
330
0
100
AcDbDictionary
280
0
281
1
3
Standard
350
18
0
MLINESTYLE
5
18
330
17a
100
AcDbMlineStyle
2
Standard
70
0
3

62
256
51
90
52
90
71
2
49
-0.5
62
256
6
ByLayer
49
0.5
62
256
6
ByLayer
0
RASTERVARIABLES
5
166
330

100
AcDbRasterVariables
90
0
70
1
71
1
72
1
0
ENDSEC
0
EOF
