0
SECTION
2
HEADER
9
$ACADVER
1
AC1015
9
$DWGCODEPAGE
3
ANSI_1252
9
$HANDSEED
5
187
9
$ANGBASE
50
0
9
$ANGDIR
70
0
9
$ATTMODE
70
1
9
$AUNITS
70
0
9
$AUPREC
70
0
9
$CECOLOR
62
256
9
$CELTSCALE
40
1
9
$CELTYPE
6
ByLayer
9
$CELWEIGHT
370
-1
9
$CLAYER
8
0
9
$CMLJUST
70
0
9
$CMLSCALE
40
1
9
$CMLSTYLE
2
Standard
9
$DIMSTYLE
2
Standard
9
$TEXTSIZE
40
0.2
9
$TEXTSTYLE
7
Standard
9
$LUNITS
70
2
9
$LUPREC
70
4
9
$EXTNAMES
290
1
9
$INSUNITS
70
4
9
$LTSCALE
40
1
9
$LWDISPLAY
290
0
9
$PDMODE
70
0
9
$PDSIZE
40
0
9
$PLINEGEN
70
0
0
ENDSEC
0
SECTION
2
CLASSES
0
CLASS
1
RASTERVARIABLES
2
AcDbRasterVariables
3
ISM
90
0
280
0
281
0
0
ENDSEC
0
SECTION
2
TABLES
0
TABLE
2
VPORT
5
17d
100
AcDbSymbolTable
0
VPORT
5
1
100
AcDbSymbolTableRecord
100
AcDbViewportTableRecord
2
*Active
70
0
10
0
20
0
11
1
21
1
12
-1
22
1
13
0
23
0
14
0.5
24
0.5
15
10
25
10
16
0
26
0
36
1
17
0
27
0
37
0
0
ENDTAB
0
TABLE
2
LTYPE
5
17e
100
AcDbSymbolTable
0
LTYPE
5
14
100
AcDbSymbolTableRecord
100
AcDbLinetypeTableRecord
70
0
2
ByBlock
3

72
65
73
0
40
0
0
LTYPE
5
15
100
AcDbSymbolTableRecord
100
AcDbLinetypeTableRecord
70
0
2
ByLayer
3

72
65
73
0
40
0
0
LTYPE
5
16
100
AcDbSymbolTableRecord
100
AcDbLinetypeTableRecord
70
0
2
CONTINUOUS
3
Solid line
72
65
73
0
40
0
0
LTYPE
5
3B
100
AcDbSymbolTableRecord
100
AcDbLinetypeTableRecord
70
0
2
DASHED
3
__ __ __ __ __ __ __ __ __
72
65
73
2
40
25.72
49
12.86
74
0
49
-12.86
74
0
0
LTYPE
5
3C
100
AcDbSymbolTableRecord
100
AcDbLinetypeTableRecord
70
0
2
HIDDEN
3
_ _ _ _ _ _ _ _ _ _ _ _ _ _ _
72
65
73
2
40
0.5
49
0.25
74
0
49
-0.25
74
0
0
LTYPE
5
3D
100
AcDbSymbolTableRecord
100
AcDbLinetypeTableRecord
70
0
2
PHANTOM
3
____ _ _ ____ _ _ _____ _ _ ____
72
65
73
6
40
50.5
49
18
74
0
49
-6.5
74
0
49
6.5
74
0
49
-6.5
74
0
49
6.5
74
0
49
-6.5
74
0
0
LTYPE
5
3E
100
AcDbSymbolTableRecord
100
AcDbLinetypeTableRecord
70
0
2
CENTER
3
____ _ ____ _ ____ _ ____
72
65
73
4
40
47.5
49
22
74
0
49
-8.5
74
0
49
8.5
74
0
49
-8.5
74
0
0
LTYPE
5
3F
100
AcDbSymbolTableRecord
100
AcDbLinetypeTableRecord
70
0
2
DOT
3
.........................
72
65
73
2
40
10
49
0
74
0
49
-10
74
0
0
LTYPE
5
40
100
AcDbSymbolTableRecord
100
AcDbLinetypeTableRecord
70
0
2
DASHDOT
3
_._._._._._._._._._._._._._._._.
72
65
73
4
40
70
49
31
74
0
49
-13
74
0
49
13
74
0
49
-13
74
0
0
ENDTAB
0
TABLE
2
LAYER
5
17f
100
AcDbSymbolTable
0
LAYER
5
10
100
AcDbSymbolTableRecord
100
AcDbLayerTableRecord
2
0
70
0
62
7
6
CONTINUOUS
290
1
370
-3
390
0
0
LAYER
5
42
100
AcDbSymbolTableRecord
100
AcDbLayerTableRecord
2
80
70
0
62
-6
6
CONTINUOUS
290
1
370
-3
390
0
0
LAYER
5
44
100
AcDbSymbolTableRecord
100
AcDbLayerTableRecord
2
81
70
0
62
-3
6
CONTINUOUS
290
1
370
-3
390
0
0
LAYER
5
46
100
AcDbSymbolTableRecord
100
AcDbLayerTableRecord
2
1
70
0
62
4
6
CONTINUOUS
290
1
370
-3
390
0
0
LAYER
5
48
100
AcDbSymbolTableRecord
100
AcDbLayerTableRecord
2
2
70
0
62
7
6
CONTINUOUS
290
1
370
-3
390
0
0
LAYER
5
5E
100
AcDbSymbolTableRecord
100
AcDbLayerTableRecord
2
4
70
0
62
-2
6
CENTER
290
1
370
-3
390
0
0
LAYER
5
169
100
AcDbSymbolTableRecord
100
AcDbLayerTableRecord
2
SK1
70
0
62
4
6
CONTINUOUS
290
1
370
-3
390
0
0
LAYER
5
16a
100
AcDbSymbolTableRecord
100
AcDbLayerTableRecord
2
SK4
70
0
62
2
6
CENTER
290
1
370
-3
390
0
0
LAYER
5
16b
100
AcDbSymbolTableRecord
100
AcDbLayerTableRecord
2
SK6
70
0
62
5
6
CONTINUOUS
290
1
370
-3
390
0
0
LAYER
5
16c
100
AcDbSymbolTableRecord
100
AcDbLayerTableRecord
2
SK2
70
0
62
7
6
CONTINUOUS
290
1
370
-3
390
0
0
ENDTAB
0
TABLE
2
STYLE
5
180
100
AcDbSymbolTable
0
STYLE
5
11
100
AcDbSymbolTableRecord
100
AcDbTextStyleTableRecord
2
Standard
3
txt
70
0
71
0
40
0
41
1
42
0
50
0
0
STYLE
5
E5
100
AcDbSymbolTableRecord
100
AcDbTextStyleTableRecord
2
DEFAULT
3
simplex.shx
70
0
71
0
40
0
41
1
42
0
50
0
0
STYLE
5
108
100
AcDbSymbolTableRecord
100
AcDbTextStyleTableRecord
2
DWGDirectTextStyle
3
SIMPLEX
70
0
71
0
40
0
41
1
42
0
50
0
0
ENDTAB
0
TABLE
2
DIMSTYLE
5
181
100
AcDbSymbolTable
100
AcDbDimStyleTable
0
DIMSTYLE
105
27
100
AcDbSymbolTableRecord
100
AcDbDimStyleTableRecord
2
Standard
70
0
3
<>
41
0.18
42
0.0625
44
0.18
140
0.18
147
0.09
73
0
74
0
77
1
271
2
275
0
278
52
280
0
340
11
0
ENDTAB
0
TABLE
2
VIEW
5
182
100
AcDbSymbolTable
0
ENDTAB
0
TABLE
2
UCS
5
183
100
AcDbSymbolTable
0
ENDTAB
0
TABLE
2
APPID
5
184
100
AcDbSymbolTable
0
APPID
5
12
100
AcDbSymbolTableRecord
100
AcDbRegAppTableRecord
2
ACAD
70
0
0
ENDTAB
0
TABLE
2
BLOCK_RECORD
5
185
100
AcDbSymbolTable
0
BLOCK_RECORD
5
1F
100
AcDbSymbolTableRecord
100
AcDbBlockTableRecord
2
*Model_Space
340
0
70
0
0
BLOCK_RECORD
5
1B
100
AcDbSymbolTableRecord
100
AcDbBlockTableRecord
2
*Paper_Space
340
0
70
0
0
BLOCK_RECORD
5
23
100
AcDbSymbolTableRecord
100
AcDbBlockTableRecord
2
*Paper_Space0
340
0
70
0
0
BLOCK_RECORD
5
10A
100
AcDbSymbolTableRecord
100
AcDbBlockTableRecord
2
DimnDraft3D1
340
0
70
0
0
BLOCK_RECORD
5
118
100
AcDbSymbolTableRecord
100
AcDbBlockTableRecord
2
_CLOSED
340
0
70
0
0
BLOCK_RECORD
5
11F
100
AcDbSymbolTableRecord
100
AcDbBlockTableRecord
2
DimnDraft3D2
340
0
70
0
0
BLOCK_RECORD
5
12E
100
AcDbSymbolTableRecord
100
AcDbBlockTableRecord
2
DimnDraft3D3
340
0
70
0
0
BLOCK_RECORD
5
13C
100
AcDbSymbolTableRecord
100
AcDbBlockTableRecord
2
DimnDraft3D4
340
0
70
0
0
ENDTAB
0
ENDSEC
0
SECTION
2
BLOCKS
0
BLOCK
5
20
100
AcDbEntity
8
0
100
AcDbBlockBegin
2
*Model_Space
70
0
10
0
20
0
30
0
3
*Model_Space
0
ENDBLK
5
21
100
AcDbEntity
8
0
100
AcDbBlockEnd
0
BLOCK
5
1C
100
AcDbEntity
8
0
100
AcDbBlockBegin
2
*Paper_Space
70
0
10
0
20
0
30
0
3
*Paper_Space
0
ENDBLK
5
1D
100
AcDbEntity
8
0
100
AcDbBlockEnd
0
BLOCK
5
24
100
AcDbEntity
8
0
100
AcDbBlockBegin
2
*Paper_Space0
70
0
10
0
20
0
30
0
3
*Paper_Space0
0
ENDBLK
5
25
100
AcDbEntity
8
0
100
AcDbBlockEnd
0
BLOCK
5
115
100
AcDbEntity
8
0
100
AcDbBlockBegin
2
DimnDraft3D1
70
0
10
0
20
0
30
0
3
DimnDraft3D1
0
MTEXT
5
10B
100
AcDbEntity
8
2
62
256
6
ByLayer
370
-1
48
1
60
0
100
AcDbMText
10
107.035
20
-28.106316
30
0
210
0
220
0
230
1
1
\W01.000;\fsimplex.shx,bigfont.shx;11.0 
40
4.5
41
0
44
1.084337
50
90
71
7
72
5
7
DEFAULT
0
LINE
5
10C
100
AcDbEntity
8
2
62
256
6
ByLayer
370
-1
48
1
60
0
100
AcDbLine
10
97.91
20
-10.9
30
0
11
110.16
21
-10.9
31
0
39
0
210
0
220
0
230
1
0
LINE
5
10D
100
AcDbEntity
8
2
62
256
6
ByLayer
370
-1
48
1
60
0
100
AcDbLine
10
97.91
20
0
30
0
11
110.16
21
0
31
0
39
0
210
0
220
0
230
1
0
LINE
5
10E
100
AcDbEntity
8
2
62
256
6
ByLayer
370
-1
48
1
60
0
100
AcDbLine
10
108.16
20
0
30
0
11
108.16
21
-29.231316
31
0
39
0
210
0
220
0
230
1
0
LINE
5
10F
100
AcDbEntity
8
2
62
256
6
ByLayer
370
-1
48
1
60
0
100
AcDbLine
10
108.16
20
-10.9
30
0
11
107.742003
21
-7.725002
31
0
39
0
210
0
220
0
230
1
0
LINE
5
110
100
AcDbEntity
8
2
62
256
6
ByLayer
370
-1
48
1
60
0
100
AcDbLine
10
108.16
20
-10.9
30
0
11
108.577997
21
-7.724998
31
0
39
0
210
0
220
0
230
1
0
LINE
5
111
100
AcDbEntity
8
2
62
256
6
ByLayer
370
-1
48
1
60
0
100
AcDbLine
10
107.742003
20
-7.725002
30
0
11
108.577997
21
-7.724998
31
0
39
0
210
0
220
0
230
1
0
LINE
5
112
100
AcDbEntity
8
2
62
256
6
ByLayer
370
-1
48
1
60
0
100
AcDbLine
10
108.16
20
0
30
0
11
108.577997
21
-3.174998
31
0
39
0
210
0
220
0
230
1
0
LINE
5
113
100
AcDbEntity
8
2
62
256
6
ByLayer
370
-1
48
1
60
0
100
AcDbLine
10
108.16
20
0
30
0
11
107.742003
21
-3.175002
31
0
39
0
210
0
220
0
230
1
0
LINE
5
114
100
AcDbEntity
8
2
62
256
6
ByLayer
370
-1
48
1
60
0
100
AcDbLine
10
108.577997
20
-3.174998
30
0
11
107.742003
21
-3.175002
31
0
39
0
210
0
220
0
230
1
0
ENDBLK
5
116
100
AcDbEntity
8
0
100
AcDbBlockEnd
0
BLOCK
5
119
100
AcDbEntity
8
0
100
AcDbBlockBegin
2
_CLOSED
70
0
10
0
20
0
30
0
3
_CLOSED
0
LINE
5
11B
100
AcDbEntity
8
0
62
256
6
ByLayer
370
-2
48
1
60
0
100
AcDbLine
10
-1
20
0.166667
30
0
11
0
21
0
31
0
39
0
210
0
220
0
230
1
0
LINE
5
11C
100
AcDbEntity
8
0
62
256
6
ByLayer
370
-2
48
1
60
0
100
AcDbLine
10
0
20
0
30
0
11
-1
21
-0.166667
31
0
39
0
210
0
220
0
230
1
0
LINE
5
11D
100
AcDbEntity
8
0
62
256
6
ByLayer
370
-2
48
1
60
0
100
AcDbLine
10
-1
20
0.166667
30
0
11
-1
21
-0.166667
31
0
39
0
210
0
220
0
230
1
0
LINE
5
11E
100
AcDbEntity
8
0
62
256
6
ByLayer
370
-2
48
1
60
0
100
AcDbLine
10
0
20
0
30
0
11
-1
21
0
31
0
39
0
210
0
220
0
230
1
0
ENDBLK
5
11A
100
AcDbEntity
8
0
100
AcDbBlockEnd
0
BLOCK
5
12B
100
AcDbEntity
8
0
100
AcDbBlockBegin
2
DimnDraft3D2
70
0
10
0
20
0
30
0
3
DimnDraft3D2
0
MTEXT
5
120
100
AcDbEntity
8
SK2
62
256
6
ByLayer
370
-1
48
1
60
0
100
AcDbMText
10
-116.215
20
-3.096711
30
0
210
0
220
0
230
1
1
\W01.000;\fsimplex.shx,bigfont.shx;%%c16 
40
4.5
41
0
44
1.084337
50
90
71
7
72
5
7
DEFAULT
0
LINE
5
122
100
AcDbEntity
8
SK2
62
256
6
ByLayer
370
-1
48
1
60
0
100
AcDbLine
10
-107.34
20
-7.9925
30
0
11
-117.09
21
-7.9925
31
0
39
0
210
0
220
0
230
1
0
LINE
5
123
100
AcDbEntity
8
SK2
62
256
6
ByLayer
370
-1
48
1
60
0
100
AcDbLine
10
-107.34
20
7.9925
30
0
11
-117.09
21
7.9925
31
0
39
0
210
0
220
0
230
1
0
LINE
5
124
100
AcDbEntity
8
SK2
62
256
6
ByLayer
370
-1
48
1
60
0
100
AcDbLine
10
-115.09
20
-19.2425
30
0
11
-115.09
21
19.2425
31
0
39
0
210
0
220
0
230
1
0
LINE
5
125
100
AcDbEntity
8
SK2
62
256
6
ByLayer
370
-1
48
1
60
0
100
AcDbLine
10
-115.09
20
-7.9925
30
0
11
-114.672003
21
-11.167498
31
0
39
0
210
0
220
0
230
1
0
LINE
5
126
100
AcDbEntity
8
SK2
62
256
6
ByLayer
370
-1
48
1
60
0
100
AcDbLine
10
-115.09
20
-7.9925
30
0
11
-115.507997
21
-11.167502
31
0
39
0
210
0
220
0
230
1
0
LINE
5
127
100
AcDbEntity
8
SK2
62
256
6
ByLayer
370
-1
48
1
60
0
100
AcDbLine
10
-114.672003
20
-11.167498
30
0
11
-115.507997
21
-11.167502
31
0
39
0
210
0
220
0
230
1
0
LINE
5
128
100
AcDbEntity
8
SK2
62
256
6
ByLayer
370
-1
48
1
60
0
100
AcDbLine
10
-115.09
20
7.9925
30
0
11
-115.507997
21
11.167498
31
0
39
0
210
0
220
0
230
1
0
LINE
5
129
100
AcDbEntity
8
SK2
62
256
6
ByLayer
370
-1
48
1
60
0
100
AcDbLine
10
-115.09
20
7.9925
30
0
11
-114.672003
21
11.167502
31
0
39
0
210
0
220
0
230
1
0
LINE
5
12A
100
AcDbEntity
8
SK2
62
256
6
ByLayer
370
-1
48
1
60
0
100
AcDbLine
10
-115.507997
20
11.167498
30
0
11
-114.672003
21
11.167502
31
0
39
0
210
0
220
0
230
1
0
ENDBLK
5
12C
100
AcDbEntity
8
0
100
AcDbBlockEnd
0
BLOCK
5
139
100
AcDbEntity
8
0
100
AcDbBlockBegin
2
DimnDraft3D3
70
0
10
0
20
0
30
0
3
DimnDraft3D3
0
MTEXT
5
12F
100
AcDbEntity
8
SK2
62
256
6
ByLayer
370
-1
48
1
60
0
100
AcDbMText
10
-10.405132
20
-27.025
30
0
210
0
220
0
230
1
1
\W01.000;\fsimplex.shx,bigfont.shx;200.0 
40
4.5
41
0
44
1.084337
50
0
71
7
72
5
7
DEFAULT
0
LINE
5
130
100
AcDbEntity
8
SK2
62
256
6
ByLayer
370
-1
48
1
60
0
100
AcDbLine
10
-105.34
20
-9.9925
30
0
11
-105.34
21
-30.15
31
0
39
0
210
0
220
0
230
1
0
LINE
5
131
100
AcDbEntity
8
SK2
62
256
6
ByLayer
370
-1
48
1
60
0
100
AcDbLine
10
95.91
20
-12.9
30
0
11
95.91
21
-30.15
31
0
39
0
210
0
220
0
230
1
0
LINE
5
132
100
AcDbEntity
8
SK2
62
256
6
ByLayer
370
-1
48
1
60
0
100
AcDbLine
10
-105.34
20
-28.15
30
0
11
95.91
21
-28.15
31
0
39
0
210
0
220
0
230
1
0
LINE
5
133
100
AcDbEntity
8
SK2
62
256
6
ByLayer
370
-1
48
1
60
0
100
AcDbLine
10
-105.34
20
-28.15
30
0
11
-102.165002
21
-27.732003
31
0
39
0
210
0
220
0
230
1
0
LINE
5
134
100
AcDbEntity
8
SK2
62
256
6
ByLayer
370
-1
48
1
60
0
100
AcDbLine
10
-105.34
20
-28.15
30
0
11
-102.164998
21
-28.567997
31
0
39
0
210
0
220
0
230
1
0
LINE
5
135
100
AcDbEntity
8
SK2
62
256
6
ByLayer
370
-1
48
1
60
0
100
AcDbLine
10
-102.165002
20
-27.732003
30
0
11
-102.164998
21
-28.567997
31
0
39
0
210
0
220
0
230
1
0
LINE
5
136
100
AcDbEntity
8
SK2
62
256
6
ByLayer
370
-1
48
1
60
0
100
AcDbLine
10
95.91
20
-28.15
30
0
11
92.735002
21
-28.567997
31
0
39
0
210
0
220
0
230
1
0
LINE
5
137
100
AcDbEntity
8
SK2
62
256
6
ByLayer
370
-1
48
1
60
0
100
AcDbLine
10
95.91
20
-28.15
30
0
11
92.734998
21
-27.732003
31
0
39
0
210
0
220
0
230
1
0
LINE
5
138
100
AcDbEntity
8
SK2
62
256
6
ByLayer
370
-1
48
1
60
0
100
AcDbLine
10
92.735002
20
-28.567997
30
0
11
92.734998
21
-27.732003
31
0
39
0
210
0
220
0
230
1
0
ENDBLK
5
13A
100
AcDbEntity
8
0
100
AcDbBlockEnd
0
BLOCK
5
147
100
AcDbEntity
8
0
100
AcDbBlockBegin
2
DimnDraft3D4
70
0
10
0
20
0
30
0
3
DimnDraft3D4
0
MTEXT
5
13D
100
AcDbEntity
8
2
62
256
6
ByLayer
370
-1
48
1
60
0
100
AcDbMText
10
119.750687
20
31.136179
30
0
210
0
220
0
230
1
1
\W01.000;\fsimplex.shx,bigfont.shx;91%%d0' 
40
4.5
41
0
44
1.084337
50
315.5
71
7
72
5
7
DEFAULT
0
LINE
5
13E
100
AcDbEntity
8
2
62
256
6
ByLayer
370
-1
48
1
60
0
100
AcDbLine
10
95.683119
20
2.09802
30
0
11
95.022928
21
39.920326
31
0
39
0
210
0
220
0
230
1
0
LINE
5
13F
100
AcDbEntity
8
2
62
256
6
ByLayer
370
-1
48
1
60
0
100
AcDbLine
10
97.91
20
0
30
0
11
135.646147
21
0
31
0
39
0
210
0
220
0
230
1
0
ARC
5
140
100
AcDbEntity
8
2
62
256
6
ByLayer
370
-1
48
1
60
0
100
AcDbCircle
39
0
10
95.71974
20
0
30
0
40
37.9264068640928
210
0
220
0
230
1
100
AcDbArc
50
0
51
91
0
LINE
5
141
100
AcDbEntity
8
2
62
256
6
ByLayer
370
-1
48
1
60
0
100
AcDbLine
10
95.057833
20
37.92063
30
0
11
98.23426
21
38.327629
31
0
39
0
210
0
220
0
230
1
0
LINE
5
142
100
AcDbEntity
8
2
62
256
6
ByLayer
370
-1
48
1
60
0
100
AcDbLine
10
95.057833
20
37.92063
30
0
11
98.231368
21
37.491641
31
0
39
0
210
0
220
0
230
1
0
LINE
5
143
100
AcDbEntity
8
2
62
256
6
ByLayer
370
-1
48
1
60
0
100
AcDbLine
10
98.23426
20
38.327629
30
0
11
98.231368
21
37.491641
31
0
39
0
210
0
220
0
230
1
0
LINE
5
144
100
AcDbEntity
8
2
62
256
6
ByLayer
370
-1
48
1
60
0
100
AcDbLine
10
133.646147
20
0
30
0
11
133.161836
21
3.165562
31
0
39
0
210
0
220
0
230
1
0
LINE
5
145
100
AcDbEntity
8
2
62
256
6
ByLayer
370
-1
48
1
60
0
100
AcDbLine
10
133.646147
20
0
30
0
11
133.997647
21
3.183049
31
0
39
0
210
0
220
0
230
1
0
LINE
5
146
100
AcDbEntity
8
2
62
256
6
ByLayer
370
-1
48
1
60
0
100
AcDbLine
10
133.161836
20
3.165562
30
0
11
133.997647
21
3.183049
31
0
39
0
210
0
220
0
230
1
0
ENDBLK
5
148
100
AcDbEntity
8
0
100
AcDbBlockEnd
0
ENDSEC
0
SECTION
2
ENTITIES
0
ELLIPSE
5
97
100
AcDbEntity
8
1
62
256
6
ByLayer
370
-1
48
1
60
0
100
AcDbEllipse
10
87.048684
20
-5.632375
30
0
11
1.04984007991421
21
0.0183250267591463
31
0
210
0
220
0
230
1
40
0.996921
41
-3.04403945484947
42
-1.09487766162697
0
ELLIPSE
5
98
100
AcDbEntity
8
1
62
256
6
ByLayer
370
-1
48
1
60
0
100
AcDbEllipse
10
88.205765
20
-6.425544
30
0
11
-1.24980961894549
21
-0.0218155080466018
31
0
210
0
220
0
230
1
40
0.996921
41
0.523598775598297
42
2.09439510239322
0
ELLIPSE
5
99
100
AcDbEntity
8
1
62
256
6
ByLayer
370
-1
48
1
60
0
100
AcDbEllipse
10
88.07996
20
-6.380496
30
0
11
1.34414779067386
21
0.0234621869593305
31
0
210
0
220
0
230
1
40
0.996921
41
-2.79485247176909
42
-2.61799387799151
0
ELLIPSE
5
9A
100
AcDbEntity
8
1
62
256
6
ByLayer
370
-1
48
1
60
0
100
AcDbEllipse
10
88.207544
20
-6.52747
30
0
11
-1.24980961894549
21
-0.0218155080466018
31
0
210
0
220
0
230
1
40
0.996921
41
0.523598775598312
42
2.09439510239322
0
ELLIPSE
5
9B
100
AcDbEntity
8
1
62
256
6
ByLayer
370
-1
48
1
60
0
100
AcDbEllipse
10
92.637055
20
-0.007343
30
0
11
0.0902314027694485
21
-10.1846949539087
31
0
210
0
220
0
230
-1
40
0.110644
41
-0.0901790825036353
42
-0.00664185686342905
0
ELLIPSE
5
9C
100
AcDbEntity
8
1
62
256
6
ByLayer
370
-1
48
1
60
0
100
AcDbEllipse
10
88.208708
20
-6.594122
30
0
11
1.34414779067385
21
0.0234621869593305
31
0
210
0
220
0
230
1
40
0.996921
41
-2.61799387799143
42
-1.04719755119658
0
ELLIPSE
5
9D
100
AcDbEntity
8
1
62
256
6
ByLayer
370
-1
48
1
60
0
100
AcDbEllipse
10
88.078797
20
-6.313845
30
0
11
-1.24980961894549
21
-0.0218155080466018
31
0
210
0
220
0
230
1
40
0.996921
41
0.391642402972515
42
0.523598775598312
0
ELLIPSE
5
9E
100
AcDbEntity
8
1
62
256
6
ByLayer
370
-1
48
1
60
0
100
AcDbEllipse
10
87.052242
20
-5.836234
30
0
11
-1.04984007991421
21
-0.0183250267591459
31
0
210
0
220
0
230
1
40
0.996921
41
-2.28117460931963
42
1.33403695251196
0
ELLIPSE
5
9F
100
AcDbEntity
8
1
62
256
6
ByLayer
370
-1
48
1
60
0
100
AcDbEllipse
10
87.049299
20
-5.667657
30
0
11
-1.04984007991421
21
-0.0183250267591459
31
0
210
0
220
0
230
1
40
0.996921
41
1.43966706516309
42
2.08102337371947
0
ELLIPSE
5
A0
100
AcDbEntity
8
1
62
256
6
ByLayer
370
-1
48
1
60
0
100
AcDbEllipse
10
88.077017
20
-6.211919
30
0
11
-1.24980961894549
21
-0.0218155080466018
31
0
210
0
220
0
230
1
40
0.996921
41
0.391642402973989
42
0.523598775598296
0
ELLIPSE
5
A1
100
AcDbEntity
8
1
62
256
6
ByLayer
370
-1
48
1
60
0
100
AcDbEllipse
10
95.512997
20
-10.504133
30
0
11
0.396939534977071
21
0.00692860535560073
31
0
210
0
220
0
230
1
40
0.996921
41
-2.09439510239279
42
2.15436953278937E-13
0
ELLIPSE
5
A2
100
AcDbEntity
8
1
62
256
6
ByLayer
370
-1
48
1
60
0
100
AcDbEllipse
10
92.650685
20
-5.698166
30
0
11
-1.82965886345998
21
-0.0319368142581789
31
0
210
0
220
0
230
1
40
0.996921
41
0
42
6.28318530717959
0
ELLIPSE
5
A3
100
AcDbEntity
8
1
62
256
6
ByLayer
370
-1
48
1
60
0
100
AcDbEllipse
10
95.345564
20
-0.911953
30
0
11
0.396939534977047
21
0.00692860535560032
31
0
210
0
220
0
230
1
40
0.996921
41
0
42
2.09439510239324
0
ELLIPSE
5
A4
100
AcDbEntity
8
1
62
256
6
ByLayer
370
-1
48
1
60
0
100
AcDbEllipse
10
92.651704
20
-5.756526
30
0
11
1.92225741840915
21
0.0335531280470771
31
0
210
0
220
0
230
1
40
0.996921
41
0
42
6.28318530717959
0
ELLIPSE
5
A5
100
AcDbEntity
8
1
62
256
6
ByLayer
370
-1
48
1
60
0
100
AcDbEllipse
10
87.09655
20
-5.853491
30
0
11
0.39693953497709
21
0.00692860535560106
31
0
210
0
220
0
230
1
40
0.996921
41
2.09439510239343
42
-2.09439510239301
0
ELLIPSE
5
A6
100
AcDbEntity
8
1
62
256
6
ByLayer
370
-1
48
1
60
0
100
AcDbEllipse
10
92.650887
20
-5.709713
30
0
11
1.88051284066893
21
0.0328244737322205
31
0
210
0
220
0
230
1
40
0.996921
41
3.12408522160139
42
-9.47386113267615E-16
0
ELLIPSE
5
A7
100
AcDbEntity
8
1
62
256
6
ByLayer
370
-1
48
1
60
0
100
AcDbEllipse
10
92.650887
20
-5.709713
30
0
11
1.88051284066893
21
0.0328244737322205
31
0
210
0
220
0
230
1
40
0.996921
41
0
42
1.09510759223677
0
ELLIPSE
5
A8
100
AcDbEntity
8
1
62
256
6
ByLayer
370
-1
48
1
60
0
100
AcDbEllipse
10
92.650887
20
-5.709713
30
0
11
1.88051284066893
21
0.0328244737322205
31
0
210
0
220
0
230
1
40
0.996921
41
2.04642090838435
42
3.1240852216014
0
ELLIPSE
5
A9
100
AcDbEntity
8
1
62
256
6
ByLayer
370
-1
48
1
60
0
100
AcDbEllipse
10
92.651779
20
-5.760818
30
0
11
1.03484236448686
21
0.0180632406625869
31
0
210
0
220
0
230
1
40
0.996921
41
3.14073467392994
42
-2.09353712273333
0
ELLIPSE
5
AA
100
AcDbEntity
8
1
62
256
6
ByLayer
370
-1
48
1
60
0
100
AcDbEllipse
10
92.651779
20
-5.760818
30
0
11
1.03484236448686
21
0.0180632406625869
31
0
210
0
220
0
230
1
40
0.996921
41
-2.09353712273333
42
-1.0471975511965
0
ELLIPSE
5
AB
100
AcDbEntity
8
1
62
256
6
ByLayer
370
-1
48
1
60
0
100
AcDbEllipse
10
91.800527
20
-5.696521
30
0
11
-0.184971823603932
21
-0.00322869519089706
31
0
210
0
220
0
230
1
40
0.996921
41
0.207387123936539
42
1.30068497549038
0
ELLIPSE
5
AC
100
AcDbEntity
8
1
62
256
6
ByLayer
370
-1
48
1
60
0
100
AcDbEllipse
10
92.651779
20
-5.760818
30
0
11
1.03484236448686
21
0.0180632406625869
31
0
210
0
220
0
230
1
40
0.996921
41
2.09439510239307
42
3.14073467392994
0
ELLIPSE
5
AD
100
AcDbEntity
8
1
62
256
6
ByLayer
370
-1
48
1
60
0
100
AcDbEllipse
10
92.65041
20
-5.682413
30
0
11
-0.747886075976972
21
-0.0130544000150867
31
0
210
0
220
0
230
1
40
0.996921
41
2.61756488816152
42
-2.80530050864189
0
ELLIPSE
5
AE
100
AcDbEntity
8
1
62
256
6
ByLayer
370
-1
48
1
60
0
100
AcDbEllipse
10
93.67344
20
-6.248277
30
0
11
-0.421935727355997
21
-0.00736491551653276
31
0
210
0
220
0
230
1
40
0.996921
41
-0.524027765428268
42
-1.98437600071744E-06
0
ELLIPSE
5
AF
100
AcDbEntity
8
1
62
256
6
ByLayer
370
-1
48
1
60
0
100
AcDbEllipse
10
92.650547
20
-5.690254
30
0
11
1.72473727414478
21
0.0301054011043119
31
0
210
0
220
0
230
1
40
0.996921
41
3.12408529949299
42
-3.14152647874677
0
ELLIPSE
5
B0
100
AcDbEntity
8
1
62
256
6
ByLayer
370
-1
48
1
60
0
100
AcDbEllipse
10
92.650547
20
-5.690254
30
0
11
1.72473727414478
21
0.0301054011043119
31
0
210
0
220
0
230
1
40
0.996921
41
0
42
3.12408553198003
0
ELLIPSE
5
B1
100
AcDbEntity
8
1
62
256
6
ByLayer
370
-1
48
1
60
0
100
AcDbEllipse
10
92.65041
20
-5.682413
30
0
11
-0.747886075976972
21
-0.0130544000150867
31
0
210
0
220
0
230
1
40
0.996921
41
0.56133012751555
42
1.57122531662486
0
ELLIPSE
5
B2
100
AcDbEntity
8
1
62
256
6
ByLayer
370
-1
48
1
60
0
100
AcDbEllipse
10
92.65041
20
-5.682413
30
0
11
-0.747886075976972
21
-0.0130544000150867
31
0
210
0
220
0
230
1
40
0.996921
41
-2.49973911558065
42
-1.79227542177584
0
ELLIPSE
5
B3
100
AcDbEntity
8
1
62
256
6
ByLayer
370
-1
48
1
60
0
100
AcDbEllipse
10
92.65041
20
-5.682413
30
0
11
-0.747886075976972
21
-0.0130544000150867
31
0
210
0
220
0
230
1
40
0.996921
41
-0.306774035229801
42
0.485867423681102
0
ELLIPSE
5
B4
100
AcDbEntity
8
1
62
256
6
ByLayer
370
-1
48
1
60
0
100
AcDbEllipse
10
92.651541
20
-5.747181
30
0
11
1.72473727414478
21
0.0301054011043117
31
0
210
0
220
0
230
1
40
0.996921
41
0
42
6.28318530717959
0
ELLIPSE
5
B5
100
AcDbEntity
8
1
62
256
6
ByLayer
370
-1
48
1
60
0
100
AcDbEllipse
10
92.651552
20
-5.747826
30
0
11
0.747886075976982
21
0.0130544000150871
31
0
210
0
220
0
230
1
40
0.996921
41
-2.65572522990885
42
-2.58026252607409
0
ELLIPSE
5
B6
100
AcDbEntity
8
1
62
256
6
ByLayer
370
-1
48
1
60
0
100
AcDbEllipse
10
91.648759
20
-6.282449
30
0
11
-0.421935727355997
21
-0.00736491551653276
31
0
210
0
220
0
230
1
40
0.996921
41
-2.5510805556749
42
-1.84090767809936
0
ELLIPSE
5
B7
100
AcDbEntity
8
1
62
256
6
ByLayer
370
-1
48
1
60
0
100
AcDbEllipse
10
92.651552
20
-5.747826
30
0
11
0.747886075976982
21
0.0130544000150871
31
0
210
0
220
0
230
1
40
0.996921
41
0.48586742368187
42
0.561330127514459
0
ELLIPSE
5
B8
100
AcDbEntity
8
1
62
256
6
ByLayer
370
-1
48
1
60
0
100
AcDbEllipse
10
92.65041
20
-5.682413
30
0
11
-0.747886075976972
21
-0.0130544000150867
31
0
210
0
220
0
230
1
40
0.996921
41
-1.32452605035149
42
-0.616693652304278
0
ELLIPSE
5
B9
100
AcDbEntity
8
1
62
256
6
ByLayer
370
-1
48
1
60
0
100
AcDbEllipse
10
92.65041
20
-5.682413
30
0
11
0.747886075976968
21
0.0130544000150868
31
0
210
0
220
0
230
1
40
0.996921
41
-2.65572522990873
42
-2.58026252607425
0
ELLIPSE
5
BA
100
AcDbEntity
8
1
62
256
6
ByLayer
370
-1
48
1
60
0
100
AcDbEllipse
10
93.67344
20
-6.248277
30
0
11
-0.421935727355997
21
-0.00736491551653276
31
0
210
0
220
0
230
1
40
0.996921
41
-1.29892749328055
42
-0.524027765428268
0
ELLIPSE
5
BB
100
AcDbEntity
8
1
62
256
6
ByLayer
370
-1
48
1
60
0
100
AcDbEllipse
10
93.088153
20
-6.408739
30
0
11
-0.184971823603932
21
-0.00322869519089706
31
0
210
0
220
0
230
1
40
0.996921
41
0.796325588772004
42
2.94783569800043
0
ELLIPSE
5
BC
100
AcDbEntity
8
1
62
256
6
ByLayer
370
-1
48
1
60
0
100
AcDbEllipse
10
92.671268
20
-6.848624
30
0
11
-0.421935727355997
21
-0.00736491551653276
31
0
210
0
220
0
230
1
40
0.996921
41
-1.57036733696501
42
-0.795467609112518
0
ELLIPSE
5
BD
100
AcDbEntity
8
1
62
256
6
ByLayer
370
-1
48
1
60
0
100
AcDbEllipse
10
92.651779
20
-5.760818
30
0
11
1.29980200370332
21
0.0226881283684669
31
0
210
0
220
0
230
1
40
0.996921
41
0
42
6.28318530717959
0
ELLIPSE
5
BE
100
AcDbEntity
8
1
62
256
6
ByLayer
370
-1
48
1
60
0
100
AcDbEllipse
10
92.651779
20
-5.760818
30
0
11
1.03484236448686
21
0.0180632406625869
31
0
210
0
220
0
230
1
40
0.996921
41
1.04805553085642
42
2.09439510239307
0
ELLIPSE
5
BF
100
AcDbEntity
8
1
62
256
6
ByLayer
370
-1
48
1
60
0
100
AcDbEllipse
10
91.648759
20
-6.282449
30
0
11
-0.421935727355997
21
-0.00736491551653276
31
0
210
0
220
0
230
1
40
0.996921
41
-3.14158210405843
42
-2.68490720030796
0
ELLIPSE
5
C0
100
AcDbEntity
8
1
62
256
6
ByLayer
370
-1
48
1
60
0
100
AcDbEllipse
10
93.500293
20
-5.668306
30
0
11
-0.184971823603932
21
-0.00322869519089706
31
0
210
0
220
0
230
1
40
0.996921
41
1.84266516030868
42
2.96037533145784
0
ELLIPSE
5
C1
100
AcDbEntity
8
1
62
256
6
ByLayer
370
-1
48
1
60
0
100
AcDbEllipse
10
92.23892
20
-6.423926
30
0
11
-0.184971823603932
21
-0.00322869519089706
31
0
210
0
220
0
230
1
40
0.996921
41
0.153796996565432
42
2.34612504447738
0
ELLIPSE
5
C2
100
AcDbEntity
8
1
62
256
6
ByLayer
370
-1
48
1
60
0
100
AcDbEllipse
10
92.671268
20
-6.848624
30
0
11
-0.421935727355997
21
-0.00736491551653276
31
0
210
0
220
0
230
1
40
0.996921
41
-2.34526706481738
42
-1.57036733696501
0
ELLIPSE
5
C3
100
AcDbEntity
8
1
62
256
6
ByLayer
370
-1
48
1
60
0
100
AcDbEllipse
10
92.65041
20
-5.682413
30
0
11
0.747886075976968
21
0.0130544000150868
31
0
210
0
220
0
230
1
40
0.996921
41
-1.57036733696497
42
-0.524027765428294
0
ELLIPSE
5
C4
100
AcDbEntity
8
1
62
256
6
ByLayer
370
-1
48
1
60
0
100
AcDbEllipse
10
92.651779
20
-5.760818
30
0
11
1.03484236448686
21
0.0180632406625869
31
0
210
0
220
0
230
1
40
0.996921
41
-1.0471975511965
42
-0.000857979659962874
0
ELLIPSE
5
C5
100
AcDbEntity
8
1
62
256
6
ByLayer
370
-1
48
1
60
0
100
AcDbEllipse
10
92.651779
20
-5.760818
30
0
11
1.03484236448686
21
0.0180632406625869
31
0
210
0
220
0
230
1
40
0.996921
41
-0.000857979659962874
42
1.04805553085642
0
POINT
5
41
100
AcDbEntity
8
80
62
256
6
ByLayer
370
-1
48
1
60
0
100
AcDbPoint
10
0
20
0
30
0
39
0
210
0
220
0
230
1
50
360
0
POINT
5
43
100
AcDbEntity
8
81
62
256
6
ByLayer
370
-1
48
1
60
0
100
AcDbPoint
10
95.91
20
-10.9
30
0
39
0
210
0
220
0
230
1
50
360
0
POINT
5
45
100
AcDbEntity
8
1
62
256
6
ByLayer
370
-1
48
1
60
0
100
AcDbPoint
10
-105.34
20
0
30
0
39
0
210
0
220
0
230
1
50
360
0
POINT
5
47
100
AcDbEntity
8
2
62
256
6
ByLayer
370
-1
48
1
60
0
100
AcDbPoint
10
95.91
20
10.9
30
0
39
0
210
0
220
0
230
1
50
360
0
SPLINE
5
C6
100
AcDbEntity
8
1
62
256
6
ByLayer
370
-1
48
1
60
0
100
AcDbSpline
70
4
71
3
72
8
73
4
40
0
40
0
40
0
40
0
40
1
40
1
40
1
40
1
41
1
10
82.7172853281072
20
-8.04205437488878
30
0
41
1
10
83.1280913835356
20
-8.2799584820832
30
0
41
1
10
83.5400193903124
20
-8.51748440252618
30
0
41
1
10
83.9525269616818
20
-8.75554864995314
30
0
0
SPLINE
5
C7
100
AcDbEntity
8
1
62
256
6
ByLayer
370
-1
48
1
60
0
100
AcDbSpline
70
4
71
3
72
8
73
4
40
0
40
0
40
0
40
0
40
1
40
1
40
1
40
1
41
1
10
93.8144537112718
20
-10.0181047211594
30
0
41
1
10
93.4845274628022
20
-9.99080634075369
30
0
41
1
10
93.154601373319
20
-9.9635060531358
30
0
41
1
10
92.8246754466987
20
-9.9362038121983
30
0
0
SPLINE
5
C8
100
AcDbEntity
8
1
62
256
6
ByLayer
370
-1
48
1
60
0
100
AcDbSpline
70
4
71
3
72
8
73
4
40
0
40
0
40
0
40
0
40
1
40
1
40
1
40
1
41
1
10
92.7347690523812
20
-10.1917468489307
30
0
41
1
10
90.2881540514594
20
-9.99046189580002
30
0
41
1
10
87.841542065814
20
-9.7891405596522
30
0
41
1
10
85.39493371
20
-9.58777545162204
30
0
0
SPLINE
5
C9
100
AcDbEntity
8
1
62
256
6
ByLayer
370
-1
48
1
60
0
100
AcDbSpline
70
4
71
3
72
8
73
4
40
0
40
0
40
0
40
0
40
1
40
1
40
1
40
1
41
1
10
83.9525269616818
20
-8.75554864995314
30
0
41
1
10
84.4332991197712
20
-9.03300940447807
30
0
41
1
10
84.9141039969934
20
-9.31041382431425
30
0
41
1
10
85.39493371
20
-9.58777545162204
30
0
0
SPLINE
5
CA
100
AcDbEntity
8
1
62
256
6
ByLayer
370
-1
48
1
60
0
100
AcDbSpline
70
4
71
3
72
8
73
4
40
0
40
0
40
0
40
0
40
1
40
1
40
1
40
1
41
1
10
86.9319197204638
20
-6.80960066815436
30
0
41
1
10
86.8962325932189
20
-6.82772034227892
30
0
41
1
10
86.860140443009
20
-6.84390168053844
30
0
41
1
10
86.8237570888982
20
-6.85794259752257
30
0
0
SPLINE
5
CB
100
AcDbEntity
8
1
62
256
6
ByLayer
370
-1
48
1
60
0
100
AcDbSpline
70
4
71
3
72
14
73
10
40
0
40
0
40
0
40
0
40
0.25
40
0.25
40
0.5
40
0.5
40
0.75
40
0.75
40
1
40
1
40
1
40
1
41
1
10
82.7172853281072
20
-8.04205437488878
30
0
41
1
10
81.2503408155649
20
-8.04045839534763
30
0
41
1
10
79.8300905489616
20
-8.04354431277102
30
0
41
1
10
77.1651492517078
20
-7.85258743710037
30
0
41
1
10
75.9430130180866
20
-7.65785832993421
30
0
41
1
10
74.1412409670436
20
-6.57774718562541
30
0
41
1
10
73.632731567387
20
-5.64046322923159
30
0
41
1
10
73.4417096007213
20
-3.18052727989601
30
0
41
1
10
73.69420043174
20
-1.72817322030301
30
0
41
1
10
74.1040512815175
20
-0.306445238600674
30
0
0
SPLINE
5
CC
100
AcDbEntity
8
1
62
256
6
ByLayer
370
-1
48
1
60
0
100
AcDbSpline
70
4
71
3
72
28
73
24
40
-0.124999999999997
40
-0.124999999999997
40
0
40
0
40
0.125000000000002
40
0.125000000000002
40
0.187500000000003
40
0.187500000000003
40
0.250000000000004
40
0.250000000000004
40
0.375000000000006
40
0.375000000000006
40
0.500000000000008
40
0.500000000000008
40
0.62500000000001
40
0.62500000000001
40
0.687500000000009
40
0.687500000000009
40
0.750000000000007
40
0.750000000000007
40
0.812500000000005
40
0.812500000000005
40
0.875000000000003
40
0.875000000000003
40
1
40
1
40
1.125
40
1.125
41
1
10
78.7532319816474
20
-3.40136234309068
30
0
41
1
10
77.8279562184597
20
-3.07324815909189
30
0
41
1
10
77.3538834830886
20
-2.99897695182679
30
0
41
1
10
76.6589006990968
20
-3.2162200477899
30
0
41
1
10
76.432790824349
20
-3.34899002165696
30
0
41
1
10
76.067746324806
20
-3.77311671040135
30
0
41
1
10
75.9426851406449
20
-4.06510834777177
30
0
41
1
10
75.855394251518
20
-4.92090646020628
30
0
41
1
10
76.139387057313
20
-5.37951204194331
30
0
41
1
10
76.8704172603541
20
-5.95153103617307
30
0
41
1
10
77.332270242837
20
-6.10879859131552
30
0
41
1
10
78.3217636646327
20
-6.27434771350909
30
0
41
1
10
78.8476269949789
20
-6.2869889719677
30
0
41
1
10
79.6622309491961
20
-6.16478999959202
30
0
41
1
10
79.9395144089758
20
-6.10312633291812
30
0
41
1
10
80.4487906683304
20
-5.84317501453137
30
0
41
1
10
80.6674196710931
20
-5.56603564980099
30
0
41
1
10
80.5722201207121
20
-4.99159750913446
30
0
41
1
10
80.3952791488668
20
-4.75697201871796
30
0
41
1
10
80.0331412303285
20
-4.33843033156424
30
0
41
1
10
79.8332435139677
20
-4.15740259506131
30
0
41
1
10
79.2078848579632
20
-3.66405469643684
30
0
41
1
10
78.7532319816474
20
-3.40136234309068
30
0
41
1
10
77.8279562184597
20
-3.07324815909189
30
0
0
SPLINE
5
CD
100
AcDbEntity
8
1
62
256
6
ByLayer
370
-1
48
1
60
0
100
AcDbSpline
70
4
71
3
72
10
73
6
40
0
40
0
40
0
40
0
40
0.5
40
0.5
40
1
40
1
40
1
40
1
41
1
10
74.2922131870675
20
0.306445238600702
30
0
41
1
10
74.9301546689705
20
2.26370550847517
30
0
41
1
10
75.8713696795959
20
4.0576236055382
30
0
41
1
10
78.3823208042916
20
6.50237131155012
30
0
41
1
10
79.9861990323561
20
7.17669935220255
30
0
41
1
10
81.8096752997179
20
7.51871876671902
30
0
0
SPLINE
5
CE
100
AcDbEntity
8
1
62
256
6
ByLayer
370
-1
48
1
60
0
100
AcDbSpline
70
4
71
3
72
16
73
12
40
0
40
0
40
0
40
0
40
0.115870757150035
40
0.115870757150035
40
0.377207808483706
40
0.377207808483706
40
0.646790816802056
40
0.646790816802056
40
0.94535712096387
40
0.94535712096387
40
1
40
1
40
1
40
1
41
1
10
74.2922131870675
20
0.30644523860073
30
0
41
1
10
74.2918662075616
20
0.284011353801304
30
0
41
1
10
74.2905473131546
20
0.260651100832234
30
0
41
1
10
74.2831641946777
20
0.183068592882535
30
0
41
1
10
74.2730151725012
20
0.12566346155009
30
0
41
1
10
74.2442777745299
20
0.010719421454894
30
0
41
1
10
74.2251220626355
20
-0.0481714140219367
30
0
41
1
10
74.1788843777832
20
-0.165337718182855
30
0
41
1
10
74.1506459994015
20
-0.224327981626374
30
0
41
1
10
74.1152544547097
20
-0.287355282659775
30
0
41
1
10
74.1096806497604
20
-0.296991649134668
30
0
41
1
10
74.1040512815177
20
-0.306445238600674
30
0
0
SPLINE
5
CF
100
AcDbEntity
8
SK1
62
256
6
ByLayer
370
-1
48
1
60
0
100
AcDbSpline
70
4
71
3
72
24
73
20
40
0
40
0
40
0
40
0
40
0.249999999999995
40
0.249999999999995
40
0.374999999999993
40
0.374999999999993
40
0.437499999999996
40
0.437499999999996
40
0.499999999999999
40
0.499999999999999
40
0.531250000000004
40
0.531250000000004
40
0.562500000000009
40
0.562500000000009
40
0.62500000000001
40
0.62500000000001
40
0.750000000000004
40
0.750000000000004
40
1
40
1
40
1
40
1
41
1
10
-32.09
20
0.208217351629059
30
0
41
1
10
-32.4988420209809
20
0.208217351629059
30
0
41
1
10
-32.9075700421796
20
0.200628106757222
30
0
41
1
10
-33.5201123303113
20
0.171073275450823
30
0
41
1
10
-33.723960835833
20
0.158342940298155
30
0
41
1
10
-34.0285633625019
20
0.129106778533128
30
0
41
1
10
-34.1299152849477
20
0.117782088577599
30
0
41
1
10
-34.3316559370228
20
0.0867855292195827
30
0
41
1
10
-34.4476642593234
20
0.0899171685781255
30
0
41
1
10
-34.5669313789905
20
-0.0136458934178734
30
0
41
1
10
-34.4784711277951
20
-0.0489364234134655
30
0
41
1
10
-34.3778903856424
20
-0.0766629766364701
30
0
41
1
10
-34.3266456087825
20
-0.0864424784147104
30
0
41
1
10
-34.1721535471284
20
-0.112538835792264
30
0
41
1
10
-34.0685119130175
20
-0.124684589520342
30
0
41
1
10
-33.7573848627505
20
-0.156042093009745
30
0
41
1
10
-33.549279040374
20
-0.169368026065086
30
0
41
1
10
-32.9242101016124
20
-0.20037077189474
30
0
41
1
10
-32.5071903882065
20
-0.208217351629059
30
0
41
1
10
-32.09
20
-0.208217351629059
30
0
0
SPLINE
5
D0
100
AcDbEntity
8
1
62
256
6
ByLayer
370
-1
48
1
60
0
100
AcDbSpline
70
4
71
3
72
18
73
14
40
0
40
0
40
0
40
0
40
0.213136621812835
40
0.213136621812835
40
0.388789370395082
40
0.388789370395082
40
0.566083376322617
40
0.566083376322617
40
0.721013275212748
40
0.721013275212748
40
0.927206567140169
40
0.927206567140169
40
1
40
1
40
1
40
1
41
1
10
92.9314053463758
20
-4.88453890003473
30
0
41
1
10
92.9009773896419
20
-4.91354418009016
30
0
41
1
10
92.8646931302774
20
-4.93896178220967
30
0
41
1
10
92.7904662303727
20
-4.97466953122949
30
0
41
1
10
92.7530539001472
20
-4.98715881035292
30
0
41
1
10
92.6750294957018
20
-5.00185416011036
30
0
41
1
10
92.6332225687981
20
-5.00408364176795
30
0
41
1
10
92.5579418219386
20
-4.997956753594
30
0
41
1
10
92.523179969367
20
-4.99087431849492
30
0
41
1
10
92.4484743261928
20
-4.96660276496777
30
0
41
1
10
92.4092724493058
20
-4.94654933289902
30
0
41
1
10
92.363350747304
20
-4.91388362428214
30
0
41
1
10
92.3518576981845
20
-4.90472972014047
30
0
41
1
10
92.34099984071
20
-4.89509704334066
30
0
0
SPLINE
5
D1
100
AcDbEntity
8
1
62
256
6
ByLayer
370
-1
48
1
60
0
100
AcDbSpline
70
4
71
3
72
14
73
10
40
0
40
0
40
0
40
0
40
0.0515824243857455
40
0.0515824243857455
40
0.388223949870934
40
0.388223949870934
40
0.835911716667038
40
0.835911716667038
40
1
40
1
40
1
40
1
41
1
10
93.2777455119204
20
-5.3398917529432
30
0
41
1
10
93.2752454046425
20
-5.33505963133331
30
0
41
1
10
93.2728421928766
20
-5.33018989175261
30
0
41
1
10
93.2556364875711
20
-5.2935901993952
30
0
41
1
10
93.2449003810955
20
-5.26032124841205
30
0
41
1
10
93.2302177847658
20
-5.18461470289037
30
0
41
1
10
93.2292747509067
20
-5.14146888020221
30
0
41
1
10
93.2365956005564
20
-5.08607929454337
30
0
41
1
10
93.2394221258578
20
-5.07140560044201
30
0
41
1
10
93.2430429055696
20
-5.05707055556834
30
0
0
SPLINE
5
D2
100
AcDbEntity
8
1
62
256
6
ByLayer
370
-1
48
1
60
0
100
AcDbSpline
70
4
71
3
72
12
73
8
40
0
40
0
40
0
40
0
40
0.460484600240257
40
0.460484600240257
40
0.842552898956275
40
0.842552898956275
40
1
40
1
40
1
40
1
41
1
10
91.7555466056056
20
-5.94814912509597
30
0
41
1
10
91.797247871186
20
-5.95714412519098
30
0
41
1
10
91.8386780131154
20
-5.97307136000296
30
0
41
1
10
91.90882504029
20
-6.01531280906175
30
0
41
1
10
91.9392461968295
20
-6.03996834770004
30
0
41
1
10
91.9765114744775
20
-6.08114326219265
30
0
41
1
10
91.9868071994528
20
-6.09402197921338
30
0
41
1
10
91.9962957441923
20
-6.10753899077167
30
0
0
SPLINE
5
D3
100
AcDbEntity
8
1
62
256
6
ByLayer
370
-1
48
1
60
0
100
AcDbSpline
70
4
71
3
72
14
73
10
40
0
40
0
40
0
40
0
40
0.277015317563689
40
0.277015317563689
40
0.565168488362553
40
0.565168488362553
40
0.82618101934834
40
0.82618101934834
40
1
40
1
40
1
40
1
41
1
10
92.9314053463758
20
-4.8845389000347
30
0
41
1
10
92.9458829634833
20
-4.87073819227072
30
0
41
1
10
92.9633103092049
20
-4.85891806433884
30
0
41
1
10
93.0026106663872
20
-4.84137325816914
30
0
41
1
10
93.0252675136084
20
-4.8356774277841
30
0
41
1
10
93.0694263551376
20
-4.83306850763543
30
0
41
1
10
93.0915053034646
20
-4.83537625895141
30
0
41
1
10
93.126368288907
20
-4.84526265296935
30
0
41
1
10
93.1400761124736
20
-4.85088535760258
30
0
41
1
10
93.1528278769264
20
-4.85791729574285
30
0
0
SPLINE
5
D4
100
AcDbEntity
8
1
62
256
6
ByLayer
370
-1
48
1
60
0
100
AcDbSpline
70
4
71
3
72
14
73
10
40
0
40
0
40
0
40
0
40
0.283650130928983
40
0.283650130928983
40
0.570412223873287
40
0.570412223873287
40
0.830225900560248
40
0.830225900560248
40
1
40
1
40
1
40
1
41
1
10
91.7555466056056
20
-5.94814912509602
30
0
41
1
10
91.7350825376977
20
-5.94373500743762
30
0
41
1
10
91.7149006251675
20
-5.93552281537768
30
0
41
1
10
91.6785442087991
20
-5.91193546414681
30
0
41
1
10
91.6618762766236
20
-5.89608491988281
30
0
41
1
10
91.6370390992251
20
-5.86054295892967
30
0
41
1
10
91.6278750942082
20
-5.84079514900498
30
0
41
1
10
91.6190779684651
20
-5.8064776049531
30
0
41
1
10
91.6171572806314
20
-5.79222584324555
30
0
41
1
10
91.6169211468963
20
-5.77799593523696
30
0
0
SPLINE
5
D5
100
AcDbEntity
8
1
62
256
6
ByLayer
370
-1
48
1
60
0
100
AcDbSpline
70
4
71
3
72
16
73
12
40
0
40
0
40
0
40
0
40
0.112154184606539
40
0.112154184606539
40
0.336376995522189
40
0.336376995522189
40
0.566075928608957
40
0.566075928608957
40
0.8123628443552
40
0.8123628443552
40
1
40
1
40
1
40
1
41
1
10
93.1847948180127
20
-6.64522632911823
30
0
41
1
10
93.1767367774654
20
-6.65005346532306
30
0
41
1
10
93.1682779982534
20
-6.65425327536221
30
0
41
1
10
93.1422941991366
20
-6.66469893792549
30
0
41
1
10
93.1237571448464
20
-6.66890378413112
30
0
41
1
10
93.0867448160607
20
-6.67148866682248
30
0
41
1
10
93.0678145234682
20
-6.66977317204817
30
0
41
1
10
93.0309581916175
20
-6.66075656269368
30
0
41
1
10
93.0127375750856
20
-6.65296878058226
30
0
41
1
10
92.9840521423234
20
-6.63518941451972
30
0
41
1
10
92.9725716967889
20
-6.62604732111097
30
0
41
1
10
92.9623713220178
20
-6.61588278567271
30
0
0
SPLINE
5
D6
100
AcDbEntity
8
1
62
256
6
ByLayer
370
-1
48
1
60
0
100
AcDbSpline
70
4
71
3
72
14
73
10
40
0
40
0
40
0
40
0
40
0.0495194193903407
40
0.0495194193903407
40
0.386518979112719
40
0.386518979112719
40
0.833963742446552
40
0.833963742446552
40
1
40
1
40
1
40
1
41
1
10
92.0253581121296
20
-6.15576079546304
30
0
41
1
10
92.027757778721
20
-6.16044681051534
30
0
41
1
10
92.0300684605481
20
-6.16518117635704
30
0
41
1
10
92.0472562216864
20
-6.20217067182693
30
0
41
1
10
92.0580710419007
20
-6.23660585978303
30
0
41
1
10
92.0729253004343
20
-6.31595355836763
30
0
41
1
10
92.0739889323788
20
-6.3619340321066
30
0
41
1
10
92.0668186862943
20
-6.42188707275557
30
0
41
1
10
92.0639822868035
20
-6.43803111759794
30
0
41
1
10
92.0603273502553
20
-6.453857317006
30
0
0
SPLINE
5
D7
100
AcDbEntity
8
1
62
256
6
ByLayer
370
-1
48
1
60
0
100
AcDbSpline
70
4
71
3
72
18
73
14
40
0
40
0
40
0
40
0
40
0.206908137364385
40
0.206908137364385
40
0.383647781544023
40
0.383647781544023
40
0.562101564032307
40
0.562101564032307
40
0.717243511322563
40
0.717243511322563
40
0.922330520851765
40
0.922330520851765
40
1
40
1
40
1
40
1
41
1
10
93.2678108596739
20
-6.43291048093596
30
0
41
1
10
93.2566379207554
20
-6.39080211619773
30
0
41
1
10
93.2512492843244
20
-6.34579319265913
30
0
41
1
10
93.2544196141461
20
-6.26151510204738
30
0
41
1
10
93.2611984539593
20
-6.22141503272118
30
0
41
1
10
93.2861160097863
20
-6.14459142229038
30
0
41
1
10
93.3048466255935
20
-6.10681429921419
30
0
41
1
10
93.3481669894096
20
-6.04516356562738
30
0
41
1
10
93.372144962364
20
-6.01934498844275
30
0
41
1
10
93.4319051142892
20
-5.9694557218744
30
0
41
1
10
93.4699371304216
20
-5.94763074823965
30
0
41
1
10
93.5238581047643
20
-5.9268553322282
30
0
41
1
10
93.5390367911265
20
-5.92203881598996
30
0
41
1
10
93.5543399003424
20
-5.91814457393275
30
0
0
SPLINE
5
D8
100
AcDbEntity
8
1
62
256
6
ByLayer
370
-1
48
1
60
0
100
AcDbSpline
70
4
71
3
72
16
73
12
40
0
40
0
40
0
40
0
40
0.0662350891861783
40
0.0662350891861783
40
0.290137439507491
40
0.290137439507491
40
0.51698512776119
40
0.51698512776119
40
0.758332170090971
40
0.758332170090971
40
1
40
1
40
1
40
1
41
1
10
92.1507292843995
20
-6.66371838582648
30
0
41
1
10
92.1458372488723
20
-6.66102068141589
30
0
41
1
10
92.1410619846682
20
-6.65808840594616
30
0
41
1
10
92.1209107956959
20
-6.64438302758569
30
0
41
1
10
92.1068836854447
20
-6.63118227129686
30
0
41
1
10
92.08374615925
20
-6.60160788337916
30
0
41
1
10
92.0743965401815
20
-6.58482780702738
30
0
41
1
10
92.0608069910688
20
-6.54906675305261
30
0
41
1
10
92.0567428106189
20
-6.52957321464649
30
0
41
1
10
92.054423789672
20
-6.49126826279092
30
0
41
1
10
92.0561256139172
20
-6.47205120799913
30
0
41
1
10
92.0603273502552
20
-6.45385731700597
30
0
0
SPLINE
5
D9
100
AcDbEntity
8
1
62
256
6
ByLayer
370
-1
48
1
60
0
100
AcDbSpline
70
4
71
3
72
16
73
12
40
0
40
0
40
0
40
0
40
0.064918907304563
40
0.064918907304563
40
0.289457394229464
40
0.289457394229464
40
0.516865197874411
40
0.516865197874411
40
0.758743723748736
40
0.758743723748736
40
1
40
1
40
1
40
1
41
1
10
91.6169211468963
20
-5.77799593523696
30
0
41
1
10
91.6168307417597
20
-5.77254793444078
30
0
41
1
10
91.6169829354841
20
-5.76708035985558
30
0
41
1
10
91.6187266647738
20
-5.74291216737029
30
0
41
1
10
91.623025735462
20
-5.72411224512405
30
0
41
1
10
91.6366711513081
20
-5.68908225137119
30
0
41
1
10
91.6462412049596
20
-5.67243683253611
30
0
41
1
10
91.6696902675574
20
-5.64237313705465
30
0
41
1
10
91.6840828341379
20
-5.62883870783932
30
0
41
1
10
91.7150120606345
20
-5.60711700450707
30
0
41
1
10
91.7318545917873
20
-5.59866164431767
30
0
41
1
10
91.7490312623877
20
-5.5928352550799
30
0
0
SPLINE
5
DA
100
AcDbEntity
8
1
62
256
6
ByLayer
370
-1
48
1
60
0
100
AcDbSpline
70
4
71
3
72
14
73
10
40
0
40
0
40
0
40
0
40
0.283690008499456
40
0.283690008499456
40
0.571007601273242
40
0.571007601273242
40
0.831353222845946
40
0.831353222845946
40
1
40
1
40
1
40
1
41
1
10
92.3719658163519
20
-6.62644092897875
30
0
41
1
10
92.3571702125653
20
-6.64227784114482
30
0
41
1
10
92.3392702675052
20
-6.65595640026839
30
0
41
1
10
92.2994128113739
20
-6.67621897282675
30
0
41
1
10
92.2767726615207
20
-6.68298712012012
30
0
41
1
10
92.2327068268784
20
-6.68710244049711
30
0
41
1
10
92.2107001852418
20
-6.68529853771869
30
0
41
1
10
92.176371374747
20
-6.6759159517089
30
0
41
1
10
92.1631030842271
20
-6.67054189603718
30
0
41
1
10
92.1507292843995
20
-6.66371838582648
30
0
0
SPLINE
5
DB
100
AcDbEntity
8
1
62
256
6
ByLayer
370
-1
48
1
60
0
100
AcDbSpline
70
4
71
3
72
16
73
12
40
0
40
0
40
0
40
0
40
0.0614320763647434
40
0.0614320763647434
40
0.28538085329344
40
0.28538085329344
40
0.51200504424122
40
0.51200504424122
40
0.752907584424102
40
0.752907584424102
40
1
40
1
40
1
40
1
41
1
10
93.1528278769264
20
-4.85791729574285
30
0
41
1
10
93.1573679208184
20
-4.86042089498366
30
0
41
1
10
93.1618067769872
20
-4.86310996895023
30
0
41
1
10
93.1817176211093
20
-4.87630950283312
30
0
41
1
10
93.1958334867185
20
-4.88908789896013
30
0
41
1
10
93.2191418370356
20
-4.91745652513023
30
0
41
1
10
93.2285819727161
20
-4.93343097957225
30
0
41
1
10
93.2423547018855
20
-4.96724562772053
30
0
41
1
10
93.2465192748169
20
-4.9855566489575
30
0
41
1
10
93.2490692253836
20
-5.02172938146495
30
0
41
1
10
93.2473622297235
20
-5.03996990032277
30
0
41
1
10
93.2430429055695
20
-5.05707055556832
30
0
0
SPLINE
5
DC
100
AcDbEntity
8
1
62
256
6
ByLayer
370
-1
48
1
60
0
100
AcDbSpline
70
4
71
3
72
14
73
10
40
0
40
0
40
0
40
0
40
0.278866702761074
40
0.278866702761074
40
0.566227159876763
40
0.566227159876763
40
0.826519024823916
40
0.826519024823916
40
1
40
1
40
1
40
1
41
1
10
93.5478236502191
20
-5.56277874747826
30
0
41
1
10
93.5679730207611
20
-5.56880138417526
30
0
41
1
10
93.5878429470688
20
-5.57840930459588
30
0
41
1
10
93.6241070695672
20
-5.60442685488326
30
0
41
1
10
93.6409179190871
20
-5.62147458336673
30
0
41
1
10
93.6660255662453
20
-5.65878689502591
30
0
41
1
10
93.6753227709386
20
-5.67918077370737
30
0
41
1
10
93.6843911072811
20
-5.7144053065397
30
0
41
1
10
93.6863947450421
20
-5.72910035326603
30
0
41
1
10
93.6866360144297
20
-5.74363974633249
30
0
0
SPLINE
5
DD
100
AcDbEntity
8
1
62
256
6
ByLayer
370
-1
48
1
60
0
100
AcDbSpline
70
4
71
3
72
18
73
14
40
0
40
0
40
0
40
0
40
0.211078114404653
40
0.211078114404653
40
0.387088783745692
40
0.387088783745692
40
0.564764862678956
40
0.564764862678956
40
0.719762195903118
40
0.719762195903118
40
0.925587847843035
40
0.925587847843035
40
1
40
1
40
1
40
1
41
1
10
92.3719658163519
20
-6.62644092897878
30
0
41
1
10
92.4020388124134
20
-6.59425140808699
30
0
41
1
10
92.437850906971
20
-6.56578437020318
30
0
41
1
10
92.5114999635305
20
-6.52522715398871
30
0
41
1
10
92.5488939364026
20
-6.5108402755186
30
0
41
1
10
92.6269719742688
20
-6.49388320340927
30
0
41
1
10
92.6688582907657
20
-6.49130162018173
30
0
41
1
10
92.7442864143714
20
-6.49840004045791
30
0
41
1
10
92.7791147634622
20
-6.50658000702453
30
0
41
1
10
92.853905703207
20
-6.53438345940799
30
0
41
1
10
92.8931543111423
20
-6.55720390394441
30
0
41
1
10
92.9394644043865
20
-6.59424836193813
30
0
41
1
10
92.9512497229956
20
-6.60480026273342
30
0
41
1
10
92.9623713220178
20
-6.61588278567277
30
0
0
SPLINE
5
DE
100
AcDbEntity
8
1
62
256
6
ByLayer
370
-1
48
1
60
0
100
AcDbSpline
70
4
71
3
72
14
73
10
40
0
40
0
40
0
40
0
40
0.261512035382228
40
0.261512035382228
40
0.551606357916642
40
0.551606357916642
40
0.814190201431572
40
0.814190201431572
40
1
40
1
40
1
40
1
41
1
10
92.0355603030539
20
-5.07806934807741
30
0
41
1
10
92.030416896396
20
-5.0601534399203
30
0
41
1
10
92.0281508652045
20
-5.04085238911634
30
0
41
1
10
92.0304675105925
20
-4.99995530780811
30
0
41
1
10
92.0359152519983
20
-4.9776865030025
30
0
41
1
10
92.0543289760404
20
-4.93827010566397
30
0
41
1
10
92.0668472494316
20
-4.92025580901375
30
0
41
1
10
92.0929719265625
20
-4.89412277549667
30
0
41
1
10
92.1054121083487
20
-4.8844067560585
30
0
41
1
10
92.1187623433134
20
-4.87640935245113
30
0
0
SPLINE
5
DF
100
AcDbEntity
8
1
62
256
6
ByLayer
370
-1
48
1
60
0
100
AcDbSpline
70
4
71
3
72
16
73
12
40
0
40
0
40
0
40
0
40
0.0149733382681447
40
0.0149733382681447
40
0.336896642113958
40
0.336896642113958
40
0.625917410750417
40
0.625917410750417
40
0.880371069347699
40
0.880371069347699
40
1
40
1
40
1
40
1
41
1
10
93.267810859674
20
-6.43291048093593
30
0
41
1
10
93.2681104094237
20
-6.43403941847058
30
0
41
1
10
93.2684002979217
20
-6.43517192193877
30
0
41
1
10
93.27461007791
20
-6.46035232728812
30
0
41
1
10
93.2761299526932
20
-6.48643009562559
30
0
41
1
10
93.2691165074189
20
-6.53472610096381
30
0
41
1
10
93.2614315161104
20
-6.55782052767805
30
0
41
1
10
93.2393314255612
20
-6.59679154201035
30
0
41
1
10
93.2254730544776
20
-6.6137624177656
30
0
41
1
10
93.2016578309712
20
-6.63412897010355
30
0
41
1
10
93.1934228830055
20
-6.64005772210274
30
0
41
1
10
93.1847948180127
20
-6.64522632911823
30
0
0
SPLINE
5
E0
100
AcDbEntity
8
1
62
256
6
ByLayer
370
-1
48
1
60
0
100
AcDbSpline
70
4
71
3
72
18
73
14
40
0
40
0
40
0
40
0
40
0.108115903202325
40
0.108115903202325
40
0.304483702097854
40
0.304483702097854
40
0.466074845755089
40
0.466074845755089
40
0.628244078570515
40
0.628244078570515
40
0.783528011536227
40
0.783528011536227
40
1
40
1
40
1
40
1
41
1
10
92.0355603030538
20
-5.07806934807746
30
0
41
1
10
92.0413822495024
20
-5.09834879802307
30
0
41
1
10
92.0456136982466
20
-5.11939259964115
30
0
41
1
10
92.0525243282773
20
-5.18000717699297
30
0
41
1
10
92.0511300897464
20
-5.22158249640256
30
0
41
1
10
92.0361137118866
20
-5.29731618278365
30
0
41
1
10
92.0244389061648
20
-5.33231543996598
30
0
41
1
10
91.9921916027706
20
-5.3984070292465
30
0
41
1
10
91.9711540645142
20
-5.43030959247869
30
0
41
1
10
91.9242862070483
20
-5.48520449764032
30
0
41
1
10
91.8982013468371
20
-5.5091993997431
30
0
41
1
10
91.8327493186823
20
-5.55725406494327
30
0
41
1
10
91.791149675462
20
-5.57854853593784
30
0
41
1
10
91.7490312623877
20
-5.59283525507996
30
0
0
SPLINE
5
E1
100
AcDbEntity
8
1
62
256
6
ByLayer
370
-1
48
1
60
0
100
AcDbSpline
70
4
71
3
72
16
73
12
40
0
40
0
40
0
40
0
40
0.0505122083875378
40
0.0505122083875378
40
0.275398606265575
40
0.275398606265575
40
0.502340107931686
40
0.502340107931686
40
0.743095031836616
40
0.743095031836616
40
1
40
1
40
1
40
1
41
1
10
92.1187623433134
20
-4.87640935245113
30
0
41
1
10
92.1224115857685
20
-4.8742232886963
30
0
41
1
10
92.1261391942966
20
-4.87215594854959
30
0
41
1
10
92.1466655304239
20
-4.8616490406734
30
0
41
1
10
92.1649196797568
20
-4.85550561265202
30
0
41
1
10
92.2016168930201
20
-4.84880269720108
30
0
41
1
10
92.2205258842299
20
-4.84819533076876
30
0
41
1
10
92.2576053675411
20
-4.85223661359672
30
0
41
1
10
92.2761282851845
20
-4.85723877957184
30
0
41
1
10
92.3107969086199
20
-4.87227581869385
30
0
41
1
10
92.3271237597203
20
-4.88278671381789
30
0
41
1
10
92.34099984071
20
-4.89509704334063
30
0
0
SPLINE
5
E2
100
AcDbEntity
8
1
62
256
6
ByLayer
370
-1
48
1
60
0
100
AcDbSpline
70
4
71
3
72
12
73
8
40
0
40
0
40
0
40
0
40
0.463731854105684
40
0.463731854105684
40
0.845258141844206
40
0.845258141844206
40
1
40
1
40
1
40
1
41
1
10
93.5478236502191
20
-5.56277874747829
30
0
41
1
10
93.5057686011102
20
-5.55020851450112
30
0
41
1
10
93.4639863980482
20
-5.53080716649475
30
0
41
1
10
93.3936040611187
20
-5.48341471597206
30
0
41
1
10
93.3632393009909
20
-5.45694728219706
30
0
41
1
10
93.3262478895362
20
-5.41451229205862
30
0
41
1
10
93.3161370743433
20
-5.40155416552426
30
0
41
1
10
93.3068078798569
20
-5.38811355763318
30
0
0
SPLINE
5
E3
100
AcDbEntity
8
1
62
256
6
ByLayer
370
-1
48
1
60
0
100
AcDbSpline
70
4
71
3
72
16
73
12
40
0
40
0
40
0
40
0
40
0.0614541007656751
40
0.0614541007656751
40
0.286012901625682
40
0.286012901625682
40
0.513246227552692
40
0.513246227552692
40
0.75479001832988
40
0.75479001832988
40
1
40
1
40
1
40
1
41
1
10
93.6866360144297
20
-5.74363974633249
30
0
41
1
10
93.6867216372954
20
-5.74879955758414
30
0
41
1
10
93.6865894242419
20
-5.753960426725
30
0
41
1
10
93.6849753428958
20
-5.77770139269893
30
0
41
1
10
93.6807551522181
20
-5.79619144229235
30
0
41
1
10
93.6672460512509
20
-5.83022537247857
30
0
41
1
10
93.657739060309
20
-5.84617078201583
30
0
41
1
10
93.6344010388784
20
-5.87449220268905
30
0
41
1
10
93.6200586709783
20
-5.88694785809489
30
0
41
1
10
93.5889424157469
20
-5.90647163622592
30
0
41
1
10
93.5718125835479
20
-5.9136982318966
30
0
41
1
10
93.5543399003424
20
-5.91814457393278
30
0
0
LINE
5
49
100
AcDbEntity
8
80
62
256
6
ByLayer
370
-1
48
1
60
0
100
AcDbLine
10
0
20
0
30
0
11
-10
21
0
31
0
39
0
210
0
220
0
230
1
0
LINE
5
4A
100
AcDbEntity
8
81
62
256
6
ByLayer
370
-1
48
1
60
0
100
AcDbLine
10
95.91
20
-10.9
30
0
11
105.91
21
-10.9
31
0
39
0
210
0
220
0
230
1
0
LINE
5
4B
100
AcDbEntity
8
1
62
256
6
ByLayer
370
-1
48
1
60
0
100
AcDbLine
10
80.717285
20
8.0425
30
0
11
62.66
21
8.0425
31
0
39
0
210
0
220
0
230
1
0
LINE
5
4C
100
AcDbEntity
8
1
62
256
6
ByLayer
370
-1
48
1
60
0
100
AcDbLine
10
62.66
20
-8.0425
30
0
11
82.717285
21
-8.0425
31
0
39
0
210
0
220
0
230
1
0
LINE
5
4D
100
AcDbEntity
8
1
62
256
6
ByLayer
370
-1
48
1
60
0
100
AcDbLine
10
0
20
-7.9925
30
0
11
62.66
21
-7.9925
31
0
39
0
210
0
220
0
230
1
0
LINE
5
4E
100
AcDbEntity
8
1
62
256
6
ByLayer
370
-1
48
1
60
0
100
AcDbLine
10
62.66
20
7.9925
30
0
11
0
21
7.9925
31
0
39
0
210
0
220
0
230
1
0
LINE
5
4F
100
AcDbEntity
8
1
62
256
6
ByLayer
370
-1
48
1
60
0
100
AcDbLine
10
82.717285
20
-8.0425
30
0
11
83.520379
21
-8.506166
31
0
39
0
210
0
220
0
230
1
0
LINE
5
50
100
AcDbEntity
8
SK1
62
256
6
ByLayer
370
-1
48
1
60
0
100
AcDbLine
10
-104.84
20
-7.9925
30
0
11
0
21
-7.9925
31
0
39
0
210
0
220
0
230
1
0
LINE
5
52
100
AcDbEntity
8
SK1
62
256
6
ByLayer
370
-1
48
1
60
0
100
AcDbLine
10
0
20
7.9925
30
0
11
-104.84
21
7.9925
31
0
39
0
210
0
220
0
230
1
0
LINE
5
53
100
AcDbEntity
8
SK1
62
256
6
ByLayer
370
-1
48
1
60
0
100
AcDbLine
10
-104.84
20
7.9925
30
0
11
-105.34
21
7.4925
31
0
39
0
210
0
220
0
230
1
0
LINE
5
54
100
AcDbEntity
8
SK1
62
256
6
ByLayer
370
-1
48
1
60
0
100
AcDbLine
10
-105.34
20
-7.4925
30
0
11
-104.84
21
-7.9925
31
0
39
0
210
0
220
0
230
1
0
LINE
5
55
100
AcDbEntity
8
1
62
256
6
ByLayer
370
-1
48
1
60
0
100
AcDbLine
10
92.050527
20
-5.178586
30
0
11
92.049316
21
-5.109185
31
0
39
0
210
0
220
0
230
1
0
LINE
5
56
100
AcDbEntity
8
1
62
256
6
ByLayer
370
-1
48
1
60
0
100
AcDbLine
10
93.230126
20
-5.089743
30
0
11
93.231336
21
-5.15911
31
0
39
0
210
0
220
0
230
1
0
LINE
5
57
100
AcDbEntity
8
1
62
256
6
ByLayer
370
-1
48
1
60
0
100
AcDbLine
10
90.92581
20
-5.720359
30
0
11
90.926803
21
-5.777287
31
0
39
0
210
0
220
0
230
1
0
LINE
5
58
100
AcDbEntity
8
1
62
256
6
ByLayer
370
-1
48
1
60
0
100
AcDbLine
10
94.376278
20
-5.717076
30
0
11
94.375284
21
-5.660149
31
0
39
0
210
0
220
0
230
1
0
LINE
5
59
100
AcDbEntity
8
1
62
256
6
ByLayer
370
-1
48
1
60
0
100
AcDbLine
10
93.251504
20
-6.255642
30
0
11
93.252714
21
-6.324964
31
0
39
0
210
0
220
0
230
1
0
LINE
5
5A
100
AcDbEntity
8
1
62
256
6
ByLayer
370
-1
48
1
60
0
100
AcDbLine
10
92.071905
20
-6.34445
30
0
11
92.070694
21
-6.275084
31
0
39
0
210
0
220
0
230
1
0
LINE
5
5B
100
AcDbEntity
8
SK4
62
256
6
ByLayer
370
-1
48
0.05
60
0
100
AcDbLine
10
-110.34
20
0
30
0
11
100.338689
21
0
31
0
39
0
210
0
220
0
230
1
0
LINE
5
5D
100
AcDbEntity
8
4
62
256
6
ByLayer
370
-1
48
0.05
60
0
100
AcDbLine
10
0
20
0
30
0
11
100.338689
21
0
31
0
39
0
210
0
220
0
230
1
0
LINE
5
5F
100
AcDbEntity
8
1
62
256
6
ByLayer
370
-1
48
1
60
0
100
AcDbLine
10
95.330274
20
-0.516121
30
0
11
95.338689
21
-0.507604
31
0
39
0
210
0
220
0
230
1
0
LINE
5
60
100
AcDbEntity
8
1
62
256
6
ByLayer
370
-1
48
1
60
0
100
AcDbLine
10
82.717285
20
-8.0425
30
0
11
82.717285
21
-8.042054
31
0
39
0
210
0
220
0
230
1
0
LINE
5
61
100
AcDbEntity
8
1
62
256
6
ByLayer
370
-1
48
1
60
0
100
AcDbLine
10
87.056337
20
-7.284445
30
0
11
87.136052
21
-7.169343
31
0
39
0
210
0
220
0
230
1
0
LINE
5
62
100
AcDbEntity
8
1
62
256
6
ByLayer
370
-1
48
1
60
0
100
AcDbLine
10
95.329567
20
-0.516545
30
0
11
95.330274
21
-0.516121
31
0
39
0
210
0
220
0
230
1
0
LINE
5
63
100
AcDbEntity
8
1
62
256
6
ByLayer
370
-1
48
1
60
0
100
AcDbLine
10
87.007304
20
-6.955718
30
0
11
87.136052
21
-7.169343
31
0
39
0
210
0
220
0
230
1
0
LINE
5
64
100
AcDbEntity
8
1
62
256
6
ByLayer
370
-1
48
1
60
0
100
AcDbLine
10
62.66
20
0.306445
30
0
11
62.66
21
8.0425
31
0
39
0
210
0
220
0
230
1
0
LINE
5
65
100
AcDbEntity
8
1
62
256
6
ByLayer
370
-1
48
1
60
0
100
AcDbLine
10
62.66
20
-8.0425
30
0
11
62.66
21
-0.306445
31
0
39
0
210
0
220
0
230
1
0
LINE
5
66
100
AcDbEntity
8
1
62
256
6
ByLayer
370
-1
48
1
60
0
100
AcDbLine
10
62.66
20
0.306445
30
0
11
62.66
21
0.208217
31
0
39
0
210
0
220
0
230
1
0
LINE
5
67
100
AcDbEntity
8
1
62
256
6
ByLayer
370
-1
48
1
60
0
100
AcDbLine
10
92.721194
20
-9.414007
30
0
11
92.734769
21
-10.191747
31
0
39
0
210
0
220
0
230
1
0
LINE
5
68
100
AcDbEntity
8
1
62
256
6
ByLayer
370
-1
48
1
60
0
100
AcDbLine
10
87.005525
20
-6.853793
30
0
11
87.134273
21
-7.067418
31
0
39
0
210
0
220
0
230
1
0
LINE
5
69
100
AcDbEntity
8
1
62
256
6
ByLayer
370
-1
48
1
60
0
100
AcDbLine
10
87.056337
20
-7.284445
30
0
11
86.927589
21
-7.07082
31
0
39
0
210
0
220
0
230
1
0
LINE
5
6A
100
AcDbEntity
8
1
62
256
6
ByLayer
370
-1
48
1
60
0
100
AcDbLine
10
62.66
20
-0.208217
30
0
11
0
21
-0.208217
31
0
39
0
210
0
220
0
230
1
0
LINE
5
6B
100
AcDbEntity
8
1
62
256
6
ByLayer
370
-1
48
1
60
0
100
AcDbLine
10
74.292213
20
0.306445
30
0
11
62.66
21
0.306445
31
0
39
0
210
0
220
0
230
1
0
LINE
5
6C
100
AcDbEntity
8
1
62
256
6
ByLayer
370
-1
48
1
60
0
100
AcDbLine
10
88.849505
20
-7.493671
30
0
11
88.851284
21
-7.595596
31
0
39
0
210
0
220
0
230
1
0
LINE
5
6D
100
AcDbEntity
8
1
62
256
6
ByLayer
370
-1
48
1
60
0
100
AcDbLine
10
95.338689
20
-0.468697
30
0
11
95.231593
21
-0.532852
31
0
39
0
210
0
220
0
230
1
0
LINE
5
6E
100
AcDbEntity
8
1
62
256
6
ByLayer
370
-1
48
1
60
0
100
AcDbLine
10
95.338689
20
-0.468697
30
0
11
95.338689
21
-0.507604
31
0
39
0
210
0
220
0
230
1
0
LINE
5
6F
100
AcDbEntity
8
1
62
256
6
ByLayer
370
-1
48
1
60
0
100
AcDbLine
10
88.901038
20
-7.742872
30
0
11
88.851284
21
-7.595596
31
0
39
0
210
0
220
0
230
1
0
LINE
5
70
100
AcDbEntity
8
1
62
256
6
ByLayer
370
-1
48
1
60
0
100
AcDbLine
10
92.828403
20
-10.149754
30
0
11
92.81648
21
-9.466664
31
0
39
0
210
0
220
0
230
1
0
LINE
5
71
100
AcDbEntity
8
1
62
256
6
ByLayer
370
-1
48
1
60
0
100
AcDbLine
10
62.66
20
-0.306445
30
0
11
74.104051
21
-0.306445
31
0
39
0
210
0
220
0
230
1
0
LINE
5
72
100
AcDbEntity
8
1
62
256
6
ByLayer
370
-1
48
1
60
0
100
AcDbLine
10
0
20
-0.208217
30
0
11
0
21
0.208217
31
0
39
0
210
0
220
0
230
1
0
LINE
5
73
100
AcDbEntity
8
1
62
256
6
ByLayer
370
-1
48
1
60
0
100
AcDbLine
10
87.134273
20
-7.067418
30
0
11
87.136052
21
-7.169343
31
0
39
0
210
0
220
0
230
1
0
LINE
5
74
100
AcDbEntity
8
1
62
256
6
ByLayer
370
-1
48
1
60
0
100
AcDbLine
10
87.582586
20
4.750713
30
0
11
95.338689
21
1.031802
31
0
39
0
210
0
220
0
230
1
0
LINE
5
75
100
AcDbEntity
8
1
62
256
6
ByLayer
370
-1
48
1
60
0
100
AcDbLine
10
89.0397
20
-7.379735
30
0
11
88.849505
21
-7.493671
31
0
39
0
210
0
220
0
230
1
0
LINE
5
76
100
AcDbEntity
8
1
62
256
6
ByLayer
370
-1
48
1
60
0
100
AcDbLine
10
89.129125
20
-7.429157
30
0
11
88.851284
21
-7.595596
31
0
39
0
210
0
220
0
230
1
0
LINE
5
77
100
AcDbEntity
8
1
62
256
6
ByLayer
370
-1
48
1
60
0
100
AcDbLine
10
88.901038
20
-7.742872
30
0
11
89.282893
21
-7.514124
31
0
39
0
210
0
220
0
230
1
0
LINE
5
78
100
AcDbEntity
8
1
62
256
6
ByLayer
370
-1
48
1
60
0
100
AcDbLine
10
86.93192
20
-6.809601
30
0
11
86.930141
21
-6.707675
31
0
39
0
210
0
220
0
230
1
0
LINE
5
79
100
AcDbEntity
8
1
62
256
6
ByLayer
370
-1
48
1
60
0
100
AcDbLine
10
0
20
0.208217
30
0
11
62.66
21
0.208217
31
0
39
0
210
0
220
0
230
1
0
LINE
5
7A
100
AcDbEntity
8
1
62
256
6
ByLayer
370
-1
48
1
60
0
100
AcDbLine
10
86.927589
20
-7.07082
30
0
11
87.007304
21
-6.955718
31
0
39
0
210
0
220
0
230
1
0
LINE
5
7B
100
AcDbEntity
8
1
62
256
6
ByLayer
370
-1
48
1
60
0
100
AcDbLine
10
87.005525
20
-6.853793
30
0
11
87.007304
21
-6.955718
31
0
39
0
210
0
220
0
230
1
0
LINE
5
7C
100
AcDbEntity
8
1
62
256
6
ByLayer
370
-1
48
1
60
0
100
AcDbLine
10
83.952527
20
-8.755549
30
0
11
87.582586
21
4.750713
31
0
39
0
210
0
220
0
230
1
0
LINE
5
7D
100
AcDbEntity
8
1
62
256
6
ByLayer
370
-1
48
1
60
0
100
AcDbLine
10
0
20
-7.9925
30
0
11
0
21
-0.208217
31
0
39
0
210
0
220
0
230
1
0
LINE
5
7E
100
AcDbEntity
8
1
62
256
6
ByLayer
370
-1
48
1
60
0
100
AcDbLine
10
0
20
0.208217
30
0
11
0
21
7.9925
31
0
39
0
210
0
220
0
230
1
0
LINE
5
7F
100
AcDbEntity
8
1
62
256
6
ByLayer
370
-1
48
1
60
0
100
AcDbLine
10
80.717285
20
8.0425
30
0
11
81.809675
21
7.518719
31
0
39
0
210
0
220
0
230
1
0
LINE
5
80
100
AcDbEntity
8
1
62
256
6
ByLayer
370
-1
48
1
60
0
100
AcDbLine
10
95.338689
20
1.031802
30
0
11
95.338689
21
-0.468697
31
0
39
0
210
0
220
0
230
1
0
LINE
5
81
100
AcDbEntity
8
1
62
256
6
ByLayer
370
-1
48
1
60
0
100
AcDbLine
10
81.809675
20
7.518719
30
0
11
87.582586
21
4.750713
31
0
39
0
210
0
220
0
230
1
0
LINE
5
82
100
AcDbEntity
8
1
62
256
6
ByLayer
370
-1
48
1
60
0
100
AcDbLine
10
62.66
20
-0.208217
30
0
11
62.66
21
-0.306445
31
0
39
0
210
0
220
0
230
1
0
LINE
5
83
100
AcDbEntity
8
SK1
62
256
6
ByLayer
370
-1
48
1
60
0
100
AcDbLine
10
-105.34
20
7.4925
30
0
11
-105.34
21
-7.4925
31
0
39
0
210
0
220
0
230
1
0
LINE
5
84
100
AcDbEntity
8
SK1
62
256
6
ByLayer
370
-1
48
1
60
0
100
AcDbLine
10
-104.84
20
7.9925
30
0
11
-104.84
21
-7.9925
31
0
39
0
210
0
220
0
230
1
0
LINE
5
85
100
AcDbEntity
8
SK1
62
256
6
ByLayer
370
-1
48
1
60
0
100
AcDbLine
10
0
20
-0.208217
30
0
11
0
21
0.208217
31
0
39
0
210
0
220
0
230
1
0
LINE
5
86
100
AcDbEntity
8
SK1
62
256
6
ByLayer
370
-1
48
1
60
0
100
AcDbLine
10
-32.09
20
0.208217
30
0
11
0
21
0.208217
31
0
39
0
210
0
220
0
230
1
0
LINE
5
87
100
AcDbEntity
8
1
62
256
6
ByLayer
370
-1
48
1
60
0
100
AcDbLine
10
86.892098
20
-5.514254
30
0
11
95.141113
21
-0.572716
31
0
39
0
210
0
220
0
230
1
0
LINE
5
88
100
AcDbEntity
8
1
62
256
6
ByLayer
370
-1
48
1
60
0
100
AcDbLine
10
95.742504
20
-0.905024
30
0
11
95.909936
21
-10.497204
31
0
39
0
210
0
220
0
230
1
0
LINE
5
89
100
AcDbEntity
8
1
62
256
6
ByLayer
370
-1
48
1
60
0
100
AcDbLine
10
95.320509
20
-10.850299
30
0
11
86.904062
21
-6.199657
31
0
39
0
210
0
220
0
230
1
0
LINE
5
8A
100
AcDbEntity
8
1
62
256
6
ByLayer
370
-1
48
1
60
0
100
AcDbLine
10
92.034285
20
-5.004993
30
0
11
92.03556
21
-5.078069
31
0
39
0
210
0
220
0
230
1
0
LINE
5
8B
100
AcDbEntity
8
1
62
256
6
ByLayer
370
-1
48
1
60
0
100
AcDbLine
10
92.37069
20
-6.553364
30
0
11
92.371966
21
-6.626441
31
0
39
0
210
0
220
0
230
1
0
LINE
5
8C
100
AcDbEntity
8
1
62
256
6
ByLayer
370
-1
48
1
60
0
100
AcDbLine
10
91.996296
20
-6.107539
30
0
11
91.995154
21
-6.042126
31
0
39
0
210
0
220
0
230
1
0
LINE
5
8D
100
AcDbEntity
8
1
62
256
6
ByLayer
370
-1
48
1
60
0
100
AcDbLine
10
92.024216
20
-6.090348
30
0
11
92.025358
21
-6.155761
31
0
39
0
210
0
220
0
230
1
0
LINE
5
8E
100
AcDbEntity
8
1
62
256
6
ByLayer
370
-1
48
1
60
0
100
AcDbLine
10
92.961096
20
-6.542806
30
0
11
92.962371
21
-6.615883
31
0
39
0
210
0
220
0
230
1
0
LINE
5
8F
100
AcDbEntity
8
1
62
256
6
ByLayer
370
-1
48
1
60
0
100
AcDbLine
10
93.553064
20
-5.845068
30
0
11
93.55434
21
-5.918145
31
0
39
0
210
0
220
0
230
1
0
LINE
5
90
100
AcDbEntity
8
1
62
256
6
ByLayer
370
-1
48
1
60
0
100
AcDbLine
10
93.241768
20
-4.98402
30
0
11
93.243043
21
-5.057071
31
0
39
0
210
0
220
0
230
1
0
LINE
5
91
100
AcDbEntity
8
1
62
256
6
ByLayer
370
-1
48
1
60
0
100
AcDbLine
10
91.754272
20
-5.875099
30
0
11
91.755547
21
-5.948149
31
0
39
0
210
0
220
0
230
1
0
LINE
5
92
100
AcDbEntity
8
SK1
62
256
6
ByLayer
370
-1
48
1
60
0
100
AcDbLine
10
-32.09
20
0.208217
30
0
11
-32.09
21
-0.208217
31
0
39
0
210
0
220
0
230
1
0
LINE
5
93
100
AcDbEntity
8
SK1
62
256
6
ByLayer
370
-1
48
1
60
0
100
AcDbLine
10
0
20
-7.9925
30
0
11
0
21
-0.208217
31
0
39
0
210
0
220
0
230
1
0
LINE
5
94
100
AcDbEntity
8
SK1
62
256
6
ByLayer
370
-1
48
1
60
0
100
AcDbLine
10
0
20
0.208217
30
0
11
0
21
7.9925
31
0
39
0
210
0
220
0
230
1
0
LINE
5
95
100
AcDbEntity
8
SK1
62
256
6
ByLayer
370
-1
48
1
60
0
100
AcDbLine
10
0
20
-0.208217
30
0
11
-32.09
21
-0.208217
31
0
39
0
210
0
220
0
230
1
0
LINE
5
96
100
AcDbEntity
8
2
62
256
6
ByLayer
370
-1
48
1
60
1
100
AcDbLine
10
95.91
20
0
30
0
11
95.911
21
0.001
31
0
39
0
210
0
220
0
230
1
0
MTEXT
5
E4
100
AcDbEntity
8
SK6
62
256
6
ByLayer
370
-1
48
1
60
0
100
AcDbMText
10
-1.34
20
15.3016
30
0
210
0
220
0
230
1
1
\W00.709;\fsimplex.shx,bigfont.shx;E16R-STFCL 11-R 
40
3.5
41
0
44
1.084337
50
0
71
7
72
5
7
DEFAULT
0
DIMENSION
5
117
100
AcDbEntity
8
2
62
256
6
ByLayer
370
-3
48
1
60
0
100
AcDbDimension
2
DimnDraft3D1
10
108.16
20
0
30
0
11
108.16
21
-29.231316
31
0
70
32
71
5
72
1
41
1
210
0
220
0
230
1
3
Standard
100
AcDbAlignedDimension
13
97.91
23
-10.9
33
0
14
97.91
24
0
34
0
50
90
100
AcDbRotatedDimension
1001
ACAD
1000
DSTYLE
1002
{
1070
    74
1070
     0
1070
   279
1070
     0
1070
   172
1070
     1
1070
   173
1070
     1
1070
   340
1005
E5
1070
    77
1070
     1
1070
    73
1070
     0
1070
   171
1070
     4
1070
   274
1070
     4
1070
   177
1070
     2
1070
   176
1070
     2
1070
   178
1070
     7
1070
    78
1070
     8
1070
    41
1041
3.175
1070
   147
1041
2.25
1070
    42
1041
2.0
1070
    44
1041
2.0
1070
   140
1041
4.5
1070
   343
1005
118
1070
   344
1005
118
1002
}
0
DIMENSION
5
12D
100
AcDbEntity
8
SK2
62
256
6
ByLayer
370
-3
48
1
60
0
100
AcDbDimension
2
DimnDraft3D2
10
-115.09
20
7.9925
30
0
11
-115.09
21
-4.221711
31
0
70
32
71
5
72
1
41
1
210
0
220
0
230
1
3
Standard
100
AcDbAlignedDimension
13
-107.34
23
-7.9925
33
0
14
-107.34
24
7.9925
34
0
50
90
100
AcDbRotatedDimension
1001
ACAD
1000
DSTYLE
1002
{
1070
    74
1070
     0
1070
   279
1070
     0
1070
   172
1070
     1
1070
   173
1070
     1
1070
   340
1005
E5
1070
    77
1070
     1
1070
    73
1070
     0
1070
   171
1070
     4
1070
   274
1070
     4
1070
   177
1070
     2
1070
   176
1070
     2
1070
   178
1070
     7
1070
    78
1070
     8
1070
    41
1041
3.175
1070
   147
1041
2.25
1070
    42
1041
2.0
1070
    44
1041
2.0
1070
   140
1041
4.5
1070
   343
1005
118
1070
   344
1005
118
1002
}
0
DIMENSION
5
13B
100
AcDbEntity
8
SK2
62
256
6
ByLayer
370
-3
48
1
60
0
100
AcDbDimension
2
DimnDraft3D3
10
95.91
20
-28.15
30
0
11
-11.530132
21
-28.15
31
0
70
32
71
5
72
1
41
1
210
0
220
0
230
1
3
Standard
100
AcDbAlignedDimension
13
-105.34
23
-9.9925
33
0
14
95.91
24
-12.9
34
0
50
0
100
AcDbRotatedDimension
1001
ACAD
1000
DSTYLE
1002
{
1070
   279
1070
     0
1070
   172
1070
     1
1070
   173
1070
     1
1070
   340
1005
E5
1070
    77
1070
     1
1070
    73
1070
     0
1070
   171
1070
     4
1070
   274
1070
     4
1070
   177
1070
     2
1070
   176
1070
     2
1070
   178
1070
     7
1070
    78
1070
     8
1070
    41
1041
3.175
1070
   147
1041
2.25
1070
    42
1041
2.0
1070
    44
1041
2.0
1070
   140
1041
4.5
1070
   343
1005
118
1070
   344
1005
118
1002
}
0
DIMENSION
5
149
100
AcDbEntity
8
2
62
256
6
ByLayer
370
-3
48
1
60
0
100
AcDbDimension
2
DimnDraft3D4
10
135.646147
20
0
30
0
11
119.736803
21
32.727109
31
0
70
34
71
5
72
1
41
1
210
0
220
0
230
1
3
Standard
100
AcDb2LineAngularDimension
13
95.683119
23
2.09802
33
0
14
95.022928
24
39.920326
34
0
15
97.91
25
0
35
0
16
125.456801
26
30.260654
36
0
40
0
0
ENDSEC
0
SECTION
2
OBJECTS
0
DICTIONARY
5
17a
330
0
100
AcDbDictionary
280
0
281
1
3
ACAD_GROUP
350
17b
3
ACAD_MLINESTYLE
350
17c
0
DICTIONARY
5
17b
330
0
100
AcDbDictionary
280
0
281
1
0
DICTIONARY
5
17c
330
0
100
AcDbDictionary
280
0
281
1
3
Standard
350
18
0
MLINESTYLE
5
18
330
17c
100
AcDbMlineStyle
2
Standard
70
0
3

62
256
51
90
52
90
71
2
49
-0.5
62
256
6
ByLayer
49
0.5
62
256
6
ByLayer
0
RASTERVARIABLES
5
168
330

100
AcDbRasterVariables
90
0
70
1
71
1
72
1
0
ENDSEC
0
EOF
