0
SECTION
2
HEADER
9
$ACADVER
1
AC1015
9
$DWGCODEPAGE
3
ANSI_1252
9
$HANDSEED
5
170
9
$ANGBASE
50
0
9
$ANGDIR
70
0
9
$ATTMODE
70
1
9
$AUNITS
70
0
9
$AUPREC
70
0
9
$CECOLOR
62
256
9
$CELTSCALE
40
1
9
$CELTYPE
6
ByLayer
9
$CELWEIGHT
370
-1
9
$CLAYER
8
0
9
$CMLJUST
70
0
9
$CMLSCALE
40
1
9
$CMLSTYLE
2
Standard
9
$DIMSTYLE
2
Standard
9
$TEXTSIZE
40
0.2
9
$TEXTSTYLE
7
Standard
9
$LUNITS
70
2
9
$LUPREC
70
4
9
$EXTNAMES
290
1
9
$INSUNITS
70
4
9
$LTSCALE
40
1
9
$LWDISPLAY
290
0
9
$PDMODE
70
0
9
$PDSIZE
40
0
9
$PLINEGEN
70
0
0
ENDSEC
0
SECTION
2
CLASSES
0
CLASS
1
RASTERVARIABLES
2
AcDbRasterVariables
3
ISM
90
0
280
0
281
0
0
ENDSEC
0
SECTION
2
TABLES
0
TABLE
2
VPORT
5
166
100
AcDbSymbolTable
0
VPORT
5
1
100
AcDbSymbolTableRecord
100
AcDbViewportTableRecord
2
*Active
70
0
10
0
20
0
11
1
21
1
12
-1
22
1
13
0
23
0
14
0.5
24
0.5
15
10
25
10
16
0
26
0
36
1
17
0
27
0
37
0
0
ENDTAB
0
TABLE
2
LTYPE
5
167
100
AcDbSymbolTable
0
LTYPE
5
14
100
AcDbSymbolTableRecord
100
AcDbLinetypeTableRecord
70
0
2
ByBlock
3

72
65
73
0
40
0
0
LTYPE
5
15
100
AcDbSymbolTableRecord
100
AcDbLinetypeTableRecord
70
0
2
ByLayer
3

72
65
73
0
40
0
0
LTYPE
5
16
100
AcDbSymbolTableRecord
100
AcDbLinetypeTableRecord
70
0
2
CONTINUOUS
3
Solid line
72
65
73
0
40
0
0
LTYPE
5
3B
100
AcDbSymbolTableRecord
100
AcDbLinetypeTableRecord
70
0
2
DASHED
3
__ __ __ __ __ __ __ __ __
72
65
73
2
40
25.72
49
12.86
74
0
49
-12.86
74
0
0
LTYPE
5
3C
100
AcDbSymbolTableRecord
100
AcDbLinetypeTableRecord
70
0
2
HIDDEN
3
_ _ _ _ _ _ _ _ _ _ _ _ _ _ _
72
65
73
2
40
0.5
49
0.25
74
0
49
-0.25
74
0
0
LTYPE
5
3D
100
AcDbSymbolTableRecord
100
AcDbLinetypeTableRecord
70
0
2
PHANTOM
3
____ _ _ ____ _ _ _____ _ _ ____
72
65
73
6
40
50.5
49
18
74
0
49
-6.5
74
0
49
6.5
74
0
49
-6.5
74
0
49
6.5
74
0
49
-6.5
74
0
0
LTYPE
5
3E
100
AcDbSymbolTableRecord
100
AcDbLinetypeTableRecord
70
0
2
CENTER
3
____ _ ____ _ ____ _ ____
72
65
73
4
40
47.5
49
22
74
0
49
-8.5
74
0
49
8.5
74
0
49
-8.5
74
0
0
LTYPE
5
3F
100
AcDbSymbolTableRecord
100
AcDbLinetypeTableRecord
70
0
2
DOT
3
.........................
72
65
73
2
40
10
49
0
74
0
49
-10
74
0
0
LTYPE
5
40
100
AcDbSymbolTableRecord
100
AcDbLinetypeTableRecord
70
0
2
DASHDOT
3
_._._._._._._._._._._._._._._._.
72
65
73
4
40
70
49
31
74
0
49
-13
74
0
49
13
74
0
49
-13
74
0
0
ENDTAB
0
TABLE
2
LAYER
5
168
100
AcDbSymbolTable
0
LAYER
5
10
100
AcDbSymbolTableRecord
100
AcDbLayerTableRecord
2
0
70
0
62
7
6
CONTINUOUS
290
1
370
-3
390
0
0
LAYER
5
42
100
AcDbSymbolTableRecord
100
AcDbLayerTableRecord
2
80
70
0
62
-6
6
CONTINUOUS
290
1
370
-3
390
0
0
LAYER
5
44
100
AcDbSymbolTableRecord
100
AcDbLayerTableRecord
2
81
70
0
62
-3
6
CONTINUOUS
290
1
370
-3
390
0
0
LAYER
5
46
100
AcDbSymbolTableRecord
100
AcDbLayerTableRecord
2
1
70
0
62
4
6
CONTINUOUS
290
1
370
-3
390
0
0
LAYER
5
48
100
AcDbSymbolTableRecord
100
AcDbLayerTableRecord
2
2
70
0
62
7
6
CONTINUOUS
290
1
370
-3
390
0
0
LAYER
5
5E
100
AcDbSymbolTableRecord
100
AcDbLayerTableRecord
2
4
70
0
62
-2
6
CENTER
290
1
370
-3
390
0
0
LAYER
5
152
100
AcDbSymbolTableRecord
100
AcDbLayerTableRecord
2
SK1
70
0
62
4
6
CONTINUOUS
290
1
370
-3
390
0
0
LAYER
5
153
100
AcDbSymbolTableRecord
100
AcDbLayerTableRecord
2
SK4
70
0
62
2
6
CENTER
290
1
370
-3
390
0
0
LAYER
5
154
100
AcDbSymbolTableRecord
100
AcDbLayerTableRecord
2
SK6
70
0
62
5
6
CONTINUOUS
290
1
370
-3
390
0
0
LAYER
5
155
100
AcDbSymbolTableRecord
100
AcDbLayerTableRecord
2
SK2
70
0
62
7
6
CONTINUOUS
290
1
370
-3
390
0
0
ENDTAB
0
TABLE
2
STYLE
5
169
100
AcDbSymbolTable
0
STYLE
5
11
100
AcDbSymbolTableRecord
100
AcDbTextStyleTableRecord
2
Standard
3
txt
70
0
71
0
40
0
41
1
42
0
50
0
0
STYLE
5
CE
100
AcDbSymbolTableRecord
100
AcDbTextStyleTableRecord
2
DEFAULT
3
simplex.shx
70
0
71
0
40
0
41
1
42
0
50
0
0
STYLE
5
F1
100
AcDbSymbolTableRecord
100
AcDbTextStyleTableRecord
2
DWGDirectTextStyle
3
SIMPLEX
70
0
71
0
40
0
41
1
42
0
50
0
0
ENDTAB
0
TABLE
2
DIMSTYLE
5
16a
100
AcDbSymbolTable
100
AcDbDimStyleTable
0
DIMSTYLE
105
27
100
AcDbSymbolTableRecord
100
AcDbDimStyleTableRecord
2
Standard
70
0
3
<>
41
0.18
42
0.0625
44
0.18
140
0.18
147
0.09
73
0
74
0
77
1
271
2
275
0
278
52
280
0
340
11
0
ENDTAB
0
TABLE
2
VIEW
5
16b
100
AcDbSymbolTable
0
ENDTAB
0
TABLE
2
UCS
5
16c
100
AcDbSymbolTable
0
ENDTAB
0
TABLE
2
APPID
5
16d
100
AcDbSymbolTable
0
APPID
5
12
100
AcDbSymbolTableRecord
100
AcDbRegAppTableRecord
2
ACAD
70
0
0
ENDTAB
0
TABLE
2
BLOCK_RECORD
5
16e
100
AcDbSymbolTable
0
BLOCK_RECORD
5
1F
100
AcDbSymbolTableRecord
100
AcDbBlockTableRecord
2
*Model_Space
340
0
70
0
0
BLOCK_RECORD
5
1B
100
AcDbSymbolTableRecord
100
AcDbBlockTableRecord
2
*Paper_Space
340
0
70
0
0
BLOCK_RECORD
5
23
100
AcDbSymbolTableRecord
100
AcDbBlockTableRecord
2
*Paper_Space0
340
0
70
0
0
BLOCK_RECORD
5
F3
100
AcDbSymbolTableRecord
100
AcDbBlockTableRecord
2
DimnDraft3D1
340
0
70
0
0
BLOCK_RECORD
5
101
100
AcDbSymbolTableRecord
100
AcDbBlockTableRecord
2
_CLOSED
340
0
70
0
0
BLOCK_RECORD
5
108
100
AcDbSymbolTableRecord
100
AcDbBlockTableRecord
2
DimnDraft3D2
340
0
70
0
0
BLOCK_RECORD
5
117
100
AcDbSymbolTableRecord
100
AcDbBlockTableRecord
2
DimnDraft3D3
340
0
70
0
0
BLOCK_RECORD
5
125
100
AcDbSymbolTableRecord
100
AcDbBlockTableRecord
2
DimnDraft3D4
340
0
70
0
0
ENDTAB
0
ENDSEC
0
SECTION
2
BLOCKS
0
BLOCK
5
20
100
AcDbEntity
8
0
100
AcDbBlockBegin
2
*Model_Space
70
0
10
0
20
0
30
0
3
*Model_Space
0
ENDBLK
5
21
100
AcDbEntity
8
0
100
AcDbBlockEnd
0
BLOCK
5
1C
100
AcDbEntity
8
0
100
AcDbBlockBegin
2
*Paper_Space
70
0
10
0
20
0
30
0
3
*Paper_Space
0
ENDBLK
5
1D
100
AcDbEntity
8
0
100
AcDbBlockEnd
0
BLOCK
5
24
100
AcDbEntity
8
0
100
AcDbBlockBegin
2
*Paper_Space0
70
0
10
0
20
0
30
0
3
*Paper_Space0
0
ENDBLK
5
25
100
AcDbEntity
8
0
100
AcDbBlockEnd
0
BLOCK
5
FE
100
AcDbEntity
8
0
100
AcDbBlockBegin
2
DimnDraft3D1
70
0
10
0
20
0
30
0
3
DimnDraft3D1
0
MTEXT
5
F4
100
AcDbEntity
8
2
62
256
6
ByLayer
370
-1
48
1
60
0
100
AcDbMText
10
107.035
20
22.28
30
0
210
0
220
0
230
1
1
\W01.000;\fsimplex.shx,bigfont.shx;11.0 
40
4.5
41
0
44
1.084337
50
90
71
7
72
5
7
DEFAULT
0
LINE
5
F5
100
AcDbEntity
8
2
62
256
6
ByLayer
370
-1
48
1
60
0
100
AcDbLine
10
97.91
20
10.9
30
0
11
110.16
21
10.9
31
0
39
0
210
0
220
0
230
1
0
LINE
5
F6
100
AcDbEntity
8
2
62
256
6
ByLayer
370
-1
48
1
60
0
100
AcDbLine
10
97.91
20
0
30
0
11
110.16
21
0
31
0
39
0
210
0
220
0
230
1
0
LINE
5
F7
100
AcDbEntity
8
2
62
256
6
ByLayer
370
-1
48
1
60
0
100
AcDbLine
10
108.16
20
0
30
0
11
108.16
21
29.231316
31
0
39
0
210
0
220
0
230
1
0
LINE
5
F8
100
AcDbEntity
8
2
62
256
6
ByLayer
370
-1
48
1
60
0
100
AcDbLine
10
108.16
20
10.9
30
0
11
108.577997
21
7.725002
31
0
39
0
210
0
220
0
230
1
0
LINE
5
F9
100
AcDbEntity
8
2
62
256
6
ByLayer
370
-1
48
1
60
0
100
AcDbLine
10
108.16
20
10.9
30
0
11
107.742003
21
7.724998
31
0
39
0
210
0
220
0
230
1
0
LINE
5
FA
100
AcDbEntity
8
2
62
256
6
ByLayer
370
-1
48
1
60
0
100
AcDbLine
10
108.577997
20
7.725002
30
0
11
107.742003
21
7.724998
31
0
39
0
210
0
220
0
230
1
0
LINE
5
FB
100
AcDbEntity
8
2
62
256
6
ByLayer
370
-1
48
1
60
0
100
AcDbLine
10
108.16
20
0
30
0
11
107.742003
21
3.174998
31
0
39
0
210
0
220
0
230
1
0
LINE
5
FC
100
AcDbEntity
8
2
62
256
6
ByLayer
370
-1
48
1
60
0
100
AcDbLine
10
108.16
20
0
30
0
11
108.577997
21
3.175002
31
0
39
0
210
0
220
0
230
1
0
LINE
5
FD
100
AcDbEntity
8
2
62
256
6
ByLayer
370
-1
48
1
60
0
100
AcDbLine
10
107.742003
20
3.174998
30
0
11
108.577997
21
3.175002
31
0
39
0
210
0
220
0
230
1
0
ENDBLK
5
FF
100
AcDbEntity
8
0
100
AcDbBlockEnd
0
BLOCK
5
102
100
AcDbEntity
8
0
100
AcDbBlockBegin
2
_CLOSED
70
0
10
0
20
0
30
0
3
_CLOSED
0
LINE
5
104
100
AcDbEntity
8
0
62
256
6
ByLayer
370
-2
48
1
60
0
100
AcDbLine
10
-1
20
0.166667
30
0
11
0
21
0
31
0
39
0
210
0
220
0
230
1
0
LINE
5
105
100
AcDbEntity
8
0
62
256
6
ByLayer
370
-2
48
1
60
0
100
AcDbLine
10
0
20
0
30
0
11
-1
21
-0.166667
31
0
39
0
210
0
220
0
230
1
0
LINE
5
106
100
AcDbEntity
8
0
62
256
6
ByLayer
370
-2
48
1
60
0
100
AcDbLine
10
-1
20
0.166667
30
0
11
-1
21
-0.166667
31
0
39
0
210
0
220
0
230
1
0
LINE
5
107
100
AcDbEntity
8
0
62
256
6
ByLayer
370
-2
48
1
60
0
100
AcDbLine
10
0
20
0
30
0
11
-1
21
0
31
0
39
0
210
0
220
0
230
1
0
ENDBLK
5
103
100
AcDbEntity
8
0
100
AcDbBlockEnd
0
BLOCK
5
114
100
AcDbEntity
8
0
100
AcDbBlockBegin
2
DimnDraft3D2
70
0
10
0
20
0
30
0
3
DimnDraft3D2
0
MTEXT
5
109
100
AcDbEntity
8
SK2
62
256
6
ByLayer
370
-1
48
1
60
0
100
AcDbMText
10
-116.215
20
-3.096711
30
0
210
0
220
0
230
1
1
\W01.000;\fsimplex.shx,bigfont.shx;%%c16 
40
4.5
41
0
44
1.084337
50
90
71
7
72
5
7
DEFAULT
0
LINE
5
10B
100
AcDbEntity
8
SK2
62
256
6
ByLayer
370
-1
48
1
60
0
100
AcDbLine
10
-107.34
20
-7.9925
30
0
11
-117.09
21
-7.9925
31
0
39
0
210
0
220
0
230
1
0
LINE
5
10C
100
AcDbEntity
8
SK2
62
256
6
ByLayer
370
-1
48
1
60
0
100
AcDbLine
10
-107.34
20
7.9925
30
0
11
-117.09
21
7.9925
31
0
39
0
210
0
220
0
230
1
0
LINE
5
10D
100
AcDbEntity
8
SK2
62
256
6
ByLayer
370
-1
48
1
60
0
100
AcDbLine
10
-115.09
20
-19.2425
30
0
11
-115.09
21
19.2425
31
0
39
0
210
0
220
0
230
1
0
LINE
5
10E
100
AcDbEntity
8
SK2
62
256
6
ByLayer
370
-1
48
1
60
0
100
AcDbLine
10
-115.09
20
-7.9925
30
0
11
-114.672003
21
-11.167498
31
0
39
0
210
0
220
0
230
1
0
LINE
5
10F
100
AcDbEntity
8
SK2
62
256
6
ByLayer
370
-1
48
1
60
0
100
AcDbLine
10
-115.09
20
-7.9925
30
0
11
-115.507997
21
-11.167502
31
0
39
0
210
0
220
0
230
1
0
LINE
5
110
100
AcDbEntity
8
SK2
62
256
6
ByLayer
370
-1
48
1
60
0
100
AcDbLine
10
-114.672003
20
-11.167498
30
0
11
-115.507997
21
-11.167502
31
0
39
0
210
0
220
0
230
1
0
LINE
5
111
100
AcDbEntity
8
SK2
62
256
6
ByLayer
370
-1
48
1
60
0
100
AcDbLine
10
-115.09
20
7.9925
30
0
11
-115.507997
21
11.167498
31
0
39
0
210
0
220
0
230
1
0
LINE
5
112
100
AcDbEntity
8
SK2
62
256
6
ByLayer
370
-1
48
1
60
0
100
AcDbLine
10
-115.09
20
7.9925
30
0
11
-114.672003
21
11.167502
31
0
39
0
210
0
220
0
230
1
0
LINE
5
113
100
AcDbEntity
8
SK2
62
256
6
ByLayer
370
-1
48
1
60
0
100
AcDbLine
10
-115.507997
20
11.167498
30
0
11
-114.672003
21
11.167502
31
0
39
0
210
0
220
0
230
1
0
ENDBLK
5
115
100
AcDbEntity
8
0
100
AcDbBlockEnd
0
BLOCK
5
122
100
AcDbEntity
8
0
100
AcDbBlockBegin
2
DimnDraft3D3
70
0
10
0
20
0
30
0
3
DimnDraft3D3
0
MTEXT
5
118
100
AcDbEntity
8
SK2
62
256
6
ByLayer
370
-1
48
1
60
0
100
AcDbMText
10
-10.405132
20
24.775
30
0
210
0
220
0
230
1
1
\W01.000;\fsimplex.shx,bigfont.shx;200.0 
40
4.5
41
0
44
1.084337
50
0
71
7
72
5
7
DEFAULT
0
LINE
5
119
100
AcDbEntity
8
SK2
62
256
6
ByLayer
370
-1
48
1
60
0
100
AcDbLine
10
95.91
20
12.9
30
0
11
95.91
21
25.65
31
0
39
0
210
0
220
0
230
1
0
LINE
5
11A
100
AcDbEntity
8
SK2
62
256
6
ByLayer
370
-1
48
1
60
0
100
AcDbLine
10
-105.34
20
9.9925
30
0
11
-105.34
21
25.65
31
0
39
0
210
0
220
0
230
1
0
LINE
5
11B
100
AcDbEntity
8
SK2
62
256
6
ByLayer
370
-1
48
1
60
0
100
AcDbLine
10
95.91
20
23.65
30
0
11
-105.34
21
23.65
31
0
39
0
210
0
220
0
230
1
0
LINE
5
11C
100
AcDbEntity
8
SK2
62
256
6
ByLayer
370
-1
48
1
60
0
100
AcDbLine
10
95.91
20
23.65
30
0
11
92.735002
21
23.232003
31
0
39
0
210
0
220
0
230
1
0
LINE
5
11D
100
AcDbEntity
8
SK2
62
256
6
ByLayer
370
-1
48
1
60
0
100
AcDbLine
10
95.91
20
23.65
30
0
11
92.734998
21
24.067997
31
0
39
0
210
0
220
0
230
1
0
LINE
5
11E
100
AcDbEntity
8
SK2
62
256
6
ByLayer
370
-1
48
1
60
0
100
AcDbLine
10
92.735002
20
23.232003
30
0
11
92.734998
21
24.067997
31
0
39
0
210
0
220
0
230
1
0
LINE
5
11F
100
AcDbEntity
8
SK2
62
256
6
ByLayer
370
-1
48
1
60
0
100
AcDbLine
10
-105.34
20
23.65
30
0
11
-102.165002
21
24.067997
31
0
39
0
210
0
220
0
230
1
0
LINE
5
120
100
AcDbEntity
8
SK2
62
256
6
ByLayer
370
-1
48
1
60
0
100
AcDbLine
10
-105.34
20
23.65
30
0
11
-102.164998
21
23.232003
31
0
39
0
210
0
220
0
230
1
0
LINE
5
121
100
AcDbEntity
8
SK2
62
256
6
ByLayer
370
-1
48
1
60
0
100
AcDbLine
10
-102.165002
20
24.067997
30
0
11
-102.164998
21
23.232003
31
0
39
0
210
0
220
0
230
1
0
ENDBLK
5
123
100
AcDbEntity
8
0
100
AcDbBlockEnd
0
BLOCK
5
130
100
AcDbEntity
8
0
100
AcDbBlockBegin
2
DimnDraft3D4
70
0
10
0
20
0
30
0
3
DimnDraft3D4
0
MTEXT
5
126
100
AcDbEntity
8
2
62
256
6
ByLayer
370
-1
48
1
60
0
100
AcDbMText
10
122.03156
20
-37.312521
30
0
210
0
220
0
230
1
1
\W01.000;\fsimplex.shx,bigfont.shx;95%%d0' 
40
4.5
41
0
44
1.084337
50
42.5000000000001
71
7
72
5
7
DEFAULT
0
LINE
5
127
100
AcDbEntity
8
2
62
256
6
ByLayer
370
-1
48
1
60
0
100
AcDbLine
10
95.212754
20
2.930442
30
0
11
90.692156
21
-48.740227
31
0
39
0
210
0
220
0
230
1
0
LINE
5
128
100
AcDbEntity
8
2
62
256
6
ByLayer
370
-1
48
1
60
0
100
AcDbLine
10
97.91
20
0
30
0
11
143.88278
21
0
31
0
39
0
210
0
220
0
230
1
0
ARC
5
129
100
AcDbEntity
8
2
62
256
6
ByLayer
370
-1
48
1
60
0
100
AcDbCircle
39
0
10
94.956374
20
0
30
0
40
46.9264068782928
210
0
220
0
230
1
100
AcDbArc
50
265
51
0
0
LINE
5
12A
100
AcDbEntity
8
2
62
256
6
ByLayer
370
-1
48
1
60
0
100
AcDbLine
10
90.866468
20
-46.747838
30
0
11
94.062996
21
-46.554078
31
0
39
0
210
0
220
0
230
1
0
LINE
5
12B
100
AcDbEntity
8
2
62
256
6
ByLayer
370
-1
48
1
60
0
100
AcDbLine
10
90.866468
20
-46.747838
30
0
11
94.004229
21
-47.388003
31
0
39
0
210
0
220
0
230
1
0
LINE
5
12C
100
AcDbEntity
8
2
62
256
6
ByLayer
370
-1
48
1
60
0
100
AcDbLine
10
94.062996
20
-46.554078
30
0
11
94.004229
21
-47.388003
31
0
39
0
210
0
220
0
230
1
0
LINE
5
12D
100
AcDbEntity
8
2
62
256
6
ByLayer
370
-1
48
1
60
0
100
AcDbLine
10
141.88278
20
0
30
0
11
142.247036
21
-3.181612
31
0
39
0
210
0
220
0
230
1
0
LINE
5
12E
100
AcDbEntity
8
2
62
256
6
ByLayer
370
-1
48
1
60
0
100
AcDbLine
10
141.88278
20
0
30
0
11
141.411162
21
-3.16748
31
0
39
0
210
0
220
0
230
1
0
LINE
5
12F
100
AcDbEntity
8
2
62
256
6
ByLayer
370
-1
48
1
60
0
100
AcDbLine
10
142.247036
20
-3.181612
30
0
11
141.411162
21
-3.16748
31
0
39
0
210
0
220
0
230
1
0
ENDBLK
5
131
100
AcDbEntity
8
0
100
AcDbBlockEnd
0
ENDSEC
0
SECTION
2
ENTITIES
0
ELLIPSE
5
86
100
AcDbEntity
8
1
62
256
6
ByLayer
370
-1
48
1
60
0
100
AcDbEllipse
10
89.467351
20
4.252146
30
0
11
1.04600443299633
21
-0.091513529885041
31
0
210
0
220
0
230
1
40
0.995971
41
2.04046889162117
42
3.02997257040823
0
ELLIPSE
5
87
100
AcDbEntity
8
1
62
256
6
ByLayer
370
-1
48
1
60
0
100
AcDbEllipse
10
89.487672
20
4.484414
30
0
11
-1.04600443299633
21
0.0915135298850399
31
0
210
0
220
0
230
1
40
0.995971
41
-0.185678771189514
42
2.8763084666895
0
ELLIPSE
5
88
100
AcDbEntity
8
1
62
256
6
ByLayer
370
-1
48
1
60
0
100
AcDbEllipse
10
89.470868
20
4.292344
30
0
11
-1.04600443299633
21
0.0915135298850399
31
0
210
0
220
0
230
1
40
0.995971
41
-1.10109552289402
42
-0.185678771189608
0
ELLIPSE
5
89
100
AcDbEntity
8
1
62
256
6
ByLayer
370
-1
48
1
60
0
100
AcDbEllipse
10
89.65801
20
5.596309
30
0
11
1.24524337261468
21
-0.108944678434573
31
0
210
0
220
0
230
1
40
0.995971
41
2.02468978391313
42
-2.96705972839025
0
ELLIPSE
5
8A
100
AcDbEntity
8
1
62
256
6
ByLayer
370
-1
48
1
60
0
100
AcDbEllipse
10
89.641206
20
5.40424
30
0
11
-1.24524337261468
21
0.108944678434571
31
0
210
0
220
0
230
1
40
0.995971
41
-1.11689886658132
42
-0.0775340171382493
0
ELLIPSE
5
8B
100
AcDbEntity
8
1
62
256
6
ByLayer
370
-1
48
1
60
0
100
AcDbEllipse
10
91.320573
20
7.071582
30
0
11
-0.420394162594717
21
0.0367797234395112
31
0
210
0
220
0
230
1
40
0.995971
41
2.71618776596612
42
3.14158362578155
0
ELLIPSE
5
8C
100
AcDbEntity
8
1
62
256
6
ByLayer
370
-1
48
1
60
0
100
AcDbEllipse
10
91.629158
20
7.591979
30
0
11
-0.184296019146973
21
0.0161238124083165
31
0
210
0
220
0
230
1
40
0.995971
41
-1.47521790068998
42
-0.241090306519528
0
ELLIPSE
5
8D
100
AcDbEntity
8
1
62
256
6
ByLayer
370
-1
48
1
60
0
100
AcDbEllipse
10
91.623901
20
8.196533
30
0
11
-0.420394162594717
21
0.0367797234395112
31
0
210
0
220
0
230
1
40
0.995971
41
1.6663747529001
42
2.37654763047475
0
ELLIPSE
5
8E
100
AcDbEntity
8
1
62
256
6
ByLayer
370
-1
48
1
60
0
100
AcDbEllipse
10
92.230863
20
8.191296
30
0
11
-0.184296019146973
21
0.0161238124083165
31
0
210
0
220
0
230
1
40
0.995971
41
-2.52065796967666
42
-0.393078649510321
0
ELLIPSE
5
8F
100
AcDbEntity
8
1
62
256
6
ByLayer
370
-1
48
1
60
0
100
AcDbEllipse
10
92.753334
20
8.498657
30
0
11
-0.420394162594717
21
0.0367797234395112
31
0
210
0
220
0
230
1
40
0.995971
41
0.620934683913024
42
1.39583441176544
0
ELLIPSE
5
90
100
AcDbEntity
8
1
62
256
6
ByLayer
370
-1
48
1
60
0
100
AcDbEllipse
10
93.051247
20
7.971705
30
0
11
-0.184296019146973
21
0.0161238124083165
31
0
210
0
220
0
230
1
40
0.995971
41
-2.93970420766008
42
-0.97085851397182
0
ELLIPSE
5
91
100
AcDbEntity
8
1
62
256
6
ByLayer
370
-1
48
1
60
0
100
AcDbEllipse
10
93.580298
20
7.674972
30
0
11
-0.420394162594717
21
0.0367797234395112
31
0
210
0
220
0
230
1
40
0.995971
41
-8.78428290728085E-06
42
0.349494840228767
0
ELLIPSE
5
92
100
AcDbEntity
8
1
62
256
6
ByLayer
370
-1
48
1
60
0
100
AcDbEllipse
10
93.271712
20
7.154575
30
0
11
-0.184296019146973
21
0.0161238124083165
31
0
210
0
220
0
230
1
40
0.995971
41
-2.80780425269546
42
-2.01719808550852
0
ELLIPSE
5
93
100
AcDbEntity
8
1
62
256
6
ByLayer
370
-1
48
1
60
0
100
AcDbEllipse
10
92.450435
20
7.373277
30
0
11
-0.745153634172633
21
0.065192495575248
31
0
210
0
220
0
230
1
40
0.995971
41
-0.660400348880175
42
0.140573398525417
0
ELLIPSE
5
94
100
AcDbEntity
8
1
62
256
6
ByLayer
370
-1
48
1
60
0
100
AcDbEllipse
10
92.456955
20
7.447805
30
0
11
0.745153634172637
21
-0.0651924955752487
31
0
210
0
220
0
230
1
40
0.995971
41
2.40572960087462
42
2.4811923047094
0
ELLIPSE
5
95
100
AcDbEntity
8
1
62
256
6
ByLayer
370
-1
48
1
60
0
100
AcDbEllipse
10
92.458251
20
7.462607
30
0
11
1.03106151252495
21
-0.0902061937438249
31
0
210
0
220
0
230
1
40
0.995971
41
2.96791770805028
42
-2.26892802759254
0
ELLIPSE
5
96
100
AcDbEntity
8
1
62
256
6
ByLayer
370
-1
48
1
60
0
100
AcDbEllipse
10
92.458251
20
7.462607
30
0
11
1.03106151252495
21
-0.0902061937438249
31
0
210
0
220
0
230
1
40
0.995971
41
-2.26892802759254
42
-1.22258845605583
0
ELLIPSE
5
97
100
AcDbEntity
8
1
62
256
6
ByLayer
370
-1
48
1
60
0
100
AcDbEllipse
10
92.450435
20
7.373277
30
0
11
-0.745153634172633
21
0.065192495575248
31
0
210
0
220
0
230
1
40
0.995971
41
0.349494840228866
42
1.12633662949582
0
ELLIPSE
5
98
100
AcDbEntity
8
1
62
256
6
ByLayer
370
-1
48
1
60
0
100
AcDbEllipse
10
92.456955
20
7.447805
30
0
11
0.745153634172637
21
-0.0651924955752487
31
0
210
0
220
0
230
1
40
0.995971
41
-0.735863052714294
42
-0.66040034888107
0
ELLIPSE
5
99
100
AcDbEntity
8
1
62
256
6
ByLayer
370
-1
48
1
60
0
100
AcDbEllipse
10
92.450435
20
7.373277
30
0
11
0.745153634172624
21
-0.0651924955752476
31
0
210
0
220
0
230
1
40
0.995971
41
0.349494840228815
42
1.39583441176545
0
ELLIPSE
5
9A
100
AcDbEntity
8
1
62
256
6
ByLayer
370
-1
48
1
60
0
100
AcDbEllipse
10
92.450435
20
7.373277
30
0
11
-0.745153634172633
21
0.065192495575248
31
0
210
0
220
0
230
1
40
0.995971
41
-1.74575824182438
42
-0.735863052715392
0
ELLIPSE
5
9B
100
AcDbEntity
8
1
62
256
6
ByLayer
370
-1
48
1
60
0
100
AcDbEllipse
10
92.458251
20
7.462607
30
0
11
1.03106151252495
21
-0.0902061937438249
31
0
210
0
220
0
230
1
40
0.995971
41
-1.22258845605583
42
-0.173674945539505
0
ELLIPSE
5
9C
100
AcDbEntity
8
1
62
256
6
ByLayer
370
-1
48
1
60
0
100
AcDbEllipse
10
92.753334
20
8.498657
30
0
11
-0.420394162594717
21
0.0367797234395112
31
0
210
0
220
0
230
1
40
0.995971
41
1.39583441176544
42
2.17073413961798
0
ELLIPSE
5
9D
100
AcDbEntity
8
1
62
256
6
ByLayer
370
-1
48
1
60
0
100
AcDbEllipse
10
92.458251
20
7.462607
30
0
11
1.03106151252495
21
-0.0902061937438249
31
0
210
0
220
0
230
1
40
0.995971
41
1.91900419753379
42
2.96791770805028
0
ELLIPSE
5
9E
100
AcDbEntity
8
1
62
256
6
ByLayer
370
-1
48
1
60
0
100
AcDbEllipse
10
92.450435
20
7.373277
30
0
11
0.745153634172624
21
-0.0651924955752476
31
0
210
0
220
0
230
1
40
0.995971
41
2.40572960087445
42
2.48119230470963
0
ELLIPSE
5
9F
100
AcDbEntity
8
1
62
256
6
ByLayer
370
-1
48
1
60
0
100
AcDbEllipse
10
92.458251
20
7.462607
30
0
11
1.03106151252495
21
-0.0902061937438249
31
0
210
0
220
0
230
1
40
0.995971
41
0.872664625997092
42
1.91900419753379
0
ELLIPSE
5
A0
100
AcDbEntity
8
1
62
256
6
ByLayer
370
-1
48
1
60
0
100
AcDbEllipse
10
91.623901
20
8.196533
30
0
11
-0.420394162594717
21
0.0367797234395112
31
0
210
0
220
0
230
1
40
0.995971
41
2.51037427510908
42
3.1415859085598
0
ELLIPSE
5
A1
100
AcDbEntity
8
1
62
256
6
ByLayer
370
-1
48
1
60
0
100
AcDbEllipse
10
92.450435
20
7.373277
30
0
11
-0.745153634172633
21
0.065192495575248
31
0
210
0
220
0
230
1
40
0.995971
41
1.62956186985021
42
2.2948928777441
0
ELLIPSE
5
A2
100
AcDbEntity
8
1
62
256
6
ByLayer
370
-1
48
1
60
0
100
AcDbEllipse
10
92.458251
20
7.462607
30
0
11
1.03106151252495
21
-0.0902061937438249
31
0
210
0
220
0
230
1
40
0.995971
41
-0.173674945539505
42
0.872664625997092
0
ELLIPSE
5
A3
100
AcDbEntity
8
1
62
256
6
ByLayer
370
-1
48
1
60
0
100
AcDbEllipse
10
92.450435
20
7.373277
30
0
11
-0.745153634172633
21
0.065192495575248
31
0
210
0
220
0
230
1
40
0.995971
41
2.67042119303897
42
-2.792097813361
0
ELLIPSE
5
A4
100
AcDbEntity
8
1
62
256
6
ByLayer
370
-1
48
1
60
0
100
AcDbEllipse
10
93.580298
20
7.674972
30
0
11
-0.420394162594717
21
0.0367797234395112
31
0
210
0
220
0
230
1
40
0.995971
41
0.349494840228769
42
1.12439456808127
0
ELLIPSE
5
A5
100
AcDbEntity
8
1
62
256
6
ByLayer
370
-1
48
1
60
0
100
AcDbEllipse
10
92.456891
20
7.447071
30
0
11
1.71843585420826
21
-0.150343656239709
31
0
210
0
220
0
230
1
40
0.995971
41
0
42
6.28318530717959
0
ELLIPSE
5
A6
100
AcDbEntity
8
1
62
256
6
ByLayer
370
-1
48
1
60
0
100
AcDbEllipse
10
92.458251
20
7.462607
30
0
11
1.29505310751928
21
-0.113302465571956
31
0
210
0
220
0
230
1
40
0.995971
41
0
42
6.28318530717959
0
ELLIPSE
5
A7
100
AcDbEntity
8
1
62
256
6
ByLayer
370
-1
48
1
60
0
100
AcDbEllipse
10
92.451217
20
7.38221
30
0
11
1.71843585420826
21
-0.150343656239709
31
0
210
0
220
0
230
1
40
0.995971
41
3.14155413526277
42
0
0
ELLIPSE
5
A8
100
AcDbEntity
8
1
62
256
6
ByLayer
370
-1
48
1
60
0
100
AcDbEllipse
10
92.458187
20
7.461887
30
0
11
1.91523434805459
21
-0.167561293450239
31
0
210
0
220
0
230
1
40
0.995971
41
0
42
6.28318530717959
0
ELLIPSE
5
A9
100
AcDbEntity
8
1
62
256
6
ByLayer
370
-1
48
1
60
0
100
AcDbEllipse
10
89.403375
20
4.419199
30
0
11
0.395489295142435
21
-0.0346008298708211
31
0
210
0
220
0
230
1
40
0.995971
41
3.14159265358977
42
-1.39626340159559
0
ELLIPSE
5
AA
100
AcDbEntity
8
1
62
256
6
ByLayer
370
-1
48
1
60
0
100
AcDbEllipse
10
95.513
20
10.504575
30
0
11
0.395489295142392
21
-0.0346008298708173
31
0
210
0
220
0
230
1
40
0.995971
41
0
42
1.74532925199437
0
ELLIPSE
5
AB
100
AcDbEntity
8
1
62
256
6
ByLayer
370
-1
48
1
60
0
100
AcDbEllipse
10
95.023273
20
4.906975
30
0
11
0.395489295142436
21
-0.0346008298708211
31
0
210
0
220
0
230
1
40
0.995971
41
-1.39626340159544
42
3.59404077193291E-14
0
ELLIPSE
5
AC
100
AcDbEntity
8
1
62
256
6
ByLayer
370
-1
48
1
60
0
100
AcDbEllipse
10
89.893102
20
10.016799
30
0
11
0.395489295142381
21
-0.0346008298708163
31
0
210
0
220
0
230
1
40
0.995971
41
1.74532925199445
42
-3.14159265358976
0
ELLIPSE
5
AD
100
AcDbEntity
8
1
62
256
6
ByLayer
370
-1
48
1
60
0
100
AcDbEllipse
10
92.452873
20
7.401142
30
0
11
1.867865058922
21
-0.163417017651856
31
0
210
0
220
0
230
1
40
0.995971
41
-0.889305940897726
42
-9.51222790971639E-16
0
ELLIPSE
5
AE
100
AcDbEntity
8
1
62
256
6
ByLayer
370
-1
48
1
60
0
100
AcDbEllipse
10
92.452873
20
7.401142
30
0
11
1.867865058922
21
-0.163417017651856
31
0
210
0
220
0
230
1
40
0.995971
41
0
42
0.0876176735935561
0
ELLIPSE
5
AF
100
AcDbEntity
8
1
62
256
6
ByLayer
370
-1
48
1
60
0
100
AcDbEllipse
10
92.452873
20
7.401142
30
0
11
1.867865058922
21
-0.163417017651856
31
0
210
0
220
0
230
1
40
0.995971
41
-2.25226588897101
42
-1.48247727640233
0
ELLIPSE
5
B0
100
AcDbEntity
8
1
62
256
6
ByLayer
370
-1
48
1
60
0
100
AcDbEllipse
10
92.452873
20
7.401142
30
0
11
1.867865058922
21
-0.163417017651856
31
0
210
0
220
0
230
1
40
0.995971
41
0.0876176544598601
42
-2.25226588897101
0
POINT
5
41
100
AcDbEntity
8
80
62
256
6
ByLayer
370
-1
48
1
60
0
100
AcDbPoint
10
0
20
0
30
0
39
0
210
0
220
0
230
1
50
360
0
POINT
5
43
100
AcDbEntity
8
81
62
256
6
ByLayer
370
-1
48
1
60
0
100
AcDbPoint
10
95.91
20
10.9
30
0
39
0
210
0
220
0
230
1
50
360
0
POINT
5
45
100
AcDbEntity
8
1
62
256
6
ByLayer
370
-1
48
1
60
0
100
AcDbPoint
10
-105.34
20
0
30
0
39
0
210
0
220
0
230
1
50
360
0
POINT
5
47
100
AcDbEntity
8
2
62
256
6
ByLayer
370
-1
48
1
60
0
100
AcDbPoint
10
95.91
20
10.9
30
0
39
0
210
0
220
0
230
1
50
360
0
SPLINE
5
B1
100
AcDbEntity
8
1
62
256
6
ByLayer
370
-1
48
1
60
0
100
AcDbSpline
70
4
71
3
72
14
73
10
40
0
40
0
40
0
40
0
40
0.25
40
0.25
40
0.5
40
0.5
40
0.75
40
0.75
40
1
40
1
40
1
40
1
41
1
10
84.2219118480974
20
8.03661758053906
30
0
41
1
10
82.7188788037781
20
8.02808144409036
30
0
41
1
10
81.2703190722454
20
8.01090521389423
30
0
41
1
10
78.5006278732156
20
7.79325466045677
30
0
41
1
10
77.1664285811168
20
7.59530789222592
30
0
41
1
10
74.9652469164392
20
6.60250921714064
30
0
41
1
10
74.1371913527724
20
5.7556149787444
30
0
41
1
10
73.4882290657941
20
3.30269651263694
30
0
41
1
10
73.6510462515495
20
1.75636001667567
30
0
41
1
10
74.0965423742592
20
0.306445238600702
30
0
0
SPLINE
5
B2
100
AcDbEntity
8
1
62
256
6
ByLayer
370
-1
48
1
60
0
100
AcDbSpline
70
4
71
3
72
30
73
26
40
-0.124999999999994
40
-0.124999999999994
40
0
40
0
40
0.124999999999999
40
0.124999999999999
40
0.187500000000001
40
0.187500000000001
40
0.250000000000003
40
0.250000000000003
40
0.375000000000006
40
0.375000000000006
40
0.50000000000001
40
0.50000000000001
40
0.625000000000013
40
0.625000000000013
40
0.687500000000015
40
0.687500000000015
40
0.718750000000014
40
0.718750000000014
40
0.750000000000012
40
0.750000000000012
40
0.812500000000009
40
0.812500000000009
40
0.875000000000006
40
0.875000000000006
40
1
40
1
40
1.125
40
1.125
41
1
10
80.396632878829
20
3.9936846134301
30
0
41
1
10
79.2781217303249
20
3.59634487378133
30
0
41
1
10
78.7032748125772
20
3.47634377426968
30
0
41
1
10
77.8394781212887
20
3.61727610735031
30
0
41
1
10
77.5497389641301
20
3.72245866930749
30
0
41
1
10
77.0738141940059
20
4.14607629875613
30
0
41
1
10
76.9152903961337
20
4.4878919252032
30
0
41
1
10
76.9300184838144
20
5.4586525084118
30
0
41
1
10
77.3877114916859
20
5.89911346765007
30
0
41
1
10
78.3514273050883
20
6.49178049515214
30
0
41
1
10
78.9092048463294
20
6.66753612935312
30
0
41
1
10
80.0898283488035
20
6.88816870570727
30
0
41
1
10
80.7069734332148
20
6.9341346047828
30
0
41
1
10
81.6562698460278
20
6.86656981247006
30
0
41
1
10
81.9836958123126
20
6.825248389753
30
0
41
1
10
82.4407853050275
20
6.64837922887222
30
0
41
1
10
82.597327423086
20
6.5653578679746
30
0
41
1
10
82.7885154495671
20
6.29315108969811
30
0
41
1
10
82.7866456630385
20
6.10654957884722
30
0
41
1
10
82.6191578986105
20
5.647969804528
30
0
41
1
10
82.3887786056284
20
5.41294976685049
30
0
41
1
10
81.931679004081
20
4.98285201307567
30
0
41
1
10
81.6837857977794
20
4.79164144753804
30
0
41
1
10
80.9265997083999
20
4.27345101647552
30
0
41
1
10
80.396632878829
20
3.9936846134301
30
0
41
1
10
79.2781217303249
20
3.59634487378133
30
0
0
SPLINE
5
B3
100
AcDbEntity
8
1
62
256
6
ByLayer
370
-1
48
1
60
0
100
AcDbSpline
70
4
71
3
72
8
73
4
40
0
40
0
40
0
40
0
40
1
40
1
40
1
40
1
41
1
10
86.5880089230993
20
9.40853640595628
30
0
41
1
10
86.6955152904
20
9.47058914975128
30
0
41
1
10
86.8030243715249
20
9.53263723303067
30
0
41
1
10
86.91053601
20
9.59468092322754
30
0
0
SPLINE
5
B4
100
AcDbEntity
8
1
62
256
6
ByLayer
370
-1
48
1
60
0
100
AcDbSpline
70
4
71
3
72
8
73
4
40
0
40
0
40
0
40
0
40
1
40
1
40
1
40
1
41
1
10
89.4773909415904
20
9.82052278072405
30
0
41
1
10
88.6217703524345
20
9.7452676582198
30
0
41
1
10
87.76615198669
20
9.66998764794002
30
0
41
1
10
86.91053601
20
9.59468092322754
30
0
0
SPLINE
5
B5
100
AcDbEntity
8
1
62
256
6
ByLayer
370
-1
48
1
60
0
100
AcDbSpline
70
4
71
3
72
16
73
12
40
0
40
0
40
0
40
0
40
0.0637359069072111
40
0.0637359069072111
40
0.301414744384903
40
0.301414744384903
40
0.526514447460662
40
0.526514447460662
40
0.775671442544788
40
0.775671442544788
40
1
40
1
40
1
40
1
41
1
10
74.3031141329378
20
-0.30644523860073
30
0
41
1
10
74.304701649189
20
-0.293872178397265
30
0
41
1
10
74.305850757811
20
-0.280969638224917
30
0
41
1
10
74.309111051197
20
-0.219167894933833
30
0
41
1
10
74.305227667226
20
-0.166090565688535
30
0
41
1
10
74.2861255977045
20
-0.0635517916788615
30
0
41
1
10
74.2713569548491
20
-0.0128301809177458
30
0
41
1
10
74.2323110674804
20
0.0887768994334692
30
0
41
1
10
74.2068150028859
20
0.14028493711885
30
0
41
1
10
74.1533577361668
20
0.230163701673661
30
0
41
1
10
74.125586501364
20
0.269993737980769
30
0
41
1
10
74.0965423742592
20
0.306445238600787
30
0
0
SPLINE
5
B6
100
AcDbEntity
8
1
62
256
6
ByLayer
370
-1
48
1
60
0
100
AcDbSpline
70
4
71
3
72
8
73
4
40
0
40
0
40
0
40
0
40
1
40
1
40
1
40
1
41
1
10
84.2219118480974
20
8.03661758053906
30
0
41
1
10
84.9999717340548
20
8.49277901176393
30
0
41
1
10
85.7936938656491
20
8.95005724802297
30
0
41
1
10
86.5880089230993
20
9.40853640595628
30
0
0
SPLINE
5
B7
100
AcDbEntity
8
1
62
256
6
ByLayer
370
-1
48
1
60
0
100
AcDbSpline
70
4
71
3
72
10
73
6
40
0
40
0
40
0
40
0
40
0.5
40
0.5
40
1
40
1
40
1
40
1
41
1
10
74.3031141329378
20
-0.30644523860073
30
0
41
1
10
75.048469263168
20
-2.33703620337263
30
0
41
1
10
76.2969886825357
20
-4.06229836441264
30
0
41
1
10
79.3178163256555
20
-6.36476788016199
30
0
41
1
10
81.1190742761944
20
-7.00279125973307
30
0
41
1
10
83.0613551758582
20
-7.36368406308972
30
0
0
SPLINE
5
B8
100
AcDbEntity
8
SK1
62
256
6
ByLayer
370
-1
48
1
60
0
100
AcDbSpline
70
4
71
3
72
24
73
20
40
0
40
0
40
0
40
0
40
0.249999999999995
40
0.249999999999995
40
0.374999999999993
40
0.374999999999993
40
0.437499999999996
40
0.437499999999996
40
0.499999999999999
40
0.499999999999999
40
0.531250000000004
40
0.531250000000004
40
0.562500000000009
40
0.562500000000009
40
0.62500000000001
40
0.62500000000001
40
0.750000000000004
40
0.750000000000004
40
1
40
1
40
1
40
1
41
1
10
-32.09
20
-0.208217351629059
30
0
41
1
10
-32.4988420209809
20
-0.208217351629059
30
0
41
1
10
-32.9075700421796
20
-0.200628106757222
30
0
41
1
10
-33.5201123303113
20
-0.171073275450823
30
0
41
1
10
-33.723960835833
20
-0.158342940298155
30
0
41
1
10
-34.0285633625019
20
-0.129106778533128
30
0
41
1
10
-34.1299152849477
20
-0.117782088577599
30
0
41
1
10
-34.3316559370228
20
-0.0867855292195827
30
0
41
1
10
-34.4476642593234
20
-0.0899171685781255
30
0
41
1
10
-34.5669313789905
20
0.0136458934178734
30
0
41
1
10
-34.4784711277951
20
0.0489364234134655
30
0
41
1
10
-34.3778903856424
20
0.0766629766364701
30
0
41
1
10
-34.3266456087825
20
0.0864424784147104
30
0
41
1
10
-34.1721535471284
20
0.112538835792264
30
0
41
1
10
-34.0685119130175
20
0.124684589520342
30
0
41
1
10
-33.7573848627505
20
0.156042093009745
30
0
41
1
10
-33.549279040374
20
0.169368026065086
30
0
41
1
10
-32.9242101016124
20
0.20037077189474
30
0
41
1
10
-32.5071903882065
20
0.208217351629059
30
0
41
1
10
-32.09
20
0.208217351629059
30
0
0
SPLINE
5
B9
100
AcDbEntity
8
1
62
256
6
ByLayer
370
-1
48
1
60
0
100
AcDbSpline
70
4
71
3
72
18
73
14
40
0
40
0
40
0
40
0
40
0.205222972546418
40
0.205222972546418
40
0.382259154093188
40
0.382259154093188
40
0.561029098572691
40
0.561029098572691
40
0.716232836048889
40
0.716232836048889
40
0.921024014228481
40
0.921024014228481
40
1
40
1
40
1
40
1
41
1
10
92.3973845779959
20
8.36823251882939
30
0
41
1
10
92.418439836274
20
8.330550278701
30
0
41
1
10
92.4455796919215
20
8.29500357119969
30
0
41
1
10
92.5062198830852
20
8.2377346208429
30
0
41
1
10
92.5391007439052
20
8.21421387271229
30
0
41
1
10
92.6109892710553
20
8.17798015030758
30
0
41
1
10
92.6511789647323
20
8.16495906168595
30
0
41
1
10
92.7262490064032
20
8.15319354480675
30
0
41
1
10
92.7620178836449
20
8.15259289105094
30
0
41
1
10
92.8409849446209
20
8.16134166713704
30
0
41
1
10
92.8842811497445
20
8.17391474157358
30
0
41
1
10
92.9387517626431
20
8.19899555496983
30
0
41
1
10
92.9535353444891
20
8.20690073086425
30
0
41
1
10
92.9677341597696
20
8.21556774454356
30
0
0
SPLINE
5
BA
100
AcDbEntity
8
1
62
256
6
ByLayer
370
-1
48
1
60
0
100
AcDbSpline
70
4
71
3
72
18
73
14
40
0
40
0
40
0
40
0
40
0.0446740349107751
40
0.0446740349107751
40
0.269670392075143
40
0.269670392075143
40
0.49638948338153
40
0.49638948338153
40
0.736650770850541
40
0.736650770850541
40
0.999798277384904
40
0.999798277384904
40
1
40
1
40
1
40
1
41
1
10
93.4582759962268
20
7.19630538939342
30
0
41
1
10
93.4592467242309
20
7.19993065497803
30
0
41
1
10
93.4601062181529
20
7.20358276053364
30
0
41
1
10
93.4645736605622
20
7.22555512856852
30
0
41
1
10
93.465425278296
20
7.24452093458888
30
0
41
1
10
93.4614650202637
20
7.28084132846627
30
0
41
1
10
93.4565733891817
20
7.29864793136241
30
0
41
1
10
93.4417286350584
20
7.33187862816587
30
0
41
1
10
93.4313227324944
20
7.34752165895566
30
0
41
1
10
93.4057933136015
20
7.37533446976741
30
0
41
1
10
93.3900111097735
20
7.38739600832659
30
0
41
1
10
93.3730725960523
20
7.39642636938189
30
0
41
1
10
93.3730594748215
20
7.39643336250433
30
0
41
1
10
93.3730463527942
20
7.39644035390521
30
0
0
SPLINE
5
BB
100
AcDbEntity
8
1
62
256
6
ByLayer
370
-1
48
1
60
0
100
AcDbSpline
70
4
71
3
72
14
73
10
40
0
40
0
40
0
40
0
40
0.0392748163444263
40
0.0392748163444263
40
0.37688808453744
40
0.37688808453744
40
0.821581980367632
40
0.821581980367632
40
1
40
1
40
1
40
1
41
1
10
91.9481917643783
20
7.99428189775983
30
0
41
1
10
91.9509386482165
20
7.99743144254651
30
0
41
1
10
91.9536376929632
20
8.00062463537384
30
0
41
1
10
91.9788394976154
20
8.03138861273118
30
0
41
1
10
91.9978713057156
20
8.06219868966647
30
0
41
1
10
92.0316743338555
20
8.13547741168665
30
0
41
1
10
92.0438976055301
20
8.17972673338284
30
0
41
1
10
92.0517434074687
20
8.24090383553386
30
0
41
1
10
92.0529541576348
20
8.25857660009751
30
0
41
1
10
92.053156124451
20
8.27612257675241
30
0
0
SPLINE
5
BC
100
AcDbEntity
8
1
62
256
6
ByLayer
370
-1
48
1
60
0
100
AcDbSpline
70
4
71
3
72
18
73
14
40
0
40
0
40
0
40
0
40
0.205241204428987
40
0.205241204428987
40
0.382274154968306
40
0.382274154968306
40
0.561040656007914
40
0.561040656007914
40
0.716243701944267
40
0.716243701944267
40
0.921038059262969
40
0.921038059262969
40
1
40
1
40
1
40
1
41
1
10
93.2197742589551
20
7.96452727133695
30
0
41
1
10
93.1991650032096
20
7.92642054099639
30
0
41
1
10
93.1833730874953
20
7.88419779881045
30
0
41
1
10
93.1662691297378
20
7.80169335106908
30
0
41
1
10
93.1631710532107
20
7.76098464495794
30
0
41
1
10
93.1687265169907
20
7.68018712686762
30
0
41
1
10
93.1776986842656
20
7.63892950968608
30
0
41
1
10
93.2046152868843
20
7.56866987605054
30
0
41
1
10
93.2214926644441
20
7.53790354219245
30
0
41
1
10
93.2669815092571
20
7.47538614696023
30
0
41
1
10
93.2982801527991
20
7.44527710141975
30
0
41
1
10
93.3453354013718
20
7.4122887084483
30
0
41
1
10
93.3590145410877
20
7.40391648687697
30
0
41
1
10
93.3730463527938
20
7.39644035390538
30
0
0
SPLINE
5
BD
100
AcDbEntity
8
1
62
256
6
ByLayer
370
-1
48
1
60
0
100
AcDbSpline
70
4
71
3
72
16
73
12
40
0
40
0
40
0
40
0
40
0.0456958654740245
40
0.0456958654740245
40
0.270653615860567
40
0.270653615860567
40
0.497392450486618
40
0.497392450486618
40
0.737720107218003
40
0.737720107218003
40
1
40
1
40
1
40
1
41
1
10
91.7266733689438
20
6.73393390496727
30
0
41
1
10
91.7293992423967
20
6.73121884270648
30
0
41
1
10
91.7322115291312
20
6.72858195131903
30
0
41
1
10
91.7491988066113
20
6.71358908944006
30
0
41
1
10
91.7653948282253
20
6.70309501256361
30
0
41
1
10
91.7993778091594
20
6.68744641682872
30
0
41
1
10
91.8176043354259
20
6.68212241090515
30
0
41
1
10
91.8546633571808
20
6.67671396091282
30
0
41
1
10
91.873929026466
20
6.67687564731386
30
0
41
1
10
91.9118631592999
20
6.68268613577237
30
0
41
1
10
91.9307952118629
20
6.68888379880147
30
0
41
1
10
91.9477046645447
20
6.69750641207838
30
0
0
SPLINE
5
BE
100
AcDbEntity
8
1
62
256
6
ByLayer
370
-1
48
1
60
0
100
AcDbSpline
70
4
71
3
72
16
73
12
40
0
40
0
40
0
40
0
40
0.0636982727190969
40
0.0636982727190969
40
0.28829023941233
40
0.28829023941233
40
0.515682795443567
40
0.515682795443567
40
0.757492053218001
40
0.757492053218001
40
1
40
1
40
1
40
1
41
1
10
91.4582250093291
20
7.72890955437325
30
0
41
1
10
91.4568433525704
20
7.72374964070423
30
0
41
1
10
91.455685148536
20
7.7185137261045
30
0
41
1
10
91.4515099014689
20
7.69476044933253
30
0
41
1
10
91.4511205823719
20
7.67546897889801
30
0
41
1
10
91.4558975125973
20
7.63812155472039
30
0
41
1
10
91.4611792290887
20
7.61960675273494
30
0
41
1
10
91.4767363908152
20
7.58462992727894
30
0
41
1
10
91.4874839025022
20
7.56792624716363
30
0
41
1
10
91.5124544011102
20
7.53907108553145
30
0
41
1
10
91.5269351581496
20
7.52660693674287
30
0
41
1
10
91.5423924715205
20
7.51663380271683
30
0
0
SPLINE
5
BF
100
AcDbEntity
8
1
62
256
6
ByLayer
370
-1
48
1
60
0
100
AcDbSpline
70
4
71
3
72
18
73
14
40
0
40
0
40
0
40
0
40
0.211899349054838
40
0.211899349054838
40
0.387760065577207
40
0.387760065577207
40
0.565276427420534
40
0.565276427420534
40
0.720241206969205
40
0.720241206969205
40
0.926207749192866
40
0.926207749192866
40
1
40
1
40
1
40
1
41
1
10
92.5180542463177
20
6.54484163779409
30
0
41
1
10
92.4959659251383
20
6.57978884239111
30
0
41
1
10
92.4673888810246
20
6.61270925139732
30
0
41
1
10
92.4046928318365
20
6.66476216735379
30
0
41
1
10
92.3715679361584
20
6.68581295313211
30
0
41
1
10
92.2995600273274
20
6.71884778226817
30
0
41
1
10
92.259518205777
20
6.73114558203429
30
0
41
1
10
92.1848404299816
20
6.74356721939549
30
0
41
1
10
92.1492815728237
20
6.7452324200828
30
0
41
1
10
92.0706221821106
20
6.74013963455386
30
0
41
1
10
92.0275094481972
20
6.73047230197488
30
0
41
1
10
91.9744969439453
20
6.71027647734684
30
0
41
1
10
91.9608449786833
20
6.70420703387185
30
0
41
1
10
91.9477046645447
20
6.69750641207844
30
0
0
SPLINE
5
C0
100
AcDbEntity
8
1
62
256
6
ByLayer
370
-1
48
1
60
0
100
AcDbSpline
70
4
71
3
72
20
73
16
40
0
40
0
40
0
40
0
40
0.0711899514889248
40
0.0711899514889248
40
0.275804338918036
40
0.275804338918036
40
0.440906958012694
40
0.440906958012694
40
0.606907784219524
40
0.606907784219524
40
0.761293383326795
40
0.761293383326795
40
0.979036881249775
40
0.979036881249775
40
1
40
1
40
1
40
1
41
1
10
91.6956645653594
20
6.94854688528503
30
0
41
1
10
91.7027313492798
20
6.96049187115389
30
0
41
1
10
91.7092001836823
20
6.97291948797161
30
0
41
1
10
91.7315945276264
20
7.02253921581848
30
0
41
1
10
91.7429472540682
20
7.06356754188863
30
0
41
1
10
91.7506943354389
20
7.1415987056769
30
0
41
1
10
91.749539150172
20
7.17873536751816
30
0
41
1
10
91.7370256109192
20
7.25225071159156
30
0
41
1
10
91.7253950489838
20
7.28958792710023
30
0
41
1
10
91.6948534800159
20
7.35604572880541
30
0
41
1
10
91.6762102364751
20
7.38635890464673
30
0
41
1
10
91.6256942657429
20
7.45121144244393
30
0
41
1
10
91.5907348014553
20
7.48363945117183
30
0
41
1
10
91.5497538294161
20
7.51180792188148
30
0
41
1
10
91.5460860377609
20
7.5142506957522
30
0
41
1
10
91.5423924715205
20
7.51663380271683
30
0
0
SPLINE
5
C1
100
AcDbEntity
8
1
62
256
6
ByLayer
370
-1
48
1
60
0
100
AcDbSpline
70
4
71
3
72
14
73
10
40
0
40
0
40
0
40
0
40
0.0508426108550615
40
0.0508426108550615
40
0.387498685914034
40
0.387498685914034
40
0.834954282367696
40
0.834954282367696
40
1
40
1
40
1
40
1
41
1
10
92.9657192281786
20
6.90132906195856
30
0
41
1
10
92.9621690717544
20
6.89731083524723
30
0
41
1
10
92.9587002786539
20
6.89323574558861
30
0
41
1
10
92.9331126183421
20
6.86203067536758
30
0
41
1
10
92.9145178385174
20
6.83247651698221
30
0
41
1
10
92.881593389414
20
6.76297916043197
30
0
41
1
10
92.869970393728
20
6.72165542311254
30
0
41
1
10
92.8632591025384
20
6.66651265535091
30
0
41
1
10
92.8623384863316
20
6.65163202665033
30
0
41
1
10
92.8622775208171
20
6.6368923830982
30
0
0
SPLINE
5
C2
100
AcDbEntity
8
1
62
256
6
ByLayer
370
-1
48
1
60
0
100
AcDbSpline
70
4
71
3
72
14
73
10
40
0
40
0
40
0
40
0
40
0.279596494869606
40
0.279596494869606
40
0.567426496503728
40
0.567426496503728
40
0.828180425734239
40
0.828180425734239
40
1
40
1
40
1
40
1
41
1
10
92.3973845779959
20
8.36823251882942
30
0
41
1
10
92.3868831048421
20
8.38702682796864
30
0
41
1
10
92.3729588713151
20
8.40450580310235
30
0
41
1
10
92.3393457972115
20
8.43398848661454
30
0
41
1
10
92.3189489681612
20
8.44624158900297
30
0
41
1
10
92.2770554692767
20
8.46124546102061
30
0
41
1
10
92.2551991816143
20
8.46497152364768
30
0
41
1
10
92.2192714513563
20
8.46436582275521
30
0
41
1
10
92.2048059637601
20
8.46236267433497
30
0
41
1
10
92.1908890444696
20
8.45866570877746
30
0
0
SPLINE
5
C3
100
AcDbEntity
8
1
62
256
6
ByLayer
370
-1
48
1
60
0
100
AcDbSpline
70
4
71
3
72
14
73
10
40
0
40
0
40
0
40
0
40
0.281947963393322
40
0.281947963393322
40
0.568922961150359
40
0.568922961150359
40
0.828906449595094
40
0.828906449595094
40
1
40
1
40
1
40
1
41
1
10
91.6348374917434
20
7.85946421483186
30
0
41
1
10
91.6138994442716
20
7.86026669117089
30
0
41
1
10
91.5923312593977
20
7.857358278916
30
0
41
1
10
91.5511923349105
20
7.84364611023699
30
0
41
1
10
91.5310403518995
20
7.83245134898371
30
0
41
1
10
91.4981028698288
20
7.80420726951215
30
0
41
1
10
91.4843311925587
20
7.78735304789481
30
0
41
1
10
91.4673143640764
20
7.75619287922569
30
0
41
1
10
91.461931570966
20
7.74275202134984
30
0
41
1
10
91.4582250093291
20
7.72890955437325
30
0
0
SPLINE
5
C4
100
AcDbEntity
8
1
62
256
6
ByLayer
370
-1
48
1
60
0
100
AcDbSpline
70
4
71
3
72
18
73
14
40
0
40
0
40
0
40
0
40
0.0230372481634579
40
0.0230372481634579
40
0.247961987624329
40
0.247961987624329
40
0.473366505690398
40
0.473366505690398
40
0.711267148985984
40
0.711267148985984
40
0.971235080215693
40
0.971235080215693
40
1
40
1
40
1
40
1
41
1
10
92.7256119610864
20
6.46654923498926
30
0
41
1
10
92.7274986354026
20
6.46705042133803
30
0
41
1
10
92.7293774926882
20
6.4675801481755
30
0
41
1
10
92.749292843801
20
6.47352253390159
30
0
41
1
10
92.7666868667551
20
6.48168449585867
30
0
41
1
10
92.797452945012
20
6.50207469178668
30
0
41
1
10
92.8112178288532
20
6.5145617392711
30
0
41
1
10
92.8343665170535
20
6.54267630102478
30
0
41
1
10
92.8437708274743
20
6.55878067846706
30
0
41
1
10
92.8574567709613
20
6.59331075301606
30
0
41
1
10
92.8613750926726
20
6.6122389513408
30
0
41
1
10
92.8622223142565
20
6.63277087064196
30
0
41
1
10
92.8622690059124
20
6.63483373302699
30
0
41
1
10
92.8622775208171
20
6.63689238309823
30
0
0
SPLINE
5
C5
100
AcDbEntity
8
1
62
256
6
ByLayer
370
-1
48
1
60
0
100
AcDbSpline
70
4
71
3
72
16
73
12
40
0
40
0
40
0
40
0
40
0.170832682608473
40
0.170832682608473
40
0.478015043238938
40
0.478015043238938
40
0.749890127292274
40
0.749890127292274
40
0.991552128714892
40
0.991552128714892
40
1
40
1
40
1
40
1
41
1
10
93.2197742589598
20
7.96452727133376
30
0
41
1
10
93.2260600081039
20
7.97614968752265
30
0
41
1
10
93.2312847530283
20
7.98856442900905
30
0
41
1
10
93.2422629498565
20
8.02454520295876
30
0
41
1
10
93.245243083735
20
8.04985709481878
30
0
41
1
10
93.2414177404984
20
8.09688387999816
30
0
41
1
10
93.2355921295384
20
8.11939759893545
30
0
41
1
10
93.2173672536707
20
8.15813212108785
30
0
41
1
10
93.2054893542391
20
8.1753203215431
30
0
41
1
10
93.1908410943465
20
8.19026551390991
30
0
41
1
10
93.1903358473047
20
8.19077484374088
30
0
41
1
10
93.1898276366121
20
8.19128103879942
30
0
0
SPLINE
5
C6
100
AcDbEntity
8
1
62
256
6
ByLayer
370
-1
48
1
60
0
100
AcDbSpline
70
4
71
3
72
12
73
8
40
0
40
0
40
0
40
0
40
0.462594138436102
40
0.462594138436102
40
0.844310006966349
40
0.844310006966349
40
1
40
1
40
1
40
1
41
1
10
93.2805961535239
20
7.05355074501881
30
0
41
1
10
93.2371273895295
20
7.05121154242156
30
0
41
1
10
93.1922606601223
20
7.04223600820461
30
0
41
1
10
93.1129414819264
20
7.01295393643144
30
0
41
1
10
93.0771760302752
20
6.99448884603427
30
0
41
1
10
93.0309925816649
20
6.96212042697081
30
0
41
1
10
93.0179809342033
20
6.9519161151992
30
0
41
1
10
93.0056080014423
20
6.94105952010133
30
0
0
SPLINE
5
C7
100
AcDbEntity
8
1
62
256
6
ByLayer
370
-1
48
1
60
0
100
AcDbSpline
70
4
71
3
72
14
73
10
40
0
40
0
40
0
40
0
40
0.222907190143798
40
0.222907190143798
40
0.517817262021015
40
0.517817262021015
40
0.784439175457133
40
0.784439175457133
40
1
40
1
40
1
40
1
41
1
10
92.5180542463172
20
6.54484163779387
30
0
41
1
10
92.5265672279496
20
6.53137275944709
30
0
41
1
10
92.5372122800657
20
6.51870836676102
30
0
41
1
10
92.5660105584756
20
6.49293897056407
30
0
41
1
10
92.58601811097
20
6.48061917409481
30
0
41
1
10
92.6277735572617
20
6.46488857442685
30
0
41
1
10
92.6498234765637
20
6.46053416595691
30
0
41
1
10
92.6897978172117
20
6.45973095757034
30
0
41
1
10
92.7081692231732
20
6.46191565194204
30
0
41
1
10
92.7256119610864
20
6.46654923498926
30
0
0
SPLINE
5
C8
100
AcDbEntity
8
1
62
256
6
ByLayer
370
-1
48
1
60
0
100
AcDbSpline
70
4
71
3
72
16
73
12
40
0
40
0
40
0
40
0
40
0.0632950530506235
40
0.0632950530506235
40
0.287251063975808
40
0.287251063975808
40
0.51398721349935
40
0.51398721349935
40
0.755088872946643
40
0.755088872946643
40
1
40
1
40
1
40
1
41
1
10
92.1908890444696
20
8.45866570877746
30
0
41
1
10
92.1857265555126
20
8.4572943173462
30
0
41
1
10
92.1806172811923
20
8.45568807561236
30
0
41
1
10
92.1579480365048
20
8.44742832965449
30
0
41
1
10
92.1411206283374
20
8.43805207952093
30
0
41
1
10
92.1114948689932
20
8.41499017290997
30
0
41
1
10
92.0983627981086
20
8.40097083931778
30
0
41
1
10
92.0765439171059
20
8.36952514438985
30
0
41
1
10
92.0679017279793
20
8.35155718510251
30
0
41
1
10
92.0563466747268
20
8.3145739216134
30
0
41
1
10
92.0533751426854
20
8.29514990459936
30
0
41
1
10
92.053156124451
20
8.27612257675241
30
0
0
SPLINE
5
C9
100
AcDbEntity
8
1
62
256
6
ByLayer
370
-1
48
1
60
0
100
AcDbSpline
70
4
71
3
72
14
73
10
40
0
40
0
40
0
40
0
40
0.255466092325729
40
0.255466092325729
40
0.545753585322431
40
0.545753585322431
40
0.808427330214736
40
0.808427330214736
40
1
40
1
40
1
40
1
41
1
10
93.2805961535239
20
7.05355074501873
30
0
41
1
10
93.2997275071721
20
7.05458026847487
30
0
41
1
10
93.3193409137017
20
7.05856483005161
30
0
41
1
10
93.3593958810551
20
7.0734882090089
30
0
41
1
10
93.3802151288021
20
7.08559299916058
30
0
41
1
10
93.4144921935072
20
7.11520584165871
30
0
41
1
10
93.4289561767216
20
7.1325689068388
30
0
41
1
10
93.4478501041062
20
7.1656299757764
30
0
41
1
10
93.4541276765315
20
7.18081313969751
30
0
41
1
10
93.4582759962268
20
7.19630538939342
30
0
0
SPLINE
5
CA
100
AcDbEntity
8
1
62
256
6
ByLayer
370
-1
48
1
60
0
100
AcDbSpline
70
4
71
3
72
14
73
10
40
0
40
0
40
0
40
0
40
0.254776387551278
40
0.254776387551278
40
0.545713536753328
40
0.545713536753328
40
0.808989420989398
40
0.808989420989398
40
1
40
1
40
1
40
1
41
1
10
91.6956645653594
20
6.94854688528511
30
0
41
1
10
91.686448545998
20
6.93296904644367
30
0
41
1
10
91.6795704558755
20
6.91545923773518
30
0
41
1
10
91.6714256483702
20
6.87604934565448
30
0
41
1
10
91.6710167544359
20
6.85322933414994
30
0
41
1
10
91.6788538578496
20
6.81061861095634
30
0
41
1
10
91.6864383376873
20
6.79010615987738
30
0
41
1
10
91.7054116540546
20
6.75800933917262
30
0
41
1
10
91.7153501283508
20
6.74521223601815
30
0
41
1
10
91.7266733689438
20
6.73393390496727
30
0
0
SPLINE
5
CB
100
AcDbEntity
8
1
62
256
6
ByLayer
370
-1
48
1
60
0
100
AcDbSpline
70
4
71
3
72
12
73
8
40
0
40
0
40
0
40
0
40
0.44451273378278
40
0.44451273378278
40
0.829287474777264
40
0.829287474777264
40
1
40
1
40
1
40
1
41
1
10
91.6348374917434
20
7.85946421483189
30
0
41
1
10
91.6762807513699
20
7.85787585109773
30
0
41
1
10
91.7190023754494
20
7.86262136686406
30
0
41
1
10
91.7965822197277
20
7.88488017453531
30
0
41
1
10
91.8325863228994
20
7.90095645782023
30
0
41
1
10
91.8804641541258
20
7.93211346397939
30
0
41
1
10
91.8947611075795
20
7.94284826175237
30
0
41
1
10
91.9083029911137
20
7.95455143961621
30
0
0
SPLINE
5
CC
100
AcDbEntity
8
1
62
256
6
ByLayer
370
-1
48
1
60
0
100
AcDbSpline
70
4
71
3
72
16
73
12
40
0
40
0
40
0
40
0
40
0.218097872867149
40
0.218097872867149
40
0.443303540532875
40
0.443303540532875
40
0.679523380361181
40
0.679523380361181
40
0.936712104639498
40
0.936712104639498
40
1
40
1
40
1
40
1
41
1
10
93.1898276366121
20
8.19128103879942
30
0
41
1
10
93.1769351428257
20
8.20412239916794
30
0
41
1
10
93.1619078594397
20
8.21505268300245
30
0
41
1
10
93.1294600256314
20
8.23179991714895
30
0
41
1
10
93.1115642990131
20
8.23765777805988
30
0
41
1
10
93.0749059110446
20
8.24373841890429
30
0
41
1
10
93.0556864991365
20
8.24376678273197
30
0
41
1
10
93.0174260472559
20
8.23800998969378
30
0
41
1
10
92.998070124102
20
8.23165860696537
30
0
41
1
10
92.9761609636922
20
8.22049377579188
30
0
41
1
10
92.97189368118
20
8.21810673306135
30
0
41
1
10
92.9677341597696
20
8.21556774454356
30
0
0
LINE
5
49
100
AcDbEntity
8
80
62
256
6
ByLayer
370
-1
48
1
60
0
100
AcDbLine
10
0
20
0
30
0
11
-10
21
0
31
0
39
0
210
0
220
0
230
1
0
LINE
5
4A
100
AcDbEntity
8
1
62
256
6
ByLayer
370
-1
48
1
60
0
100
AcDbLine
10
92.863728
20
6.668552
30
0
11
92.859221
21
6.617038
31
0
39
0
210
0
220
0
230
1
0
LINE
5
4B
100
AcDbEntity
8
1
62
256
6
ByLayer
370
-1
48
1
60
0
100
AcDbLine
10
91.740967
20
7.034802
30
0
11
91.747666
21
7.11138
31
0
39
0
210
0
220
0
230
1
0
LINE
5
4C
100
AcDbEntity
8
1
62
256
6
ByLayer
370
-1
48
1
60
0
100
AcDbLine
10
94.169653
20
7.231867
30
0
11
94.175327
21
7.296727
31
0
39
0
210
0
220
0
230
1
0
LINE
5
4D
100
AcDbEntity
8
1
62
256
6
ByLayer
370
-1
48
1
60
0
100
AcDbLine
10
90.738455
20
7.597414
30
0
11
90.732781
21
7.532554
31
0
39
0
210
0
220
0
230
1
0
LINE
5
4E
100
AcDbEntity
8
1
62
256
6
ByLayer
370
-1
48
1
60
0
100
AcDbLine
10
93.166622
20
7.78855
30
0
11
93.159903
21
7.711752
31
0
39
0
210
0
220
0
230
1
0
LINE
5
4F
100
AcDbEntity
8
1
62
256
6
ByLayer
370
-1
48
1
60
0
100
AcDbLine
10
92.044295
20
8.159754
30
0
11
92.051448
21
8.241511
31
0
39
0
210
0
220
0
230
1
0
LINE
5
50
100
AcDbEntity
8
1
62
256
6
ByLayer
370
-1
48
1
60
0
100
AcDbLine
10
84.221912
20
8.0425
30
0
11
62.66
21
8.0425
31
0
39
0
210
0
220
0
230
1
0
LINE
5
51
100
AcDbEntity
8
1
62
256
6
ByLayer
370
-1
48
1
60
0
100
AcDbLine
10
62.66
20
-8.0425
30
0
11
82.221912
21
-8.0425
31
0
39
0
210
0
220
0
230
1
0
LINE
5
52
100
AcDbEntity
8
1
62
256
6
ByLayer
370
-1
48
1
60
0
100
AcDbLine
10
0
20
-7.9925
30
0
11
62.66
21
-7.9925
31
0
39
0
210
0
220
0
230
1
0
LINE
5
53
100
AcDbEntity
8
1
62
256
6
ByLayer
370
-1
48
1
60
0
100
AcDbLine
10
62.66
20
7.9925
30
0
11
0
21
7.9925
31
0
39
0
210
0
220
0
230
1
0
LINE
5
54
100
AcDbEntity
8
1
62
256
6
ByLayer
370
-1
48
1
60
0
100
AcDbLine
10
86.3484
20
9.270229
30
0
11
84.221912
21
8.0425
31
0
39
0
210
0
220
0
230
1
0
LINE
5
55
100
AcDbEntity
8
SK1
62
256
6
ByLayer
370
-1
48
1
60
0
100
AcDbLine
10
-104.84
20
7.9925
30
0
11
-105.34
21
7.4925
31
0
39
0
210
0
220
0
230
1
0
LINE
5
57
100
AcDbEntity
8
SK1
62
256
6
ByLayer
370
-1
48
1
60
0
100
AcDbLine
10
-105.34
20
-7.4925
30
0
11
-104.84
21
-7.9925
31
0
39
0
210
0
220
0
230
1
0
LINE
5
58
100
AcDbEntity
8
SK1
62
256
6
ByLayer
370
-1
48
1
60
0
100
AcDbLine
10
-104.84
20
-7.9925
30
0
11
0
21
-7.9925
31
0
39
0
210
0
220
0
230
1
0
LINE
5
59
100
AcDbEntity
8
SK1
62
256
6
ByLayer
370
-1
48
1
60
0
100
AcDbLine
10
0
20
7.9925
30
0
11
-104.84
21
7.9925
31
0
39
0
210
0
220
0
230
1
0
LINE
5
5A
100
AcDbEntity
8
81
62
256
6
ByLayer
370
-1
48
1
60
0
100
AcDbLine
10
95.91
20
10.9
30
0
11
105.91
21
10.9
31
0
39
0
210
0
220
0
230
1
0
LINE
5
5B
100
AcDbEntity
8
SK4
62
256
6
ByLayer
370
-1
48
0.05
60
0
100
AcDbLine
10
-110.34
20
0
30
0
11
100.271171
21
0
31
0
39
0
210
0
220
0
230
1
0
LINE
5
5D
100
AcDbEntity
8
4
62
256
6
ByLayer
370
-1
48
0.05
60
0
100
AcDbLine
10
0
20
0
30
0
11
100.271171
21
0
31
0
39
0
210
0
220
0
230
1
0
LINE
5
5F
100
AcDbEntity
8
1
62
256
6
ByLayer
370
-1
48
1
60
0
100
AcDbLine
10
0
20
-0.208217
30
0
11
0
21
0.208217
31
0
39
0
210
0
220
0
230
1
0
LINE
5
60
100
AcDbEntity
8
1
62
256
6
ByLayer
370
-1
48
1
60
0
100
AcDbLine
10
62.66
20
-0.306445
30
0
11
62.66
21
-8.0425
31
0
39
0
210
0
220
0
230
1
0
LINE
5
61
100
AcDbEntity
8
1
62
256
6
ByLayer
370
-1
48
1
60
0
100
AcDbLine
10
62.66
20
8.0425
30
0
11
62.66
21
0.306445
31
0
39
0
210
0
220
0
230
1
0
LINE
5
62
100
AcDbEntity
8
1
62
256
6
ByLayer
370
-1
48
1
60
0
100
AcDbLine
10
95.04998
20
4.512348
30
0
11
94.844599
21
2.164838
31
0
39
0
210
0
220
0
230
1
0
LINE
5
63
100
AcDbEntity
8
1
62
256
6
ByLayer
370
-1
48
1
60
0
100
AcDbLine
10
84.221912
20
8.0425
30
0
11
84.221912
21
8.036618
31
0
39
0
210
0
220
0
230
1
0
LINE
5
64
100
AcDbEntity
8
1
62
256
6
ByLayer
370
-1
48
1
60
0
100
AcDbLine
10
86.588009
20
9.408536
30
0
11
89.663257
21
-2.025055
31
0
39
0
210
0
220
0
230
1
0
LINE
5
65
100
AcDbEntity
8
1
62
256
6
ByLayer
370
-1
48
1
60
0
100
AcDbLine
10
0
20
-7.9925
30
0
11
0
21
-0.208217
31
0
39
0
210
0
220
0
230
1
0
LINE
5
66
100
AcDbEntity
8
1
62
256
6
ByLayer
370
-1
48
1
60
0
100
AcDbLine
10
0
20
0.208217
30
0
11
0
21
7.9925
31
0
39
0
210
0
220
0
230
1
0
LINE
5
67
100
AcDbEntity
8
1
62
256
6
ByLayer
370
-1
48
1
60
0
100
AcDbLine
10
88.45967
20
4.574614
30
0
11
88.476474
21
4.766683
31
0
39
0
210
0
220
0
230
1
0
LINE
5
68
100
AcDbEntity
8
1
62
256
6
ByLayer
370
-1
48
1
60
0
100
AcDbLine
10
83.061355
20
-7.363684
30
0
11
89.663257
21
-2.025055
31
0
39
0
210
0
220
0
230
1
0
LINE
5
69
100
AcDbEntity
8
1
62
256
6
ByLayer
370
-1
48
1
60
0
100
AcDbLine
10
88.412843
20
5.488235
30
0
11
88.476474
21
4.766683
31
0
39
0
210
0
220
0
230
1
0
LINE
5
6A
100
AcDbEntity
8
1
62
256
6
ByLayer
370
-1
48
1
60
0
100
AcDbLine
10
62.66
20
0.208217
30
0
11
0
21
0.208217
31
0
39
0
210
0
220
0
230
1
0
LINE
5
6B
100
AcDbEntity
8
1
62
256
6
ByLayer
370
-1
48
1
60
0
100
AcDbLine
10
62.66
20
0.306445
30
0
11
74.096542
21
0.306445
31
0
39
0
210
0
220
0
230
1
0
LINE
5
6C
100
AcDbEntity
8
1
62
256
6
ByLayer
370
-1
48
1
60
0
100
AcDbLine
10
89.663257
20
-2.025055
30
0
11
94.844599
21
2.164838
31
0
39
0
210
0
220
0
230
1
0
LINE
5
6D
100
AcDbEntity
8
1
62
256
6
ByLayer
370
-1
48
1
60
0
100
AcDbLine
10
0
20
-0.208217
30
0
11
62.66
21
-0.208217
31
0
39
0
210
0
220
0
230
1
0
LINE
5
6E
100
AcDbEntity
8
1
62
256
6
ByLayer
370
-1
48
1
60
0
100
AcDbLine
10
74.303114
20
-0.306445
30
0
11
62.66
21
-0.306445
31
0
39
0
210
0
220
0
230
1
0
LINE
5
6F
100
AcDbEntity
8
1
62
256
6
ByLayer
370
-1
48
1
60
0
100
AcDbLine
10
62.66
20
0.208217
30
0
11
62.66
21
0.306445
31
0
39
0
210
0
220
0
230
1
0
LINE
5
70
100
AcDbEntity
8
1
62
256
6
ByLayer
370
-1
48
1
60
0
100
AcDbLine
10
82.221912
20
-8.0425
30
0
11
83.061355
21
-7.363684
31
0
39
0
210
0
220
0
230
1
0
LINE
5
71
100
AcDbEntity
8
1
62
256
6
ByLayer
370
-1
48
1
60
0
100
AcDbLine
10
62.66
20
-0.306445
30
0
11
62.66
21
-0.208217
31
0
39
0
210
0
220
0
230
1
0
LINE
5
72
100
AcDbEntity
8
SK1
62
256
6
ByLayer
370
-1
48
1
60
0
100
AcDbLine
10
-32.09
20
-0.208217
30
0
11
0
21
-0.208217
31
0
39
0
210
0
220
0
230
1
0
LINE
5
73
100
AcDbEntity
8
SK1
62
256
6
ByLayer
370
-1
48
1
60
0
100
AcDbLine
10
-32.09
20
-0.208217
30
0
11
-32.09
21
0.208217
31
0
39
0
210
0
220
0
230
1
0
LINE
5
74
100
AcDbEntity
8
SK1
62
256
6
ByLayer
370
-1
48
1
60
0
100
AcDbLine
10
0
20
0.208217
30
0
11
-32.09
21
0.208217
31
0
39
0
210
0
220
0
230
1
0
LINE
5
75
100
AcDbEntity
8
SK1
62
256
6
ByLayer
370
-1
48
1
60
0
100
AcDbLine
10
-105.34
20
-7.4925
30
0
11
-105.34
21
7.4925
31
0
39
0
210
0
220
0
230
1
0
LINE
5
76
100
AcDbEntity
8
SK1
62
256
6
ByLayer
370
-1
48
1
60
0
100
AcDbLine
10
-104.84
20
-7.9925
30
0
11
-104.84
21
7.9925
31
0
39
0
210
0
220
0
230
1
0
LINE
5
77
100
AcDbEntity
8
SK1
62
256
6
ByLayer
370
-1
48
1
60
0
100
AcDbLine
10
0
20
-7.9925
30
0
11
0
21
-0.208217
31
0
39
0
210
0
220
0
230
1
0
LINE
5
78
100
AcDbEntity
8
SK1
62
256
6
ByLayer
370
-1
48
1
60
0
100
AcDbLine
10
0
20
0.208217
30
0
11
0
21
7.9925
31
0
39
0
210
0
220
0
230
1
0
LINE
5
79
100
AcDbEntity
8
SK1
62
256
6
ByLayer
370
-1
48
1
60
0
100
AcDbLine
10
0
20
-0.208217
30
0
11
0
21
0.208217
31
0
39
0
210
0
220
0
230
1
0
LINE
5
7A
100
AcDbEntity
8
1
62
256
6
ByLayer
370
-1
48
1
60
0
100
AcDbLine
10
93.365762
20
7.31318
30
0
11
93.373046
21
7.39644
31
0
39
0
210
0
220
0
230
1
0
LINE
5
7B
100
AcDbEntity
8
1
62
256
6
ByLayer
370
-1
48
1
60
0
100
AcDbLine
10
92.96045
20
8.132308
30
0
11
92.967734
21
8.215568
31
0
39
0
210
0
220
0
230
1
0
LINE
5
7C
100
AcDbEntity
8
1
62
256
6
ByLayer
370
-1
48
1
60
0
100
AcDbLine
10
92.3901
20
8.284973
30
0
11
92.397385
21
8.368233
31
0
39
0
210
0
220
0
230
1
0
LINE
5
7D
100
AcDbEntity
8
1
62
256
6
ByLayer
370
-1
48
1
60
0
100
AcDbLine
10
91.627556
20
7.776234
30
0
11
91.634837
21
7.859464
31
0
39
0
210
0
220
0
230
1
0
LINE
5
7E
100
AcDbEntity
8
1
62
256
6
ByLayer
370
-1
48
1
60
0
100
AcDbLine
10
91.68838
20
6.865287
30
0
11
91.695665
21
6.948547
31
0
39
0
210
0
220
0
230
1
0
LINE
5
7F
100
AcDbEntity
8
1
62
256
6
ByLayer
370
-1
48
1
60
0
100
AcDbLine
10
91.908303
20
7.954551
30
0
11
91.901783
21
7.880023
31
0
39
0
210
0
220
0
230
1
0
LINE
5
80
100
AcDbEntity
8
1
62
256
6
ByLayer
370
-1
48
1
60
0
100
AcDbLine
10
91.941671
20
7.919754
30
0
11
91.948192
21
7.994282
31
0
39
0
210
0
220
0
230
1
0
LINE
5
81
100
AcDbEntity
8
1
62
256
6
ByLayer
370
-1
48
1
60
0
100
AcDbLine
10
89.858364
20
10.410719
30
0
11
95.478262
21
10.898495
31
0
39
0
210
0
220
0
230
1
0
LINE
5
82
100
AcDbEntity
8
1
62
256
6
ByLayer
370
-1
48
1
60
0
100
AcDbLine
10
95.058011
20
4.513054
30
0
11
89.438113
21
4.025279
31
0
39
0
210
0
220
0
230
1
0
LINE
5
83
100
AcDbEntity
8
1
62
256
6
ByLayer
370
-1
48
1
60
0
100
AcDbLine
10
95.908489
20
10.469974
30
0
11
95.418762
21
4.872374
31
0
39
0
210
0
220
0
230
1
0
LINE
5
84
100
AcDbEntity
8
1
62
256
6
ByLayer
370
-1
48
1
60
0
100
AcDbLine
10
89.007886
20
4.4538
30
0
11
89.497613
21
10.0514
31
0
39
0
210
0
220
0
230
1
0
LINE
5
85
100
AcDbEntity
8
2
62
256
6
ByLayer
370
-1
48
1
60
1
100
AcDbLine
10
95.91
20
0
30
0
11
95.911
21
0.001
31
0
39
0
210
0
220
0
230
1
0
MTEXT
5
CD
100
AcDbEntity
8
SK6
62
256
6
ByLayer
370
-1
48
1
60
0
100
AcDbMText
10
-1.34
20
-20.124247
30
0
210
0
220
0
230
1
1
\W00.725;\fsimplex.shx,bigfont.shx;E16R-SCLCR 06-R 
40
3.5
41
0
44
1.084337
50
0
71
7
72
5
7
DEFAULT
0
DIMENSION
5
100
100
AcDbEntity
8
2
62
256
6
ByLayer
370
-3
48
1
60
0
100
AcDbDimension
2
DimnDraft3D1
10
108.16
20
0
30
0
11
108.16
21
21.155
31
0
70
32
71
5
72
1
41
1
210
0
220
0
230
1
3
Standard
100
AcDbAlignedDimension
13
97.91
23
10.9
33
0
14
97.91
24
0
34
0
50
90
100
AcDbRotatedDimension
1001
ACAD
1000
DSTYLE
1002
{
1070
    74
1070
     0
1070
   279
1070
     0
1070
   172
1070
     1
1070
   173
1070
     1
1070
   340
1005
CE
1070
    77
1070
     1
1070
    73
1070
     0
1070
   171
1070
     4
1070
   274
1070
     4
1070
   177
1070
     2
1070
   176
1070
     2
1070
   178
1070
     7
1070
    78
1070
     8
1070
    41
1041
3.175
1070
   147
1041
2.25
1070
    42
1041
2.0
1070
    44
1041
2.0
1070
   140
1041
4.5
1070
   343
1005
101
1070
   344
1005
101
1002
}
0
DIMENSION
5
116
100
AcDbEntity
8
SK2
62
256
6
ByLayer
370
-3
48
1
60
0
100
AcDbDimension
2
DimnDraft3D2
10
-115.09
20
7.9925
30
0
11
-115.09
21
-4.221711
31
0
70
32
71
5
72
1
41
1
210
0
220
0
230
1
3
Standard
100
AcDbAlignedDimension
13
-107.34
23
-7.9925
33
0
14
-107.34
24
7.9925
34
0
50
90
100
AcDbRotatedDimension
1001
ACAD
1000
DSTYLE
1002
{
1070
    74
1070
     0
1070
   279
1070
     0
1070
   172
1070
     1
1070
   173
1070
     1
1070
   340
1005
CE
1070
    77
1070
     1
1070
    73
1070
     0
1070
   171
1070
     4
1070
   274
1070
     4
1070
   177
1070
     2
1070
   176
1070
     2
1070
   178
1070
     7
1070
    78
1070
     8
1070
    41
1041
3.175
1070
   147
1041
2.25
1070
    42
1041
2.0
1070
    44
1041
2.0
1070
   140
1041
4.5
1070
   343
1005
101
1070
   344
1005
101
1002
}
0
DIMENSION
5
124
100
AcDbEntity
8
SK2
62
256
6
ByLayer
370
-3
48
1
60
0
100
AcDbDimension
2
DimnDraft3D3
10
-105.34
20
23.65
30
0
11
-11.530132
21
23.65
31
0
70
32
71
5
72
1
41
1
210
0
220
0
230
1
3
Standard
100
AcDbAlignedDimension
13
95.91
23
12.9
33
0
14
-105.34
24
9.9925
34
0
50
0
100
AcDbRotatedDimension
1001
ACAD
1000
DSTYLE
1002
{
1070
   279
1070
     0
1070
   172
1070
     1
1070
   173
1070
     1
1070
   340
1005
CE
1070
    77
1070
     1
1070
    73
1070
     0
1070
   171
1070
     4
1070
   274
1070
     4
1070
   177
1070
     2
1070
   176
1070
     2
1070
   178
1070
     7
1070
    78
1070
     8
1070
    41
1041
3.175
1070
   147
1041
2.25
1070
    42
1041
2.0
1070
    44
1041
2.0
1070
   140
1041
4.5
1070
   343
1005
101
1070
   344
1005
101
1002
}
0
DIMENSION
5
132
100
AcDbEntity
8
2
62
256
6
ByLayer
370
-3
48
1
60
0
100
AcDbDimension
2
DimnDraft3D4
10
143.88278
20
0
30
0
11
120.442084
21
-37.243123
31
0
70
34
71
5
72
1
41
1
210
0
220
0
230
1
3
Standard
100
AcDb2LineAngularDimension
13
95.212754
23
2.930442
33
0
14
90.692156
24
-48.740227
34
0
15
97.91
25
0
35
0
16
123.619239
26
-31.280028
36
0
40
0
0
ENDSEC
0
SECTION
2
OBJECTS
0
DICTIONARY
5
163
330
0
100
AcDbDictionary
280
0
281
1
3
ACAD_GROUP
350
164
3
ACAD_MLINESTYLE
350
165
0
DICTIONARY
5
164
330
0
100
AcDbDictionary
280
0
281
1
0
DICTIONARY
5
165
330
0
100
AcDbDictionary
280
0
281
1
3
Standard
350
18
0
MLINESTYLE
5
18
330
165
100
AcDbMlineStyle
2
Standard
70
0
3

62
256
51
90
52
90
71
2
49
-0.5
62
256
6
ByLayer
49
0.5
62
256
6
ByLayer
0
RASTERVARIABLES
5
151
330

100
AcDbRasterVariables
90
0
70
1
71
1
72
1
0
ENDSEC
0
EOF
