0
SECTION
2
HEADER
9
$ACADVER
1
AC1015
9
$DWGCODEPAGE
3
ANSI_1252
9
$HANDSEED
5
181
9
$ANGBASE
50
0
9
$ANGDIR
70
0
9
$ATTMODE
70
1
9
$AUNITS
70
0
9
$AUPREC
70
0
9
$CECOLOR
62
256
9
$CELTSCALE
40
1
9
$CELTYPE
6
ByLayer
9
$CELWEIGHT
370
-1
9
$CLAYER
8
0
9
$CMLJUST
70
0
9
$CMLSCALE
40
1
9
$CMLSTYLE
2
Standard
9
$DIMSTYLE
2
Standard
9
$TEXTSIZE
40
0.2
9
$TEXTSTYLE
7
Standard
9
$LUNITS
70
2
9
$LUPREC
70
4
9
$EXTNAMES
290
1
9
$INSUNITS
70
4
9
$LTSCALE
40
1
9
$LWDISPLAY
290
0
9
$PDMODE
70
0
9
$PDSIZE
40
0
9
$PLINEGEN
70
0
0
ENDSEC
0
SECTION
2
CLASSES
0
CLASS
1
RASTERVARIABLES
2
AcDbRasterVariables
3
ISM
90
0
280
0
281
0
0
ENDSEC
0
SECTION
2
TABLES
0
TABLE
2
VPORT
5
177
100
AcDbSymbolTable
0
VPORT
5
1
100
AcDbSymbolTableRecord
100
AcDbViewportTableRecord
2
*Active
70
0
10
0
20
0
11
1
21
1
12
-1
22
1
13
0
23
0
14
0.5
24
0.5
15
10
25
10
16
0
26
0
36
1
17
0
27
0
37
0
0
ENDTAB
0
TABLE
2
LTYPE
5
178
100
AcDbSymbolTable
0
LTYPE
5
14
100
AcDbSymbolTableRecord
100
AcDbLinetypeTableRecord
70
0
2
ByBlock
3

72
65
73
0
40
0
0
LTYPE
5
15
100
AcDbSymbolTableRecord
100
AcDbLinetypeTableRecord
70
0
2
ByLayer
3

72
65
73
0
40
0
0
LTYPE
5
16
100
AcDbSymbolTableRecord
100
AcDbLinetypeTableRecord
70
0
2
CONTINUOUS
3
Solid line
72
65
73
0
40
0
0
LTYPE
5
3B
100
AcDbSymbolTableRecord
100
AcDbLinetypeTableRecord
70
0
2
DASHED
3
__ __ __ __ __ __ __ __ __
72
65
73
2
40
25.72
49
12.86
74
0
49
-12.86
74
0
0
LTYPE
5
3C
100
AcDbSymbolTableRecord
100
AcDbLinetypeTableRecord
70
0
2
HIDDEN
3
_ _ _ _ _ _ _ _ _ _ _ _ _ _ _
72
65
73
2
40
0.5
49
0.25
74
0
49
-0.25
74
0
0
LTYPE
5
3D
100
AcDbSymbolTableRecord
100
AcDbLinetypeTableRecord
70
0
2
PHANTOM
3
____ _ _ ____ _ _ _____ _ _ ____
72
65
73
6
40
50.5
49
18
74
0
49
-6.5
74
0
49
6.5
74
0
49
-6.5
74
0
49
6.5
74
0
49
-6.5
74
0
0
LTYPE
5
3E
100
AcDbSymbolTableRecord
100
AcDbLinetypeTableRecord
70
0
2
CENTER
3
____ _ ____ _ ____ _ ____
72
65
73
4
40
47.5
49
22
74
0
49
-8.5
74
0
49
8.5
74
0
49
-8.5
74
0
0
LTYPE
5
3F
100
AcDbSymbolTableRecord
100
AcDbLinetypeTableRecord
70
0
2
DOT
3
.........................
72
65
73
2
40
10
49
0
74
0
49
-10
74
0
0
LTYPE
5
40
100
AcDbSymbolTableRecord
100
AcDbLinetypeTableRecord
70
0
2
DASHDOT
3
_._._._._._._._._._._._._._._._.
72
65
73
4
40
70
49
31
74
0
49
-13
74
0
49
13
74
0
49
-13
74
0
0
ENDTAB
0
TABLE
2
LAYER
5
179
100
AcDbSymbolTable
0
LAYER
5
10
100
AcDbSymbolTableRecord
100
AcDbLayerTableRecord
2
0
70
0
62
7
6
CONTINUOUS
290
1
370
-3
390
0
0
LAYER
5
42
100
AcDbSymbolTableRecord
100
AcDbLayerTableRecord
2
80
70
0
62
-6
6
CONTINUOUS
290
1
370
-3
390
0
0
LAYER
5
44
100
AcDbSymbolTableRecord
100
AcDbLayerTableRecord
2
81
70
0
62
-3
6
CONTINUOUS
290
1
370
-3
390
0
0
LAYER
5
46
100
AcDbSymbolTableRecord
100
AcDbLayerTableRecord
2
1
70
0
62
4
6
CONTINUOUS
290
1
370
-3
390
0
0
LAYER
5
48
100
AcDbSymbolTableRecord
100
AcDbLayerTableRecord
2
2
70
0
62
7
6
CONTINUOUS
290
1
370
-3
390
0
0
LAYER
5
4F
100
AcDbSymbolTableRecord
100
AcDbLayerTableRecord
2
4
70
0
62
-2
6
CENTER
290
1
370
-3
390
0
0
LAYER
5
163
100
AcDbSymbolTableRecord
100
AcDbLayerTableRecord
2
SK4
70
0
62
2
6
CENTER
290
1
370
-3
390
0
0
LAYER
5
164
100
AcDbSymbolTableRecord
100
AcDbLayerTableRecord
2
SK1
70
0
62
4
6
CONTINUOUS
290
1
370
-3
390
0
0
LAYER
5
165
100
AcDbSymbolTableRecord
100
AcDbLayerTableRecord
2
SK6
70
0
62
5
6
CONTINUOUS
290
1
370
-3
390
0
0
LAYER
5
166
100
AcDbSymbolTableRecord
100
AcDbLayerTableRecord
2
SK2
70
0
62
7
6
CONTINUOUS
290
1
370
-3
390
0
0
ENDTAB
0
TABLE
2
STYLE
5
17a
100
AcDbSymbolTable
0
STYLE
5
11
100
AcDbSymbolTableRecord
100
AcDbTextStyleTableRecord
2
Standard
3
txt
70
0
71
0
40
0
41
1
42
0
50
0
0
STYLE
5
DF
100
AcDbSymbolTableRecord
100
AcDbTextStyleTableRecord
2
DEFAULT
3
simplex.shx
70
0
71
0
40
0
41
1
42
0
50
0
0
STYLE
5
102
100
AcDbSymbolTableRecord
100
AcDbTextStyleTableRecord
2
DWGDirectTextStyle
3
SIMPLEX
70
0
71
0
40
0
41
1
42
0
50
0
0
ENDTAB
0
TABLE
2
DIMSTYLE
5
17b
100
AcDbSymbolTable
100
AcDbDimStyleTable
0
DIMSTYLE
105
27
100
AcDbSymbolTableRecord
100
AcDbDimStyleTableRecord
2
Standard
70
0
3
<>
41
0.18
42
0.0625
44
0.18
140
0.18
147
0.09
73
0
74
0
77
1
271
2
275
0
278
52
280
0
340
11
0
ENDTAB
0
TABLE
2
VIEW
5
17c
100
AcDbSymbolTable
0
ENDTAB
0
TABLE
2
UCS
5
17d
100
AcDbSymbolTable
0
ENDTAB
0
TABLE
2
APPID
5
17e
100
AcDbSymbolTable
0
APPID
5
12
100
AcDbSymbolTableRecord
100
AcDbRegAppTableRecord
2
ACAD
70
0
0
ENDTAB
0
TABLE
2
BLOCK_RECORD
5
17f
100
AcDbSymbolTable
0
BLOCK_RECORD
5
1F
100
AcDbSymbolTableRecord
100
AcDbBlockTableRecord
2
*Model_Space
340
0
70
0
0
BLOCK_RECORD
5
1B
100
AcDbSymbolTableRecord
100
AcDbBlockTableRecord
2
*Paper_Space
340
0
70
0
0
BLOCK_RECORD
5
23
100
AcDbSymbolTableRecord
100
AcDbBlockTableRecord
2
*Paper_Space0
340
0
70
0
0
BLOCK_RECORD
5
104
100
AcDbSymbolTableRecord
100
AcDbBlockTableRecord
2
DimnDraft3D1
340
0
70
0
0
BLOCK_RECORD
5
112
100
AcDbSymbolTableRecord
100
AcDbBlockTableRecord
2
_CLOSED
340
0
70
0
0
BLOCK_RECORD
5
119
100
AcDbSymbolTableRecord
100
AcDbBlockTableRecord
2
DimnDraft3D2
340
0
70
0
0
BLOCK_RECORD
5
128
100
AcDbSymbolTableRecord
100
AcDbBlockTableRecord
2
DimnDraft3D3
340
0
70
0
0
BLOCK_RECORD
5
136
100
AcDbSymbolTableRecord
100
AcDbBlockTableRecord
2
DimnDraft3D4
340
0
70
0
0
ENDTAB
0
ENDSEC
0
SECTION
2
BLOCKS
0
BLOCK
5
20
100
AcDbEntity
8
0
100
AcDbBlockBegin
2
*Model_Space
70
0
10
0
20
0
30
0
3
*Model_Space
0
ENDBLK
5
21
100
AcDbEntity
8
0
100
AcDbBlockEnd
0
BLOCK
5
1C
100
AcDbEntity
8
0
100
AcDbBlockBegin
2
*Paper_Space
70
0
10
0
20
0
30
0
3
*Paper_Space
0
ENDBLK
5
1D
100
AcDbEntity
8
0
100
AcDbBlockEnd
0
BLOCK
5
24
100
AcDbEntity
8
0
100
AcDbBlockBegin
2
*Paper_Space0
70
0
10
0
20
0
30
0
3
*Paper_Space0
0
ENDBLK
5
25
100
AcDbEntity
8
0
100
AcDbBlockEnd
0
BLOCK
5
10F
100
AcDbEntity
8
0
100
AcDbBlockBegin
2
DimnDraft3D1
70
0
10
0
20
0
30
0
3
DimnDraft3D1
0
MTEXT
5
105
100
AcDbEntity
8
2
62
256
6
ByLayer
370
-1
48
1
60
0
100
AcDbMText
10
83.035
20
-28.106316
30
0
210
0
220
0
230
1
1
\W01.000;\fsimplex.shx,bigfont.shx;11.0 
40
4.5
41
0
44
1.084337
50
90
71
7
72
5
7
DEFAULT
0
LINE
5
106
100
AcDbEntity
8
2
62
256
6
ByLayer
370
-1
48
1
60
0
100
AcDbLine
10
73.91
20
-10.9
30
0
11
86.16
21
-10.9
31
0
39
0
210
0
220
0
230
1
0
LINE
5
107
100
AcDbEntity
8
2
62
256
6
ByLayer
370
-1
48
1
60
0
100
AcDbLine
10
73.91
20
0
30
0
11
86.16
21
0
31
0
39
0
210
0
220
0
230
1
0
LINE
5
108
100
AcDbEntity
8
2
62
256
6
ByLayer
370
-1
48
1
60
0
100
AcDbLine
10
84.16
20
0
30
0
11
84.16
21
-29.231316
31
0
39
0
210
0
220
0
230
1
0
LINE
5
109
100
AcDbEntity
8
2
62
256
6
ByLayer
370
-1
48
1
60
0
100
AcDbLine
10
84.16
20
-10.9
30
0
11
83.742003
21
-7.725002
31
0
39
0
210
0
220
0
230
1
0
LINE
5
10A
100
AcDbEntity
8
2
62
256
6
ByLayer
370
-1
48
1
60
0
100
AcDbLine
10
84.16
20
-10.9
30
0
11
84.577997
21
-7.724998
31
0
39
0
210
0
220
0
230
1
0
LINE
5
10B
100
AcDbEntity
8
2
62
256
6
ByLayer
370
-1
48
1
60
0
100
AcDbLine
10
83.742003
20
-7.725002
30
0
11
84.577997
21
-7.724998
31
0
39
0
210
0
220
0
230
1
0
LINE
5
10C
100
AcDbEntity
8
2
62
256
6
ByLayer
370
-1
48
1
60
0
100
AcDbLine
10
84.16
20
0
30
0
11
84.577997
21
-3.174998
31
0
39
0
210
0
220
0
230
1
0
LINE
5
10D
100
AcDbEntity
8
2
62
256
6
ByLayer
370
-1
48
1
60
0
100
AcDbLine
10
84.16
20
0
30
0
11
83.742003
21
-3.175002
31
0
39
0
210
0
220
0
230
1
0
LINE
5
10E
100
AcDbEntity
8
2
62
256
6
ByLayer
370
-1
48
1
60
0
100
AcDbLine
10
84.577997
20
-3.174998
30
0
11
83.742003
21
-3.175002
31
0
39
0
210
0
220
0
230
1
0
ENDBLK
5
110
100
AcDbEntity
8
0
100
AcDbBlockEnd
0
BLOCK
5
113
100
AcDbEntity
8
0
100
AcDbBlockBegin
2
_CLOSED
70
0
10
0
20
0
30
0
3
_CLOSED
0
LINE
5
115
100
AcDbEntity
8
0
62
256
6
ByLayer
370
-2
48
1
60
0
100
AcDbLine
10
-1
20
0.166667
30
0
11
0
21
0
31
0
39
0
210
0
220
0
230
1
0
LINE
5
116
100
AcDbEntity
8
0
62
256
6
ByLayer
370
-2
48
1
60
0
100
AcDbLine
10
0
20
0
30
0
11
-1
21
-0.166667
31
0
39
0
210
0
220
0
230
1
0
LINE
5
117
100
AcDbEntity
8
0
62
256
6
ByLayer
370
-2
48
1
60
0
100
AcDbLine
10
-1
20
0.166667
30
0
11
-1
21
-0.166667
31
0
39
0
210
0
220
0
230
1
0
LINE
5
118
100
AcDbEntity
8
0
62
256
6
ByLayer
370
-2
48
1
60
0
100
AcDbLine
10
0
20
0
30
0
11
-1
21
0
31
0
39
0
210
0
220
0
230
1
0
ENDBLK
5
114
100
AcDbEntity
8
0
100
AcDbBlockEnd
0
BLOCK
5
125
100
AcDbEntity
8
0
100
AcDbBlockBegin
2
DimnDraft3D2
70
0
10
0
20
0
30
0
3
DimnDraft3D2
0
MTEXT
5
11A
100
AcDbEntity
8
SK2
62
256
6
ByLayer
370
-1
48
1
60
0
100
AcDbMText
10
-120.215
20
17.3725
30
0
210
0
220
0
230
1
1
\W01.000;\fsimplex.shx,bigfont.shx;%%c12 
40
4.5
41
0
44
1.084337
50
90
71
7
72
5
7
DEFAULT
0
LINE
5
11C
100
AcDbEntity
8
SK2
62
256
6
ByLayer
370
-1
48
1
60
0
100
AcDbLine
10
-111.34
20
-5.9925
30
0
11
-121.09
21
-5.9925
31
0
39
0
210
0
220
0
230
1
0
LINE
5
11D
100
AcDbEntity
8
SK2
62
256
6
ByLayer
370
-1
48
1
60
0
100
AcDbLine
10
-111.34
20
5.9925
30
0
11
-121.09
21
5.9925
31
0
39
0
210
0
220
0
230
1
0
LINE
5
11E
100
AcDbEntity
8
SK2
62
256
6
ByLayer
370
-1
48
1
60
0
100
AcDbLine
10
-119.09
20
-5.9925
30
0
11
-119.09
21
24.690921
31
0
39
0
210
0
220
0
230
1
0
LINE
5
11F
100
AcDbEntity
8
SK2
62
256
6
ByLayer
370
-1
48
1
60
0
100
AcDbLine
10
-119.09
20
-5.9925
30
0
11
-119.507997
21
-2.817502
31
0
39
0
210
0
220
0
230
1
0
LINE
5
120
100
AcDbEntity
8
SK2
62
256
6
ByLayer
370
-1
48
1
60
0
100
AcDbLine
10
-119.09
20
-5.9925
30
0
11
-118.672003
21
-2.817498
31
0
39
0
210
0
220
0
230
1
0
LINE
5
121
100
AcDbEntity
8
SK2
62
256
6
ByLayer
370
-1
48
1
60
0
100
AcDbLine
10
-119.507997
20
-2.817502
30
0
11
-118.672003
21
-2.817498
31
0
39
0
210
0
220
0
230
1
0
LINE
5
122
100
AcDbEntity
8
SK2
62
256
6
ByLayer
370
-1
48
1
60
0
100
AcDbLine
10
-119.09
20
5.9925
30
0
11
-118.672003
21
2.817502
31
0
39
0
210
0
220
0
230
1
0
LINE
5
123
100
AcDbEntity
8
SK2
62
256
6
ByLayer
370
-1
48
1
60
0
100
AcDbLine
10
-119.09
20
5.9925
30
0
11
-119.507997
21
2.817498
31
0
39
0
210
0
220
0
230
1
0
LINE
5
124
100
AcDbEntity
8
SK2
62
256
6
ByLayer
370
-1
48
1
60
0
100
AcDbLine
10
-118.672003
20
2.817502
30
0
11
-119.507997
21
2.817498
31
0
39
0
210
0
220
0
230
1
0
ENDBLK
5
126
100
AcDbEntity
8
0
100
AcDbBlockEnd
0
BLOCK
5
133
100
AcDbEntity
8
0
100
AcDbBlockBegin
2
DimnDraft3D3
70
0
10
0
20
0
30
0
3
DimnDraft3D3
0
MTEXT
5
129
100
AcDbEntity
8
SK2
62
256
6
ByLayer
370
-1
48
1
60
0
100
AcDbMText
10
-23.842632
20
-27.025
30
0
210
0
220
0
230
1
1
\W01.000;\fsimplex.shx,bigfont.shx;180.0 
40
4.5
41
0
44
1.084337
50
0
71
7
72
5
7
DEFAULT
0
LINE
5
12A
100
AcDbEntity
8
SK2
62
256
6
ByLayer
370
-1
48
1
60
0
100
AcDbLine
10
-109.34
20
-7.9925
30
0
11
-109.34
21
-30.15
31
0
39
0
210
0
220
0
230
1
0
LINE
5
12B
100
AcDbEntity
8
SK2
62
256
6
ByLayer
370
-1
48
1
60
0
100
AcDbLine
10
71.91
20
-12.9
30
0
11
71.91
21
-30.15
31
0
39
0
210
0
220
0
230
1
0
LINE
5
12C
100
AcDbEntity
8
SK2
62
256
6
ByLayer
370
-1
48
1
60
0
100
AcDbLine
10
-109.34
20
-28.15
30
0
11
71.91
21
-28.15
31
0
39
0
210
0
220
0
230
1
0
LINE
5
12D
100
AcDbEntity
8
SK2
62
256
6
ByLayer
370
-1
48
1
60
0
100
AcDbLine
10
-109.34
20
-28.15
30
0
11
-106.165002
21
-27.732003
31
0
39
0
210
0
220
0
230
1
0
LINE
5
12E
100
AcDbEntity
8
SK2
62
256
6
ByLayer
370
-1
48
1
60
0
100
AcDbLine
10
-109.34
20
-28.15
30
0
11
-106.164998
21
-28.567997
31
0
39
0
210
0
220
0
230
1
0
LINE
5
12F
100
AcDbEntity
8
SK2
62
256
6
ByLayer
370
-1
48
1
60
0
100
AcDbLine
10
-106.165002
20
-27.732003
30
0
11
-106.164998
21
-28.567997
31
0
39
0
210
0
220
0
230
1
0
LINE
5
130
100
AcDbEntity
8
SK2
62
256
6
ByLayer
370
-1
48
1
60
0
100
AcDbLine
10
71.91
20
-28.15
30
0
11
68.735002
21
-28.567997
31
0
39
0
210
0
220
0
230
1
0
LINE
5
131
100
AcDbEntity
8
SK2
62
256
6
ByLayer
370
-1
48
1
60
0
100
AcDbLine
10
71.91
20
-28.15
30
0
11
68.734998
21
-27.732003
31
0
39
0
210
0
220
0
230
1
0
LINE
5
132
100
AcDbEntity
8
SK2
62
256
6
ByLayer
370
-1
48
1
60
0
100
AcDbLine
10
68.735002
20
-28.567997
30
0
11
68.734998
21
-27.732003
31
0
39
0
210
0
220
0
230
1
0
ENDBLK
5
134
100
AcDbEntity
8
0
100
AcDbBlockEnd
0
BLOCK
5
141
100
AcDbEntity
8
0
100
AcDbBlockBegin
2
DimnDraft3D4
70
0
10
0
20
0
30
0
3
DimnDraft3D4
0
MTEXT
5
137
100
AcDbEntity
8
2
62
256
6
ByLayer
370
-1
48
1
60
0
100
AcDbMText
10
94.414618
20
31.938034
30
0
210
0
220
0
230
1
1
\W01.000;\fsimplex.shx,bigfont.shx;93%%d0' 
40
4.5
41
0
44
1.084337
50
316.5
71
7
72
5
7
DEFAULT
0
LINE
5
138
100
AcDbEntity
8
2
62
256
6
ByLayer
370
-1
48
1
60
0
100
AcDbLine
10
71.438976
20
-1.912334
30
0
11
69.249169
21
39.871689
31
0
39
0
210
0
220
0
230
1
0
LINE
5
139
100
AcDbEntity
8
2
62
256
6
ByLayer
370
-1
48
1
60
0
100
AcDbLine
10
73.91
20
0
30
0
11
111.265162
21
0
31
0
39
0
210
0
220
0
230
1
0
ARC
5
13A
100
AcDbEntity
8
2
62
256
6
ByLayer
370
-1
48
1
60
0
100
AcDbCircle
39
0
10
71.338755
20
0
30
0
40
37.9264068640929
210
0
220
0
230
1
100
AcDbArc
50
0
51
93
0
LINE
5
13B
100
AcDbEntity
8
2
62
256
6
ByLayer
370
-1
48
1
60
0
100
AcDbLine
10
69.35384
20
37.87443
30
0
11
72.514128
21
38.392036
31
0
39
0
210
0
220
0
230
1
0
LINE
5
13C
100
AcDbEntity
8
2
62
256
6
ByLayer
370
-1
48
1
60
0
100
AcDbLine
10
69.35384
20
37.87443
30
0
11
72.540414
21
37.556456
31
0
39
0
210
0
220
0
230
1
0
LINE
5
13D
100
AcDbEntity
8
2
62
256
6
ByLayer
370
-1
48
1
60
0
100
AcDbLine
10
72.514128
20
38.392036
30
0
11
72.540414
21
37.556456
31
0
39
0
210
0
220
0
230
1
0
LINE
5
13E
100
AcDbEntity
8
2
62
256
6
ByLayer
370
-1
48
1
60
0
100
AcDbLine
10
109.265162
20
0
30
0
11
108.780852
21
3.165562
31
0
39
0
210
0
220
0
230
1
0
LINE
5
13F
100
AcDbEntity
8
2
62
256
6
ByLayer
370
-1
48
1
60
0
100
AcDbLine
10
109.265162
20
0
30
0
11
109.616662
21
3.183049
31
0
39
0
210
0
220
0
230
1
0
LINE
5
140
100
AcDbEntity
8
2
62
256
6
ByLayer
370
-1
48
1
60
0
100
AcDbLine
10
108.780852
20
3.165562
30
0
11
109.616662
21
3.183049
31
0
39
0
210
0
220
0
230
1
0
ENDBLK
5
142
100
AcDbEntity
8
0
100
AcDbBlockEnd
0
ENDSEC
0
SECTION
2
ENTITIES
0
ELLIPSE
5
8F
100
AcDbEntity
8
1
62
256
6
ByLayer
370
-1
48
1
60
0
100
AcDbEllipse
10
65.207255
20
-0.990928
30
0
11
-1.24828691844322
21
-0.0654199453036763
31
0
210
0
220
0
230
1
40
0.995729
41
0.0799251521569393
42
0.959931088596878
0
ELLIPSE
5
90
100
AcDbEntity
8
1
62
256
6
ByLayer
370
-1
48
1
60
0
100
AcDbEllipse
10
65.382679
20
0.099032
30
0
11
-1.0485610114923
21
-0.0549527540550883
31
0
210
0
220
0
230
1
40
0.995729
41
2.69414934246687
42
3.02637252760536
0
ELLIPSE
5
91
100
AcDbEntity
8
1
62
256
6
ByLayer
370
-1
48
1
60
0
100
AcDbEllipse
10
65.382679
20
0.099032
30
0
11
-1.0485610114923
21
-0.0549527540550883
31
0
210
0
220
0
230
1
40
0.995729
41
0.115098632816385
42
1.19423589598074
0
ELLIPSE
5
92
100
AcDbEntity
8
1
62
256
6
ByLayer
370
-1
48
1
60
0
100
AcDbEllipse
10
75.214303
20
-4.757831
30
0
11
-4.19424404596924
21
-0.219811016220353
31
0
210
0
220
0
230
1
40
0.995729
41
-0.439975954790937
42
-0.39192859269828
0
ELLIPSE
5
93
100
AcDbEntity
8
1
62
256
6
ByLayer
370
-1
48
1
60
0
100
AcDbEllipse
10
65.384853
20
0.057542
30
0
11
-1.0485610114923
21
-0.0549527540550883
31
0
210
0
220
0
230
1
40
0.995729
41
2.7272631359825
42
2.7839862074404
0
ELLIPSE
5
94
100
AcDbEntity
8
1
62
256
6
ByLayer
370
-1
48
1
60
0
100
AcDbEllipse
10
65.384853
20
0.057542
30
0
11
-1.0485610114923
21
-0.0549527540550883
31
0
210
0
220
0
230
1
40
0.995729
41
0.0889120777820926
42
1.19431339985302
0
ELLIPSE
5
95
100
AcDbEntity
8
1
62
256
6
ByLayer
370
-1
48
1
60
0
100
AcDbEllipse
10
61.893846
20
-7.553938
30
0
11
9.00460643700157
21
0.000270879959919736
31
0
210
0
220
0
230
-1
40
0.08906
41
-1.69889831763607
42
-1.57546103982706
0
ELLIPSE
5
96
100
AcDbEntity
8
1
62
256
6
ByLayer
370
-1
48
1
60
0
100
AcDbEllipse
10
65.395257
20
-0.140975
30
0
11
1.0485610114923
21
0.0549527540550858
31
0
210
0
220
0
230
1
40
0.995729
41
-0.263164752213128
42
-3.0526805758077
0
ELLIPSE
5
97
100
AcDbEntity
8
1
62
256
6
ByLayer
370
-1
48
1
60
0
100
AcDbEllipse
10
65.217659
20
-1.189445
30
0
11
-1.24828691844322
21
-0.0654199453036763
31
0
210
0
220
0
230
1
40
0.995729
41
-0.862027290779753
42
0.959931088596849
0
ELLIPSE
5
98
100
AcDbEntity
8
1
62
256
6
ByLayer
370
-1
48
1
60
0
100
AcDbEllipse
10
64.689113
20
-10.932843
30
0
11
-4.19424404596923
21
-0.219811016220355
31
0
210
0
220
0
230
1
40
0.995729
41
-1.7828416678459
42
-1.62293296801674
0
ELLIPSE
5
99
100
AcDbEntity
8
1
62
256
6
ByLayer
370
-1
48
1
60
0
100
AcDbEllipse
10
68.457658
20
-5.285474
30
0
11
1.87243037766481
21
0.0981299179555096
31
0
210
0
220
0
230
1
40
0.995729
41
3.08900883668393
42
-9.51453974270919E-16
0
ELLIPSE
5
9A
100
AcDbEntity
8
1
62
256
6
ByLayer
370
-1
48
1
60
0
100
AcDbEllipse
10
68.457658
20
-5.285474
30
0
11
1.87243037766481
21
0.0981299179555096
31
0
210
0
220
0
230
1
40
0.995729
41
0
42
0.85435426813105
0
ELLIPSE
5
9B
100
AcDbEntity
8
1
62
256
6
ByLayer
370
-1
48
1
60
0
100
AcDbEllipse
10
68.457658
20
-5.285474
30
0
11
1.87243037766481
21
0.0981299179555096
31
0
210
0
220
0
230
1
40
0.995729
41
2.28721545115086
42
3.08900883668393
0
ELLIPSE
5
9C
100
AcDbEntity
8
1
62
256
6
ByLayer
370
-1
48
1
60
0
100
AcDbEllipse
10
68.456951
20
-5.271979
30
0
11
1.82225885974134
21
0.0955005401178813
31
0
210
0
220
0
230
1
40
0.995729
41
0
42
6.28318530717959
0
ELLIPSE
5
9D
100
AcDbEntity
8
1
62
256
6
ByLayer
370
-1
48
1
60
0
100
AcDbEllipse
10
71.159655
20
-3.760114
30
0
11
0.396331096605723
21
0.0207708326339164
31
0
210
0
220
0
230
1
40
0.995729
41
0
42
0.959931088597142
0
ELLIPSE
5
9E
100
AcDbEntity
8
1
62
256
6
ByLayer
370
-1
48
1
60
0
100
AcDbEllipse
10
68.460702
20
-5.34356
30
0
11
1.91642389486198
21
0.100435520494663
31
0
210
0
220
0
230
1
40
0.995729
41
0
42
6.28318530717959
0
ELLIPSE
5
9F
100
AcDbEntity
8
1
62
256
6
ByLayer
370
-1
48
1
60
0
100
AcDbEllipse
10
71.51313
20
-10.504816
30
0
11
0.396331096605757
21
0.0207708326339182
31
0
210
0
220
0
230
1
40
0.995729
41
-2.18166156499285
42
1.16871511800196E-13
0
ELLIPSE
5
A0
100
AcDbEntity
8
1
62
256
6
ByLayer
370
-1
48
1
60
0
100
AcDbEllipse
10
65.761749
20
-6.927006
30
0
11
0.396331096605723
21
0.0207708326339164
31
0
210
0
220
0
230
1
40
0.995729
41
3.1415926535897
42
-2.181661564993
0
ELLIPSE
5
A1
100
AcDbEntity
8
1
62
256
6
ByLayer
370
-1
48
1
60
0
100
AcDbEllipse
10
65.408275
20
-0.182304
30
0
11
0.396331096605757
21
0.0207708326339182
31
0
210
0
220
0
230
1
40
0.995729
41
0.959931088597029
42
-3.14159265358956
0
ELLIPSE
5
A2
100
AcDbEntity
8
1
62
256
6
ByLayer
370
-1
48
1
60
0
100
AcDbEllipse
10
68.456172
20
-5.257111
30
0
11
1.72263594745165
21
0.0902795245190698
31
0
210
0
220
0
230
1
40
0.995729
41
3.08900885997157
42
-3.14155479268661
0
ELLIPSE
5
A3
100
AcDbEntity
8
1
62
256
6
ByLayer
370
-1
48
1
60
0
100
AcDbEllipse
10
68.456172
20
-5.257111
30
0
11
1.72263594745165
21
0.0902795245190698
31
0
210
0
220
0
230
1
40
0.995729
41
0
42
3.0890088237568
0
ELLIPSE
5
A4
100
AcDbEntity
8
1
62
256
6
ByLayer
370
-1
48
1
60
0
100
AcDbEllipse
10
68.46052
20
-5.340091
30
0
11
1.03358156847098
21
0.0541677147114416
31
0
210
0
220
0
230
1
40
0.995729
41
-2.13717035403305
42
-1.09083078249637
0
ELLIPSE
5
A5
100
AcDbEntity
8
1
62
256
6
ByLayer
370
-1
48
1
60
0
100
AcDbEllipse
10
68.455688
20
-5.247891
30
0
11
0.74697489199642
21
0.0391472952697181
31
0
210
0
220
0
230
1
40
0.995729
41
-1.6140005682647
42
-0.567660996728059
0
ELLIPSE
5
A6
100
AcDbEntity
8
1
62
256
6
ByLayer
370
-1
48
1
60
0
100
AcDbEllipse
10
67.448734
20
-5.83866
30
0
11
-0.42142166366643
21
-0.0220857735345211
31
0
210
0
220
0
230
1
40
0.995729
41
-2.59471378697517
42
-1.88454090939943
0
ELLIPSE
5
A7
100
AcDbEntity
8
1
62
256
6
ByLayer
370
-1
48
1
60
0
100
AcDbEllipse
10
68.46052
20
-5.340091
30
0
11
1.03358156847098
21
0.0541677147114416
31
0
210
0
220
0
230
1
40
0.995729
41
-0.0444912109598627
42
1.00442229955655
0
ELLIPSE
5
A8
100
AcDbEntity
8
1
62
256
6
ByLayer
370
-1
48
1
60
0
100
AcDbEllipse
10
68.455688
20
-5.247891
30
0
11
-0.746974891996416
21
-0.0391472952697195
31
0
210
0
220
0
230
1
40
0.995729
41
-1.35264405615597
42
-0.675923368875284
0
ELLIPSE
5
A9
100
AcDbEntity
8
1
62
256
6
ByLayer
370
-1
48
1
60
0
100
AcDbEllipse
10
69.473617
20
-5.82178
30
0
11
-0.42142166366643
21
-0.0220857735345211
31
0
210
0
220
0
230
1
40
0.995729
41
-0.567660996728097
42
-9.43753328489883E-06
0
ELLIPSE
5
AA
100
AcDbEntity
8
1
62
256
6
ByLayer
370
-1
48
1
60
0
100
AcDbEllipse
10
69.462643
20
-4.657122
30
0
11
-0.42142166366643
21
-0.0220857735345211
31
0
210
0
220
0
230
1
40
0.995729
41
-0.297120655593399
42
9.80231965854229E-06
0
ELLIPSE
5
AB
100
AcDbEntity
8
1
62
256
6
ByLayer
370
-1
48
1
60
0
100
AcDbEllipse
10
68.46052
20
-5.340091
30
0
11
1.03358156847098
21
0.0541677147114416
31
0
210
0
220
0
230
1
40
0.995729
41
1.00442229955655
42
2.05076187109325
0
ELLIPSE
5
AC
100
AcDbEntity
8
1
62
256
6
ByLayer
370
-1
48
1
60
0
100
AcDbEllipse
10
68.037603
20
-5.984993
30
0
11
-0.184746463929596
21
-0.00968215190494414
31
0
210
0
220
0
230
1
40
0.995729
41
0.224956520917643
42
2.30249181317789
0
ELLIPSE
5
AD
100
AcDbEntity
8
1
62
256
6
ByLayer
370
-1
48
1
60
0
100
AcDbEllipse
10
68.45972
20
-5.324814
30
0
11
0.746974891996409
21
0.0391472952697175
31
0
210
0
220
0
230
1
40
0.995729
41
-2.69935846120823
42
-2.62389575737432
0
ELLIPSE
5
AE
100
AcDbEntity
8
1
62
256
6
ByLayer
370
-1
48
1
60
0
100
AcDbEllipse
10
68.46052
20
-5.340091
30
0
11
1.03358156847098
21
0.0541677147114416
31
0
210
0
220
0
230
1
40
0.995729
41
2.05076187109325
42
3.09710144263008
0
ELLIPSE
5
AF
100
AcDbEntity
8
1
62
256
6
ByLayer
370
-1
48
1
60
0
100
AcDbEllipse
10
68.46052
20
-5.340091
30
0
11
1.03358156847098
21
0.0541677147114416
31
0
210
0
220
0
230
1
40
0.995729
41
3.09710144263008
42
-2.13717035403305
0
ELLIPSE
5
B0
100
AcDbEntity
8
1
62
256
6
ByLayer
370
-1
48
1
60
0
100
AcDbEllipse
10
68.455688
20
-5.247891
30
0
11
-0.746974891996416
21
-0.0391472952697195
31
0
210
0
220
0
230
1
40
0.995729
41
-2.55056732454313
42
-1.87141269404601
0
ELLIPSE
5
B1
100
AcDbEntity
8
1
62
256
6
ByLayer
370
-1
48
1
60
0
100
AcDbEllipse
10
68.45968
20
-5.324055
30
0
11
1.72263594745164
21
0.0902795245190695
31
0
210
0
220
0
230
1
40
0.995729
41
0
42
6.28318530717959
0
ELLIPSE
5
B2
100
AcDbEntity
8
1
62
256
6
ByLayer
370
-1
48
1
60
0
100
AcDbEllipse
10
67.448734
20
-5.83866
30
0
11
-0.42142166366643
21
-0.0220857735345211
31
0
210
0
220
0
230
1
40
0.995729
41
-3.14158427043971
42
-2.72854043160756
0
ELLIPSE
5
B3
100
AcDbEntity
8
1
62
256
6
ByLayer
370
-1
48
1
60
0
100
AcDbEllipse
10
69.305654
20
-5.241041
30
0
11
-0.184746463929596
21
-0.00968215190494414
31
0
210
0
220
0
230
1
40
0.995729
41
1.79903192900954
42
2.89976590084398
0
ELLIPSE
5
B4
100
AcDbEntity
8
1
62
256
6
ByLayer
370
-1
48
1
60
0
100
AcDbEllipse
10
68.455688
20
-5.247891
30
0
11
-0.746974891996416
21
-0.0391472952697195
31
0
210
0
220
0
230
1
40
0.995729
41
2.57393165686171
42
-2.86554978930185
0
ELLIPSE
5
B5
100
AcDbEntity
8
1
62
256
6
ByLayer
370
-1
48
1
60
0
100
AcDbEllipse
10
68.455688
20
-5.247891
30
0
11
0.74697489199642
21
0.0391472952697181
31
0
210
0
220
0
230
1
40
0.995729
41
-2.69935846120837
42
-2.62389575737425
0
ELLIPSE
5
B6
100
AcDbEntity
8
1
62
256
6
ByLayer
370
-1
48
1
60
0
100
AcDbEllipse
10
67.605723
20
-5.25474
30
0
11
-0.184746463929596
21
-0.00968215190494414
31
0
210
0
220
0
230
1
40
0.995729
41
0.240397786289412
42
1.2570517441903
0
ELLIPSE
5
B7
100
AcDbEntity
8
1
62
256
6
ByLayer
370
-1
48
1
60
0
100
AcDbEllipse
10
68.46052
20
-5.340091
30
0
11
1.29821839518095
21
0.0680367431158208
31
0
210
0
220
0
230
1
40
0.995729
41
0
42
6.28318530717959
0
ELLIPSE
5
B8
100
AcDbEntity
8
1
62
256
6
ByLayer
370
-1
48
1
60
0
100
AcDbEllipse
10
68.466139
20
-6.412856
30
0
11
-0.42142166366643
21
-0.0220857735345211
31
0
210
0
220
0
230
1
40
0.995729
41
-1.61400056826481
42
-0.839100840412319
0
ELLIPSE
5
B9
100
AcDbEntity
8
1
62
256
6
ByLayer
370
-1
48
1
60
0
100
AcDbEllipse
10
68.455688
20
-5.247891
30
0
11
-0.746974891996416
21
-0.0391472952697195
31
0
210
0
220
0
230
1
40
0.995729
41
0.517696896215566
42
1.52759208532506
0
ELLIPSE
5
BA
100
AcDbEntity
8
1
62
256
6
ByLayer
370
-1
48
1
60
0
100
AcDbEllipse
10
69.473617
20
-5.82178
30
0
11
-0.42142166366643
21
-0.0220857735345211
31
0
210
0
220
0
230
1
40
0.995729
41
-1.34256072458049
42
-0.567660996728097
0
ELLIPSE
5
BB
100
AcDbEntity
8
1
62
256
6
ByLayer
370
-1
48
1
60
0
100
AcDbEllipse
10
68.45972
20
-5.324814
30
0
11
0.746974891996409
21
0.0391472952697175
31
0
210
0
220
0
230
1
40
0.995729
41
0.442234192382077
42
0.517696896214718
0
ELLIPSE
5
BC
100
AcDbEntity
8
1
62
256
6
ByLayer
370
-1
48
1
60
0
100
AcDbEllipse
10
68.455688
20
-5.247891
30
0
11
-0.746974891996416
21
-0.0391472952697195
31
0
210
0
220
0
230
1
40
0.995729
41
-0.328726107452149
42
0.442234192381388
0
ELLIPSE
5
BD
100
AcDbEntity
8
1
62
256
6
ByLayer
370
-1
48
1
60
0
100
AcDbEllipse
10
68.886927
20
-5.97706
30
0
11
-0.184746463929596
21
-0.00968215190494414
31
0
210
0
220
0
230
1
40
0.995729
41
0.752692357472464
42
2.85102187615084
0
ELLIPSE
5
BE
100
AcDbEntity
8
1
62
256
6
ByLayer
370
-1
48
1
60
0
100
AcDbEllipse
10
68.46052
20
-5.340091
30
0
11
1.03358156847098
21
0.0541677147114416
31
0
210
0
220
0
230
1
40
0.995729
41
-1.09083078249637
42
-0.0444912109598627
0
ELLIPSE
5
BF
100
AcDbEntity
8
1
62
256
6
ByLayer
370
-1
48
1
60
0
100
AcDbEllipse
10
68.466139
20
-6.412856
30
0
11
-0.42142166366643
21
-0.0220857735345211
31
0
210
0
220
0
230
1
40
0.995729
41
-2.38890029611707
42
-1.61400056826481
0
POINT
5
41
100
AcDbEntity
8
80
62
256
6
ByLayer
370
-1
48
1
60
0
100
AcDbPoint
10
0
20
0
30
0
39
0
210
0
220
0
230
1
50
360
0
POINT
5
43
100
AcDbEntity
8
81
62
256
6
ByLayer
370
-1
48
1
60
0
100
AcDbPoint
10
71.91
20
-10.9
30
0
39
0
210
0
220
0
230
1
50
360
0
POINT
5
45
100
AcDbEntity
8
1
62
256
6
ByLayer
370
-1
48
1
60
0
100
AcDbPoint
10
-109.34
20
0
30
0
39
0
210
0
220
0
230
1
50
360
0
POINT
5
47
100
AcDbEntity
8
2
62
256
6
ByLayer
370
-1
48
1
60
0
100
AcDbPoint
10
71.91
20
10.9
30
0
39
0
210
0
220
0
230
1
50
360
0
POINT
5
49
100
AcDbEntity
8
2
62
256
6
ByLayer
370
-1
48
1
60
0
100
AcDbPoint
10
71.678974
20
9.907554
30
0
39
0
210
0
220
0
230
1
50
360
0
SPLINE
5
C0
100
AcDbEntity
8
1
62
256
6
ByLayer
370
-1
48
1
60
0
100
AcDbSpline
70
4
71
3
72
10
73
6
40
0
40
0
40
0
40
0
40
0.5
40
0.5
40
1
40
1
40
1
40
1
41
1
10
60.021851405
20
5.31246870175446
30
0
41
1
10
58.9518514417624
20
4.96478797980126
30
0
41
1
10
58.0592822891799
20
4.38764136784454
30
0
41
1
10
56.6335513705289
20
2.66200735600881
30
0
41
1
10
56.0956222030019
20
1.52459241408806
30
0
41
1
10
55.6921065411134
20
0.303424428248917
30
0
0
SPLINE
5
C1
100
AcDbEntity
8
1
62
256
6
ByLayer
370
-1
48
1
60
0
100
AcDbSpline
70
4
71
3
72
14
73
10
40
0
40
0
40
0
40
0
40
0.25
40
0.25
40
0.5
40
0.5
40
0.75
40
0.75
40
1
40
1
40
1
40
1
41
1
10
55.5050470980499
20
-0.303424428248945
30
0
41
1
10
55.2463712127544
20
-1.20633832650825
30
0
41
1
10
55.0629072388243
20
-2.11859705768802
30
0
41
1
10
55.0084154299347
20
-3.75374881287669
30
0
41
1
10
55.1621548658644
20
-4.46949217335822
30
0
41
1
10
55.9948863834495
20
-5.43320822096422
30
0
41
1
10
56.6675437830738
20
-5.69125799861635
30
0
41
1
10
58.2211077358076
20
-5.96807970886007
30
0
41
1
10
59.1017132891577
20
-6.00337946186471
30
0
41
1
10
60.021851405
20
-6.02142876762747
30
0
0
SPLINE
5
C2
100
AcDbEntity
8
1
62
256
6
ByLayer
370
-1
48
1
60
0
100
AcDbSpline
70
4
71
3
72
8
73
4
40
0
40
0
40
0
40
0
40
1
40
1
40
1
40
1
41
1
10
60.7129907038043
20
-6.73322638283884
30
0
41
1
10
60.7212068208051
20
-6.74169823970939
30
0
41
1
10
60.7313541893699
20
-6.75015579985686
30
0
41
1
10
60.7434662186256
20
-6.75859363036832
30
0
0
SPLINE
5
C3
100
AcDbEntity
8
1
62
256
6
ByLayer
370
-1
48
1
60
0
100
AcDbSpline
70
4
71
3
72
8
73
4
40
0
40
0
40
0
40
0
40
1
40
1
40
1
40
1
41
1
10
60.1208514864133
20
6.14150000000001
30
0
41
1
10
60.1210130162534
20
6.14150000000001
30
0
41
1
10
60.1212108243801
20
5.90182418428552
30
0
41
1
10
60.1214286702473
20
5.44245373972174
30
0
0
SPLINE
5
C4
100
AcDbEntity
8
1
62
256
6
ByLayer
370
-1
48
1
60
0
100
AcDbSpline
70
4
71
3
72
48
73
44
40
-0.0214087835644898
40
-0.0214087835644898
40
0
40
0
40
0.0949637234799718
40
0.0949637234799718
40
0.134831589880014
40
0.134831589880014
40
0.175348624719221
40
0.175348624719221
40
0.202512122838778
40
0.202512122838778
40
0.229753825911209
40
0.229753825911209
40
0.256029444748538
40
0.256029444748538
40
0.284988726143201
40
0.284988726143201
40
0.330488392279919
40
0.330488392279919
40
0.395520235448046
40
0.395520235448046
40
0.490087669983307
40
0.490087669983307
40
0.58793072309728
40
0.58793072309728
40
0.633868634874653
40
0.633868634874653
40
0.680324413697069
40
0.680324413697069
40
0.698304739824891
40
0.698304739824891
40
0.716582776360259
40
0.716582776360259
40
0.733197326619987
40
0.733197326619987
40
0.751407558860553
40
0.751407558860553
40
0.781850906122732
40
0.781850906122732
40
0.848118567863417
40
0.848118567863417
40
0.97859121643551
40
0.97859121643551
40
1
40
1
40
1.09496372347997
40
1.09496372347997
41
1
10
57.7795255253312
20
-3.21806206743744
30
0
41
1
10
57.5286995600703
20
-3.09892751772219
30
0
41
1
10
57.3112284431696
20
-3.03654378501906
30
0
41
1
10
57.0029829504298
20
-3.05092273120846
30
0
41
1
10
56.9096584749518
20
-3.06888340463777
30
0
41
1
10
56.728791694463
20
-3.14136528456064
30
0
41
1
10
56.6386212875339
20
-3.19811348511871
30
0
41
1
10
56.5066908141234
20
-3.32721133196242
30
0
41
1
10
56.4574790776539
20
-3.38981218261276
30
0
41
1
10
56.3756116316865
20
-3.52770643012656
30
0
41
1
10
56.3419490864923
20
-3.60484932774722
30
0
41
1
10
56.2949916324968
20
-3.7587941763079
30
0
41
1
10
56.2803627966241
20
-3.83732160127974
30
0
41
1
10
56.2669929188909
20
-3.9972434904044
30
0
41
1
10
56.2697600362394
20
-4.07994095632955
30
0
41
1
10
56.2972659872042
20
-4.27890152579525
30
0
41
1
10
56.3337861401322
20
-4.39119543979959
30
0
41
1
10
56.4533528873778
20
-4.63108153911571
30
0
41
1
10
56.551461846715
20
-4.74984046510932
30
0
41
1
10
56.8286220800393
20
-4.9881473540523
30
0
41
1
10
57.0292611974476
20
-5.0894977475117
30
0
41
1
10
57.4709859932985
20
-5.22922643656909
30
0
41
1
10
57.7191253090907
20
-5.26802995527615
30
0
41
1
10
58.097375789993
20
-5.27014252227158
30
0
41
1
10
58.221884477599
20
-5.26237768452771
30
0
41
1
10
58.4721803310675
20
-5.22121767762474
30
0
41
1
10
58.601154051518
20
-5.18810535143066
30
0
41
1
10
58.7666795413678
20
-5.10395440667648
30
0
41
1
10
58.8120658122635
20
-5.07555700015186
30
0
41
1
10
58.8942198263024
20
-5.00644676103983
30
0
41
1
10
58.931710135604
20
-4.96432284748983
30
0
41
1
10
58.9844849326768
20
-4.87388337656878
30
0
41
1
10
59.0019483791165
20
-4.82524506187417
30
0
41
1
10
59.0200183487041
20
-4.72290948123532
30
0
41
1
10
59.0195672374741
20
-4.66773549986561
30
0
41
1
10
59.00122082503
20
-4.52707227094297
30
0
41
1
10
58.9726006239984
20
-4.44284876455023
30
0
41
1
10
58.8612047330032
20
-4.19456089119174
30
0
41
1
10
58.7529267854204
20
-4.04417812257671
30
0
41
1
10
58.4122536182562
20
-3.64360606810647
30
0
41
1
10
58.1473423624375
20
-3.42452324049972
30
0
41
1
10
57.8258830950216
20
-3.2422888217356
30
0
41
1
10
57.7795255253312
20
-3.21806206743744
30
0
41
1
10
57.5286995600703
20
-3.09892751772219
30
0
0
SPLINE
5
C5
100
AcDbEntity
8
1
62
256
6
ByLayer
370
-1
48
1
60
0
100
AcDbSpline
70
4
71
3
72
8
73
4
40
0
40
0
40
0
40
0
40
1
40
1
40
1
40
1
41
1
10
64.7451353654615
20
5.98409318558163
30
0
41
1
10
63.0976053420299
20
5.96086960819909
30
0
41
1
10
61.4895892240543
20
5.86575627749261
30
0
41
1
10
60.1214286702473
20
5.44245373972174
30
0
0
SPLINE
5
C6
100
AcDbEntity
8
1
62
256
6
ByLayer
370
-1
48
1
60
0
100
AcDbSpline
70
4
71
3
72
8
73
4
40
0
40
0
40
0
40
0
40
1
40
1
40
1
40
1
41
1
10
60.021851405
20
5.31246870175446
30
0
41
1
10
60.0549067304858
20
5.35590270358529
30
0
41
1
10
60.0881006893744
20
5.39922912338966
30
0
41
1
10
60.1214286702473
20
5.44245373972174
30
0
0
SPLINE
5
C7
100
AcDbEntity
8
1
62
256
6
ByLayer
370
-1
48
1
60
0
100
AcDbSpline
70
4
71
3
72
8
73
4
40
0
40
0
40
0
40
0
40
1
40
1
40
1
40
1
41
1
10
60.7434662186253
20
-6.75859363036801
30
0
41
1
10
60.4994770575383
20
-6.51191810977295
30
0
41
1
10
60.2580254565777
20
-6.26614808492997
30
0
41
1
10
60.021851405
20
-6.02142876762747
30
0
0
SPLINE
5
C8
100
AcDbEntity
8
1
62
256
6
ByLayer
370
-1
48
1
60
0
100
AcDbSpline
70
4
71
3
72
16
73
12
40
0
40
0
40
0
40
0
40
0.112799907494338
40
0.112799907494338
40
0.383578048299746
40
0.383578048299746
40
0.664514156090301
40
0.664514156090301
40
0.974243617640665
40
0.974243617640665
40
1
40
1
40
1
40
1
41
1
10
55.6921065411133
20
0.303424428248917
30
0
41
1
10
55.6909276543327
20
0.281796427351139
30
0
41
1
10
55.6889361469926
20
0.259349656176823
30
0
41
1
10
55.6795039635532
20
0.181604111652263
30
0
41
1
10
55.6680977676835
20
0.123011231379024
30
0
41
1
10
55.6373722655656
20
0.0053063302994758
30
0
41
1
10
55.6174299835865
20
-0.0551938287558755
30
0
41
1
10
55.570286399168
20
-0.175237708084922
30
0
41
1
10
55.5419999791361
20
-0.23557254939513
30
0
41
1
10
55.5100292796254
20
-0.294423725191962
30
0
41
1
10
55.5075430202627
20
-0.298943332522924
30
0
41
1
10
55.5050470980499
20
-0.303424428248945
30
0
0
SPLINE
5
C9
100
AcDbEntity
8
1
62
256
6
ByLayer
370
-1
48
1
60
0
100
AcDbSpline
70
4
71
3
72
14
73
10
40
0
40
0
40
0
40
0
40
0.265796993029258
40
0.265796993029258
40
0.554792682098033
40
0.554792682098033
40
0.816406354756489
40
0.816406354756489
40
1
40
1
40
1
40
1
41
1
10
69.3580023896738
20
-5.14898025624419
30
0
41
1
10
69.3772007658257
20
-5.15502015066991
30
0
41
1
10
69.3961012338107
20
-5.16429331180211
30
0
41
1
10
69.4318100751075
20
-5.18969090530859
30
0
41
1
10
69.4488314154185
20
-5.20678673769365
30
0
41
1
10
69.4743059584553
20
-5.24422395057965
30
0
41
1
10
69.4837716962447
20
-5.26469208250509
30
0
41
1
10
69.4932623157405
20
-5.30080630505304
30
0
41
1
10
69.4953600382079
20
-5.31638414627332
30
0
41
1
10
69.4954780282432
20
-5.3317509887589
30
0
0
SPLINE
5
CA
100
AcDbEntity
8
1
62
256
6
ByLayer
370
-1
48
1
60
0
100
AcDbSpline
70
4
71
3
72
16
73
12
40
0
40
0
40
0
40
0
40
0.0652961434362366
40
0.0652961434362366
40
0.289215358084298
40
0.289215358084298
40
0.516027192176241
40
0.516027192176241
40
0.757295673229564
40
0.757295673229564
40
1
40
1
40
1
40
1
41
1
10
67.9514398092402
20
-6.23762107056225
30
0
41
1
10
67.9466407140724
20
-6.23492354819706
30
0
41
1
10
67.9419567349624
20
-6.23199770592498
30
0
41
1
10
67.9219702633304
20
-6.2181934805011
30
0
41
1
10
67.9080338372771
20
-6.20487549996318
30
0
41
1
10
67.8850955635874
20
-6.17507371643566
30
0
41
1
10
67.8758559505867
20
-6.15818124975902
30
0
41
1
10
67.862494776345
20
-6.12220652800789
30
0
41
1
10
67.8585507587732
20
-6.10261010700816
30
0
41
1
10
67.8564540802575
20
-6.06403180767947
30
0
41
1
10
67.8582872389794
20
-6.04464116447087
30
0
41
1
10
67.8626308981219
20
-6.02629810933016
30
0
0
SPLINE
5
CB
100
AcDbEntity
8
1
62
256
6
ByLayer
370
-1
48
1
60
0
100
AcDbSpline
70
4
71
3
72
16
73
12
40
0
40
0
40
0
40
0
40
0.0474598156620188
40
0.0474598156620188
40
0.272389811695145
40
0.272389811695145
40
0.499201371327873
40
0.499201371327873
40
0.739684078444758
40
0.739684078444758
40
1
40
1
40
1
40
1
41
1
10
67.9354233765652
20
-4.45222102023158
30
0
41
1
10
67.9388716581439
20
-4.45019795171078
30
0
41
1
10
67.9423878272372
20
-4.44827944447272
30
0
41
1
10
67.9627387167391
20
-4.43798145130307
30
0
41
1
10
67.9810235636272
20
-4.43189850309031
30
0
41
1
10
68.0177351795328
20
-4.42528457063179
30
0
41
1
10
68.0366280368959
20
-4.42470229008671
30
0
41
1
10
68.0736317965445
20
-4.42875137560341
30
0
41
1
10
68.0920935604781
20
-4.43373070576664
30
0
41
1
10
68.1268594728426
20
-4.44878014129063
30
0
41
1
10
68.1432979780195
20
-4.4594006364444
30
0
41
1
10
68.1571998173125
20
-4.4718361135013
30
0
0
SPLINE
5
CC
100
AcDbEntity
8
1
62
256
6
ByLayer
370
-1
48
1
60
0
100
AcDbSpline
70
4
71
3
72
12
73
8
40
0
40
0
40
0
40
0
40
0.451562275683563
40
0.451562275683563
40
0.835134211539346
40
0.835134211539346
40
1
40
1
40
1
40
1
41
1
10
67.5623784135641
20
-5.51861043757614
30
0
41
1
10
67.6031044465871
20
-5.52746700696486
30
0
41
1
10
67.6435009407749
20
-5.54298979366507
30
0
41
1
10
67.712728339584
20
-5.58446452825478
30
0
41
1
10
67.7431208298517
20
-5.60906456035974
30
0
41
1
10
67.7807956891262
20
-5.65080305233184
30
0
41
1
10
67.7914857443592
20
-5.66430218734996
30
0
41
1
10
67.8012873610819
20
-5.67850480363143
30
0
0
SPLINE
5
CD
100
AcDbEntity
8
1
62
256
6
ByLayer
370
-1
48
1
60
0
100
AcDbSpline
70
4
71
3
72
14
73
10
40
0
40
0
40
0
40
0
40
0.271311856328938
40
0.271311856328938
40
0.567708036422813
40
0.567708036422813
40
0.828673635175486
40
0.828673635175486
40
1
40
1
40
1
40
1
41
1
10
69.0702408018382
20
-6.01566897247884
30
0
41
1
10
69.0754550783033
20
-6.03600193208217
30
0
41
1
10
69.0775692991424
20
-6.05771758204767
30
0
41
1
10
69.0744043313036
20
-6.1028373261079
30
0
41
1
10
69.0682897864998
20
-6.12695580957657
30
0
41
1
10
69.0485458867185
20
-6.16829740738569
30
0
41
1
10
69.0355685750194
20
-6.18660568886258
30
0
41
1
10
69.0096346942632
20
-6.21181809776837
30
0
41
1
10
68.9980121349606
20
-6.22068974237979
30
0
41
1
10
68.9856173431015
20
-6.22796162916157
30
0
0
SPLINE
5
CE
100
AcDbEntity
8
1
62
256
6
ByLayer
370
-1
48
1
60
0
100
AcDbSpline
70
4
71
3
72
14
73
10
40
0
40
0
40
0
40
0
40
0.28238341692789
40
0.28238341692789
40
0.56986454575523
40
0.56986454575523
40
0.830340250330109
40
0.830340250330109
40
1
40
1
40
1
40
1
41
1
10
68.1727147351374
20
-6.20133079116277
30
0
41
1
10
68.157892205196
20
-6.21710046979018
30
0
41
1
10
68.1400127034948
20
-6.23069994045733
30
0
41
1
10
68.1001706066234
20
-6.25087399517616
30
0
41
1
10
68.0775053682161
20
-6.25759273502055
30
0
41
1
10
68.0334413351382
20
-6.26156099730659
30
0
41
1
10
68.0114571805699
20
-6.25966252812168
30
0
41
1
10
67.9771273743341
20
-6.2500767310147
30
0
41
1
10
67.9638257487886
20
-6.24458308064493
30
0
41
1
10
67.9514398092402
20
-6.23762107056225
30
0
0
SPLINE
5
CF
100
AcDbEntity
8
1
62
256
6
ByLayer
370
-1
48
1
60
0
100
AcDbSpline
70
4
71
3
72
18
73
14
40
0
40
0
40
0
40
0
40
0.205824764536726
40
0.205824764536726
40
0.382754988139458
40
0.382754988139458
40
0.561411972326528
40
0.561411972326528
40
0.716593475814514
40
0.716593475814514
40
0.921490176355689
40
0.921490176355689
40
1
40
1
40
1
40
1
41
1
10
69.0702408018378
20
-6.01566897247889
30
0
41
1
10
69.0594110378115
20
-5.97343853918014
30
0
41
1
10
69.0543354263025
20
-5.92841164689523
30
0
41
1
10
69.0579826989447
20
-5.84404847395052
30
0
41
1
10
69.0650139189425
20
-5.80384905432282
30
0
41
1
10
69.0904724295236
20
-5.72703048053546
30
0
41
1
10
69.1095027399188
20
-5.68936162942828
30
0
41
1
10
69.153363781816
20
-5.62814429802884
30
0
41
1
10
69.1775838178224
20
-5.60262104607409
30
0
41
1
10
69.2378172486992
20
-5.55356694635111
30
0
41
1
10
69.2760653557174
20
-5.53231301208601
30
0
41
1
10
69.3303935798053
20
-5.51228650661048
30
0
41
1
10
69.3458114333063
20
-5.50765683925698
30
0
41
1
10
69.361348614491
20
-5.50397248987665
30
0
0
SPLINE
5
D0
100
AcDbEntity
8
1
62
256
6
ByLayer
370
-1
48
1
60
0
100
AcDbSpline
70
4
71
3
72
16
73
12
40
0
40
0
40
0
40
0
40
0.0637440137340112
40
0.0637440137340112
40
0.288306529133698
40
0.288306529133698
40
0.515672007516016
40
0.515672007516016
40
0.757454814716307
40
0.757454814716307
40
1
40
1
40
1
40
1
41
1
10
68.9856173431015
20
-6.22796162916157
30
0
41
1
10
68.9809922887873
20
-6.23067509718229
30
0
41
1
10
68.9762425417929
20
-6.23318054720124
30
0
41
1
10
68.9544590372388
20
-6.24344225268362
30
0
41
1
10
68.9360762943155
20
-6.24872649667893
30
0
41
1
10
68.8992148381969
20
-6.25333011527371
30
0
41
1
10
68.880270412645
20
-6.25264785765032
30
0
41
1
10
68.8432109040428
20
-6.24566194171624
30
0
41
1
10
68.8247570619858
20
-6.23893720240588
30
0
41
1
10
68.791442832161
20
-6.22075399923045
30
0
41
1
10
68.7762237962401
20
-6.20911259463784
30
0
41
1
10
68.7631841879726
20
-6.1958156790156
30
0
0
SPLINE
5
D1
100
AcDbEntity
8
1
62
256
6
ByLayer
370
-1
48
1
60
0
100
AcDbSpline
70
4
71
3
72
14
73
10
40
0
40
0
40
0
40
0
40
0.282681858761454
40
0.282681858761454
40
0.56956505856831
40
0.56956505856831
40
0.829475284444069
40
0.829475284444069
40
1
40
1
40
1
40
1
41
1
10
67.5623784135641
20
-5.51861043757614
30
0
41
1
10
67.5420695801005
20
-5.51419393590814
30
0
41
1
10
67.522073505245
20
-5.50600574500572
30
0
41
1
10
67.4860328798366
20
-5.48247469442919
30
0
41
1
10
67.4695163043357
20
-5.46662946125886
30
0
41
1
10
67.4449983452092
20
-5.43110209242849
30
0
41
1
10
67.4360039886034
20
-5.41136364722024
30
0
41
1
10
67.4274780117148
20
-5.37701176072417
30
0
41
1
10
67.4256723146177
20
-5.36270881849077
30
0
41
1
10
67.4255626914235
20
-5.34843166063436
30
0
0
SPLINE
5
D2
100
AcDbEntity
8
1
62
256
6
ByLayer
370
-1
48
1
60
0
100
AcDbSpline
70
4
71
3
72
16
73
12
40
0
40
0
40
0
40
0
40
0.0520406006403367
40
0.0520406006403367
40
0.276728748282218
40
0.276728748282218
40
0.503559378007213
40
0.503559378007213
40
0.744265508080345
40
0.744265508080345
40
1
40
1
40
1
40
1
41
1
10
69.4954780282432
20
-5.3317509887589
30
0
41
1
10
69.4955115798814
20
-5.33612070302192
30
0
41
1
10
69.4953883621913
20
-5.34048821582556
30
0
41
1
10
69.4939134020956
20
-5.36344645638715
30
0
41
1
10
69.489751013663
20
-5.38193991981223
30
0
41
1
10
69.4763327796003
20
-5.41592829061338
30
0
41
1
10
69.4668711564402
20
-5.431831948716
30
0
41
1
10
69.4436218408578
20
-5.46003751559414
30
0
41
1
10
69.4293291561622
20
-5.47242580475668
30
0
41
1
10
69.3975864821497
20
-5.49226714496936
30
0
41
1
10
69.3796366174645
20
-5.49963583500855
30
0
41
1
10
69.361348614491
20
-5.50397248987676
30
0
0
SPLINE
5
D3
100
AcDbEntity
8
1
62
256
6
ByLayer
370
-1
48
1
60
0
100
AcDbSpline
70
4
71
3
72
18
73
14
40
0
40
0
40
0
40
0
40
0.0862445009140385
40
0.0862445009140385
40
0.287330517840546
40
0.287330517840546
40
0.450836378781283
40
0.450836378781283
40
0.615108496855652
40
0.615108496855652
40
0.769676398558528
40
0.769676398558528
40
1
40
1
40
1
40
1
41
1
10
67.8501432034474
20
-4.65198282003806
30
0
41
1
10
67.8546135599981
20
-4.66808441157295
30
0
41
1
10
67.8580635147852
20
-4.68465925284858
30
0
41
1
10
67.8658331690714
20
-4.74088975879093
30
0
41
1
10
67.865259633137
20
-4.78288417437128
30
0
41
1
10
67.8513534799122
20
-4.85937797864861
30
0
41
1
10
67.8401730956853
20
-4.89465396050124
30
0
41
1
10
67.8085864732296
20
-4.9617139336614
30
0
41
1
10
67.7876902716158
20
-4.99433427216985
30
0
41
1
10
67.7411537418398
20
-5.05020457463053
30
0
41
1
10
67.7153723774074
20
-5.07458507499439
30
0
41
1
10
67.6480774600192
20
-5.12556126390155
30
0
41
1
10
67.6037805964787
20
-5.14857832324395
30
0
41
1
10
67.5590353907942
20
-5.16367930264036
30
0
0
SPLINE
5
D4
100
AcDbEntity
8
1
62
256
6
ByLayer
370
-1
48
1
60
0
100
AcDbSpline
70
4
71
3
72
14
73
10
40
0
40
0
40
0
40
0
40
0.258709063942514
40
0.258709063942514
40
0.549154191821539
40
0.549154191821539
40
0.812025348366123
40
0.812025348366123
40
1
40
1
40
1
40
1
41
1
10
68.7476692701471
20
-4.46632100135497
30
0
41
1
10
68.7613489214986
20
-4.45369790981815
30
0
41
1
10
68.7775634903669
20
-4.44282303016544
30
0
41
1
10
68.8154416809694
20
-4.42556611684842
30
0
41
1
10
68.8381626576568
20
-4.41966834723033
30
0
41
1
10
68.8825529062675
20
-4.41669633128612
30
0
41
1
10
68.9047932076001
20
-4.41883059598669
30
0
41
1
10
68.941018124201
20
-4.42876342403224
30
0
41
1
10
68.9558836780608
20
-4.43485126265659
30
0
41
1
10
68.9696009104265
20
-4.442561578831
30
0
0
SPLINE
5
D5
100
AcDbEntity
8
1
62
256
6
ByLayer
370
-1
48
1
60
0
100
AcDbSpline
70
4
71
3
72
18
73
14
40
0
40
0
40
0
40
0
40
0.21273498070359
40
0.21273498070359
40
0.388453057932137
40
0.388453057932137
40
0.56581702404999
40
0.56581702404999
40
0.720756520490123
40
0.720756520490123
40
0.926874442935522
40
0.926874442935522
40
1
40
1
40
1
40
1
41
1
10
68.7476692701471
20
-4.46632100135503
30
0
41
1
10
68.7169486542353
20
-4.49466888367721
30
0
41
1
10
68.6804327299479
20
-4.51941432566184
30
0
41
1
10
68.605858789578
20
-4.55402982056808
30
0
41
1
10
68.5682875412181
20
-4.56605309217281
30
0
41
1
10
68.4900650598174
20
-4.57993141880394
30
0
41
1
10
68.4482177923998
20
-4.58180103551928
30
0
41
1
10
68.3730007432808
20
-4.57516795524373
30
0
41
1
10
68.3383258517253
20
-4.56791326533167
30
0
41
1
10
68.2639344908901
20
-4.54339111831843
30
0
41
1
10
68.2249906378979
20
-4.52330454281511
30
0
41
1
10
68.1794168960984
20
-4.49065783976079
30
0
41
1
10
68.1679854453009
20
-4.48148407637626
30
0
41
1
10
68.1571998173126
20
-4.47183611350127
30
0
0
SPLINE
5
D6
100
AcDbEntity
8
1
62
256
6
ByLayer
370
-1
48
1
60
0
100
AcDbSpline
70
4
71
3
72
18
73
14
40
0
40
0
40
0
40
0
40
0.205451175568132
40
0.205451175568132
40
0.382447151759424
40
0.382447151759424
40
0.561174235978479
40
0.561174235978479
40
0.716369506923696
40
0.716369506923696
40
0.92120066993099
40
0.92120066993099
40
1
40
1
40
1
40
1
41
1
10
68.1727147351375
20
-6.20133079116277
30
0
41
1
10
68.2021739511309
20
-6.16998915308395
30
0
41
1
10
68.2370234119713
20
-6.14224466669231
30
0
41
1
10
68.3095631939663
20
-6.10182103581613
30
0
41
1
10
68.3470719831225
20
-6.08722585584778
30
0
41
1
10
68.4254882240547
20
-6.07006013807128
30
0
41
1
10
68.4676181690128
20
-6.06748663083138
30
0
41
1
10
68.5433620184086
20
-6.0748665816846
30
0
41
1
10
68.5782754097064
20
-6.08324256819276
30
0
41
1
10
68.6529725446879
20
-6.11151532133403
30
0
41
1
10
68.6920825455051
20
-6.13456806483126
30
0
41
1
10
68.7390229810859
20
-6.17253212880075
30
0
41
1
10
68.751478473243
20
-6.18387897832147
30
0
41
1
10
68.7631841879726
20
-6.1958156790156
30
0
0
SPLINE
5
D7
100
AcDbEntity
8
1
62
256
6
ByLayer
370
-1
48
1
60
0
100
AcDbSpline
70
4
71
3
72
12
73
8
40
0
40
0
40
0
40
0
40
0.463082432999686
40
0.463082432999686
40
0.844716893357824
40
0.844716893357824
40
1
40
1
40
1
40
1
41
1
10
69.3580023896739
20
-5.14898025624413
30
0
41
1
10
69.316026970121
20
-5.13577460277796
30
0
41
1
10
69.2743908757383
20
-5.1157860682271
30
0
41
1
10
69.2043364548301
20
-5.06748934130741
30
0
41
1
10
69.1741449385363
20
-5.04064556388349
30
0
41
1
10
69.1374369238329
20
-4.99778495854173
30
0
41
1
10
69.1273969417744
20
-4.98468707046365
30
0
41
1
10
69.1181520322585
20
-4.97112271925576
30
0
0
SPLINE
5
D8
100
AcDbEntity
8
1
62
256
6
ByLayer
370
-1
48
1
60
0
100
AcDbSpline
70
4
71
3
72
14
73
10
40
0
40
0
40
0
40
0
40
0.257245730621248
40
0.257245730621248
40
0.5478739635834
40
0.5478739635834
40
0.810895498398399
40
0.810895498398399
40
1
40
1
40
1
40
1
41
1
10
67.8501432034474
20
-4.65198282003806
30
0
41
1
10
67.8452819933952
20
-4.63447342951466
30
0
41
1
10
67.8432143143267
20
-4.61564751415105
30
0
41
1
10
67.8457237724426
20
-4.57536220701294
30
0
41
1
10
67.8512928886023
20
-4.55323107537919
30
0
41
1
10
67.8699332671706
20
-4.5140595234783
30
0
41
1
10
67.8825598021523
20
-4.49615717473915
30
0
41
1
10
67.9090288344107
20
-4.47002140365564
30
0
41
1
10
67.9217655129028
20
-4.46023393721825
30
0
41
1
10
67.9354233765652
20
-4.45222102023158
30
0
0
SPLINE
5
D9
100
AcDbEntity
8
1
62
256
6
ByLayer
370
-1
48
1
60
0
100
AcDbSpline
70
4
71
3
72
16
73
12
40
0
40
0
40
0
40
0
40
0.0483330700464383
40
0.0483330700464383
40
0.272445239702162
40
0.272445239702162
40
0.498491581125253
40
0.498491581125253
40
0.738208926002227
40
0.738208926002227
40
1
40
1
40
1
40
1
41
1
10
68.9696009104265
20
-4.442561578831
30
0
41
1
10
68.973161219523
20
-4.44456279220125
30
0
41
1
10
68.9766568129439
20
-4.44667717318018
30
0
41
1
10
68.995787097455
20
-4.4590999814252
30
0
41
1
10
69.0100396500331
20
-4.47174552834798
30
0
41
1
10
69.0335850450887
20
-4.49983241853471
30
0
41
1
10
69.0431456066077
20
-4.51564659229865
30
0
41
1
10
69.0571546649305
20
-4.54911484784822
30
0
41
1
10
69.0614530526145
20
-4.5672348735327
30
0
41
1
10
69.064377317029
20
-4.60418971026434
30
0
41
1
10
69.0625223660638
20
-4.62340228867154
30
0
41
1
10
69.0577499051163
20
-4.64129258449017
30
0
0
SPLINE
5
DA
100
AcDbEntity
8
1
62
256
6
ByLayer
370
-1
48
1
60
0
100
AcDbSpline
70
4
71
3
72
14
73
10
40
0
40
0
40
0
40
0
40
0.0437787642814308
40
0.0437787642814308
40
0.381109464511213
40
0.381109464511213
40
0.827007988592712
40
0.827007988592712
40
1
40
1
40
1
40
1
41
1
10
67.8299179367774
20
-5.72691536162301
30
0
41
1
10
67.8320045293374
20
-5.73107708714363
30
0
41
1
10
67.8340214063768
20
-5.73527682075843
30
0
41
1
10
67.8508178223777
20
-5.7718232715383
30
0
41
1
10
67.8615153349892
20
-5.80641699880732
30
0
41
1
10
67.8760508072422
20
-5.88598037355001
30
0
41
1
10
67.8769718159468
20
-5.93203618367477
30
0
41
1
10
67.8695852862524
20
-5.99284659527066
30
0
41
1
10
67.8665501127646
20
-6.00974746206714
30
0
41
1
10
67.8626308981219
20
-6.02629810933016
30
0
0
SPLINE
5
DB
100
AcDbEntity
8
1
62
256
6
ByLayer
370
-1
48
1
60
0
100
AcDbSpline
70
4
71
3
72
16
73
12
40
0
40
0
40
0
40
0
40
0.0642352683247881
40
0.0642352683247881
40
0.288841808800643
40
0.288841808800643
40
0.516279050050834
40
0.516279050050834
40
0.758158711948962
40
0.758158711948962
40
1
40
1
40
1
40
1
41
1
10
67.4255626914235
20
-5.34843166063436
30
0
41
1
10
67.4255213532929
20
-5.34304784546174
30
0
41
1
10
67.4257171193509
20
-5.33764542400004
30
0
41
1
10
67.427644742907
20
-5.31356358573413
30
0
41
1
10
67.4320851819145
20
-5.29478750369248
30
0
41
1
10
67.4459829223697
20
-5.25980925351953
30
0
41
1
10
67.4556659635089
20
-5.24319183433732
30
0
41
1
10
67.4793044028008
20
-5.21318313009533
30
0
41
1
10
67.4937726720376
20
-5.1996754505829
30
0
41
1
10
67.5248574229133
20
-5.17795900843515
30
0
41
1
10
67.5417912296003
20
-5.16949900374382
30
0
41
1
10
67.5590353907942
20
-5.16367930264033
30
0
0
SPLINE
5
DC
100
AcDbEntity
8
1
62
256
6
ByLayer
370
-1
48
1
60
0
100
AcDbSpline
70
4
71
3
72
14
73
10
40
0
40
0
40
0
40
0
40
0.0511624032735459
40
0.0511624032735459
40
0.387827814517167
40
0.387827814517167
40
0.835403796560822
40
0.835403796560822
40
1
40
1
40
1
40
1
41
1
10
69.0895214565635
20
-4.92271216126503
30
0
41
1
10
69.0870858908338
20
-4.91790850812313
30
0
41
1
10
69.0847463761917
20
-4.91307001887631
30
0
41
1
10
69.0678894901561
20
-4.87646332881391
30
0
41
1
10
69.0574700038325
20
-4.84324479907352
30
0
41
1
10
69.0435400864855
20
-4.76783947509355
30
0
41
1
10
69.0430444050918
20
-4.72500096557582
30
0
41
1
10
69.0509599509759
20
-4.67008319374338
30
0
41
1
10
69.0539564570677
20
-4.65551290153559
30
0
41
1
10
69.0577499051162
20
-4.64129258449015
30
0
0
SPLINE
5
DD
100
AcDbEntity
8
SK1
62
256
6
ByLayer
370
-1
48
1
60
0
100
AcDbSpline
70
4
71
3
72
24
73
20
40
0
40
0
40
0
40
0
40
0.249999999999979
40
0.249999999999979
40
0.374999999999969
40
0.374999999999969
40
0.437499999999963
40
0.437499999999963
40
0.499999999999958
40
0.499999999999958
40
0.531249999999959
40
0.531249999999959
40
0.562499999999959
40
0.562499999999959
40
0.62499999999996
40
0.62499999999996
40
0.749999999999971
40
0.749999999999971
40
1
40
1
40
1
40
1
41
1
10
-24.09
20
0.205965906324167
30
0
41
1
10
-24.4986343160666
20
0.205965906324167
30
0
41
1
10
-24.9071555453884
20
0.19845246957027
30
0
41
1
10
-25.519402880508
20
0.169226931093533
30
0
41
1
10
-25.7231603208427
20
0.156639601260622
30
0
41
1
10
-26.0276543175764
20
0.127755978986897
30
0
41
1
10
-26.1289743184984
20
0.116569291727245
30
0
41
1
10
-26.3306761329202
20
0.0859785784372775
30
0
41
1
10
-26.4456960546667
20
0.0885727858061216
30
0
41
1
10
-26.5668423438154
20
-0.0124242265727048
30
0
41
1
10
-26.4788451746044
20
-0.0482532820602728
30
0
41
1
10
-26.3781780242622
20
-0.0757348561255355
30
0
41
1
10
-26.3269166657975
20
-0.0854113493585658
30
0
41
1
10
-26.1724015195388
20
-0.111238405854749
30
0
41
1
10
-26.0687091696726
20
-0.123262241086934
30
0
41
1
10
-25.7575189776917
20
-0.154299106265057
30
0
41
1
10
-25.5494067051413
20
-0.167490929837783
30
0
41
1
10
-24.9242976335068
20
-0.198188957833537
30
0
41
1
10
-24.5072192765567
20
-0.205965906324138
30
0
41
1
10
-24.09
20
-0.205965906324138
30
0
0
LINE
5
4A
100
AcDbEntity
8
80
62
256
6
ByLayer
370
-1
48
1
60
0
100
AcDbLine
10
0
20
0
30
0
11
-10
21
0
31
0
39
0
210
0
220
0
230
1
0
LINE
5
4B
100
AcDbEntity
8
81
62
256
6
ByLayer
370
-1
48
1
60
0
100
AcDbLine
10
71.91
20
-10.9
30
0
11
81.91
21
-10.9
31
0
39
0
210
0
220
0
230
1
0
LINE
5
4C
100
AcDbEntity
8
SK4
62
256
6
ByLayer
370
-1
48
0.05
60
0
100
AcDbLine
10
-114.34
20
0
30
0
11
76.678974
21
0
31
0
39
0
210
0
220
0
230
1
0
LINE
5
4E
100
AcDbEntity
8
4
62
256
6
ByLayer
370
-1
48
0.05
60
0
100
AcDbLine
10
0
20
0
30
0
11
76.678974
21
0
31
0
39
0
210
0
220
0
230
1
0
LINE
5
50
100
AcDbEntity
8
SK1
62
256
6
ByLayer
370
-1
48
1
60
0
100
AcDbLine
10
-108.84
20
5.9925
30
0
11
-109.34
21
5.4925
31
0
39
0
210
0
220
0
230
1
0
LINE
5
52
100
AcDbEntity
8
SK1
62
256
6
ByLayer
370
-1
48
1
60
0
100
AcDbLine
10
-109.34
20
-5.4925
30
0
11
-108.84
21
-5.9925
31
0
39
0
210
0
220
0
230
1
0
LINE
5
53
100
AcDbEntity
8
SK1
62
256
6
ByLayer
370
-1
48
1
60
0
100
AcDbLine
10
-108.84
20
-5.9925
30
0
11
0
21
-5.9925
31
0
39
0
210
0
220
0
230
1
0
LINE
5
54
100
AcDbEntity
8
SK1
62
256
6
ByLayer
370
-1
48
1
60
0
100
AcDbLine
10
0
20
5.9925
30
0
11
-108.84
21
5.9925
31
0
39
0
210
0
220
0
230
1
0
LINE
5
55
100
AcDbEntity
8
1
62
256
6
ByLayer
370
-1
48
1
60
0
100
AcDbLine
10
67.863495
20
-4.734216
30
0
11
67.859182
21
-4.651916
31
0
39
0
210
0
220
0
230
1
0
LINE
5
56
100
AcDbEntity
8
1
62
256
6
ByLayer
370
-1
48
1
60
0
100
AcDbLine
10
69.041221
20
-4.679208
30
0
11
69.045461
21
-4.760108
31
0
39
0
210
0
220
0
230
1
0
LINE
5
57
100
AcDbEntity
8
1
62
256
6
ByLayer
370
-1
48
1
60
0
100
AcDbLine
10
66.733536
20
-5.34739
30
0
11
66.737044
21
-5.414335
31
0
39
0
210
0
220
0
230
1
0
LINE
5
58
100
AcDbEntity
8
1
62
256
6
ByLayer
370
-1
48
1
60
0
100
AcDbLine
10
70.182316
20
-5.233776
30
0
11
70.178807
21
-5.166831
31
0
39
0
210
0
220
0
230
1
0
LINE
5
59
100
AcDbEntity
8
1
62
256
6
ByLayer
370
-1
48
1
60
0
100
AcDbLine
10
69.052195
20
-5.843866
30
0
11
69.056507
21
-5.92615
31
0
39
0
210
0
220
0
230
1
0
LINE
5
5A
100
AcDbEntity
8
1
62
256
6
ByLayer
370
-1
48
1
60
0
100
AcDbLine
10
67.874396
20
-5.897478
30
0
11
67.870156
21
-5.816574
31
0
39
0
210
0
220
0
230
1
0
LINE
5
5B
100
AcDbEntity
8
1
62
256
6
ByLayer
370
-1
48
1
60
0
100
AcDbLine
10
46.66
20
-6.0425
30
0
11
60.021851
21
-6.0425
31
0
39
0
210
0
220
0
230
1
0
LINE
5
5C
100
AcDbEntity
8
1
62
256
6
ByLayer
370
-1
48
1
60
0
100
AcDbLine
10
60.021851
20
6.0425
30
0
11
46.66
21
6.0425
31
0
39
0
210
0
220
0
230
1
0
LINE
5
5D
100
AcDbEntity
8
1
62
256
6
ByLayer
370
-1
48
1
60
0
100
AcDbLine
10
0
20
-5.9925
30
0
11
46.66
21
-5.9925
31
0
39
0
210
0
220
0
230
1
0
LINE
5
5E
100
AcDbEntity
8
1
62
256
6
ByLayer
370
-1
48
1
60
0
100
AcDbLine
10
46.66
20
5.9925
30
0
11
0
21
5.9925
31
0
39
0
210
0
220
0
230
1
0
LINE
5
5F
100
AcDbEntity
8
1
62
256
6
ByLayer
370
-1
48
1
60
0
100
AcDbLine
10
60.120839
20
6.141487
30
0
11
60.021851
21
6.0425
31
0
39
0
210
0
220
0
230
1
0
LINE
5
60
100
AcDbEntity
8
1
62
256
6
ByLayer
370
-1
48
1
60
0
100
AcDbLine
10
60.021851
20
-6.0425
30
0
11
60.718439
21
-6.739087
31
0
39
0
210
0
220
0
230
1
0
LINE
5
61
100
AcDbEntity
8
1
62
256
6
ByLayer
370
-1
48
1
60
0
100
AcDbLine
10
0
20
-5.9925
30
0
11
0
21
-0.205966
31
0
39
0
210
0
220
0
230
1
0
LINE
5
62
100
AcDbEntity
8
1
62
256
6
ByLayer
370
-1
48
1
60
0
100
AcDbLine
10
0
20
0.205966
30
0
11
0
21
5.9925
31
0
39
0
210
0
220
0
230
1
0
LINE
5
63
100
AcDbEntity
8
1
62
256
6
ByLayer
370
-1
48
1
60
0
100
AcDbLine
10
64.745135
20
5.984093
30
0
11
65.17935
21
5.615249
31
0
39
0
210
0
220
0
230
1
0
LINE
5
64
100
AcDbEntity
8
1
62
256
6
ByLayer
370
-1
48
1
60
0
100
AcDbLine
10
65.137964
20
-2.607767
30
0
11
64.555031
21
-2.245137
31
0
39
0
210
0
220
0
230
1
0
LINE
5
65
100
AcDbEntity
8
1
62
256
6
ByLayer
370
-1
48
1
60
0
100
AcDbLine
10
61.851818
20
-6.751998
30
0
11
65.17935
21
5.615249
31
0
39
0
210
0
220
0
230
1
0
LINE
5
66
100
AcDbEntity
8
1
62
256
6
ByLayer
370
-1
48
1
60
0
100
AcDbLine
10
64.689113
20
-6.750734
30
0
11
61.851818
21
-6.751998
31
0
39
0
210
0
220
0
230
1
0
LINE
5
67
100
AcDbEntity
8
1
62
256
6
ByLayer
370
-1
48
1
60
0
100
AcDbLine
10
64.345979
20
-0.103002
30
0
11
64.355697
21
-0.28842
31
0
39
0
210
0
220
0
230
1
0
LINE
5
68
100
AcDbEntity
8
1
62
256
6
ByLayer
370
-1
48
1
60
0
100
AcDbLine
10
0
20
-0.205966
30
0
11
0
21
0.205966
31
0
39
0
210
0
220
0
230
1
0
LINE
5
69
100
AcDbEntity
8
1
62
256
6
ByLayer
370
-1
48
1
60
0
100
AcDbLine
10
46.66
20
0.205966
30
0
11
46.66
21
0.303424
31
0
39
0
210
0
220
0
230
1
0
LINE
5
6A
100
AcDbEntity
8
1
62
256
6
ByLayer
370
-1
48
1
60
0
100
AcDbLine
10
65.17935
20
5.615249
30
0
11
71.130385
21
0.560138
31
0
39
0
210
0
220
0
230
1
0
LINE
5
6B
100
AcDbEntity
8
1
62
256
6
ByLayer
370
-1
48
1
60
0
100
AcDbLine
10
71.326289
20
-3.177935
30
0
11
71.130385
21
0.560138
31
0
39
0
210
0
220
0
230
1
0
LINE
5
6C
100
AcDbEntity
8
1
62
256
6
ByLayer
370
-1
48
1
60
0
100
AcDbLine
10
46.66
20
-0.205966
30
0
11
0
21
-0.205966
31
0
39
0
210
0
220
0
230
1
0
LINE
5
6D
100
AcDbEntity
8
1
62
256
6
ByLayer
370
-1
48
1
60
0
100
AcDbLine
10
55.505047
20
-0.303424
30
0
11
46.66
21
-0.303424
31
0
39
0
210
0
220
0
230
1
0
LINE
5
6E
100
AcDbEntity
8
1
62
256
6
ByLayer
370
-1
48
1
60
0
100
AcDbLine
10
60.021851
20
-6.021429
30
0
11
60.021851
21
-6.0425
31
0
39
0
210
0
220
0
230
1
0
LINE
5
6F
100
AcDbEntity
8
1
62
256
6
ByLayer
370
-1
48
1
60
0
100
AcDbLine
10
60.021851
20
6.0425
30
0
11
60.021851
21
5.312469
31
0
39
0
210
0
220
0
230
1
0
LINE
5
70
100
AcDbEntity
8
1
62
256
6
ByLayer
370
-1
48
1
60
0
100
AcDbLine
10
64.544627
20
-2.04662
30
0
11
64.555031
21
-2.245137
31
0
39
0
210
0
220
0
230
1
0
LINE
5
71
100
AcDbEntity
8
1
62
256
6
ByLayer
370
-1
48
1
60
0
100
AcDbLine
10
46.66
20
0.303424
30
0
11
55.692107
21
0.303424
31
0
39
0
210
0
220
0
230
1
0
LINE
5
72
100
AcDbEntity
8
1
62
256
6
ByLayer
370
-1
48
1
60
0
100
AcDbLine
10
0
20
0.205966
30
0
11
46.66
21
0.205966
31
0
39
0
210
0
220
0
230
1
0
LINE
5
73
100
AcDbEntity
8
1
62
256
6
ByLayer
370
-1
48
1
60
0
100
AcDbLine
10
46.66
20
-0.303424
30
0
11
46.66
21
-0.205966
31
0
39
0
210
0
220
0
230
1
0
LINE
5
74
100
AcDbEntity
8
1
62
256
6
ByLayer
370
-1
48
1
60
0
100
AcDbLine
10
64.745135
20
5.984093
30
0
11
64.559831
21
6.1415
31
0
39
0
210
0
220
0
230
1
0
LINE
5
75
100
AcDbEntity
8
1
62
256
6
ByLayer
370
-1
48
1
60
0
100
AcDbLine
10
46.66
20
-0.303424
30
0
11
46.66
21
-6.0425
31
0
39
0
210
0
220
0
230
1
0
LINE
5
76
100
AcDbEntity
8
1
62
256
6
ByLayer
370
-1
48
1
60
0
100
AcDbLine
10
46.66
20
6.0425
30
0
11
46.66
21
0.303424
31
0
39
0
210
0
220
0
230
1
0
LINE
5
77
100
AcDbEntity
8
1
62
256
6
ByLayer
370
-1
48
1
60
0
100
AcDbLine
10
64.559831
20
6.1415
30
0
11
60.120851
21
6.1415
31
0
39
0
210
0
220
0
230
1
0
LINE
5
78
100
AcDbEntity
8
1
62
256
6
ByLayer
370
-1
48
1
60
0
100
AcDbLine
10
66.389926
20
-0.32691
30
0
11
66.386233
21
-0.256445
31
0
39
0
210
0
220
0
230
1
0
LINE
5
79
100
AcDbEntity
8
1
62
256
6
ByLayer
370
-1
48
1
60
0
100
AcDbLine
10
65.127556
20
-2.409248
30
0
11
64.544627
21
-2.04662
31
0
39
0
210
0
220
0
230
1
0
LINE
5
7A
100
AcDbEntity
8
SK1
62
256
6
ByLayer
370
-1
48
1
60
0
100
AcDbLine
10
-24.09
20
0.205966
30
0
11
0
21
0.205966
31
0
39
0
210
0
220
0
230
1
0
LINE
5
7B
100
AcDbEntity
8
SK1
62
256
6
ByLayer
370
-1
48
1
60
0
100
AcDbLine
10
-24.09
20
0.205966
30
0
11
-24.09
21
-0.205966
31
0
39
0
210
0
220
0
230
1
0
LINE
5
7C
100
AcDbEntity
8
SK1
62
256
6
ByLayer
370
-1
48
1
60
0
100
AcDbLine
10
0
20
-0.205966
30
0
11
-24.09
21
-0.205966
31
0
39
0
210
0
220
0
230
1
0
LINE
5
7D
100
AcDbEntity
8
SK1
62
256
6
ByLayer
370
-1
48
1
60
0
100
AcDbLine
10
0
20
-5.9925
30
0
11
0
21
-0.205966
31
0
39
0
210
0
220
0
230
1
0
LINE
5
7E
100
AcDbEntity
8
SK1
62
256
6
ByLayer
370
-1
48
1
60
0
100
AcDbLine
10
0
20
0.205966
30
0
11
0
21
5.9925
31
0
39
0
210
0
220
0
230
1
0
LINE
5
7F
100
AcDbEntity
8
SK1
62
256
6
ByLayer
370
-1
48
1
60
0
100
AcDbLine
10
0
20
-0.205966
30
0
11
0
21
0.205966
31
0
39
0
210
0
220
0
230
1
0
LINE
5
80
100
AcDbEntity
8
1
62
256
6
ByLayer
370
-1
48
1
60
0
100
AcDbLine
10
71.302745
20
-10.839998
30
0
11
65.551365
21
-7.262188
31
0
39
0
210
0
220
0
230
1
0
LINE
5
81
100
AcDbEntity
8
1
62
256
6
ByLayer
370
-1
48
1
60
0
100
AcDbLine
10
71.555986
20
-3.739344
30
0
11
71.909461
21
-10.484045
31
0
39
0
210
0
220
0
230
1
0
LINE
5
82
100
AcDbEntity
8
1
62
256
6
ByLayer
370
-1
48
1
60
0
100
AcDbLine
10
65.618659
20
0.152878
30
0
11
71.370039
21
-3.424932
31
0
39
0
210
0
220
0
230
1
0
LINE
5
83
100
AcDbEntity
8
1
62
256
6
ByLayer
370
-1
48
1
60
0
100
AcDbLine
10
65.365418
20
-6.947776
30
0
11
65.011944
21
-0.203075
31
0
39
0
210
0
220
0
230
1
0
LINE
5
84
100
AcDbEntity
8
1
62
256
6
ByLayer
370
-1
48
1
60
0
100
AcDbLine
10
67.557876
20
-5.432706
30
0
11
67.562378
21
-5.51861
31
0
39
0
210
0
220
0
230
1
0
LINE
5
85
100
AcDbEntity
8
1
62
256
6
ByLayer
370
-1
48
1
60
0
100
AcDbLine
10
68.168211
20
-6.115396
30
0
11
68.172715
21
-6.201331
31
0
39
0
210
0
220
0
230
1
0
LINE
5
86
100
AcDbEntity
8
1
62
256
6
ByLayer
370
-1
48
1
60
0
100
AcDbLine
10
67.801287
20
-5.678505
30
0
11
67.797256
21
-5.601582
31
0
39
0
210
0
220
0
230
1
0
LINE
5
87
100
AcDbEntity
8
1
62
256
6
ByLayer
370
-1
48
1
60
0
100
AcDbLine
10
69.053248
20
-4.555388
30
0
11
69.05775
21
-4.641293
31
0
39
0
210
0
220
0
230
1
0
LINE
5
88
100
AcDbEntity
8
1
62
256
6
ByLayer
370
-1
48
1
60
0
100
AcDbLine
10
68.758681
20
-6.109881
30
0
11
68.763184
21
-6.195816
31
0
39
0
210
0
220
0
230
1
0
LINE
5
89
100
AcDbEntity
8
1
62
256
6
ByLayer
370
-1
48
1
60
0
100
AcDbLine
10
67.825887
20
-5.649993
30
0
11
67.829918
21
-5.726915
31
0
39
0
210
0
220
0
230
1
0
LINE
5
8A
100
AcDbEntity
8
1
62
256
6
ByLayer
370
-1
48
1
60
0
100
AcDbLine
10
69.356845
20
-5.418038
30
0
11
69.361349
21
-5.503972
31
0
39
0
210
0
220
0
230
1
0
LINE
5
8B
100
AcDbEntity
8
1
62
256
6
ByLayer
370
-1
48
1
60
0
100
AcDbLine
10
67.846769
20
-4.587591
30
0
11
67.850143
21
-4.651983
31
0
39
0
210
0
220
0
230
1
0
LINE
5
8C
100
AcDbEntity
8
SK1
62
256
6
ByLayer
370
-1
48
1
60
0
100
AcDbLine
10
-108.84
20
5.9925
30
0
11
-108.84
21
-5.9925
31
0
39
0
210
0
220
0
230
1
0
LINE
5
8D
100
AcDbEntity
8
SK1
62
256
6
ByLayer
370
-1
48
1
60
0
100
AcDbLine
10
-109.34
20
5.4925
30
0
11
-109.34
21
-5.4925
31
0
39
0
210
0
220
0
230
1
0
LINE
5
8E
100
AcDbEntity
8
2
62
256
6
ByLayer
370
-1
48
1
60
1
100
AcDbLine
10
71.91
20
0
30
0
11
71.911
21
0.001
31
0
39
0
210
0
220
0
230
1
0
MTEXT
5
DE
100
AcDbEntity
8
SK6
62
256
6
ByLayer
370
-1
48
1
60
0
100
AcDbMText
10
-15.34
20
13.077196
30
0
210
0
220
0
230
1
1
\W00.738;\fsimplex.shx,bigfont.shx;E12Q-SDUCL 07-ER 
40
3.5
41
0
44
1.084337
50
0
71
7
72
5
7
DEFAULT
0
DIMENSION
5
111
100
AcDbEntity
8
2
62
256
6
ByLayer
370
-3
48
1
60
0
100
AcDbDimension
2
DimnDraft3D1
10
84.16
20
0
30
0
11
84.16
21
-29.231316
31
0
70
32
71
5
72
1
41
1
210
0
220
0
230
1
3
Standard
100
AcDbAlignedDimension
13
73.91
23
-10.9
33
0
14
73.91
24
0
34
0
50
90
100
AcDbRotatedDimension
1001
ACAD
1000
DSTYLE
1002
{
1070
    74
1070
     0
1070
   279
1070
     0
1070
   172
1070
     1
1070
   173
1070
     1
1070
   340
1005
DF
1070
    77
1070
     1
1070
    73
1070
     0
1070
   171
1070
     4
1070
   274
1070
     4
1070
   177
1070
     2
1070
   176
1070
     2
1070
   178
1070
     7
1070
    78
1070
     8
1070
    41
1041
3.175
1070
   147
1041
2.25
1070
    42
1041
2.0
1070
    44
1041
2.0
1070
   140
1041
4.5
1070
   343
1005
112
1070
   344
1005
112
1002
}
0
DIMENSION
5
127
100
AcDbEntity
8
SK2
62
256
6
ByLayer
370
-3
48
1
60
0
100
AcDbDimension
2
DimnDraft3D2
10
-119.09
20
5.9925
30
0
11
-119.09
21
16.2475
31
0
70
32
71
5
72
1
41
1
210
0
220
0
230
1
3
Standard
100
AcDbAlignedDimension
13
-111.34
23
-5.9925
33
0
14
-111.34
24
5.9925
34
0
50
90
100
AcDbRotatedDimension
1001
ACAD
1000
DSTYLE
1002
{
1070
    74
1070
     0
1070
   279
1070
     0
1070
   172
1070
     1
1070
   173
1070
     1
1070
   340
1005
DF
1070
    77
1070
     1
1070
    73
1070
     0
1070
   171
1070
     4
1070
   274
1070
     4
1070
   177
1070
     2
1070
   176
1070
     2
1070
   178
1070
     7
1070
    78
1070
     8
1070
    41
1041
3.175
1070
   147
1041
2.25
1070
    42
1041
2.0
1070
    44
1041
2.0
1070
   140
1041
4.5
1070
   343
1005
112
1070
   344
1005
112
1002
}
0
DIMENSION
5
135
100
AcDbEntity
8
SK2
62
256
6
ByLayer
370
-3
48
1
60
0
100
AcDbDimension
2
DimnDraft3D3
10
71.91
20
-28.15
30
0
11
-24.967632
21
-28.15
31
0
70
32
71
5
72
1
41
1
210
0
220
0
230
1
3
Standard
100
AcDbAlignedDimension
13
-109.34
23
-7.9925
33
0
14
71.91
24
-12.9
34
0
50
0
100
AcDbRotatedDimension
1001
ACAD
1000
DSTYLE
1002
{
1070
   279
1070
     0
1070
   172
1070
     1
1070
   173
1070
     1
1070
   340
1005
DF
1070
    77
1070
     1
1070
    73
1070
     0
1070
   171
1070
     4
1070
   274
1070
     4
1070
   177
1070
     2
1070
   176
1070
     2
1070
   178
1070
     7
1070
    78
1070
     8
1070
    41
1041
3.175
1070
   147
1041
2.25
1070
    42
1041
2.0
1070
    44
1041
2.0
1070
   140
1041
4.5
1070
   343
1005
112
1070
   344
1005
112
1002
}
0
DIMENSION
5
143
100
AcDbEntity
8
2
62
256
6
ByLayer
370
-3
48
1
60
0
100
AcDbDimension
2
DimnDraft3D4
10
111.265162
20
0
30
0
11
94.37297
21
33.528479
31
0
70
34
71
5
72
1
41
1
210
0
220
0
230
1
3
Standard
100
AcDb2LineAngularDimension
13
71.438976
23
-1.912334
33
0
14
69.249169
24
39.871689
34
0
15
73.91
25
0
35
0
16
100.543167
26
30.775028
36
0
40
0
0
ENDSEC
0
SECTION
2
OBJECTS
0
DICTIONARY
5
174
330
0
100
AcDbDictionary
280
0
281
1
3
ACAD_GROUP
350
175
3
ACAD_MLINESTYLE
350
176
0
DICTIONARY
5
175
330
0
100
AcDbDictionary
280
0
281
1
0
DICTIONARY
5
176
330
0
100
AcDbDictionary
280
0
281
1
3
Standard
350
18
0
MLINESTYLE
5
18
330
176
100
AcDbMlineStyle
2
Standard
70
0
3

62
256
51
90
52
90
71
2
49
-0.5
62
256
6
ByLayer
49
0.5
62
256
6
ByLayer
0
RASTERVARIABLES
5
162
330

100
AcDbRasterVariables
90
0
70
1
71
1
72
1
0
ENDSEC
0
EOF
