  0
SECTION
  2
HEADER
  9
$ACADVER
  1
AC1015
  9
$ACADMAINTVER
 70
     6
  9
$DWGCODEPAGE
  3
ANSI_1252
  9
$INSBASE
 10
0.0
 20
0.0
 30
0.0
  9
$EXTMIN
 10
1.000000000000000E+20
 20
1.000000000000000E+20
 30
1.000000000000000E+20
  9
$EXTMAX
 10
-1.000000000000000E+20
 20
-1.000000000000000E+20
 30
-1.000000000000000E+20
  9
$LIMMIN
 10
-170.0
 20
-170.0
  9
$LIMMAX
 10
519.0
 20
260.0
  9
$ORTHOMODE
 70
     0
  9
$REGENMODE
 70
     1
  9
$FILLMODE
 70
     1
  9
$QTEXTMODE
 70
     0
  9
$MIRRTEXT
 70
     0
  9
$LTSCALE
 40
1.0
  9
$ATTMODE
 70
     1
  9
$TEXTSIZE
 40
3.5
  9
$TRACEWID
 40
1.0
  9
$TEXTSTYLE
  7
SIMPLEX
  9
$CLAYER
  8
1
  9
$CELTYPE
  6
BYLAYER
  9
$CECOLOR
 62
   256
  9
$CELTSCALE
 40
1.0
  9
$DISPSILH
 70
     0
  9
$DIMSCALE
 40
1.0
  9
$DIMASZ
 40
2.5
  9
$DIMEXO
 40
0.0
  9
$DIMDLI
 40
3.75
  9
$DIMRND
 40
0.0
  9
$DIMDLE
 40
0.0
  9
$DIMEXE
 40
1.25
  9
$DIMTP
 40
0.0
  9
$DIMTM
 40
0.0
  9
$DIMTXT
 40
3.5
  9
$DIMCEN
 40
0.0
  9
$DIMTSZ
 40
0.0
  9
$DIMTOL
 70
     0
  9
$DIMLIM
 70
     0
  9
$DIMTIH
 70
     0
  9
$DIMTOH
 70
     0
  9
$DIMSE1
 70
     0
  9
$DIMSE2
 70
     0
  9
$DIMTAD
 70
     1
  9
$DIMZIN
 70
     8
  9
$DIMBLK
  1

  9
$DIMASO
 70
     1
  9
$DIMSHO
 70
     1
  9
$DIMPOST
  1

  9
$DIMAPOST
  1

  9
$DIMALT
 70
     0
  9
$DIMALTD
 70
     3
  9
$DIMALTF
 40
0.039370078
  9
$DIMLFAC
 40
1.0
  9
$DIMTOFL
 70
     0
  9
$DIMTVP
 40
0.0
  9
$DIMTIX
 70
     0
  9
$DIMSOXD
 70
     0
  9
$DIMSAH
 70
     0
  9
$DIMBLK1
  1

  9
$DIMBLK2
  1

  9
$DIMSTYLE
  2
STANDARD
  9
$DIMCLRD
 70
     0
  9
$DIMCLRE
 70
     0
  9
$DIMCLRT
 70
     0
  9
$DIMTFAC
 40
1.0
  9
$DIMGAP
 40
0.625
  9
$DIMJUST
 70
     0
  9
$DIMSD1
 70
     0
  9
$DIMSD2
 70
     0
  9
$DIMTOLJ
 70
     0
  9
$DIMTZIN
 70
     8
  9
$DIMALTZ
 70
     0
  9
$DIMALTTZ
 70
     0
  9
$DIMUPT
 70
     0
  9
$DIMDEC
 70
     2
  9
$DIMTDEC
 70
     2
  9
$DIMALTU
 70
     2
  9
$DIMALTTD
 70
     3
  9
$DIMTXSTY
  7
SIMPLEX
  9
$DIMAUNIT
 70
     0
  9
$DIMADEC
 70
     2
  9
$DIMALTRND
 40
0.0
  9
$DIMAZIN
 70
     2
  9
$DIMDSEP
 70
    46
  9
$DIMATFIT
 70
     3
  9
$DIMFRAC
 70
     0
  9
$DIMLDRBLK
  1

  9
$DIMLUNIT
 70
     2
  9
$DIMLWD
 70
    -2
  9
$DIMLWE
 70
    -2
  9
$DIMTMOVE
 70
     0
  9
$LUNITS
 70
     2
  9
$LUPREC
 70
     4
  9
$SKETCHINC
 40
1.0
  9
$FILLETRAD
 40
0.0
  9
$AUNITS
 70
     0
  9
$AUPREC
 70
     0
  9
$MENU
  1
c:\tdm21\cad\caduti13\tdm13
  9
$ELEVATION
 40
0.0
  9
$PELEVATION
 40
0.0
  9
$THICKNESS
 40
0.0
  9
$LIMCHECK
 70
     0
  9
$CHAMFERA
 40
0.0
  9
$CHAMFERB
 40
0.0
  9
$CHAMFERC
 40
0.0
  9
$CHAMFERD
 40
0.0
  9
$SKPOLY
 70
     0
  9
$TDCREATE
 40
2454957.593642639
  9
$TDUCREATE
 40
2454957.510309306
  9
$TDUPDATE
 40
2456861.382933577
  9
$TDUUPDATE
 40
2456861.299600243
  9
$TDINDWG
 40
0.0009643519
  9
$TDUSRTIMER
 40
0.0009475231
  9
$USRTIMER
 70
     1
  9
$ANGBASE
 50
0.0
  9
$ANGDIR
 70
     0
  9
$PDMODE
 70
     1
  9
$PDSIZE
 40
0.0
  9
$PLINEWID
 40
0.0
  9
$SPLFRAME
 70
     0
  9
$SPLINETYPE
 70
     6
  9
$SPLINESEGS
 70
     8
  9
$HANDSEED
  5
66A
  9
$SURFTAB1
 70
     6
  9
$SURFTAB2
 70
     6
  9
$SURFTYPE
 70
     6
  9
$SURFU
 70
     6
  9
$SURFV
 70
     6
  9
$UCSBASE
  2

  9
$UCSNAME
  2

  9
$UCSORG
 10
0.0
 20
0.0
 30
0.0
  9
$UCSXDIR
 10
1.0
 20
0.0
 30
0.0
  9
$UCSYDIR
 10
0.0
 20
1.0
 30
0.0
  9
$UCSORTHOREF
  2

  9
$UCSORTHOVIEW
 70
     0
  9
$UCSORGTOP
 10
0.0
 20
0.0
 30
0.0
  9
$UCSORGBOTTOM
 10
0.0
 20
0.0
 30
0.0
  9
$UCSORGLEFT
 10
0.0
 20
0.0
 30
0.0
  9
$UCSORGRIGHT
 10
0.0
 20
0.0
 30
0.0
  9
$UCSORGFRONT
 10
0.0
 20
0.0
 30
0.0
  9
$UCSORGBACK
 10
0.0
 20
0.0
 30
0.0
  9
$PUCSBASE
  2

  9
$PUCSNAME
  2

  9
$PUCSORG
 10
0.0
 20
0.0
 30
0.0
  9
$PUCSXDIR
 10
1.0
 20
0.0
 30
0.0
  9
$PUCSYDIR
 10
0.0
 20
1.0
 30
0.0
  9
$PUCSORTHOREF
  2

  9
$PUCSORTHOVIEW
 70
     0
  9
$PUCSORGTOP
 10
0.0
 20
0.0
 30
0.0
  9
$PUCSORGBOTTOM
 10
0.0
 20
0.0
 30
0.0
  9
$PUCSORGLEFT
 10
0.0
 20
0.0
 30
0.0
  9
$PUCSORGRIGHT
 10
0.0
 20
0.0
 30
0.0
  9
$PUCSORGFRONT
 10
0.0
 20
0.0
 30
0.0
  9
$PUCSORGBACK
 10
0.0
 20
0.0
 30
0.0
  9
$USERI1
 70
     0
  9
$USERI2
 70
     0
  9
$USERI3
 70
     0
  9
$USERI4
 70
     0
  9
$USERI5
 70
     0
  9
$USERR1
 40
0.0
  9
$USERR2
 40
0.0
  9
$USERR3
 40
0.0
  9
$USERR4
 40
0.0
  9
$USERR5
 40
0.0
  9
$WORLDVIEW
 70
     1
  9
$SHADEDGE
 70
     3
  9
$SHADEDIF
 70
    70
  9
$TILEMODE
 70
     1
  9
$MAXACTVP
 70
    64
  9
$PINSBASE
 10
0.0
 20
0.0
 30
0.0
  9
$PLIMCHECK
 70
     0
  9
$PEXTMIN
 10
0.0
 20
0.0
 30
0.0
  9
$PEXTMAX
 10
0.0
 20
0.0
 30
0.0
  9
$PLIMMIN
 10
0.0
 20
0.0
  9
$PLIMMAX
 10
12.0
 20
9.0
  9
$UNITMODE
 70
     0
  9
$VISRETAIN
 70
     0
  9
$PLINEGEN
 70
     0
  9
$PSLTSCALE
 70
     1
  9
$TREEDEPTH
 70
  3020
  9
$CMLSTYLE
  2
STANDARD
  9
$CMLJUST
 70
     0
  9
$CMLSCALE
 40
20.0
  9
$PROXYGRAPHICS
 70
     1
  9
$MEASUREMENT
 70
     1
  9
$CELWEIGHT
370
    -1
  9
$ENDCAPS
280
     0
  9
$JOINSTYLE
280
     0
  9
$LWDISPLAY
290
     0
  9
$INSUNITS
 70
     4
  9
$HYPERLINKBASE
  1

  9
$STYLESHEET
  1
MONOCHROME.CTB
  9
$XEDIT
290
     1
  9
$CEPSNTYPE
380
     0
  9
$PSTYLEMODE
290
     1
  9
$FINGERPRINTGUID
  2
{46B44192-1510-48B1-B61B-CBE2ADA013A7}
  9
$VERSIONGUID
  2
{6160D478-9A74-4C97-9D8A-D4A65CE74B12}
  9
$EXTNAMES
290
     1
  9
$PSVPSCALE
 40
0.0
  9
$OLESTARTUP
290
     0
  0
ENDSEC
  0
SECTION
  2
CLASSES
  0
CLASS
  1
ACDBDICTIONARYWDFLT
  2
AcDbDictionaryWithDefault
  3
ObjectDBX Classes
 90
        0
280
     0
281
     0
  0
CLASS
  1
ACDBPLACEHOLDER
  2
AcDbPlaceHolder
  3
ObjectDBX Classes
 90
        0
280
     0
281
     0
  0
CLASS
  1
LAYOUT
  2
AcDbLayout
  3
ObjectDBX Classes
 90
        0
280
     0
281
     0
  0
CLASS
  1
DICTIONARYVAR
  2
AcDbDictionaryVar
  3
ObjectDBX Classes
 90
        0
280
     0
281
     0
  0
CLASS
  1
TABLESTYLE
  2
AcDbTableStyle
  3
ObjectDBX Classes
 90
     4095
280
     0
281
     0
  0
CLASS
  1
SCALE
  2
AcDbScale
  3
ObjectDBX Classes
 90
     1153
280
     0
281
     0
  0
CLASS
  1
MATERIAL
  2
AcDbMaterial
  3
ObjectDBX Classes
 90
     1153
280
     0
281
     0
  0
CLASS
  1
VISUALSTYLE
  2
AcDbVisualStyle
  3
ObjectDBX Classes
 90
     4095
280
     0
281
     0
  0
ENDSEC
  0
SECTION
  2
TABLES
  0
TABLE
  2
VPORT
  5
8
330
0
100
AcDbSymbolTable
 70
     1
  0
VPORT
  5
39A
330
8
100
AcDbSymbolTableRecord
100
AcDbViewportTableRecord
  2
*Active
 70
     0
 10
0.0
 20
0.0
 11
1.0
 21
1.0
 12
218.9201881351169
 22
109.7549380673833
 13
0.0
 23
0.0
 14
5.0
 24
5.0
 15
5.0
 25
5.0
 16
0.0
 26
0.0
 36
1.0
 17
0.0
 27
0.0
 37
0.0
 40
564.6711112651689
 41
1.066073697585768
 42
50.0
 43
0.0
 44
0.0
 50
0.0
 51
0.0
 71
     0
 72
  2000
 73
     1
 74
     1
 75
     0
 76
     0
 77
     0
 78
     0
281
     0
 65
     1
110
0.0
120
0.0
130
0.0
111
1.0
121
0.0
131
0.0
112
0.0
122
1.0
132
0.0
 79
     0
146
0.0
  0
ENDTAB
  0
TABLE
  2
LTYPE
  5
5
330
0
100
AcDbSymbolTable
 70
     3
  0
LTYPE
  5
12
330
5
100
AcDbSymbolTableRecord
100
AcDbLinetypeTableRecord
  2
BYBLOCK
 70
     0
  3

 72
    65
 73
     0
 40
0.0
  0
LTYPE
  5
13
330
5
100
AcDbSymbolTableRecord
100
AcDbLinetypeTableRecord
  2
BYLAYER
 70
     0
  3

 72
    65
 73
     0
 40
0.0
  0
LTYPE
  5
14
330
5
100
AcDbSymbolTableRecord
100
AcDbLinetypeTableRecord
  2
CONTINUOUS
 70
     0
  3
Solid line
 72
    65
 73
     0
 40
0.0
  0
LTYPE
  5
20
330
5
100
AcDbSymbolTableRecord
100
AcDbLinetypeTableRecord
  2
HIDDEN
 70
     0
  3
Hidden __ __ __ __ __ __ __ __ __ __ __ __ __ _
 72
    65
 73
     2
 40
9.524999999999997
 49
6.349999999999998
 74
     0
 49
-3.174999999999998
 74
     0
  0
LTYPE
  5
351
330
5
100
AcDbSymbolTableRecord
100
AcDbLinetypeTableRecord
  2
CENTER
 70
     0
  3
Dash dot __ . __ . __ . __ . __ . __ . __ . __
 72
    65
 73
     4
 40
25.4
 49
12.7
 74
     0
 49
-6.349999999999998
 74
     0
 49
0.0
 74
     0
 49
-6.349999999999998
 74
     0
  0
ENDTAB
  0
TABLE
  2
LAYER
  5
2
330
0
100
AcDbSymbolTable
 70
    16
  0
LAYER
  5
F
330
2
100
AcDbSymbolTableRecord
100
AcDbLayerTableRecord
  2
0
 70
     0
 62
     7
  6
CONTINUOUS
370
    -3
390
300
  0
LAYER
  5
23
330
2
100
AcDbSymbolTableRecord
100
AcDbLayerTableRecord
  2
1
 70
     0
 62
     4
  6
CONTINUOUS
370
    -3
390
300
  0
LAYER
  5
24
330
2
100
AcDbSymbolTableRecord
100
AcDbLayerTableRecord
  2
SK1
 70
     0
 62
     4
  6
CONTINUOUS
370
    -3
390
300
  0
LAYER
  5
25
330
2
100
AcDbSymbolTableRecord
100
AcDbLayerTableRecord
  2
2
 70
     0
 62
     7
  6
CONTINUOUS
370
    -3
390
300
  0
LAYER
  5
26
330
2
100
AcDbSymbolTableRecord
100
AcDbLayerTableRecord
  2
2L
 70
     0
 62
     7
  6
CONTINUOUS
370
    -3
390
300
  0
LAYER
  5
27
330
2
100
AcDbSymbolTableRecord
100
AcDbLayerTableRecord
  2
SK2
 70
     0
 62
     7
  6
CONTINUOUS
370
    -3
390
300
  0
LAYER
  5
28
330
2
100
AcDbSymbolTableRecord
100
AcDbLayerTableRecord
  2
3
 70
     0
 62
     1
  6
HIDDEN
370
    -3
390
300
  0
LAYER
  5
29
330
2
100
AcDbSymbolTableRecord
100
AcDbLayerTableRecord
  2
SK3
 70
     0
 62
     1
  6
HIDDEN
370
    -3
390
300
  0
LAYER
  5
2A
330
2
100
AcDbSymbolTableRecord
100
AcDbLayerTableRecord
  2
4
 70
     0
 62
     2
  6
CENTER
370
    -3
390
300
  0
LAYER
  5
2B
330
2
100
AcDbSymbolTableRecord
100
AcDbLayerTableRecord
  2
SK4
 70
     0
 62
     2
  6
CENTER
370
    -3
390
300
  0
LAYER
  5
2C
330
2
100
AcDbSymbolTableRecord
100
AcDbLayerTableRecord
  2
5
 70
     0
 62
    -7
  6
CONTINUOUS
370
    -3
390
300
  0
LAYER
  5
2D
330
2
100
AcDbSymbolTableRecord
100
AcDbLayerTableRecord
  2
6
 70
     0
 62
     5
  6
CONTINUOUS
370
    -3
390
300
  0
LAYER
  5
2E
330
2
100
AcDbSymbolTableRecord
100
AcDbLayerTableRecord
  2
SK6
 70
     0
 62
     5
  6
CONTINUOUS
370
    -3
390
300
  0
LAYER
  5
2F
330
2
100
AcDbSymbolTableRecord
100
AcDbLayerTableRecord
  2
DEFPOINTS
 70
     0
 62
     7
  6
CONTINUOUS
290
     0
370
    -3
390
300
  0
LAYER
  5
375
330
2
100
AcDbSymbolTableRecord
100
AcDbLayerTableRecord
  2
CUT
 70
     0
 62
     1
  6
CONTINUOUS
370
    -3
390
300
  0
LAYER
  5
376
330
2
100
AcDbSymbolTableRecord
100
AcDbLayerTableRecord
  2
NOCUT
 70
     0
 62
     7
  6
CONTINUOUS
370
    -3
390
300
  0
ENDTAB
  0
TABLE
  2
STYLE
  5
3
330
0
100
AcDbSymbolTable
 70
     4
  0
STYLE
  5
10
330
3
100
AcDbSymbolTableRecord
100
AcDbTextStyleTableRecord
  2
STANDARD
 70
     0
 40
0.0
 41
1.0
 50
0.0
 71
     0
 42
5.0
  3
txt
  4

  0
STYLE
  5
1D
330
3
100
AcDbSymbolTableRecord
100
AcDbTextStyleTableRecord
  2
TXT
 70
     0
 40
8.0
 41
1.0
 50
0.0
 71
     0
 42
8.0
  3
txt
  4

  0
STYLE
  5
1E
330
3
100
AcDbSymbolTableRecord
100
AcDbTextStyleTableRecord
  2
SIMPLEX
 70
     0
 40
0.0
 41
1.0
 50
0.0
 71
     0
 42
3.5
  3
simplex
  4

  0
STYLE
  5
34C
330
3
100
AcDbSymbolTableRecord
100
AcDbTextStyleTableRecord
  2

 70
     1
 40
0.0
 41
1.0
 50
0.0
 71
     0
 42
2.5
  3
ltypeshp.shx
  4

  0
ENDTAB
  0
TABLE
  2
VIEW
  5
6
330
0
100
AcDbSymbolTable
 70
     0
  0
ENDTAB
  0
TABLE
  2
UCS
  5
7
330
0
100
AcDbSymbolTable
 70
     0
  0
ENDTAB
  0
TABLE
  2
APPID
  5
9
330
0
100
AcDbSymbolTable
 70
     1
  0
APPID
  5
11
330
9
100
AcDbSymbolTableRecord
100
AcDbRegAppTableRecord
  2
ACAD
 70
     0
  0
ENDTAB
  0
TABLE
  2
DIMSTYLE
  5
A
330
0
100
AcDbSymbolTable
 70
     1
100
AcDbDimStyleTable
  0
DIMSTYLE
105
3F
102
{ACAD_REACTORS
330
5FC
330
60A
330
617
330
625
330
632
102
}
330
A
100
AcDbSymbolTableRecord
100
AcDbDimStyleTableRecord
  2
STANDARD
 70
     0
 41
2.5
 42
0.0
 43
3.75
 44
1.25
 73
     0
 74
     0
 77
     1
 78
     8
 79
     2
140
3.5
141
0.0
143
0.039370078
147
0.625
171
     3
178
     0
179
     2
271
     2
272
     2
274
     3
283
     0
284
     8
340
1E
  0
ENDTAB
  0
TABLE
  2
BLOCK_RECORD
  5
1
330
0
100
AcDbSymbolTable
 70
     5
  0
BLOCK_RECORD
  5
18
330
1
100
AcDbSymbolTableRecord
100
AcDbBlockTableRecord
  2
*MODEL_SPACE
340
303
  0
BLOCK_RECORD
  5
338
330
1
100
AcDbSymbolTableRecord
100
AcDbBlockTableRecord
  2
*Paper_Space
340
33B
  0
BLOCK_RECORD
  5
5FD
330
1
100
AcDbSymbolTableRecord
100
AcDbBlockTableRecord
  2
*D0
340
0
  0
BLOCK_RECORD
  5
60B
330
1
100
AcDbSymbolTableRecord
100
AcDbBlockTableRecord
  2
*D1
340
0
  0
BLOCK_RECORD
  5
618
330
1
100
AcDbSymbolTableRecord
100
AcDbBlockTableRecord
  2
*D2
340
0
  0
BLOCK_RECORD
  5
626
330
1
100
AcDbSymbolTableRecord
100
AcDbBlockTableRecord
  2
*D3
340
0
  0
BLOCK_RECORD
  5
633
330
1
100
AcDbSymbolTableRecord
100
AcDbBlockTableRecord
  2
*D4
340
0
  0
ENDTAB
  0
ENDSEC
  0
SECTION
  2
BLOCKS
  0
BLOCK
  5
32
330
18
100
AcDbEntity
  8
0
100
AcDbBlockBegin
  2
*MODEL_SPACE
 70
     0
 10
0.0
 20
0.0
 30
0.0
  3
*MODEL_SPACE
  1

  0
ENDBLK
  5
33
330
18
100
AcDbEntity
  8
0
100
AcDbBlockEnd
  0
BLOCK
  5
339
330
338
100
AcDbEntity
 67
     1
  8
0
100
AcDbBlockBegin
  2
*Paper_Space
 70
     0
 10
0.0
 20
0.0
 30
0.0
  3
*Paper_Space
  1

  0
ENDBLK
  5
33A
330
338
100
AcDbEntity
 67
     1
  8
0
100
AcDbBlockEnd
  0
BLOCK
  5
5FE
330
5FD
100
AcDbEntity
  8
0
100
AcDbBlockBegin
  2
*D0
 70
     1
 10
0.0
 20
0.0
 30
0.0
  3
*D0
  1

  0
LINE
  5
600
330
5FD
100
AcDbEntity
  8
2
 62
     0
370
    -2
100
AcDbLine
 10
57.6
 20
6.35
 30
0.0
 11
73.85000000000001
 21
6.350000000000056
 31
0.0
  0
LINE
  5
601
330
5FD
100
AcDbEntity
  8
2
 62
     0
370
    -2
100
AcDbLine
 10
57.6
 20
-6.35
 30
0.0
 11
73.85000000000005
 21
-6.349999999999943
 31
0.0
  0
LINE
  5
602
330
5FD
100
AcDbEntity
  8
2
 62
     0
370
    -2
100
AcDbLine
 10
72.60000000000005
 20
-6.349999999999947
 30
0.0
 11
72.60000000000016
 21
-40.03199999999994
 31
0.0
  0
LINE
  5
603
330
5FD
100
AcDbEntity
  8
2
 62
     0
370
    -2
100
AcDbLine
 10
72.60000000000002
 20
3.850000000000051
 30
0.0
 11
72.60000000000004
 21
-3.849999999999947
 31
0.0
  0
SOLID
  5
604
330
5FD
100
AcDbEntity
  8
2
 62
     0
100
AcDbTrace
 10
73.0166666666667
 20
3.850000000000052
 30
0.0
 11
72.18333333333335
 21
3.85000000000005
 31
0.0
 12
72.60000000000001
 22
6.350000000000051
 32
0.0
 13
72.60000000000001
 23
6.350000000000051
 33
0.0
  0
SOLID
  5
605
330
5FD
100
AcDbEntity
  8
2
 62
     0
100
AcDbTrace
 10
72.18333333333337
 20
-3.849999999999949
 30
0.0
 11
73.01666666666671
 21
-3.849999999999946
 31
0.0
 12
72.60000000000005
 22
-6.349999999999947
 32
0.0
 13
72.60000000000005
 23
-6.349999999999947
 33
0.0
  0
MTEXT
  5
606
330
5FD
100
AcDbEntity
  8
2
 62
     0
100
AcDbMText
 10
69.4007500000001
 20
-24.44099999999996
 30
0.0
 40
3.5
 41
0.0
 71
     5
 72
     1
  1
UNC1/2-13
  7
SIMPLEX
 11
-3.356894814614647E-15
 21
1.0
 31
0.0
 73
     1
 44
1.0
  0
POINT
  5
607
330
5FD
100
AcDbEntity
  8
DEFPOINTS
 62
     0
100
AcDbPoint
 10
57.6
 20
6.35
 30
0.0
  0
POINT
  5
608
330
5FD
100
AcDbEntity
  8
DEFPOINTS
 62
     0
100
AcDbPoint
 10
57.6
 20
-6.35
 30
0.0
  0
POINT
  5
609
330
5FD
100
AcDbEntity
  8
DEFPOINTS
 62
     0
100
AcDbPoint
 10
72.60000000000005
 20
-6.349999999999947
 30
0.0
  0
ENDBLK
  5
5FF
330
5FD
100
AcDbEntity
  8
0
100
AcDbBlockEnd
  0
BLOCK
  5
60C
330
60B
100
AcDbEntity
  8
0
100
AcDbBlockBegin
  2
*D1
 70
     1
 10
0.0
 20
0.0
 30
0.0
  3
*D1
  1

  0
LINE
  5
60E
330
60B
100
AcDbEntity
  8
2
 62
     0
370
    -2
100
AcDbLine
 10
0.0
 20
0.0
 30
0.0
 11
0.0
 21
76.25
 31
0.0
  0
LINE
  5
60F
330
60B
100
AcDbEntity
  8
2
 62
     0
370
    -2
100
AcDbLine
 10
57.6
 20
0.0
 30
0.0
 11
57.6
 21
76.25
 31
0.0
  0
LINE
  5
610
330
60B
100
AcDbEntity
  8
2
 62
     0
370
    -2
100
AcDbLine
 10
2.5
 20
75.0
 30
0.0
 11
55.1
 21
75.0
 31
0.0
  0
SOLID
  5
611
330
60B
100
AcDbEntity
  8
2
 62
     0
100
AcDbTrace
 10
2.5
 20
75.41666666666667
 30
0.0
 11
2.5
 21
74.58333333333333
 31
0.0
 12
0.0
 22
75.0
 32
0.0
 13
0.0
 23
75.0
 33
0.0
  0
SOLID
  5
612
330
60B
100
AcDbEntity
  8
2
 62
     0
100
AcDbTrace
 10
55.1
 20
74.58333333333333
 30
0.0
 11
55.1
 21
75.41666666666667
 31
0.0
 12
57.6
 22
75.0
 32
0.0
 13
57.6
 23
75.0
 33
0.0
  0
MTEXT
  5
613
330
60B
100
AcDbEntity
  8
2
 62
     0
100
AcDbMText
 10
28.8
 20
77.39775
 30
0.0
 40
3.5
 41
0.0
 71
     5
 72
     1
  1
57.6
  7
SIMPLEX
 73
     1
 44
1.0
  0
POINT
  5
614
330
60B
100
AcDbEntity
  8
DEFPOINTS
 62
     0
100
AcDbPoint
 10
0.0
 20
0.0
 30
0.0
  0
POINT
  5
615
330
60B
100
AcDbEntity
  8
DEFPOINTS
 62
     0
100
AcDbPoint
 10
57.6
 20
0.0
 30
0.0
  0
POINT
  5
616
330
60B
100
AcDbEntity
  8
DEFPOINTS
 62
     0
100
AcDbPoint
 10
57.6
 20
75.0
 30
0.0
  0
ENDBLK
  5
60D
330
60B
100
AcDbEntity
  8
0
100
AcDbBlockEnd
  0
BLOCK
  5
619
330
618
100
AcDbEntity
  8
0
100
AcDbBlockBegin
  2
*D2
 70
     1
 10
0.0
 20
0.0
 30
0.0
  3
*D2
  1

  0
LINE
  5
61B
330
618
100
AcDbEntity
  8
SK2
 62
     0
370
    -2
100
AcDbLine
 10
-16.94899999999999
 20
4.6609
 30
0.0
 11
-44.37500000002377
 21
4.660899999860034
 31
0.0
  0
LINE
  5
61C
330
618
100
AcDbEntity
  8
SK2
 62
     0
370
    -2
100
AcDbLine
 10
-16.94899999999999
 20
-4.6609
 30
0.0
 11
-44.3749999999762
 21
-4.660900000139965
 31
0.0
  0
LINE
  5
61D
330
618
100
AcDbEntity
  8
SK2
 62
     0
370
    -2
100
AcDbLine
 10
-43.1249999999762
 20
-4.660900000133586
 30
0.0
 11
-43.12499999988489
 21
-22.55440000013359
 31
0.0
  0
LINE
  5
61E
330
618
100
AcDbEntity
  8
SK2
 62
     0
370
    -2
100
AcDbLine
 10
-43.12500000001101
 20
2.160899999866413
 30
0.0
 11
-43.12499999998897
 21
-2.160900000133586
 31
0.0
  0
SOLID
  5
61F
330
618
100
AcDbEntity
  8
SK2
 62
     0
100
AcDbTrace
 10
-42.70833333334435
 20
2.16089999986854
 30
0.0
 11
-43.54166666667768
 21
2.160899999864287
 31
0.0
 12
-43.12500000002377
 22
4.660899999866413
 32
0.0
 13
-43.12500000002377
 23
4.660899999866413
 33
0.0
  0
SOLID
  5
620
330
618
100
AcDbEntity
  8
SK2
 62
     0
100
AcDbTrace
 10
-43.54166666665563
 20
-2.160900000135713
 30
0.0
 11
-42.7083333333223
 21
-2.16090000013146
 31
0.0
 12
-43.1249999999762
 22
-4.660900000133586
 32
0.0
 13
-43.1249999999762
 23
-4.660900000133586
 33
0.0
  0
MTEXT
  5
621
330
618
100
AcDbEntity
  8
SK2
 62
     0
100
AcDbMText
 10
-45.52274999992417
 20
-14.85765000014582
 30
0.0
 40
3.5
 41
0.0
 71
     5
 72
     1
  1
%%c9.32
  7
SIMPLEX
 11
-5.103181376894882E-12
 21
1.0
 31
0.0
 73
     1
 44
1.0
  0
POINT
  5
622
330
618
100
AcDbEntity
  8
DEFPOINTS
 62
     0
100
AcDbPoint
 10
-16.94899999999999
 20
4.6609
 30
0.0
  0
POINT
  5
623
330
618
100
AcDbEntity
  8
DEFPOINTS
 62
     0
100
AcDbPoint
 10
-16.94899999999999
 20
-4.6609
 30
0.0
  0
POINT
  5
624
330
618
100
AcDbEntity
  8
DEFPOINTS
 62
     0
100
AcDbPoint
 10
-43.1249999999762
 20
-4.660900000133586
 30
0.0
  0
ENDBLK
  5
61A
330
618
100
AcDbEntity
  8
0
100
AcDbBlockEnd
  0
BLOCK
  5
627
330
626
100
AcDbEntity
  8
0
100
AcDbBlockBegin
  2
*D3
 70
     1
 10
0.0
 20
0.0
 30
0.0
  3
*D3
  1

  0
LINE
  5
629
330
626
100
AcDbEntity
  8
2
 62
     0
370
    -2
100
AcDbLine
 10
38.97416698
 20
4.4
 30
0.0
 11
38.97416698
 21
61.25
 31
0.0
  0
LINE
  5
62A
330
626
100
AcDbEntity
  8
2
 62
     0
370
    -2
100
AcDbLine
 10
57.6
 20
6.35
 30
0.0
 11
57.6
 21
61.25
 31
0.0
  0
LINE
  5
62B
330
626
100
AcDbEntity
  8
2
 62
     0
370
    -2
100
AcDbLine
 10
41.47416698
 20
60.0
 30
0.0
 11
55.1
 21
60.0
 31
0.0
  0
SOLID
  5
62C
330
626
100
AcDbEntity
  8
2
 62
     0
100
AcDbTrace
 10
41.47416698
 20
60.41666666666666
 30
0.0
 11
41.47416698
 21
59.58333333333334
 31
0.0
 12
38.97416698
 22
60.0
 32
0.0
 13
38.97416698
 23
60.0
 33
0.0
  0
SOLID
  5
62D
330
626
100
AcDbEntity
  8
2
 62
     0
100
AcDbTrace
 10
55.1
 20
59.58333333333334
 30
0.0
 11
55.1
 21
60.41666666666666
 31
0.0
 12
57.6
 22
60.0
 32
0.0
 13
57.6
 23
60.0
 33
0.0
  0
MTEXT
  5
62E
330
626
100
AcDbEntity
  8
2
 62
     0
100
AcDbMText
 10
48.28708349
 20
62.39775
 30
0.0
 40
3.5
 41
0.0
 71
     5
 72
     1
  1
18.63
  7
SIMPLEX
 73
     1
 44
1.0
  0
POINT
  5
62F
330
626
100
AcDbEntity
  8
DEFPOINTS
 62
     0
100
AcDbPoint
 10
38.97416698
 20
4.4
 30
0.0
  0
POINT
  5
630
330
626
100
AcDbEntity
  8
DEFPOINTS
 62
     0
100
AcDbPoint
 10
57.6
 20
6.35
 30
0.0
  0
POINT
  5
631
330
626
100
AcDbEntity
  8
DEFPOINTS
 62
     0
100
AcDbPoint
 10
57.6
 20
60.0
 30
0.0
  0
ENDBLK
  5
628
330
626
100
AcDbEntity
  8
0
100
AcDbBlockEnd
  0
BLOCK
  5
634
330
633
100
AcDbEntity
  8
0
100
AcDbBlockBegin
  2
*D4
 70
     1
 10
0.0
 20
0.0
 30
0.0
  3
*D4
  1

  0
LINE
  5
636
330
633
100
AcDbEntity
  8
SK2
 62
     0
370
    -2
100
AcDbLine
 10
-28.12499999999999
 20
6.35
 30
0.0
 11
-28.12499999999999
 21
91.25
 31
0.0
  0
LINE
  5
637
330
633
100
AcDbEntity
  8
SK2
 62
     0
370
    -2
100
AcDbLine
 10
57.6
 20
6.35
 30
0.0
 11
57.6
 21
91.25
 31
0.0
  0
LINE
  5
638
330
633
100
AcDbEntity
  8
SK2
 62
     0
370
    -2
100
AcDbLine
 10
-25.62499999999999
 20
90.0
 30
0.0
 11
55.1
 21
90.0
 31
0.0
  0
SOLID
  5
639
330
633
100
AcDbEntity
  8
SK2
 62
     0
100
AcDbTrace
 10
-25.62499999999999
 20
90.41666666666667
 30
0.0
 11
-25.62499999999999
 21
89.58333333333333
 31
0.0
 12
-28.12499999999999
 22
90.0
 32
0.0
 13
-28.12499999999999
 23
90.0
 33
0.0
  0
SOLID
  5
63A
330
633
100
AcDbEntity
  8
SK2
 62
     0
100
AcDbTrace
 10
55.1
 20
89.58333333333333
 30
0.0
 11
55.1
 21
90.41666666666667
 31
0.0
 12
57.6
 22
90.0
 32
0.0
 13
57.6
 23
90.0
 33
0.0
  0
MTEXT
  5
63B
330
633
100
AcDbEntity
  8
SK2
 62
     0
100
AcDbMText
 10
14.7375
 20
92.39775
 30
0.0
 40
3.5
 41
0.0
 71
     5
 72
     1
  1
85.73
  7
SIMPLEX
 73
     1
 44
1.0
  0
POINT
  5
63C
330
633
100
AcDbEntity
  8
DEFPOINTS
 62
     0
100
AcDbPoint
 10
-28.12499999999999
 20
6.35
 30
0.0
  0
POINT
  5
63D
330
633
100
AcDbEntity
  8
DEFPOINTS
 62
     0
100
AcDbPoint
 10
57.6
 20
6.35
 30
0.0
  0
POINT
  5
63E
330
633
100
AcDbEntity
  8
DEFPOINTS
 62
     0
100
AcDbPoint
 10
57.6
 20
90.0
 30
0.0
  0
ENDBLK
  5
635
330
633
100
AcDbEntity
  8
0
100
AcDbBlockEnd
  0
ENDSEC
  0
SECTION
  2
ENTITIES
  0
LINE
  5
3D6
330
18
100
AcDbEntity
  8
SK4
100
AcDbLine
 10
-30.12499999999999
 20
0.0
 30
0.0
 11
22.6
 21
0.0
 31
0.0
  0
LINE
  5
3D7
330
18
100
AcDbEntity
  8
4
100
AcDbLine
 10
20.6
 20
0.0
 30
0.0
 11
59.6
 21
0.0
 31
0.0
  0
LINE
  5
3D8
330
18
100
AcDbEntity
  8
SK4
100
AcDbLine
 10
20.6
 20
0.0
 30
0.0
 11
59.6
 21
0.0
 31
0.0
  0
LINE
  5
3D9
330
18
100
AcDbEntity
  8
1
100
AcDbLine
 10
22.6
 20
4.6609
 30
0.0
 11
22.6
 21
4.656266164474456
 31
0.0
  0
LINE
  5
3DA
330
18
100
AcDbEntity
  8
1
100
AcDbLine
 10
22.6
 20
4.656266164474456
 30
0.0
 11
22.6
 21
4.242693232995451
 31
0.0
  0
LINE
  5
3DB
330
18
100
AcDbEntity
  8
1
100
AcDbLine
 10
22.6
 20
4.242693232995451
 30
0.0
 11
22.6
 21
-4.6609
 31
0.0
  0
LINE
  5
3DC
330
18
100
AcDbEntity
  8
1
100
AcDbLine
 10
22.6
 20
4.6609
 30
0.0
 11
0.0
 21
4.6609
 31
0.0
  0
LINE
  5
3DD
330
18
100
AcDbEntity
  8
1
100
AcDbLine
 10
38.97416697999999
 20
3.67804406524778
 30
0.0
 11
38.55477374521459
 21
3.843580912336226
 31
0.0
  0
LINE
  5
3DE
330
18
100
AcDbEntity
  8
1
100
AcDbLine
 10
38.55477374521459
 20
3.843580912336226
 30
0.0
 11
38.13539062726041
 21
3.988850362855223
 31
0.0
  0
LINE
  5
3DF
330
18
100
AcDbEntity
  8
1
100
AcDbLine
 10
38.13539062726041
 20
3.988850362855223
 30
0.0
 11
37.71601045704864
 21
4.113090877249136
 31
0.0
  0
LINE
  5
3E0
330
18
100
AcDbEntity
  8
1
100
AcDbLine
 10
37.71601045704864
 20
4.113090877249136
 30
0.0
 11
37.29662636189655
 21
4.215649588395451
 31
0.0
  0
LINE
  5
3E1
330
18
100
AcDbEntity
  8
1
100
AcDbLine
 10
37.29662636189655
 20
4.215649588395451
 30
0.0
 11
36.8772314768169
 21
4.295985199034274
 31
0.0
  0
LINE
  5
3E2
330
18
100
AcDbEntity
  8
1
100
AcDbLine
 10
36.8772314768169
 20
4.295985199034274
 30
0.0
 11
36.45784011319548
 21
4.353670066273416
 31
0.0
  0
LINE
  5
3E3
330
18
100
AcDbEntity
  8
1
100
AcDbLine
 10
36.45784011319548
 20
4.353670066273416
 30
0.0
 11
36.03845792381417
 21
4.388401581190386
 31
0.0
  0
LINE
  5
3E4
330
18
100
AcDbEntity
  8
1
100
AcDbLine
 10
36.03845792381417
 20
4.388401581190386
 30
0.0
 11
35.61909432766639
 21
4.399999999999999
 31
0.0
  0
ARC
  5
3E5
330
18
100
AcDbEntity
  8
1
100
AcDbCircle
 10
25.0558752853662
 20
3.201026403453367
 30
0.0
 40
7.601027933846387
100
AcDbArc
 50
266.5615948987627
 51
269.9972103794053
  0
LINE
  5
3E6
330
18
100
AcDbEntity
  8
1
100
AcDbLine
 10
24.59999999999999
 20
-4.386318849720229
 30
0.0
 11
24.59999999999999
 21
-4.4
 31
0.0
  0
LINE
  5
3E7
330
18
100
AcDbEntity
  8
1
100
AcDbLine
 10
24.6
 20
-2.867535087528428
 30
0.0
 11
25.22147199539024
 21
-3.209403906336096
 31
0.0
  0
LINE
  5
3E8
330
18
100
AcDbEntity
  8
1
100
AcDbLine
 10
25.22147199539024
 20
-3.209403906336096
 30
0.0
 11
25.84295198502835
 21
-3.514141205411555
 31
0.0
  0
LINE
  5
3E9
330
18
100
AcDbEntity
  8
1
100
AcDbLine
 10
25.84295198502835
 20
-3.514141205411555
 30
0.0
 11
26.46443570450016
 21
-3.778218156899056
 31
0.0
  0
LINE
  5
3EA
330
18
100
AcDbEntity
  8
1
100
AcDbLine
 10
26.46443570450016
 20
-3.778218156899056
 30
0.0
 11
27.08591879825884
 21
-3.998577180386245
 31
0.0
  0
LINE
  5
3EB
330
18
100
AcDbEntity
  8
1
100
AcDbLine
 10
27.08591879825884
 20
-3.998577180386245
 30
0.0
 11
27.3966462585545
 21
-4.091540940598684
 31
0.0
  0
LINE
  5
3EC
330
18
100
AcDbEntity
  8
1
100
AcDbLine
 10
27.3966462585545
 20
-4.091540940598684
 30
0.0
 11
27.70739672852658
 21
-4.172667378777453
 31
0.0
  0
LINE
  5
3ED
330
18
100
AcDbEntity
  8
1
100
AcDbLine
 10
27.70739672852658
 20
-4.172667378777453
 30
0.0
 11
28.0181291357828
 21
-4.241708543234639
 31
0.0
  0
LINE
  5
3EE
330
18
100
AcDbEntity
  8
1
100
AcDbLine
 10
28.0181291357828
 20
-4.241708543234639
 30
0.0
 11
28.32886617161738
 21
-4.298474263620307
 31
0.0
  0
LINE
  5
3EF
330
18
100
AcDbEntity
  8
1
100
AcDbLine
 10
28.32886617161738
 20
-4.298474263620307
 30
0.0
 11
28.63961271361594
 21
-4.34279571376609
 31
0.0
  0
LINE
  5
3F0
330
18
100
AcDbEntity
  8
1
100
AcDbLine
 10
28.63961271361594
 20
-4.34279571376609
 30
0.0
 11
28.95034088924903
 21
-4.374544900784456
 31
0.0
  0
LINE
  5
3F1
330
18
100
AcDbEntity
  8
1
100
AcDbLine
 10
28.95034088924903
 20
-4.374544900784456
 30
0.0
 11
29.26109244621884
 21
-4.39363225521143
 31
0.0
  0
LINE
  5
3F2
330
18
100
AcDbEntity
  8
1
100
AcDbLine
 10
29.26109244621884
 20
-4.39363225521143
 30
0.0
 11
29.57179925237655
 21
-4.399999999983532
 31
0.0
  0
LINE
  5
3F3
330
18
100
AcDbEntity
  8
1
100
AcDbLine
 10
24.6
 20
2.493417999161928
 30
0.0
 11
25.68515742557425
 21
1.772278194882904
 31
0.0
  0
LINE
  5
3F4
330
18
100
AcDbEntity
  8
1
100
AcDbLine
 10
25.68515742557425
 20
1.772278194882904
 30
0.0
 11
28.94060770981948
 21
-0.653942579026714
 31
0.0
  0
LINE
  5
3F5
330
18
100
AcDbEntity
  8
1
100
AcDbLine
 10
24.6
 20
2.493417999161928
 30
0.0
 11
24.6
 21
-2.867535087528425
 31
0.0
  0
LINE
  5
3F6
330
18
100
AcDbEntity
  8
1
100
AcDbLine
 10
22.6
 20
4.4
 30
0.0
 11
24.59999999999999
 21
4.4
 31
0.0
  0
LINE
  5
3F7
330
18
100
AcDbEntity
  8
1
100
AcDbLine
 10
31.10280219406942
 20
4.4
 30
0.0
 11
35.61909432766639
 21
4.4
 31
0.0
  0
LINE
  5
3F8
330
18
100
AcDbEntity
  8
1
100
AcDbLine
 10
24.6
 20
4.323911466018779
 30
0.0
 11
24.99295582527872
 21
4.258506747445109
 31
0.0
  0
LINE
  5
3F9
330
18
100
AcDbEntity
  8
1
100
AcDbLine
 10
24.99295582527872
 20
4.258506747445109
 30
0.0
 11
25.38589503369021
 21
4.173393368138031
 31
0.0
  0
LINE
  5
3FA
330
18
100
AcDbEntity
  8
1
100
AcDbLine
 10
25.38589503369021
 20
4.173393368138031
 30
0.0
 11
25.77883767151557
 21
4.068966055148247
 31
0.0
  0
LINE
  5
3FB
330
18
100
AcDbEntity
  8
1
100
AcDbLine
 10
25.77883767151557
 20
4.068966055148247
 30
0.0
 11
26.17179469191455
 21
3.9457011226845
 31
0.0
  0
LINE
  5
3FC
330
18
100
AcDbEntity
  8
1
100
AcDbLine
 10
26.17179469191455
 20
3.9457011226845
 30
0.0
 11
26.56474622662749
 21
3.804173040433798
 31
0.0
  0
LINE
  5
3FD
330
18
100
AcDbEntity
  8
1
100
AcDbLine
 10
26.56474622662749
 20
3.804173040433798
 30
0.0
 11
26.9576867260337
 21
3.64504262451586
 31
0.0
  0
LINE
  5
3FE
330
18
100
AcDbEntity
  8
1
100
AcDbLine
 10
26.9576867260337
 20
3.64504262451586
 30
0.0
 11
27.35062996595402
 21
3.469041584499238
 31
0.0
  0
LINE
  5
3FF
330
18
100
AcDbEntity
  8
1
100
AcDbLine
 10
27.35062996595402
 20
3.469041584499238
 30
0.0
 11
28.13653776260532
 21
3.069747262118361
 31
0.0
  0
LINE
  5
400
330
18
100
AcDbEntity
  8
1
100
AcDbLine
 10
28.13653776260532
 20
3.069747262118361
 30
0.0
 11
28.92242211821038
 21
2.613699143561688
 31
0.0
  0
LINE
  5
401
330
18
100
AcDbEntity
  8
1
100
AcDbLine
 10
28.92242211821038
 20
2.613699143561688
 30
0.0
 11
29.70832846136661
 21
2.109302816753508
 31
0.0
  0
LINE
  5
402
330
18
100
AcDbEntity
  8
1
100
AcDbLine
 10
29.70832846136661
 20
2.109302816753508
 30
0.0
 11
30.88717255162006
 21
1.282699606738525
 31
0.0
  0
LINE
  5
403
330
18
100
AcDbEntity
  8
1
100
AcDbLine
 10
38.97416697999999
 20
-3.323098077082307
 30
0.0
 11
38.97416698
 21
0.9074457284964238
 31
0.0
  0
LINE
  5
404
330
18
100
AcDbEntity
  8
1
100
AcDbLine
 10
38.97416698000001
 20
0.9074457284964265
 30
0.0
 11
37.00631550733347
 21
2.294183395260823
 31
0.0
  0
LINE
  5
405
330
18
100
AcDbEntity
  8
1
100
AcDbLine
 10
37.00631550733347
 20
2.294183395260823
 30
0.0
 11
36.02239659485694
 21
2.897586150247621
 31
0.0
  0
LINE
  5
406
330
18
100
AcDbEntity
  8
1
100
AcDbLine
 10
36.02239659485694
 20
2.897586150247621
 30
0.0
 11
35.53043775979564
 21
3.168821895829917
 31
0.0
  0
LINE
  5
407
330
18
100
AcDbEntity
  8
1
100
AcDbLine
 10
35.53043775979564
 20
3.168821895829917
 30
0.0
 11
35.03847896248913
 21
3.417073598683725
 31
0.0
  0
LINE
  5
408
330
18
100
AcDbEntity
  8
1
100
AcDbLine
 10
35.03847896248913
 20
3.417073598683725
 30
0.0
 11
34.54651992002793
 21
3.640540766453331
 31
0.0
  0
LINE
  5
409
330
18
100
AcDbEntity
  8
1
100
AcDbLine
 10
34.54651992002793
 20
3.640540766453331
 30
0.0
 11
34.05456035752426
 21
3.837602598753778
 31
0.0
  0
LINE
  5
40A
330
18
100
AcDbEntity
  8
1
100
AcDbLine
 10
34.05456035752426
 20
3.837602598753778
 30
0.0
 11
33.56260001914605
 21
4.006829744456255
 31
0.0
  0
LINE
  5
40B
330
18
100
AcDbEntity
  8
1
100
AcDbLine
 10
33.56260001914605
 20
4.006829744456255
 30
0.0
 11
33.07063867690898
 21
4.146994665401883
 31
0.0
  0
LINE
  5
40C
330
18
100
AcDbEntity
  8
1
100
AcDbLine
 10
33.07063867690898
 20
4.146994665401883
 30
0.0
 11
32.57867615512147
 21
4.257080534613634
 31
0.0
  0
LINE
  5
40D
330
18
100
AcDbEntity
  8
1
100
AcDbLine
 10
32.57867615512147
 20
4.257080534613634
 30
0.0
 11
32.08671217229577
 21
4.336288557954713
 31
0.0
  0
LINE
  5
40E
330
18
100
AcDbEntity
  8
1
100
AcDbLine
 10
32.08671217229577
 20
4.336288557954713
 30
0.0
 11
31.59474736083808
 21
4.384043804619935
 31
0.0
  0
LINE
  5
40F
330
18
100
AcDbEntity
  8
1
100
AcDbLine
 10
31.59474736083808
 20
4.384043804619935
 30
0.0
 11
31.10280219406942
 21
4.400000000000001
 31
0.0
  0
LINE
  5
410
330
18
100
AcDbEntity
  8
1
100
AcDbLine
 10
27.31365317067223
 20
3.486301533153274
 30
0.0
 11
27.78730267755821
 21
3.694506946604448
 31
0.0
  0
LINE
  5
411
330
18
100
AcDbEntity
  8
1
100
AcDbLine
 10
27.78730267755821
 20
3.694506946604448
 30
0.0
 11
28.26095363504213
 21
3.877871980082566
 31
0.0
  0
LINE
  5
412
330
18
100
AcDbEntity
  8
1
100
AcDbLine
 10
28.26095363504213
 20
3.877871980082566
 30
0.0
 11
28.73460116277219
 21
4.035161992771324
 31
0.0
  0
LINE
  5
413
330
18
100
AcDbEntity
  8
1
100
AcDbLine
 10
28.73460116277219
 20
4.035161992771324
 30
0.0
 11
29.20824594245961
 21
4.165320414159254
 31
0.0
  0
LINE
  5
414
330
18
100
AcDbEntity
  8
1
100
AcDbLine
 10
29.20824594245961
 20
4.165320414159254
 30
0.0
 11
29.68188883716464
 21
4.267472953881874
 31
0.0
  0
LINE
  5
415
330
18
100
AcDbEntity
  8
1
100
AcDbLine
 10
29.68188883716464
 20
4.267472953881874
 30
0.0
 11
30.15553074786477
 21
4.340933332389652
 31
0.0
  0
LINE
  5
416
330
18
100
AcDbEntity
  8
1
100
AcDbLine
 10
30.15553074786477
 20
4.340933332389652
 30
0.0
 11
30.62917257332219
 21
4.385207910989275
 31
0.0
  0
LINE
  5
417
330
18
100
AcDbEntity
  8
1
100
AcDbLine
 10
30.62917257332219
 20
4.385207910989275
 30
0.0
 11
31.10280219406942
 21
4.400000000000001
 31
0.0
  0
LINE
  5
418
330
18
100
AcDbEntity
  8
1
100
AcDbLine
 10
24.59999999999999
 20
4.4
 30
0.0
 11
24.59999999999999
 21
4.399982611233447
 31
0.0
  0
LINE
  5
419
330
18
100
AcDbEntity
  8
1
100
AcDbLine
 10
24.59999999999999
 20
4.399982611233447
 30
0.0
 11
24.6
 21
4.394882654810502
 31
0.0
  0
LINE
  5
41A
330
18
100
AcDbEntity
  8
1
100
AcDbLine
 10
24.6
 20
4.394882654810502
 30
0.0
 11
24.6
 21
4.323911466018779
 31
0.0
  0
LINE
  5
41B
330
18
100
AcDbEntity
  8
1
100
AcDbLine
 10
38.97416698
 20
3.678044065247779
 30
0.0
 11
38.97416698
 21
0.9074457284964188
 31
0.0
  0
LINE
  5
41C
330
18
100
AcDbEntity
  8
1
100
AcDbLine
 10
38.97416697999999
 20
-3.930431578975756
 30
0.0
 11
38.97416697999999
 21
-3.323098077082307
 31
0.0
  0
LINE
  5
41D
330
18
100
AcDbEntity
  8
1
100
AcDbLine
 10
38.97416698
 20
-3.930431578975757
 30
0.0
 11
38.97416698
 21
-4.37319243862576
 31
0.0
  0
LINE
  5
41E
330
18
100
AcDbEntity
  8
1
100
AcDbLine
 10
38.97416698
 20
-4.37319243862576
 30
0.0
 11
38.97416698
 21
-4.4
 31
0.0
  0
LINE
  5
41F
330
18
100
AcDbEntity
  8
1
100
AcDbLine
 10
-0.0000000000000013
 20
-4.6609
 30
0.0
 11
22.6
 21
-4.6609
 31
0.0
  0
LINE
  5
420
330
18
100
AcDbEntity
  8
1
100
AcDbLine
 10
28.94060770981948
 20
-0.653942579026714
 30
0.0
 11
30.99297929324169
 21
-2.127138312412019
 31
0.0
  0
LINE
  5
421
330
18
100
AcDbEntity
  8
1
100
AcDbLine
 10
30.99297929324169
 20
-2.127138312412019
 30
0.0
 11
32.0191649857037
 21
-2.774493668778715
 31
0.0
  0
LINE
  5
422
330
18
100
AcDbEntity
  8
1
100
AcDbLine
 10
32.0191649857037
 20
-2.774493668778715
 30
0.0
 11
32.53225792470828
 21
-3.066576472550168
 31
0.0
  0
LINE
  5
423
330
18
100
AcDbEntity
  8
1
100
AcDbLine
 10
32.53225792470828
 20
-3.066576472550168
 30
0.0
 11
33.04535094431918
 21
-3.334466025411212
 31
0.0
  0
LINE
  5
424
330
18
100
AcDbEntity
  8
1
100
AcDbLine
 10
33.04535094431918
 20
-3.334466025411212
 30
0.0
 11
33.55844404715217
 21
-3.576048865029117
 31
0.0
  0
LINE
  5
425
330
18
100
AcDbEntity
  8
1
100
AcDbLine
 10
33.55844404715217
 20
-3.576048865029117
 30
0.0
 11
34.07153723532804
 21
-3.78941905892172
 31
0.0
  0
LINE
  5
426
330
18
100
AcDbEntity
  8
1
100
AcDbLine
 10
34.07153723532804
 20
-3.78941905892172
 30
0.0
 11
34.58463051491989
 21
-3.972893238350657
 31
0.0
  0
LINE
  5
427
330
18
100
AcDbEntity
  8
1
100
AcDbLine
 10
34.58463051491989
 20
-3.972893238350657
 30
0.0
 11
35.09772389759678
 21
-4.125023880515724
 31
0.0
  0
LINE
  5
428
330
18
100
AcDbEntity
  8
1
100
AcDbLine
 10
35.09772389759678
 20
-4.125023880515724
 30
0.0
 11
35.61081741116315
 21
-4.244610728158327
 31
0.0
  0
LINE
  5
429
330
18
100
AcDbEntity
  8
1
100
AcDbLine
 10
35.61081741116315
 20
-4.244610728158327
 30
0.0
 11
36.12391112509349
 21
-4.330710267063631
 31
0.0
  0
LINE
  5
42A
330
18
100
AcDbEntity
  8
1
100
AcDbLine
 10
36.12391112509349
 20
-4.330710267063631
 30
0.0
 11
36.63700502792826
 21
-4.382643212025277
 31
0.0
  0
LINE
  5
42B
330
18
100
AcDbEntity
  8
1
100
AcDbLine
 10
36.63700502792826
 20
-4.382643212025277
 30
0.0
 11
37.15009724105591
 21
-4.399999999992808
 31
0.0
  0
LINE
  5
42C
330
18
100
AcDbEntity
  8
1
100
AcDbLine
 10
22.6
 20
-4.4
 30
0.0
 11
24.59999999999999
 21
-4.4
 31
0.0
  0
LINE
  5
42D
330
18
100
AcDbEntity
  8
1
100
AcDbLine
 10
29.57179925237655
 20
-4.399999999983532
 30
0.0
 11
30.04544779460601
 21
-4.385207697141021
 31
0.0
  0
LINE
  5
42E
330
18
100
AcDbEntity
  8
1
100
AcDbLine
 10
30.04544779460601
 20
-4.385207697141021
 30
0.0
 11
30.5190928901414
 21
-4.340931145274651
 31
0.0
  0
LINE
  5
42F
330
18
100
AcDbEntity
  8
1
100
AcDbLine
 10
30.5190928901414
 20
-4.340931145274651
 30
0.0
 11
30.99273559509076
 21
-4.267468700519295
 31
0.0
  0
LINE
  5
430
330
18
100
AcDbEntity
  8
1
100
AcDbLine
 10
30.99273559509076
 20
-4.267468700519295
 30
0.0
 11
31.46637694134642
 21
-4.165314630185922
 31
0.0
  0
LINE
  5
431
330
18
100
AcDbEntity
  8
1
100
AcDbLine
 10
31.46637694134642
 20
-4.165314630185922
 30
0.0
 11
31.94001787636067
 21
-4.035155732643021
 31
0.0
  0
LINE
  5
432
330
18
100
AcDbEntity
  8
1
100
AcDbLine
 10
31.94001787636067
 20
-4.035155732643021
 30
0.0
 11
32.4136593683506
 21
-3.877866783014797
 31
0.0
  0
LINE
  5
433
330
18
100
AcDbEntity
  8
1
100
AcDbLine
 10
32.4136593683506
 20
-3.877866783014797
 30
0.0
 11
32.8873024181115
 21
-3.694504726290321
 31
0.0
  0
LINE
  5
434
330
18
100
AcDbEntity
  8
1
100
AcDbLine
 10
32.8873024181115
 20
-3.694504726290321
 30
0.0
 11
33.360948022524
 21
-3.486301618250883
 31
0.0
  0
LINE
  5
435
330
18
100
AcDbEntity
  8
1
100
AcDbLine
 10
25.05550520610393
 20
-4.4
 30
0.0
 11
29.57179925237655
 21
-4.4
 31
0.0
  0
LINE
  5
436
330
18
100
AcDbEntity
  8
1
100
AcDbLine
 10
37.1500972410559
 20
-4.4
 30
0.0
 11
38.97416698
 21
-4.4
 31
0.0
  0
LINE
  5
437
330
18
100
AcDbEntity
  8
1
100
AcDbLine
 10
30.88717255162006
 20
1.282699606738525
 30
0.0
 11
34.93065890735267
 21
-1.731190202730764
 31
0.0
  0
LINE
  5
438
330
18
100
AcDbEntity
  8
1
100
AcDbLine
 10
34.93065890735267
 20
-1.731190202730764
 30
0.0
 11
35.94153350152698
 21
-2.409224906792046
 31
0.0
  0
LINE
  5
439
330
18
100
AcDbEntity
  8
1
100
AcDbLine
 10
35.94153350152698
 20
-2.409224906792046
 30
0.0
 11
36.95240952817451
 21
-3.013623058018455
 31
0.0
  0
LINE
  5
43A
330
18
100
AcDbEntity
  8
1
100
AcDbLine
 10
36.95240952817451
 20
-3.013623058018455
 30
0.0
 11
37.45784820113905
 21
-3.282331640182678
 31
0.0
  0
LINE
  5
43B
330
18
100
AcDbEntity
  8
1
100
AcDbLine
 10
37.45784820113905
 20
-3.282331640182678
 30
0.0
 11
37.96328726858316
 21
-3.525911460515352
 31
0.0
  0
LINE
  5
43C
330
18
100
AcDbEntity
  8
1
100
AcDbLine
 10
37.96328726858316
 20
-3.525911460515352
 30
0.0
 11
38.46872680871233
 21
-3.74249754684779
 31
0.0
  0
LINE
  5
43D
330
18
100
AcDbEntity
  8
1
100
AcDbLine
 10
38.46872680871233
 20
-3.74249754684779
 30
0.0
 11
38.97416698000001
 21
-3.930431578975754
 31
0.0
  0
LINE
  5
43E
330
18
100
AcDbEntity
  8
1
 62
     1
100
AcDbLine
 10
44.87113247308103
 20
6.35
 30
0.0
 11
44.92886752691897
 21
6.35
 31
0.0
  0
LINE
  5
43F
330
18
100
AcDbEntity
  8
1
 62
     1
100
AcDbLine
 10
46.82497862692718
 20
6.35
 30
0.0
 11
46.88271368076515
 21
6.35
 31
0.0
  0
LINE
  5
440
330
18
100
AcDbEntity
  8
1
 62
     1
100
AcDbLine
 10
40.96344016538873
 20
-6.350000000000006
 30
0.0
 11
40.01538461538462
 21
-4.707920384615385
 31
0.0
  0
LINE
  5
441
330
18
100
AcDbEntity
  8
1
 62
     1
100
AcDbLine
 10
50.73267093461949
 20
-6.349999999999993
 30
0.0
 11
49.78461538461539
 21
-4.707920384615385
 31
0.0
  0
ARC
  5
442
330
18
100
AcDbEntity
  8
1
 62
     1
100
AcDbCircle
 10
68.34371931971812
 20
13.43691114196131
 30
0.0
 40
17.96734548750079
100
AcDbArc
 50
227.4448777402972
 51
231.9181004085606
  0
LINE
  5
443
330
18
100
AcDbEntity
  8
1
 62
     1
100
AcDbLine
 10
56.1922100666208
 20
0.201452377542668
 30
0.0
 11
56.1922100666208
 21
-3.567913557926549
 31
0.0
  0
ARC
  5
444
330
18
100
AcDbEntity
  8
1
 62
     1
100
AcDbCircle
 10
59.61279634542134
 20
3.194635907996878
 30
0.0
 40
7.578090446394668
100
AcDbArc
 50
243.1691148395097
 51
251.9258073396453
  0
LINE
  5
445
330
18
100
AcDbEntity
  8
1
 62
     1
100
AcDbLine
 10
54.83676650666919
 20
1.529363451609145
 30
0.0
 11
54.55620215225612
 21
1.823522875804556
 31
0.0
  0
LINE
  5
446
330
18
100
AcDbEntity
  8
1
 62
     1
100
AcDbLine
 10
54.55620215225611
 20
1.823522875804556
 30
0.0
 11
54.55620215225611
 21
-2.542974959528111
 31
0.0
  0
LINE
  5
447
330
18
100
AcDbEntity
  8
1
 62
     1
100
AcDbLine
 10
54.83676650666919
 20
-2.746864967475427
 30
0.0
 11
54.55620215225612
 21
-2.54297495952809
 31
0.0
  0
LINE
  5
448
330
18
100
AcDbEntity
  8
1
 62
     1
100
AcDbLine
 10
54.83676650666916
 20
1.529363451609147
 30
0.0
 11
54.83676650666916
 21
-2.746864967475423
 31
0.0
  0
ARC
  5
449
330
18
100
AcDbEntity
  8
1
 62
     1
100
AcDbCircle
 10
112.5084781433848
 20
-36.90888503310358
 30
0.0
 40
65.48546155101914
100
AcDbArc
 50
150.264436263904
 51
151.7243639172098
  0
ARC
  5
44A
330
18
100
AcDbEntity
  8
1
 62
     1
100
AcDbCircle
 10
59.86556171153923
 20
-0.9054840981904797
 30
0.0
 40
5.496667819556929
100
AcDbArc
 50
219.8595131910085
 51
228.0608616102078
  0
ARC
  5
44B
330
18
100
AcDbEntity
  8
1
 62
     1
100
AcDbCircle
 10
74.58402127356884
 20
-14.57668491876784
 30
0.0
 40
20.19722016771876
100
AcDbArc
 50
147.8491758997528
 51
149.0545550744865
  0
LINE
  5
44C
330
18
100
AcDbEntity
  8
1
 62
     1
100
AcDbLine
 10
52.68651708846566
 20
3.675307817809634
 30
0.0
 11
52.68651708846566
 21
-0.6731884325602464
 31
0.0
  0
LINE
  5
44D
330
18
100
AcDbEntity
  8
1
 62
     1
100
AcDbLine
 10
49.78461538461539
 20
-4.707920384615385
 30
0.0
 11
49.21821473456024
 21
-5.688954630543408
 31
0.0
  0
LINE
  5
44E
330
18
100
AcDbEntity
  8
1
 62
     1
100
AcDbLine
 10
49.78461538461539
 20
-4.707920384615385
 30
0.0
 11
49.78461538461539
 21
-4.707707534994019
 31
0.0
  0
LINE
  5
44F
330
18
100
AcDbEntity
  8
1
 62
     1
100
AcDbLine
 10
49.78461538461539
 20
-4.707707534994019
 30
0.0
 11
49.78461538461539
 21
-4.642791099300943
 31
0.0
  0
LINE
  5
450
330
18
100
AcDbEntity
  8
1
 62
     1
100
AcDbLine
 10
49.78461538461539
 20
-4.642791099300943
 30
0.0
 11
49.78461538461539
 21
-3.693953655115245
 31
0.0
  0
LINE
  5
451
330
18
100
AcDbEntity
  8
1
 62
     1
100
AcDbLine
 10
48.83655983461129
 20
-4.601252746478746
 30
0.0
 11
49.06882278845536
 21
-4.415847597311051
 31
0.0
  0
LINE
  5
452
330
18
100
AcDbEntity
  8
1
 62
     1
100
AcDbLine
 10
49.06882278845536
 20
-4.415847597311051
 30
0.0
 11
49.30442519750147
 21
-4.202548124946185
 31
0.0
  0
LINE
  5
453
330
18
100
AcDbEntity
  8
1
 62
     1
100
AcDbLine
 10
49.30442519750147
 20
-4.202548124946185
 30
0.0
 11
49.54314033912415
 21
-3.961714517008769
 31
0.0
  0
LINE
  5
454
330
18
100
AcDbEntity
  8
1
 62
     1
100
AcDbLine
 10
49.54314033912415
 20
-3.961714517008769
 30
0.0
 11
49.78461538461539
 21
-3.693953655115245
 31
0.0
  0
LINE
  5
455
330
18
100
AcDbEntity
  8
1
 62
     1
100
AcDbLine
 10
48.83655983461129
 20
-4.601252746478758
 30
0.0
 11
48.83655983461128
 21
-6.34568281596066
 31
0.0
  0
ARC
  5
456
330
18
100
AcDbEntity
  8
1
 62
     1
100
AcDbCircle
 10
-514.7524058057818
 20
-263.0290403410154
 30
0.0
 40
621.2542359300693
100
AcDbArc
 50
24.46273718413903
 51
24.67294217365651
  0
LINE
  5
457
330
18
100
AcDbEntity
  8
1
 62
     1
100
AcDbLine
 10
50.79040598845742
 20
-5.792952456862715
 30
0.0
 11
51.25827991334011
 21
-5.162250614269216
 31
0.0
  0
LINE
  5
458
330
18
100
AcDbEntity
  8
1
 62
     1
100
AcDbLine
 10
51.25827991334011
 20
-5.162250614269216
 30
0.0
 11
51.73846153846154
 21
-4.453340670984151
 31
0.0
  0
LINE
  5
459
330
18
100
AcDbEntity
  8
1
 62
     1
100
AcDbLine
 10
50.79040598845744
 20
-5.792952456862743
 30
0.0
 11
50.79040598845745
 21
-6.35
 31
0.0
  0
LINE
  5
45A
330
18
100
AcDbEntity
  8
1
 62
     1
100
AcDbLine
 10
51.73846153846154
 20
-4.707920384615385
 30
0.0
 11
50.79040598845745
 21
-6.349999999999969
 31
0.0
  0
LINE
  5
45B
330
18
100
AcDbEntity
  8
1
 62
     1
100
AcDbLine
 10
51.73846153846154
 20
-4.707920384615385
 30
0.0
 11
51.73846153846155
 21
-4.707864377041252
 31
0.0
  0
LINE
  5
45C
330
18
100
AcDbEntity
  8
1
 62
     1
100
AcDbLine
 10
51.73846153846155
 20
-4.707864377041252
 30
0.0
 11
51.73846153846155
 21
-4.691227521312411
 31
0.0
  0
LINE
  5
45D
330
18
100
AcDbEntity
  8
1
 62
     1
100
AcDbLine
 10
51.73846153846155
 20
-4.691227521312411
 30
0.0
 11
51.73846153846156
 21
-4.453340670984061
 31
0.0
  0
LINE
  5
45E
330
18
100
AcDbEntity
  8
1
 62
     1
100
AcDbLine
 10
53.69230769230769
 20
-4.707770400340054
 30
0.0
 11
54.12768599422498
 21
-5.421241988112706
 31
0.0
  0
LINE
  5
45F
330
18
100
AcDbEntity
  8
1
 62
     1
100
AcDbLine
 10
54.12768599422498
 20
-5.421241988112706
 30
0.0
 11
54.55620215225611
 21
-6.047461423681786
 31
0.0
  0
ARC
  5
460
330
18
100
AcDbEntity
  8
1
 62
     1
100
AcDbCircle
 10
-23.76212889992858
 20
39.46620480208898
 30
0.0
 40
89.16461120030718
100
AcDbArc
 50
329.0967584318982
 51
330.1626362582762
  0
LINE
  5
461
330
18
100
AcDbEntity
  8
1
 62
     1
100
AcDbLine
 10
52.74425214230359
 20
-6.327798688336526
 30
0.0
 11
52.74425214230359
 21
-6.35
 31
0.0
  0
LINE
  5
462
330
18
100
AcDbEntity
  8
1
 62
     1
100
AcDbLine
 10
53.5832046685968
 20
-4.896892276833847
 30
0.0
 11
52.74425214230359
 21
-6.350000000000006
 31
0.0
  0
ARC
  5
463
330
18
100
AcDbEntity
  8
1
 62
     1
100
AcDbCircle
 10
-447.2450960433712
 20
342.7844091765464
 30
0.0
 40
604.7715744122146
100
AcDbArc
 50
324.7904163529441
 51
324.9466220113924
  0
LINE
  5
464
330
18
100
AcDbEntity
  8
1
 62
     1
100
AcDbLine
 10
46.88271368076514
 20
-2.887824367738847
 30
0.0
 11
46.99841992119831
 21
-2.869331599991688
 31
0.0
  0
LINE
  5
465
330
18
100
AcDbEntity
  8
1
 62
     1
100
AcDbLine
 10
46.99841992119831
 20
-2.869331599991688
 30
0.0
 11
47.11497665939952
 21
-2.842969119073278
 31
0.0
  0
LINE
  5
466
330
18
100
AcDbEntity
  8
1
 62
     1
100
AcDbLine
 10
47.11497665939952
 20
-2.842969119073278
 30
0.0
 11
47.23237775847815
 21
-2.808650818596285
 31
0.0
  0
LINE
  5
467
330
18
100
AcDbEntity
  8
1
 62
     1
100
AcDbLine
 10
47.23237775847815
 20
-2.808650818596285
 30
0.0
 11
47.35057906544315
 21
-2.766313225013119
 31
0.0
  0
LINE
  5
468
330
18
100
AcDbEntity
  8
1
 62
     1
100
AcDbLine
 10
47.35057906544315
 20
-2.766313225013119
 30
0.0
 11
47.46957330781633
 21
-2.715886870775061
 31
0.0
  0
LINE
  5
469
330
18
100
AcDbEntity
  8
1
 62
     1
100
AcDbLine
 10
47.46957330781633
 20
-2.715886870775061
 30
0.0
 11
47.58929414887177
 21
-2.657336237558739
 31
0.0
  0
LINE
  5
46A
330
18
100
AcDbEntity
  8
1
 62
     1
100
AcDbLine
 10
47.58929414887177
 20
-2.657336237558739
 30
0.0
 11
47.70971079253308
 21
-2.590619830180577
 31
0.0
  0
LINE
  5
46B
330
18
100
AcDbEntity
  8
1
 62
     1
100
AcDbLine
 10
47.70971079253308
 20
-2.590619830180577
 30
0.0
 11
47.83076923076923
 21
-2.515714935633807
 31
0.0
  0
LINE
  5
46C
330
18
100
AcDbEntity
  8
1
 62
     1
100
AcDbLine
 10
46.88271368076516
 20
-2.887824367738865
 30
0.0
 11
46.88271368076516
 21
-5.908211053132804
 31
0.0
  0
LINE
  5
46D
330
18
100
AcDbEntity
  8
1
 62
     1
100
AcDbLine
 10
47.83076923076923
 20
-4.559249435581065
 30
0.0
 11
48.77882478077336
 21
-6.343025074476136
 31
0.0
  0
ARC
  5
46E
330
18
100
AcDbEntity
  8
1
 62
     1
100
AcDbCircle
 10
-0.107528833845663
 20
-26.00115865430277
 30
0.0
 40
53.38218508272719
100
AcDbArc
 50
23.68454929889521
 51
26.10068803076164
  0
LINE
  5
46F
330
18
100
AcDbEntity
  8
1
 62
     1
100
AcDbLine
 10
47.83076923076924
 20
-4.55924943558106
 30
0.0
 11
47.83076923076923
 21
-2.515714935634067
 31
0.0
  0
ARC
  5
470
330
18
100
AcDbEntity
  8
1
 62
     1
100
AcDbCircle
 10
99.65185192344337
 20
18.65937411382982
 30
0.0
 40
53.19661241996512
100
AcDbArc
 50
205.7519777890236
 51
208.0091684987321
  0
LINE
  5
471
330
18
100
AcDbEntity
  8
1
 62
     1
100
AcDbLine
 10
52.68651708846566
 20
-6.350000000000006
 30
0.0
 11
51.73846153846154
 21
-4.707920384615385
 31
0.0
  0
LINE
  5
472
330
18
100
AcDbEntity
  8
1
 62
     1
100
AcDbLine
 10
44.92886752691898
 20
-4.80081654667273
 30
0.0
 11
45.87692307692308
 21
-3.911159664326673
 31
0.0
  0
LINE
  5
473
330
18
100
AcDbEntity
  8
1
 62
     1
100
AcDbLine
 10
44.92886752691896
 20
-0.8469499494425855
 30
0.0
 11
45.04457372757533
 21
-0.901266122936034
 31
0.0
  0
LINE
  5
474
330
18
100
AcDbEntity
  8
1
 62
     1
100
AcDbLine
 10
45.04457372757533
 20
-0.901266122936034
 30
0.0
 11
45.16113045317277
 21
-0.94773119639985
 31
0.0
  0
LINE
  5
475
330
18
100
AcDbEntity
  8
1
 62
     1
100
AcDbLine
 10
45.16113045317277
 20
-0.94773119639985
 30
0.0
 11
45.27853159459976
 21
-0.986171090623734
 31
0.0
  0
LINE
  5
476
330
18
100
AcDbEntity
  8
1
 62
     1
100
AcDbLine
 10
45.27853159459976
 20
-0.986171090623734
 30
0.0
 11
45.39673293342697
 21
-1.016410329716541
 31
0.0
  0
LINE
  5
477
330
18
100
AcDbEntity
  8
1
 62
     1
100
AcDbLine
 10
45.39673293342697
 20
-1.016410329716541
 30
0.0
 11
45.51572716599546
 21
-1.038289441392268
 31
0.0
  0
LINE
  5
478
330
18
100
AcDbEntity
  8
1
 62
     1
100
AcDbLine
 10
45.51572716599546
 20
-1.038289441392268
 30
0.0
 11
45.57549680391746
 21
-1.046042559874114
 31
0.0
  0
LINE
  5
479
330
18
100
AcDbEntity
  8
1
 62
     1
100
AcDbLine
 10
45.57549680391746
 20
-1.046042559874114
 30
0.0
 11
45.63544797968475
 21
-1.051646752807472
 31
0.0
  0
LINE
  5
47A
330
18
100
AcDbEntity
  8
1
 62
     1
100
AcDbLine
 10
45.63544797968475
 20
-1.051646752807472
 30
0.0
 11
45.69557315975992
 21
-1.055084412383862
 31
0.0
  0
LINE
  5
47B
330
18
100
AcDbEntity
  8
1
 62
     1
100
AcDbLine
 10
45.69557315975992
 20
-1.055084412383862
 30
0.0
 11
45.75586460883266
 21
-1.056337351816062
 31
0.0
  0
LINE
  5
47C
330
18
100
AcDbEntity
  8
1
 62
     1
100
AcDbLine
 10
45.75586460883266
 20
-1.056337351816062
 30
0.0
 11
45.81631992428291
 21
-1.055389110933583
 31
0.0
  0
LINE
  5
47D
330
18
100
AcDbEntity
  8
1
 62
     1
100
AcDbLine
 10
45.81631992428291
 20
-1.055389110933583
 30
0.0
 11
45.87692307692309
 21
-1.052223451352107
 31
0.0
  0
LINE
  5
47E
330
18
100
AcDbEntity
  8
1
 62
     1
100
AcDbLine
 10
44.92886752691897
 20
-0.8469499494426349
 30
0.0
 11
44.92886752691897
 21
-4.800816546672696
 31
0.0
  0
LINE
  5
47F
330
18
100
AcDbEntity
  8
1
 62
     1
100
AcDbLine
 10
43.92307692307692
 20
-2.819589681462641
 30
0.0
 11
44.179372000066
 21
-3.26444978161818
 31
0.0
  0
LINE
  5
480
330
18
100
AcDbEntity
  8
1
 62
     1
100
AcDbLine
 10
44.179372000066
 20
-3.26444978161818
 30
0.0
 11
44.42264673218133
 21
-3.744744191913129
 31
0.0
  0
LINE
  5
481
330
18
100
AcDbEntity
  8
1
 62
     1
100
AcDbLine
 10
44.42264673218133
 20
-3.744744191913129
 30
0.0
 11
44.87113247308103
 21
-4.759023281371614
 31
0.0
  0
LINE
  5
482
330
18
100
AcDbEntity
  8
1
 62
     1
100
AcDbLine
 10
44.87113247308103
 20
-0.7839893796526974
 30
0.0
 11
44.87113247308103
 21
-4.759023281371611
 31
0.0
  0
LINE
  5
483
330
18
100
AcDbEntity
  8
1
 62
     1
100
AcDbLine
 10
43.92307692307692
 20
0.5305776951359729
 30
0.0
 11
44.16312133149317
 21
0.2482227725977127
 31
0.0
  0
LINE
  5
484
330
18
100
AcDbEntity
  8
1
 62
     1
100
AcDbLine
 10
44.16312133149317
 20
0.2482227725977127
 30
0.0
 11
44.4013395442104
 21
-0.0664975986280258
 31
0.0
  0
LINE
  5
485
330
18
100
AcDbEntity
  8
1
 62
     1
100
AcDbLine
 10
44.4013395442104
 20
-0.0664975986280258
 30
0.0
 11
44.63742715619779
 21
-0.4113451561887448
 31
0.0
  0
LINE
  5
486
330
18
100
AcDbEntity
  8
1
 62
     1
100
AcDbLine
 10
44.63742715619779
 20
-0.4113451561887448
 30
0.0
 11
44.87113247308103
 21
-0.783989379652701
 31
0.0
  0
LINE
  5
487
330
18
100
AcDbEntity
  8
1
 62
     1
100
AcDbLine
 10
43.92307692307692
 20
-2.81958968146264
 30
0.0
 11
43.92307692307693
 21
0.5305776951359774
 31
0.0
  0
LINE
  5
488
330
18
100
AcDbEntity
  8
1
 62
     1
100
AcDbLine
 10
42.97502137307281
 20
-3.149064771371767
 30
0.0
 11
43.21759050638315
 21
-3.052013278085763
 31
0.0
  0
LINE
  5
489
330
18
100
AcDbEntity
  8
1
 62
     1
100
AcDbLine
 10
43.21759050638315
 20
-3.052013278085763
 30
0.0
 11
43.92307692307692
 21
-2.819589681462641
 31
0.0
  0
LINE
  5
48A
330
18
100
AcDbEntity
  8
1
 62
     1
100
AcDbLine
 10
42.97502137307282
 20
1.289958931973716
 30
0.0
 11
42.9817625913406
 21
1.282699860926883
 31
0.0
  0
LINE
  5
48B
330
18
100
AcDbEntity
  8
1
 62
     1
100
AcDbLine
 10
42.97502137307282
 20
1.289958931973713
 30
0.0
 11
42.97502137307281
 21
-3.149064771371794
 31
0.0
  0
LINE
  5
48C
330
18
100
AcDbEntity
  8
1
 62
     1
100
AcDbLine
 10
41.96923076923078
 20
-1.408310852000608
 30
0.0
 11
42.0989668430837
 21
-1.574155462969822
 31
0.0
  0
LINE
  5
48D
330
18
100
AcDbEntity
  8
1
 62
     1
100
AcDbLine
 10
42.0989668430837
 20
-1.574155462969822
 30
0.0
 11
42.22549654226611
 21
-1.756419068295144
 31
0.0
  0
LINE
  5
48E
330
18
100
AcDbEntity
  8
1
 62
     1
100
AcDbLine
 10
42.22549654226611
 20
-1.756419068295144
 30
0.0
 11
42.34875627111558
 21
-1.953070652282604
 31
0.0
  0
LINE
  5
48F
330
18
100
AcDbEntity
  8
1
 62
     1
100
AcDbLine
 10
42.34875627111558
 20
-1.953070652282604
 30
0.0
 11
42.46876933616667
 21
-2.162313762545932
 31
0.0
  0
LINE
  5
490
330
18
100
AcDbEntity
  8
1
 62
     1
100
AcDbLine
 10
42.46876933616667
 20
-2.162313762545932
 30
0.0
 11
42.69918933051591
 21
-2.611986102191622
 31
0.0
  0
LINE
  5
491
330
18
100
AcDbEntity
  8
1
 62
     1
100
AcDbLine
 10
42.69918933051591
 20
-2.611986102191622
 30
0.0
 11
42.91728631923488
 21
-3.093778446052641
 31
0.0
  0
LINE
  5
492
330
18
100
AcDbEntity
  8
1
 62
     1
100
AcDbLine
 10
41.96923076923078
 20
2.053217647975021
 30
0.0
 11
42.08945711916428
 21
1.997827873967252
 31
0.0
  0
LINE
  5
493
330
18
100
AcDbEntity
  8
1
 62
     1
100
AcDbLine
 10
42.08945711916428
 20
1.997827873967252
 30
0.0
 11
42.20927229680115
 21
1.932834967285443
 31
0.0
  0
LINE
  5
494
330
18
100
AcDbEntity
  8
1
 62
     1
100
AcDbLine
 10
42.20927229680115
 20
1.932834967285443
 30
0.0
 11
42.32863694347107
 21
1.858416399662416
 31
0.0
  0
LINE
  5
495
330
18
100
AcDbEntity
  8
1
 62
     1
100
AcDbLine
 10
42.32863694347107
 20
1.858416399662416
 30
0.0
 11
42.44749831420847
 21
1.774770545226122
 31
0.0
  0
LINE
  5
496
330
18
100
AcDbEntity
  8
1
 62
     1
100
AcDbLine
 10
42.44749831420847
 20
1.774770545226122
 30
0.0
 11
42.56582129898333
 21
1.682100723032031
 31
0.0
  0
LINE
  5
497
330
18
100
AcDbEntity
  8
1
 62
     1
100
AcDbLine
 10
42.56582129898333
 20
1.682100723032031
 30
0.0
 11
42.68358262239498
 21
1.58060897766269
 31
0.0
  0
LINE
  5
498
330
18
100
AcDbEntity
  8
1
 62
     1
100
AcDbLine
 10
42.68358262239498
 20
1.58060897766269
 30
0.0
 11
42.80074403271365
 21
1.470520809150662
 31
0.0
  0
LINE
  5
499
330
18
100
AcDbEntity
  8
1
 62
     1
100
AcDbLine
 10
42.80074403271365
 20
1.470520809150662
 30
0.0
 11
42.91728631923488
 21
1.352056154776527
 31
0.0
  0
LINE
  5
49A
330
18
100
AcDbEntity
  8
1
 62
     1
100
AcDbLine
 10
41.96923076923077
 20
-1.408310852000607
 30
0.0
 11
41.96923076923076
 21
2.053217647975021
 31
0.0
  0
LINE
  5
49B
330
18
100
AcDbEntity
  8
1
 62
     1
100
AcDbLine
 10
45.87692307692308
 20
-3.911159664326673
 30
0.0
 11
46.37649296403968
 21
-4.902507240960338
 31
0.0
  0
LINE
  5
49C
330
18
100
AcDbEntity
  8
1
 62
     1
100
AcDbLine
 10
46.37649296403968
 20
-4.902507240960338
 30
0.0
 11
46.82497862692719
 21
-5.884649823003267
 31
0.0
  0
LINE
  5
49D
330
18
100
AcDbEntity
  8
1
 62
     1
100
AcDbLine
 10
46.82497862692719
 20
-2.831139584607198
 30
0.0
 11
46.8249786269272
 21
-5.884649822936684
 31
0.0
  0
LINE
  5
49E
330
18
100
AcDbEntity
  8
1
 62
     1
100
AcDbLine
 10
45.87692307692309
 20
-1.052223451352107
 30
0.0
 11
46.35519051692222
 21
-1.900238722156527
 31
0.0
  0
LINE
  5
49F
330
18
100
AcDbEntity
  8
1
 62
     1
100
AcDbLine
 10
46.35519051692222
 20
-1.900238722156527
 30
0.0
 11
46.82497862692719
 21
-2.831139584607206
 31
0.0
  0
LINE
  5
4A0
330
18
100
AcDbEntity
  8
1
 62
     1
100
AcDbLine
 10
45.87692307692307
 20
-3.911159664326672
 30
0.0
 11
45.87692307692309
 21
-1.052223451352539
 31
0.0
  0
LINE
  5
4A1
330
18
100
AcDbEntity
  8
1
 62
     1
100
AcDbLine
 10
41.02117521922668
 20
-1.140245702371188
 30
0.0
 11
41.26374435284143
 21
-1.191430270763093
 31
0.0
  0
LINE
  5
4A2
330
18
100
AcDbEntity
  8
1
 62
     1
100
AcDbLine
 10
41.26374435284143
 20
-1.191430270763093
 30
0.0
 11
41.50289985247518
 21
-1.255349528300037
 31
0.0
  0
LINE
  5
4A3
330
18
100
AcDbEntity
  8
1
 62
     1
100
AcDbLine
 10
41.50289985247518
 20
-1.255349528300037
 30
0.0
 11
41.73825601739109
 21
-1.328506440789556
 31
0.0
  0
LINE
  5
4A4
330
18
100
AcDbEntity
  8
1
 62
     1
100
AcDbLine
 10
41.73825601739109
 20
-1.328506440789556
 30
0.0
 11
41.96923076923078
 21
-1.408310852000608
 31
0.0
  0
LINE
  5
4A5
330
18
100
AcDbEntity
  8
1
 62
     1
100
AcDbLine
 10
41.02117521922668
 20
3.280601206818107
 30
0.0
 11
41.25344327809565
 21
2.93804010590608
 31
0.0
  0
LINE
  5
4A6
330
18
100
AcDbEntity
  8
1
 62
     1
100
AcDbLine
 10
41.25344327809565
 20
2.93804010590608
 30
0.0
 11
41.48904914293386
 21
2.617644316104693
 31
0.0
  0
LINE
  5
4A7
330
18
100
AcDbEntity
  8
1
 62
     1
100
AcDbLine
 10
41.48904914293386
 20
2.617644316104693
 30
0.0
 11
41.72775219666508
 21
2.321882858141778
 31
0.0
  0
LINE
  5
4A8
330
18
100
AcDbEntity
  8
1
 62
     1
100
AcDbLine
 10
41.72775219666508
 20
2.321882858141778
 30
0.0
 11
41.96923076923078
 21
2.053217647975021
 31
0.0
  0
LINE
  5
4A9
330
18
100
AcDbEntity
  8
1
 62
     1
100
AcDbLine
 10
41.02117521922668
 20
3.280601206750236
 30
0.0
 11
41.0211752192267
 21
-1.140245702371212
 31
0.0
  0
LINE
  5
4AA
330
18
100
AcDbEntity
  8
1
 62
     1
100
AcDbLine
 10
39.58366465418919
 20
0.5677058125761706
 30
0.0
 11
39.67316319976952
 21
0.4867849775880229
 31
0.0
  0
LINE
  5
4AB
330
18
100
AcDbEntity
  8
1
 62
     1
100
AcDbLine
 10
39.67316319976952
 20
0.4867849775880229
 30
0.0
 11
39.67443172971159
 21
0.4856261385147221
 31
0.0
  0
LINE
  5
4AC
330
18
100
AcDbEntity
  8
1
 62
     1
100
AcDbLine
 10
39.67443172971159
 20
0.485626138514722
 30
0.0
 11
39.67444945494158
 21
0.4856099436782549
 31
0.0
  0
ARC
  5
4AD
330
18
100
AcDbEntity
  8
1
 62
     1
100
AcDbCircle
 10
53.24470902864402
 20
12.37247742517327
 30
0.0
 40
16.01714740328362
100
AcDbArc
 50
211.4714782289103
 51
214.314767895891
  0
LINE
  5
4AE
330
18
100
AcDbEntity
  8
1
 62
     1
100
AcDbLine
 10
39.58366465418919
 20
4.010330003813653
 30
0.0
 11
39.58366465418919
 21
0.5677058125761737
 31
0.0
  0
ARC
  5
4AF
330
18
100
AcDbEntity
  8
1
 62
     1
100
AcDbCircle
 10
24.4341611928499
 20
11.64913622602425
 30
0.0
 40
16.78797459157235
100
AcDbArc
 50
332.5064384172647
 51
334.4755479546421
  0
ARC
  5
4B0
330
18
100
AcDbEntity
  8
1
 62
     1
100
AcDbCircle
 10
39.25105553626511
 20
-1.007257339118566
 30
0.0
 40
1.397470761105473
100
AcDbArc
 50
48.99701158777791
 51
56.8425236975307
  0
LINE
  5
4B1
330
18
100
AcDbEntity
  8
1
 62
     1
100
AcDbLine
 10
40.96344016538873
 20
3.334793858862269
 30
0.0
 11
40.96344016538873
 21
-1.077735432492345
 31
0.0
  0
ARC
  5
4B2
330
18
100
AcDbEntity
  8
1
 62
     1
100
AcDbCircle
 10
40.47600843637075
 20
1.901727850593842
 30
0.0
 40
1.513154844215323
100
AcDbArc
 50
71.2151833464911
 51
107.7230971241563
  0
LINE
  5
4B3
330
18
100
AcDbEntity
  8
1
 62
     1
100
AcDbLine
 10
40.01538461538463
 20
0.1626540676957849
 30
0.0
 11
40.01538461538463
 21
3.343046746647656
 31
0.0
  0
ARC
  5
4B4
330
18
100
AcDbEntity
  8
1
 62
     1
100
AcDbCircle
 10
57.67603046621861
 20
0.9483653359894154
 30
0.0
 40
1.705132891378221
100
AcDbArc
 50
255.9378785412316
 51
267.4443191290511
  0
LINE
  5
4B5
330
18
100
AcDbEntity
  8
1
 62
     1
100
AcDbLine
 10
57.26172577560893
 20
-0.7056780675121909
 30
0.0
 11
57.26172577560892
 21
-4.009460278412575
 31
0.0
  0
ARC
  5
4B6
330
18
100
AcDbEntity
  8
1
 62
     1
100
AcDbCircle
 10
167.8513021658712
 20
-139.8011788915614
 30
0.0
 40
175.1269496026441
100
AcDbArc
 50
129.0169725662185
 51
129.1595744103668
  0
ARC
  5
4B7
330
18
100
AcDbEntity
  8
1
 62
     1
100
AcDbCircle
 10
51.74598933273739
 20
-3.102675423955625
 30
0.0
 40
5.538962610932264
100
AcDbArc
 50
36.61721237886223
 51
45.23943623294615
  0
LINE
  5
4B8
330
18
100
AcDbEntity
  8
1
 62
     1
100
AcDbLine
 10
55.64615384615384
 20
-2.571371249516912
 30
0.0
 11
55.64615384615385
 21
0.8302232642855613
 31
0.0
  0
LINE
  5
4B9
330
18
100
AcDbEntity
  8
1
 62
     1
100
AcDbLine
 10
55.64615384615385
 20
-2.571371249516912
 30
0.0
 11
55.78852812743914
 21
-2.801699835064358
 31
0.0
  0
LINE
  5
4BA
330
18
100
AcDbEntity
  8
1
 62
     1
100
AcDbLine
 10
55.78852812743914
 20
-2.801699835064358
 30
0.0
 11
55.92701856573233
 21
-3.046297582213893
 31
0.0
  0
LINE
  5
4BB
330
18
100
AcDbEntity
  8
1
 62
     1
100
AcDbLine
 10
55.92701856573233
 20
-3.046297582213893
 30
0.0
 11
56.1922100666208
 21
-3.567913557926581
 31
0.0
  0
ARC
  5
4BC
330
18
100
AcDbEntity
  8
1
 62
     1
100
AcDbCircle
 10
58.70712018534452
 20
5.04798615279673
 30
0.0
 40
5.230704103346826
100
AcDbArc
 50
222.2746564060771
 51
226.041973508253
  0
ARC
  5
4BD
330
18
100
AcDbEntity
  8
1
 62
     1
100
AcDbCircle
 10
56.90508421187682
 20
-10.3677184465064
 30
0.0
 40
7.896675736450891
100
AcDbArc
 50
99.1727685779234
 51
105.1844391004087
  0
ARC
  5
4BE
330
18
100
AcDbEntity
  8
1
 62
     1
100
AcDbCircle
 10
50.87509562847858
 20
-5.42288837012554
 30
0.0
 40
12.22249151368676
100
AcDbArc
 50
58.49800192510526
 51
64.21225726732483
  0
LINE
  5
4BF
330
18
100
AcDbEntity
  8
1
 62
     1
100
AcDbLine
 10
56.1922100666208
 20
5.653717061275143
 30
0.0
 11
57.26172577560893
 21
5.293828254971974
 31
0.0
  0
ARC
  5
4C0
330
18
100
AcDbEntity
  8
1
 62
     1
100
AcDbCircle
 10
52.93647924039685
 20
-0.6607299658273682
 30
0.0
 40
7.022516148528139
100
AcDbArc
 50
74.3000762007432
 51
76.66481892387941
  0
LINE
  5
4C1
330
18
100
AcDbEntity
  8
1
 62
     1
100
AcDbLine
 10
40.96344016538873
 20
-6.347272722566131
 30
0.0
 11
40.96344016538873
 21
-6.35
 31
0.0
  0
LINE
  5
4C2
330
18
100
AcDbEntity
  8
1
 62
     1
100
AcDbLine
 10
50.79040598845743
 20
5.148841956814753
 30
0.0
 11
51.25827135363706
 21
4.321516362300394
 31
0.0
  0
LINE
  5
4C3
330
18
100
AcDbEntity
  8
1
 62
     1
100
AcDbLine
 10
51.25827135363706
 20
4.321516362300394
 30
0.0
 11
51.73846153846155
 21
3.549244874800395
 31
0.0
  0
LINE
  5
4C4
330
18
100
AcDbEntity
  8
1
 62
     1
100
AcDbLine
 10
50.79040598845745
 20
5.148841956814746
 30
0.0
 11
50.79040598845745
 21
1.398967616832132
 31
0.0
  0
ARC
  5
4C5
330
18
100
AcDbEntity
  8
1
 62
     1
100
AcDbCircle
 10
44.77562164477377
 20
-5.519611059183267
 30
0.0
 40
9.167589506359233
100
AcDbArc
 50
45.77377474319826
 51
48.99737907689674
  0
LINE
  5
4C6
330
18
100
AcDbEntity
  8
1
 62
     1
100
AcDbLine
 10
51.17001674375094
 20
1.049870765230775
 30
0.0
 11
51.17135837157184
 21
1.048571628114791
 31
0.0
  0
LINE
  5
4C7
330
18
100
AcDbEntity
  8
1
 62
     1
100
AcDbLine
 10
51.73846153846154
 20
0.4648079986309657
 30
0.0
 11
51.73846153846154
 21
3.549244874800394
 31
0.0
  0
LINE
  5
4C8
330
18
100
AcDbEntity
  8
1
 62
     1
100
AcDbLine
 10
49.78461538461539
 20
4.374706155690555
 30
0.0
 11
50.02465681202032
 21
4.62916851362976
 31
0.0
  0
LINE
  5
4C9
330
18
100
AcDbEntity
  8
1
 62
     1
100
AcDbLine
 10
50.02465681202032
 20
4.62916851362976
 30
0.0
 11
50.14402155379472
 21
4.743593191663333
 31
0.0
  0
LINE
  5
4CA
330
18
100
AcDbEntity
  8
1
 62
     1
100
AcDbLine
 10
50.14402155379472
 20
4.743593191663333
 30
0.0
 11
50.26288289615668
 21
4.849392242452909
 31
0.0
  0
LINE
  5
4CB
330
18
100
AcDbEntity
  8
1
 62
     1
100
AcDbLine
 10
50.26288289615668
 20
4.849392242452909
 30
0.0
 11
50.38120588228359
 21
4.94652670916252
 31
0.0
  0
LINE
  5
4CC
330
18
100
AcDbEntity
  8
1
 62
     1
100
AcDbLine
 10
50.38120588228359
 20
4.94652670916252
 30
0.0
 11
50.49896719049948
 21
5.034974099957702
 31
0.0
  0
LINE
  5
4CD
330
18
100
AcDbEntity
  8
1
 62
     1
100
AcDbLine
 10
50.49896719049948
 20
5.034974099957702
 30
0.0
 11
50.61612846030624
 21
5.11471094203848
 31
0.0
  0
LINE
  5
4CE
330
18
100
AcDbEntity
  8
1
 62
     1
100
AcDbLine
 10
50.61612846030624
 20
5.11471094203848
 30
0.0
 11
50.7326709346195
 21
5.185740401712737
 31
0.0
  0
LINE
  5
4CF
330
18
100
AcDbEntity
  8
1
 62
     1
100
AcDbLine
 10
49.7846153846154
 20
1.993497711785747
 30
0.0
 11
49.78461538461539
 21
4.374706155690554
 31
0.0
  0
LINE
  5
4D0
330
18
100
AcDbEntity
  8
1
 62
     1
100
AcDbLine
 10
49.78461538461539
 20
1.993497711785746
 30
0.0
 11
49.83797940842344
 21
1.996478819806729
 31
0.0
  0
LINE
  5
4D1
330
18
100
AcDbEntity
  8
1
 62
     1
100
AcDbLine
 10
49.83797940842344
 20
1.996478819806729
 30
0.0
 11
49.89082948494475
 21
1.995750212625131
 31
0.0
  0
LINE
  5
4D2
330
18
100
AcDbEntity
  8
1
 62
     1
100
AcDbLine
 10
49.89082948494475
 20
1.995750212625131
 30
0.0
 11
49.94313232611083
 21
1.991395486070713
 31
0.0
  0
LINE
  5
4D3
330
18
100
AcDbEntity
  8
1
 62
     1
100
AcDbLine
 10
49.94313232611083
 20
1.991395486070713
 30
0.0
 11
49.99490536842132
 21
1.983495295012011
 31
0.0
  0
LINE
  5
4D4
330
18
100
AcDbEntity
  8
1
 62
     1
100
AcDbLine
 10
49.99490536842132
 20
1.983495295012011
 30
0.0
 11
50.04613384783705
 21
1.972134359648566
 31
0.0
  0
LINE
  5
4D5
330
18
100
AcDbEntity
  8
1
 62
     1
100
AcDbLine
 10
50.04613384783705
 20
1.972134359648566
 30
0.0
 11
50.09680803186342
 21
1.957393971591559
 31
0.0
  0
LINE
  5
4D6
330
18
100
AcDbEntity
  8
1
 62
     1
100
AcDbLine
 10
50.09680803186342
 20
1.957393971591559
 30
0.0
 11
50.14694638322236
 21
1.939349284766622
 31
0.0
  0
LINE
  5
4D7
330
18
100
AcDbEntity
  8
1
 62
     1
100
AcDbLine
 10
50.14694638322236
 20
1.939349284766622
 30
0.0
 11
50.19653071153931
 21
1.918085561242937
 31
0.0
  0
LINE
  5
4D8
330
18
100
AcDbEntity
  8
1
 62
     1
100
AcDbLine
 10
50.19653071153931
 20
1.918085561242937
 30
0.0
 11
50.24557461094431
 21
1.893673991692455
 31
0.0
  0
LINE
  5
4D9
330
18
100
AcDbEntity
  8
1
 62
     1
100
AcDbLine
 10
50.24557461094431
 20
1.893673991692455
 30
0.0
 11
50.29408155033738
 21
1.866191110023505
 31
0.0
  0
LINE
  5
4DA
330
18
100
AcDbEntity
  8
1
 62
     1
100
AcDbLine
 10
50.29408155033738
 20
1.866191110023505
 30
0.0
 11
50.34204269810733
 21
1.835717884786574
 31
0.0
  0
LINE
  5
4DB
330
18
100
AcDbEntity
  8
1
 62
     1
100
AcDbLine
 10
50.34204269810733
 20
1.835717884786574
 30
0.0
 11
50.38947927447679
 21
1.802316821942173
 31
0.0
  0
LINE
  5
4DC
330
18
100
AcDbEntity
  8
1
 62
     1
100
AcDbLine
 10
50.38947927447679
 20
1.802316821942173
 30
0.0
 11
50.43638470079191
 21
1.766068055109015
 31
0.0
  0
LINE
  5
4DD
330
18
100
AcDbEntity
  8
1
 62
     1
100
AcDbLine
 10
50.43638470079191
 20
1.766068055109015
 30
0.0
 11
50.48276453248888
 21
1.727041030315508
 31
0.0
  0
LINE
  5
4DE
330
18
100
AcDbEntity
  8
1
 62
     1
100
AcDbLine
 10
50.48276453248888
 20
1.727041030315508
 30
0.0
 11
50.52863292541043
 21
1.685298262029482
 31
0.0
  0
LINE
  5
4DF
330
18
100
AcDbEntity
  8
1
 62
     1
100
AcDbLine
 10
50.52863292541043
 20
1.685298262029482
 30
0.0
 11
50.57398245480223
 21
1.6409193444013
 31
0.0
  0
LINE
  5
4E0
330
18
100
AcDbEntity
  8
1
 62
     1
100
AcDbLine
 10
50.73267093461949
 20
5.185740401712744
 30
0.0
 11
50.7326709346195
 21
1.460823089303287
 31
0.0
  0
ARC
  5
4E1
330
18
100
AcDbEntity
  8
1
 62
     1
100
AcDbCircle
 10
103.5899141172823
 20
35.20273535383517
 30
0.0
 40
62.01161064647317
100
AcDbArc
 50
207.9994688223562
 51
209.8107791921278
  0
LINE
  5
4E2
330
18
100
AcDbEntity
  8
1
 62
     1
100
AcDbLine
 10
48.83655983461127
 20
6.090511578923874
 30
0.0
 11
48.83655983461128
 21
3.375590512580534
 31
0.0
  0
ARC
  5
4E3
330
18
100
AcDbEntity
  8
1
 62
     1
100
AcDbCircle
 10
30.06598593424633
 20
-10.50994558079431
 30
0.0
 40
23.34836641443069
100
AcDbArc
 50
32.37849461950815
 51
36.49219241916666
  0
LINE
  5
4E4
330
18
100
AcDbEntity
  8
1
 62
     1
100
AcDbLine
 10
53.6923076923077
 20
2.321340551311424
 30
0.0
 11
53.80168950535754
 21
2.286391475798711
 31
0.0
  0
LINE
  5
4E5
330
18
100
AcDbEntity
  8
1
 62
     1
100
AcDbLine
 10
53.80168950535754
 20
2.286391475798711
 30
0.0
 11
53.91073522314684
 21
2.243389011587519
 31
0.0
  0
LINE
  5
4E6
330
18
100
AcDbEntity
  8
1
 62
     1
100
AcDbLine
 10
53.91073522314684
 20
2.243389011587519
 30
0.0
 11
54.01941650727015
 21
2.192449896877836
 31
0.0
  0
LINE
  5
4E7
330
18
100
AcDbEntity
  8
1
 62
     1
100
AcDbLine
 10
54.01941650727015
 20
2.192449896877836
 30
0.0
 11
54.12768596715806
 21
2.133710935825118
 31
0.0
  0
LINE
  5
4E8
330
18
100
AcDbEntity
  8
1
 62
     1
100
AcDbLine
 10
54.12768596715806
 20
2.133710935825118
 30
0.0
 11
54.23552813282486
 21
2.06730148675289
 31
0.0
  0
LINE
  5
4E9
330
18
100
AcDbEntity
  8
1
 62
     1
100
AcDbLine
 10
54.23552813282486
 20
2.06730148675289
 30
0.0
 11
54.34290797092237
 21
1.993367929655228
 31
0.0
  0
LINE
  5
4EA
330
18
100
AcDbEntity
  8
1
 62
     1
100
AcDbLine
 10
54.34290797092237
 20
1.993367929655228
 30
0.0
 11
54.44980666231672
 21
1.912057275690419
 31
0.0
  0
LINE
  5
4EB
330
18
100
AcDbEntity
  8
1
 62
     1
100
AcDbLine
 10
54.44980666231672
 20
1.912057275690419
 30
0.0
 11
54.55620215225611
 21
1.82352287580456
 31
0.0
  0
LINE
  5
4EC
330
18
100
AcDbEntity
  8
1
 62
     1
100
AcDbLine
 10
53.69230769230771
 20
-1.116585588697407
 30
0.0
 11
53.80945550559676
 21
-1.254477458653471
 31
0.0
  0
LINE
  5
4ED
330
18
100
AcDbEntity
  8
1
 62
     1
100
AcDbLine
 10
53.80945550559676
 20
-1.254477458653471
 30
0.0
 11
53.92400279416371
 21
-1.406591513049813
 31
0.0
  0
LINE
  5
4EE
330
18
100
AcDbEntity
  8
1
 62
     1
100
AcDbLine
 10
53.92400279416371
 20
-1.406591513049813
 30
0.0
 11
54.03589596118756
 21
-1.571442884945276
 31
0.0
  0
LINE
  5
4EF
330
18
100
AcDbEntity
  8
1
 62
     1
100
AcDbLine
 10
54.03589596118756
 20
-1.571442884945276
 30
0.0
 11
54.14514120008374
 21
-1.747694452630967
 31
0.0
  0
LINE
  5
4F0
330
18
100
AcDbEntity
  8
1
 62
     1
100
AcDbLine
 10
54.14514120008374
 20
-1.747694452630967
 30
0.0
 11
54.35575487797011
 21
-2.129442253065766
 31
0.0
  0
LINE
  5
4F1
330
18
100
AcDbEntity
  8
1
 62
     1
100
AcDbLine
 10
54.35575487797011
 20
-2.129442253065766
 30
0.0
 11
54.55620215225611
 21
-2.542974959528066
 31
0.0
  0
LINE
  5
4F2
330
18
100
AcDbEntity
  8
1
 62
     1
100
AcDbLine
 10
52.74425214230359
 20
3.623353172006159
 30
0.0
 11
53.21212610875262
 21
2.92610117808375
 31
0.0
  0
LINE
  5
4F3
330
18
100
AcDbEntity
  8
1
 62
     1
100
AcDbLine
 10
53.21212610875262
 20
2.92610117808375
 30
0.0
 11
53.45082908763837
 21
2.610894929865175
 31
0.0
  0
LINE
  5
4F4
330
18
100
AcDbEntity
  8
1
 62
     1
100
AcDbLine
 10
53.45082908763837
 20
2.610894929865175
 30
0.0
 11
53.6923076923077
 21
2.321340551311424
 31
0.0
  0
LINE
  5
4F5
330
18
100
AcDbEntity
  8
1
 62
     1
100
AcDbLine
 10
52.74425214230358
 20
3.623353172006153
 30
0.0
 11
52.74425214230359
 21
-0.7362825504063366
 31
0.0
  0
LINE
  5
4F6
330
18
100
AcDbEntity
  8
1
 62
     1
100
AcDbLine
 10
52.74425214230359
 20
-0.7362825504063386
 30
0.0
 11
52.98682128514886
 21
-0.8155105896137376
 31
0.0
  0
LINE
  5
4F7
330
18
100
AcDbEntity
  8
1
 62
     1
100
AcDbLine
 10
52.98682128514886
 20
-0.8155105896137376
 30
0.0
 11
53.22597682844395
 21
-0.907460252238822
 31
0.0
  0
LINE
  5
4F8
330
18
100
AcDbEntity
  8
1
 62
     1
100
AcDbLine
 10
53.22597682844395
 20
-0.907460252238822
 30
0.0
 11
53.69230769230771
 21
-1.116585588697407
 31
0.0
  0
LINE
  5
4F9
330
18
100
AcDbEntity
  8
1
 62
     1
100
AcDbLine
 10
53.69230769230769
 20
-1.116585588697444
 30
0.0
 11
53.69230769230771
 21
2.321340551311426
 31
0.0
  0
LINE
  5
4FA
330
18
100
AcDbEntity
  8
1
 62
     1
100
AcDbLine
 10
46.88271368076516
 20
6.35
 30
0.0
 11
46.88271368076516
 21
6.349710249703733
 31
0.0
  0
LINE
  5
4FB
330
18
100
AcDbEntity
  8
1
 62
     1
100
AcDbLine
 10
46.88271368076516
 20
6.349710249703733
 30
0.0
 11
46.88271368076515
 21
6.261319257063374
 31
0.0
  0
LINE
  5
4FC
330
18
100
AcDbEntity
  8
1
 62
     1
100
AcDbLine
 10
46.88271368076515
 20
6.261319257063374
 30
0.0
 11
46.88271368076516
 21
4.969460734396896
 31
0.0
  0
ARC
  5
4FD
330
18
100
AcDbEntity
  8
1
 62
     1
100
AcDbCircle
 10
12.95696823982725
 20
-15.35727408083144
 30
0.0
 40
39.54912441105433
100
AcDbArc
 50
28.14159287102597
 51
30.92808787990878
  0
LINE
  5
4FE
330
18
100
AcDbEntity
  8
1
 62
     1
100
AcDbLine
 10
47.83076923076923
 20
4.704126397090937
 30
0.0
 11
48.30903670736399
 21
5.461019454034929
 31
0.0
  0
LINE
  5
4FF
330
18
100
AcDbEntity
  8
1
 62
     1
100
AcDbLine
 10
48.30903670736399
 20
5.461019454034929
 30
0.0
 11
48.54512109135212
 21
5.798875678789248
 31
0.0
  0
LINE
  5
500
330
18
100
AcDbEntity
  8
1
 62
     1
100
AcDbLine
 10
48.54512109135212
 20
5.798875678789248
 30
0.0
 11
48.77882478077336
 21
6.108170115524352
 31
0.0
  0
LINE
  5
501
330
18
100
AcDbEntity
  8
1
 62
     1
100
AcDbLine
 10
47.83076923076924
 20
3.296147810997528
 30
0.0
 11
47.83076923076923
 21
4.70412639709093
 31
0.0
  0
LINE
  5
502
330
18
100
AcDbEntity
  8
1
 62
     1
100
AcDbLine
 10
47.83076923076924
 20
3.296147810997529
 30
0.0
 11
47.89603801517461
 21
3.339948623658472
 31
0.0
  0
LINE
  5
503
330
18
100
AcDbEntity
  8
1
 62
     1
100
AcDbLine
 10
47.89603801517461
 20
3.339948623658472
 30
0.0
 11
47.96052340151659
 21
3.378676411555547
 31
0.0
  0
LINE
  5
504
330
18
100
AcDbEntity
  8
1
 62
     1
100
AcDbLine
 10
47.96052340151659
 20
3.378676411555547
 30
0.0
 11
48.02419572456201
 21
3.412386354063432
 31
0.0
  0
LINE
  5
505
330
18
100
AcDbEntity
  8
1
 62
     1
100
AcDbLine
 10
48.02419572456201
 20
3.412386354063432
 30
0.0
 11
48.08706428943844
 21
3.441161001141682
 31
0.0
  0
LINE
  5
506
330
18
100
AcDbEntity
  8
1
 62
     1
100
AcDbLine
 10
48.08706428943844
 20
3.441161001141682
 30
0.0
 11
48.14910350114005
 21
3.465062093052163
 31
0.0
  0
LINE
  5
507
330
18
100
AcDbEntity
  8
1
 62
     1
100
AcDbLine
 10
48.14910350114005
 20
3.465062093052163
 30
0.0
 11
48.21033481249875
 21
3.484175406168092
 31
0.0
  0
LINE
  5
508
330
18
100
AcDbEntity
  8
1
 62
     1
100
AcDbLine
 10
48.21033481249875
 20
3.484175406168092
 30
0.0
 11
48.24063736060504
 21
3.491957360225975
 31
0.0
  0
LINE
  5
509
330
18
100
AcDbEntity
  8
1
 62
     1
100
AcDbLine
 10
48.24063736060504
 20
3.491957360225975
 30
0.0
 11
48.27073788152085
 21
3.498570425920533
 31
0.0
  0
LINE
  5
50A
330
18
100
AcDbEntity
  8
1
 62
     1
100
AcDbLine
 10
48.27073788152085
 20
3.498570425920533
 30
0.0
 11
48.30063964078517
 21
3.504025481619999
 31
0.0
  0
LINE
  5
50B
330
18
100
AcDbEntity
  8
1
 62
     1
100
AcDbLine
 10
48.30063964078517
 20
3.504025481619999
 30
0.0
 11
48.33033912385206
 21
3.508331779015984
 31
0.0
  0
LINE
  5
50C
330
18
100
AcDbEntity
  8
1
 62
     1
100
AcDbLine
 10
48.33033912385206
 20
3.508331779015984
 30
0.0
 11
48.35983281617557
 21
3.511498569800096
 31
0.0
  0
LINE
  5
50D
330
18
100
AcDbEntity
  8
1
 62
     1
100
AcDbLine
 10
48.35983281617557
 20
3.511498569800096
 30
0.0
 11
48.3891241248056
 21
3.513535835933833
 31
0.0
  0
LINE
  5
50E
330
18
100
AcDbEntity
  8
1
 62
     1
100
AcDbLine
 10
48.3891241248056
 20
3.513535835933833
 30
0.0
 11
48.41822057707413
 21
3.514454447991145
 31
0.0
  0
LINE
  5
50F
330
18
100
AcDbEntity
  8
1
 62
     1
100
AcDbLine
 10
48.41822057707413
 20
3.514454447991145
 30
0.0
 11
48.44711959450223
 21
3.514264519429104
 31
0.0
  0
LINE
  5
510
330
18
100
AcDbEntity
  8
1
 62
     1
100
AcDbLine
 10
48.44711959450223
 20
3.514264519429104
 30
0.0
 11
48.47581848859665
 21
3.512976153717516
 31
0.0
  0
LINE
  5
511
330
18
100
AcDbEntity
  8
1
 62
     1
100
AcDbLine
 10
48.47581848859665
 20
3.512976153717516
 30
0.0
 11
48.50431747199511
 21
3.51059927191955
 31
0.0
  0
LINE
  5
512
330
18
100
AcDbEntity
  8
1
 62
     1
100
AcDbLine
 10
48.50431747199511
 20
3.51059927191955
 30
0.0
 11
48.53262553418023
 21
3.507143509028089
 31
0.0
  0
LINE
  5
513
330
18
100
AcDbEntity
  8
1
 62
     1
100
AcDbLine
 10
48.53262553418023
 20
3.507143509028089
 30
0.0
 11
48.56074172080684
 21
3.502619457760353
 31
0.0
  0
LINE
  5
514
330
18
100
AcDbEntity
  8
1
 62
     1
100
AcDbLine
 10
48.56074172080684
 20
3.502619457760353
 30
0.0
 11
48.5886639257136
 21
3.497037798653729
 31
0.0
  0
LINE
  5
515
330
18
100
AcDbEntity
  8
1
 62
     1
100
AcDbLine
 10
48.5886639257136
 20
3.497037798653729
 30
0.0
 11
48.61639083097349
 21
3.490409027806809
 31
0.0
  0
LINE
  5
516
330
18
100
AcDbEntity
  8
1
 62
     1
100
AcDbLine
 10
48.61639083097349
 20
3.490409027806809
 30
0.0
 11
48.64393042916021
 21
3.482741604677714
 31
0.0
  0
LINE
  5
517
330
18
100
AcDbEntity
  8
1
 62
     1
100
AcDbLine
 10
48.64393042916021
 20
3.482741604677714
 30
0.0
 11
48.67128401398582
 21
3.474045855061491
 31
0.0
  0
LINE
  5
518
330
18
100
AcDbEntity
  8
1
 62
     1
100
AcDbLine
 10
48.67128401398582
 20
3.474045855061491
 30
0.0
 11
48.69844989117615
 21
3.464332838620603
 31
0.0
  0
LINE
  5
519
330
18
100
AcDbEntity
  8
1
 62
     1
100
AcDbLine
 10
48.69844989117615
 20
3.464332838620603
 30
0.0
 11
48.72542638707807
 21
3.453613607680531
 31
0.0
  0
LINE
  5
51A
330
18
100
AcDbEntity
  8
1
 62
     1
100
AcDbLine
 10
48.72542638707807
 20
3.453613607680531
 30
0.0
 11
48.77882478077335
 21
3.429193887796326
 31
0.0
  0
LINE
  5
51B
330
18
100
AcDbEntity
  8
1
 62
     1
100
AcDbLine
 10
48.77882478077336
 20
6.108170115524332
 30
0.0
 11
48.77882478077336
 21
3.429193887796328
 31
0.0
  0
LINE
  5
51C
330
18
100
AcDbEntity
  8
1
 62
     1
100
AcDbLine
 10
51.73846153846155
 20
3.549244874800395
 30
0.0
 11
51.8586878932902
 21
3.598337485896269
 31
0.0
  0
LINE
  5
51D
330
18
100
AcDbEntity
  8
1
 62
     1
100
AcDbLine
 10
51.8586878932902
 20
3.598337485896269
 30
0.0
 11
51.91865066547583
 21
3.619260961416379
 31
0.0
  0
LINE
  5
51E
330
18
100
AcDbEntity
  8
1
 62
     1
100
AcDbLine
 10
51.91865066547583
 20
3.619260961416379
 30
0.0
 11
51.9785030560367
 21
3.637775147799848
 31
0.0
  0
LINE
  5
51F
330
18
100
AcDbEntity
  8
1
 62
     1
100
AcDbLine
 10
51.9785030560367
 20
3.637775147799848
 30
0.0
 11
52.03824667995612
 21
3.653889656356811
 31
0.0
  0
LINE
  5
520
330
18
100
AcDbEntity
  8
1
 62
     1
100
AcDbLine
 10
52.03824667995612
 20
3.653889656356811
 30
0.0
 11
52.0978677098357
 21
3.667609792273419
 31
0.0
  0
LINE
  5
521
330
18
100
AcDbEntity
  8
1
 62
     1
100
AcDbLine
 10
52.0978677098357
 20
3.667609792273419
 30
0.0
 11
52.1573603834086
 21
3.678942772624007
 31
0.0
  0
LINE
  5
522
330
18
100
AcDbEntity
  8
1
 62
     1
100
AcDbLine
 10
52.1573603834086
 20
3.678942772624007
 30
0.0
 11
52.21672903263658
 21
3.687899921670382
 31
0.0
  0
LINE
  5
523
330
18
100
AcDbEntity
  8
1
 62
     1
100
AcDbLine
 10
52.21672903263658
 20
3.687899921670382
 30
0.0
 11
52.27596176459227
 21
3.694490150470111
 31
0.0
  0
LINE
  5
524
330
18
100
AcDbEntity
  8
1
 62
     1
100
AcDbLine
 10
52.27596176459227
 20
3.694490150470111
 30
0.0
 11
52.33505203201773
 21
3.69872291310632
 31
0.0
  0
LINE
  5
525
330
18
100
AcDbEntity
  8
1
 62
     1
100
AcDbLine
 10
52.33505203201773
 20
3.69872291310632
 30
0.0
 11
52.39400590593551
 21
3.700610509092932
 31
0.0
  0
LINE
  5
526
330
18
100
AcDbEntity
  8
1
 62
     1
100
AcDbLine
 10
52.39400590593551
 20
3.700610509092932
 30
0.0
 11
52.45281338382618
 21
3.700165013898747
 31
0.0
  0
LINE
  5
527
330
18
100
AcDbEntity
  8
1
 62
     1
100
AcDbLine
 10
52.45281338382618
 20
3.700165013898747
 30
0.0
 11
52.51146732046558
 21
3.697398350783154
 31
0.0
  0
LINE
  5
528
330
18
100
AcDbEntity
  8
1
 62
     1
100
AcDbLine
 10
52.51146732046558
 20
3.697398350783154
 30
0.0
 11
52.56997473584663
 21
3.692323417482674
 31
0.0
  0
LINE
  5
529
330
18
100
AcDbEntity
  8
1
 62
     1
100
AcDbLine
 10
52.56997473584663
 20
3.692323417482674
 30
0.0
 11
52.62832752205421
 21
3.684954969263977
 31
0.0
  0
LINE
  5
52A
330
18
100
AcDbEntity
  8
1
 62
     1
100
AcDbLine
 10
52.62832752205421
 20
3.684954969263977
 30
0.0
 11
52.68651708846565
 21
3.675307817809651
 31
0.0
  0
ARC
  5
52B
330
18
100
AcDbEntity
  8
1
 62
     1
100
AcDbCircle
 10
51.11531287904248
 20
-0.6771914921211785
 30
0.0
 40
1.301007302255648
100
AcDbArc
 50
47.54277559491914
 51
61.38026697480199
  0
LINE
  5
52C
330
18
100
AcDbEntity
  8
1
 62
     1
100
AcDbLine
 10
45.87692307692308
 20
4.225052969483068
 30
0.0
 11
45.87692307692308
 21
4.707920384615385
 31
0.0
  0
LINE
  5
52D
330
18
100
AcDbEntity
  8
1
 62
     1
100
AcDbLine
 10
45.87692307692308
 20
4.225052969483066
 30
0.0
 11
46.00665920870122
 21
4.379989707454389
 31
0.0
  0
LINE
  5
52E
330
18
100
AcDbEntity
  8
1
 62
     1
100
AcDbLine
 10
46.00665920870122
 20
4.379989707454389
 30
0.0
 11
46.1331889097214
 21
4.51864871160558
 31
0.0
  0
LINE
  5
52F
330
18
100
AcDbEntity
  8
1
 62
     1
100
AcDbLine
 10
46.1331889097214
 20
4.51864871160558
 30
0.0
 11
46.25644862220991
 21
4.640902642864691
 31
0.0
  0
LINE
  5
530
330
18
100
AcDbEntity
  8
1
 62
     1
100
AcDbLine
 10
46.25644862220991
 20
4.640902642864691
 30
0.0
 11
46.37646173682815
 21
4.746764442691429
 31
0.0
  0
LINE
  5
531
330
18
100
AcDbEntity
  8
1
 62
     1
100
AcDbLine
 10
46.37646173682815
 20
4.746764442691429
 30
0.0
 11
46.43525695719747
 21
4.793564833336353
 31
0.0
  0
LINE
  5
532
330
18
100
AcDbEntity
  8
1
 62
     1
100
AcDbLine
 10
46.43525695719747
 20
4.793564833336353
 30
0.0
 11
46.49325115313744
 21
4.836299093342386
 31
0.0
  0
LINE
  5
533
330
18
100
AcDbEntity
  8
1
 62
     1
100
AcDbLine
 10
46.49325115313744
 20
4.836299093342386
 30
0.0
 11
46.55045581466216
 21
4.874988553968847
 31
0.0
  0
LINE
  5
534
330
18
100
AcDbEntity
  8
1
 62
     1
100
AcDbLine
 10
46.55045581466216
 20
4.874988553968847
 30
0.0
 11
46.60688182909226
 21
4.909660610722785
 31
0.0
  0
LINE
  5
535
330
18
100
AcDbEntity
  8
1
 62
     1
100
AcDbLine
 10
46.60688182909226
 20
4.909660610722785
 30
0.0
 11
46.66253422625078
 21
4.94033789653608
 31
0.0
  0
LINE
  5
536
330
18
100
AcDbEntity
  8
1
 62
     1
100
AcDbLine
 10
46.66253422625078
 20
4.94033789653608
 30
0.0
 11
46.71743152748067
 21
4.967056518601192
 31
0.0
  0
LINE
  5
537
330
18
100
AcDbEntity
  8
1
 62
     1
100
AcDbLine
 10
46.71743152748067
 20
4.967056518601192
 30
0.0
 11
46.77157321028311
 21
4.989842253740512
 31
0.0
  0
LINE
  5
538
330
18
100
AcDbEntity
  8
1
 62
     1
100
AcDbLine
 10
46.77157321028311
 20
4.989842253740512
 30
0.0
 11
46.82497862692719
 21
5.00873419948663
 31
0.0
  0
LINE
  5
539
330
18
100
AcDbEntity
  8
1
 62
     1
100
AcDbLine
 10
46.82497862692719
 20
6.35
 30
0.0
 11
46.8249786269272
 21
6.349718341069043
 31
0.0
  0
LINE
  5
53A
330
18
100
AcDbEntity
  8
1
 62
     1
100
AcDbLine
 10
46.8249786269272
 20
6.349718341069043
 30
0.0
 11
46.82497862692719
 21
6.263857614878229
 31
0.0
  0
LINE
  5
53B
330
18
100
AcDbEntity
  8
1
 62
     1
100
AcDbLine
 10
46.82497862692719
 20
6.263857614878229
 30
0.0
 11
46.82497862692719
 21
5.008734199486632
 31
0.0
  0
LINE
  5
53C
330
18
100
AcDbEntity
  8
1
 62
     1
100
AcDbLine
 10
41.96923076923078
 20
4.594641407084261
 30
0.0
 11
42.91728631923488
 21
6.349313214622134
 31
0.0
  0
LINE
  5
53D
330
18
100
AcDbEntity
  8
1
 62
     1
100
AcDbLine
 10
42.97502137307281
 20
6.349929573279709
 30
0.0
 11
43.0332329953863
 21
6.249174559695268
 31
0.0
  0
LINE
  5
53E
330
18
100
AcDbEntity
  8
1
 62
     1
100
AcDbLine
 10
43.92307692307693
 20
4.674886153704024
 30
0.0
 11
43.92307692307693
 21
4.707920384615385
 31
0.0
  0
LINE
  5
53F
330
18
100
AcDbEntity
  8
1
 62
     1
100
AcDbLine
 10
43.92307692307693
 20
4.674886153704035
 30
0.0
 11
44.42261553086468
 21
5.446972737158164
 31
0.0
  0
LINE
  5
540
330
18
100
AcDbEntity
  8
1
 62
     1
100
AcDbLine
 10
44.42261553086468
 20
5.446972737158164
 30
0.0
 11
44.65303566262821
 21
5.760000030293325
 31
0.0
  0
LINE
  5
541
330
18
100
AcDbEntity
  8
1
 62
     1
100
AcDbLine
 10
44.65303566262821
 20
5.760000030293325
 30
0.0
 11
44.76358544398325
 21
5.896858083256794
 31
0.0
  0
LINE
  5
542
330
18
100
AcDbEntity
  8
1
 62
     1
100
AcDbLine
 10
44.76358544398325
 20
5.896858083256794
 30
0.0
 11
44.87113247308103
 21
6.020342322758545
 31
0.0
  0
LINE
  5
543
330
18
100
AcDbEntity
  8
1
 62
     1
100
AcDbLine
 10
44.87113247308103
 20
6.35
 30
0.0
 11
44.87113247308103
 21
6.349927364213345
 31
0.0
  0
LINE
  5
544
330
18
100
AcDbEntity
  8
1
 62
     1
100
AcDbLine
 10
44.87113247308103
 20
6.349927364213345
 30
0.0
 11
44.87113247308103
 21
6.328363474339
 31
0.0
  0
LINE
  5
545
330
18
100
AcDbEntity
  8
1
 62
     1
100
AcDbLine
 10
44.87113247308103
 20
6.328363474339
 30
0.0
 11
44.87113247308104
 21
6.020342322758545
 31
0.0
  0
LINE
  5
546
330
18
100
AcDbEntity
  8
1
 62
     1
100
AcDbLine
 10
44.92886752691897
 20
6.35
 30
0.0
 11
44.92886752691897
 21
6.349923024065235
 31
0.0
  0
LINE
  5
547
330
18
100
AcDbEntity
  8
1
 62
     1
100
AcDbLine
 10
44.92886752691897
 20
6.349923024065235
 30
0.0
 11
44.92886752691898
 21
6.327051251472659
 31
0.0
  0
LINE
  5
548
330
18
100
AcDbEntity
  8
1
 62
     1
100
AcDbLine
 10
44.92886752691898
 20
6.327051251472659
 30
0.0
 11
44.92886752691897
 21
5.999852030904336
 31
0.0
  0
ARC
  5
549
330
18
100
AcDbEntity
  8
1
 62
     1
100
AcDbCircle
 10
-6.758500675224077
 20
-22.76156707780267
 30
0.0
 40
59.15063884780593
100
AcDbArc
 50
27.1445921095776
 51
29.09373602553675
  0
LINE
  5
54A
330
18
100
AcDbEntity
  8
1
 62
     1
100
AcDbLine
 10
40.01538461538462
 20
3.993417559571962
 30
0.0
 11
40.51495446452889
 21
4.985220099478015
 31
0.0
  0
LINE
  5
54B
330
18
100
AcDbEntity
  8
1
 62
     1
100
AcDbLine
 10
40.51495446452889
 20
4.985220099478015
 30
0.0
 11
40.96344016538872
 21
5.958345528098798
 31
0.0
  0
ARC
  5
54C
330
18
100
AcDbEntity
  8
1
 62
     1
100
AcDbCircle
 10
1891.186754398941
 20
1899.678324024211
 30
0.0
 40
2649.614348622533
100
AcDbArc
 50
225.6676030530645
 51
225.6806553589344
  0
ARC
  5
54D
330
18
100
AcDbEntity
  8
1
 62
     1
100
AcDbCircle
 10
-239.418832410965
 20
-187.1716917215116
 30
0.0
 40
340.5203018771354
100
AcDbArc
 50
34.27448124772062
 51
34.55693848302822
  0
ARC
  5
54E
330
18
100
AcDbEntity
  8
1
 62
     1
100
AcDbCircle
 10
138.2141201088078
 20
42.60207284560427
 30
0.0
 40
109.6075758179051
100
AcDbArc
 50
205.121355463184
 51
205.8615282014833
  0
ARC
  5
54F
330
18
100
AcDbEntity
  8
1
 62
     1
100
AcDbCircle
 10
-45.48953364057297
 20
-53.09019937754562
 30
0.0
 40
116.4852718751808
100
AcDbArc
 50
30.06235320548543
 51
30.5395347922208
  0
LINE
  5
550
330
18
100
AcDbEntity
  8
1
 62
     1
100
AcDbLine
 10
55.64615384615386
 20
4.701007452021021
 30
0.0
 11
55.64615384615385
 21
4.707920384615385
 31
0.0
  0
ARC
  5
551
330
18
100
AcDbEntity
  8
1
 62
     1
100
AcDbCircle
 10
74.17261953097001
 20
-6.157030723605335
 30
0.0
 40
21.47377373253071
100
AcDbArc
 50
146.8601056999401
 51
149.6261768675317
  0
LINE
  5
552
330
18
100
AcDbEntity
  8
1
 62
     1
100
AcDbLine
 10
56.1922100666208
 20
5.653717061275143
 30
0.0
 11
56.1922100666208
 21
5.653700556930519
 31
0.0
  0
LINE
  5
553
330
18
100
AcDbEntity
  8
1
 62
     1
100
AcDbLine
 10
56.1922100666208
 20
5.653700556930519
 30
0.0
 11
56.1922100666208
 21
5.648872066775755
 31
0.0
  0
LINE
  5
554
330
18
100
AcDbEntity
  8
1
 62
     1
100
AcDbLine
 10
56.1922100666208
 20
5.648872066775755
 30
0.0
 11
56.1922100666208
 21
5.5820987048381
 31
0.0
  0
LINE
  5
555
330
18
100
AcDbEntity
  8
1
 62
     1
100
AcDbLine
 10
57.26172577560893
 20
5.293828254971974
 30
0.0
 11
57.26172577560893
 21
5.293763322894351
 31
0.0
  0
LINE
  5
556
330
18
100
AcDbEntity
  8
1
 62
     1
100
AcDbLine
 10
57.26172577560893
 20
5.293763322894351
 30
0.0
 11
57.26172577560892
 21
5.274466759044317
 31
0.0
  0
LINE
  5
557
330
18
100
AcDbEntity
  8
1
 62
     1
100
AcDbLine
 10
57.26172577560892
 20
5.274466759044317
 30
0.0
 11
57.26172577560893
 21
4.99832904382381
 31
0.0
  0
ARC
  5
558
330
18
100
AcDbEntity
  8
1
 62
     1
100
AcDbCircle
 10
11.4122530745197
 20
-19.33286295197782
 30
0.0
 40
51.9054968762843
100
AcDbArc
 50
27.14641446436483
 51
27.95379711808844
  0
ARC
  5
559
330
18
100
AcDbEntity
  8
1
 62
     1
100
AcDbCircle
 10
33.19059559690346
 20
26.73633032048653
 30
0.0
 40
39.19061517898196
100
AcDbArc
 50
305.9388122210681
 51
307.8942187172906
  0
ARC
  5
55A
330
18
100
AcDbEntity
  8
1
 62
     1
100
AcDbCircle
 10
48.71330764780947
 20
4.525590981928537
 30
0.0
 40
12.08010988439527
100
AcDbArc
 50
298.9259769148131
 51
300.4578371050554
  0
LINE
  5
55B
330
18
100
AcDbEntity
  8
1
 62
     1
100
AcDbLine
 10
57.59999999999999
 20
4.349834748468917
 30
0.0
 11
57.60000000000001
 21
4.707920383557794
 31
0.0
  0
LINE
  5
55C
330
18
100
AcDbEntity
  8
1
 62
     1
100
AcDbLine
 10
57.60000000000002
 20
-0.3583802848474708
 30
0.0
 11
57.60000000000002
 21
-0.7550301982307424
 31
0.0
  0
LINE
  5
55D
330
18
100
AcDbEntity
  8
1
 62
     1
100
AcDbLine
 10
57.6
 20
-3.734593304249109
 30
0.0
 11
57.60000000000002
 21
-0.7550301982307424
 31
0.0
  0
LINE
  5
55E
330
18
100
AcDbEntity
  8
1
 62
     1
100
AcDbLine
 10
52.68651708846565
 20
-6.322178335559279
 30
0.0
 11
52.68651708846566
 21
-6.35
 31
0.0
  0
LINE
  5
55F
330
18
100
AcDbEntity
  8
1
 62
     1
100
AcDbLine
 10
50.73267093461951
 20
-5.766660894102089
 30
0.0
 11
50.73267093461949
 21
-6.35
 31
0.0
  0
LINE
  5
560
330
18
100
AcDbEntity
  8
1
 62
     1
100
AcDbLine
 10
48.77882478077336
 20
-4.557271134022055
 30
0.0
 11
48.77882478077336
 21
-6.343025074476105
 31
0.0
  0
LINE
  5
561
330
18
100
AcDbEntity
  8
1
 62
     1
100
AcDbLine
 10
42.91728631923488
 20
1.352056154776526
 30
0.0
 11
42.91728631923488
 21
-3.093778446052639
 31
0.0
  0
LINE
  5
562
330
18
100
AcDbEntity
  8
1
 62
     1
100
AcDbLine
 10
53.69230769230769
 20
4.519140333480033
 30
0.0
 11
54.55620215225611
 21
6.172436354143608
 31
0.0
  0
LINE
  5
563
330
18
100
AcDbEntity
  8
1
 62
     1
100
AcDbLine
 10
51.73846153846156
 20
3.824855039027319
 30
0.0
 11
52.23803132760946
 21
4.814721713230498
 31
0.0
  0
LINE
  5
564
330
18
100
AcDbEntity
  8
1
 62
     1
100
AcDbLine
 10
52.23803132760946
 20
4.814721713230498
 30
0.0
 11
52.68651708846565
 21
5.804865241083141
 31
0.0
  0
ARC
  5
565
330
18
100
AcDbEntity
  8
1
 62
     1
100
AcDbCircle
 10
-3634.632046257997
 20
-2664.632573456997
 30
0.0
 40
4552.813920384508
100
AcDbArc
 50
35.89235591589186
 51
35.91271815500697
  0
ARC
  5
566
330
18
100
AcDbEntity
  8
1
 62
     1
100
AcDbCircle
 10
206.4123692490102
 20
182.3415749533824
 30
0.0
 40
236.2037356879909
100
AcDbArc
 50
228.9704113132678
 51
229.0930559036417
  0
LINE
  5
567
330
18
100
AcDbEntity
  8
1
 62
     1
100
AcDbLine
 10
41.96923076923079
 20
-4.695615328266392
 30
0.0
 11
42.44749820253703
 21
-5.428930455968993
 31
0.0
  0
LINE
  5
568
330
18
100
AcDbEntity
  8
1
 62
     1
100
AcDbLine
 10
42.44749820253703
 20
-5.428930455968993
 30
0.0
 11
42.68358256389597
 21
-5.753713388904737
 31
0.0
  0
LINE
  5
569
330
18
100
AcDbEntity
  8
1
 62
     1
100
AcDbLine
 10
42.68358256389597
 20
-5.753713388904737
 30
0.0
 11
42.91728631923488
 21
-6.04918665645032
 31
0.0
  0
ARC
  5
56A
330
18
100
AcDbEntity
  8
1
 62
     1
100
AcDbCircle
 10
91.27505937355416
 20
-31.62107154303232
 30
0.0
 40
54.66084255851119
100
AcDbArc
 50
150.0309560593312
 51
152.0833792647255
  0
ARC
  5
56B
330
18
100
AcDbEntity
  8
1
 62
     1
100
AcDbCircle
 10
68.8085323956975
 20
-18.10438138245956
 30
0.0
 40
27.22618601160924
100
AcDbArc
 50
150.1056128999082
 51
151.2926257313194
  0
LINE
  5
56C
330
18
100
AcDbEntity
  8
1
 62
     1
100
AcDbLine
 10
43.92307692307693
 20
-4.316492525856214
 30
0.0
 11
44.16311841872048
 21
-4.556143434158914
 31
0.0
  0
LINE
  5
56D
330
18
100
AcDbEntity
  8
1
 62
     1
100
AcDbLine
 10
44.16311841872048
 20
-4.556143434158914
 30
0.0
 11
44.28248304973771
 21
-4.66294091867374
 31
0.0
  0
LINE
  5
56E
330
18
100
AcDbEntity
  8
1
 62
     1
100
AcDbLine
 10
44.28248304973771
 20
-4.66294091867374
 30
0.0
 11
44.40134436549974
 21
-4.760981040697329
 31
0.0
  0
LINE
  5
56F
330
18
100
AcDbEntity
  8
1
 62
     1
100
AcDbLine
 10
44.40134436549974
 20
-4.760981040697329
 30
0.0
 11
44.51966742812436
 21
-4.850235995016153
 31
0.0
  0
LINE
  5
570
330
18
100
AcDbEntity
  8
1
 62
     1
100
AcDbLine
 10
44.51966742812436
 20
-4.850235995016153
 30
0.0
 11
44.63742883395636
 21
-4.930693482749527
 31
0.0
  0
LINE
  5
571
330
18
100
AcDbEntity
  8
1
 62
     1
100
AcDbLine
 10
44.63742883395636
 20
-4.930693482749527
 30
0.0
 11
44.75459010819664
 21
-5.00234126077775
 31
0.0
  0
LINE
  5
572
330
18
100
AcDbEntity
  8
1
 62
     1
100
AcDbLine
 10
44.75459010819664
 20
-5.00234126077775
 30
0.0
 11
44.87113247308103
 21
-5.065192817438158
 31
0.0
  0
LINE
  5
573
330
18
100
AcDbEntity
  8
1
 62
     1
100
AcDbLine
 10
39.58366465418919
 20
0.5677058125761736
 30
0.0
 11
39.5429051649794
 21
0.6066512300290468
 31
0.0
  0
LINE
  5
574
330
18
100
AcDbEntity
  8
1
 62
     1
100
AcDbLine
 10
39.5429051649794
 20
0.6066512300290468
 30
0.0
 11
39.54289893374642
 21
0.6066570037717373
 31
0.0
  0
LINE
  5
575
330
18
100
AcDbEntity
  8
1
 62
     1
100
AcDbLine
 10
39.58366465418919
 20
4.010330003813641
 30
0.0
 11
39.50809616345079
 21
3.98212730294612
 31
0.0
  0
LINE
  5
576
330
18
100
AcDbEntity
  8
1
 62
     1
100
AcDbLine
 10
39.50809616345079
 20
3.98212730294612
 30
0.0
 11
39.43232318777083
 21
3.950126462346982
 31
0.0
  0
LINE
  5
577
330
18
100
AcDbEntity
  8
1
 62
     1
100
AcDbLine
 10
39.43232318777083
 20
3.950126462346982
 30
0.0
 11
39.3563660316733
 21
3.914321802139784
 31
0.0
  0
LINE
  5
578
330
18
100
AcDbEntity
  8
1
 62
     1
100
AcDbLine
 10
39.3563660316733
 20
3.914321802139784
 30
0.0
 11
39.28022281933788
 21
3.874700485263312
 31
0.0
  0
LINE
  5
579
330
18
100
AcDbEntity
  8
1
 62
     1
100
AcDbLine
 10
39.28022281933788
 20
3.874700485263312
 30
0.0
 11
39.20392027298251
 21
3.83126553858791
 31
0.0
  0
LINE
  5
57A
330
18
100
AcDbEntity
  8
1
 62
     1
100
AcDbLine
 10
39.20392027298251
 20
3.83126553858791
 30
0.0
 11
39.12746211126638
 21
3.784007732490239
 31
0.0
  0
LINE
  5
57B
330
18
100
AcDbEntity
  8
1
 62
     1
100
AcDbLine
 10
39.12746211126638
 20
3.784007732490239
 30
0.0
 11
38.97416697999999
 21
3.678044065247776
 31
0.0
  0
ARC
  5
57C
330
18
100
AcDbEntity
  8
1
 62
     1
100
AcDbCircle
 10
76.66392352978218
 20
13.53887870660505
 30
0.0
 40
40.8660634314647
100
AcDbArc
 50
206.2602219699968
 51
209.1190099453461
  0
ARC
  5
57D
330
18
100
AcDbEntity
  8
1
 62
     1
100
AcDbCircle
 10
14.7989133715086
 20
11.32340063218254
 30
0.0
 40
29.79241315306892
100
AcDbArc
 50
326.295976539198
 51
327.822700181971
  0
LINE
  5
57E
330
18
100
AcDbEntity
  8
1
 62
     1
100
AcDbLine
 10
39.58366465418919
 20
-5.208488410891585
 30
0.0
 11
39.58366465418919
 21
-5.455680943403945
 31
0.0
  0
LINE
  5
57F
330
18
100
AcDbEntity
  8
1
 62
     1
100
AcDbLine
 10
40.01538461538462
 20
-4.707920384615385
 30
0.0
 11
39.58366465418919
 21
-5.455680943403939
 31
0.0
  0
LINE
  5
580
330
18
100
AcDbEntity
  8
1
 62
     1
100
AcDbLine
 10
40.01538461538462
 20
-4.707920384615385
 30
0.0
 11
40.01538461538462
 21
-4.707883376863344
 31
0.0
  0
LINE
  5
581
330
18
100
AcDbEntity
  8
1
 62
     1
100
AcDbLine
 10
40.01538461538462
 20
-4.707883376863344
 30
0.0
 11
40.01538461538462
 21
-4.696951207781638
 31
0.0
  0
LINE
  5
582
330
18
100
AcDbEntity
  8
1
 62
     1
100
AcDbLine
 10
40.01538461538462
 20
-4.696951207781638
 30
0.0
 11
40.01538461538462
 21
-4.542309780948776
 31
0.0
  0
LINE
  5
583
330
18
100
AcDbEntity
  8
1
 62
     1
100
AcDbLine
 10
41.02117521922669
 20
-6.348815952366482
 30
0.0
 11
41.02117521922669
 21
-6.35
 31
0.0
  0
LINE
  5
584
330
18
100
AcDbEntity
  8
1
 62
     1
100
AcDbLine
 10
41.19038869715693
 20
-6.056913795550895
 30
0.0
 11
41.02117521922669
 21
-6.349999999999957
 31
0.0
  0
ARC
  5
585
330
18
100
AcDbEntity
  8
1
 62
     1
100
AcDbCircle
 10
-204.0052931017497
 20
135.0742529841339
 30
0.0
 40
282.9115640778043
100
AcDbArc
 50
330.0758779318959
 51
330.3935038443648
  0
LINE
  5
586
330
18
100
AcDbEntity
  8
1
 62
     1
100
AcDbLine
 10
38.97416697999999
 20
-3.323098077082307
 30
0.0
 11
38.97416698
 21
0.9074457284964238
 31
0.0
  0
ARC
  5
587
330
18
100
AcDbEntity
  8
1
 62
     1
100
AcDbCircle
 10
-91.61758404624797
 20
75.72593405700161
 30
0.0
 40
162.674875639371
100
AcDbArc
 50
329.7009603466367
 51
329.968490386501
  0
LINE
  5
588
330
18
100
AcDbEntity
  8
1
 62
     1
100
AcDbLine
 10
48.83655983461128
 20
-6.345682815960661
 30
0.0
 11
48.77882478077335
 21
-6.343025074476106
 31
0.0
  0
LINE
  5
589
330
18
100
AcDbEntity
  8
1
 62
     1
100
AcDbLine
 10
46.88271368076512
 20
-5.908211053132787
 30
0.0
 11
46.82497862692721
 21
-5.884649815730112
 31
0.0
  0
LINE
  5
58A
330
18
100
AcDbEntity
  8
1
 62
     1
100
AcDbLine
 10
44.92886752691899
 20
-4.800816546672706
 30
0.0
 11
44.87113247308103
 21
-4.759023281371606
 31
0.0
  0
LINE
  5
58B
330
18
100
AcDbEntity
  8
1
 62
     1
100
AcDbLine
 10
42.97502137307281
 20
-3.149064771371783
 30
0.0
 11
42.91728631923488
 21
-3.093778446052657
 31
0.0
  0
LINE
  5
58C
330
18
100
AcDbEntity
  8
1
 62
     1
100
AcDbLine
 10
41.02117521922666
 20
-1.140245702371176
 30
0.0
 11
40.96344016538874
 21
-1.077735432492346
 31
0.0
  0
LINE
  5
58D
330
18
100
AcDbEntity
  8
1
 62
     1
100
AcDbLine
 10
41.02117521922668
 20
-6.348815952366484
 30
0.0
 11
40.96344016538873
 21
-6.347272722566134
 31
0.0
  0
LINE
  5
58E
330
18
100
AcDbEntity
  8
1
 62
     1
100
AcDbLine
 10
41.02117521922668
 20
-6.348815952366483
 30
0.0
 11
41.19038869715693
 21
-6.0569137955509
 31
0.0
  0
LINE
  5
58F
330
18
100
AcDbEntity
  8
1
 62
     1
100
AcDbLine
 10
42.97502137307281
 20
-6.029575965759701
 30
0.0
 11
42.91728631923489
 21
-6.049186656450323
 31
0.0
  0
LINE
  5
590
330
18
100
AcDbEntity
  8
1
 62
     1
100
AcDbLine
 10
44.92886752691898
 20
-5.026651797873489
 30
0.0
 11
44.87113247308103
 21
-5.065192817438168
 31
0.0
  0
LINE
  5
591
330
18
100
AcDbEntity
  8
1
 62
     1
100
AcDbLine
 10
57.60000000000001
 20
-0.3583802848474665
 30
0.0
 11
57.59999999999999
 21
4.349834748468929
 31
0.0
  0
LINE
  5
592
330
18
100
AcDbEntity
  8
1
 62
     1
100
AcDbLine
 10
52.74425214230358
 20
5.830310350257081
 30
0.0
 11
52.68651708846565
 21
5.804865241083136
 31
0.0
  0
LINE
  5
593
330
18
100
AcDbEntity
  8
1
 62
     1
100
AcDbLine
 10
48.83655983461128
 20
6.090511578923881
 30
0.0
 11
48.77882478077336
 21
6.108170115524331
 31
0.0
  0
LINE
  5
594
330
18
100
AcDbEntity
  8
1
 62
     1
100
AcDbLine
 10
50.79040598845745
 20
5.14884195681474
 30
0.0
 11
50.73267093461949
 21
5.185740401712744
 31
0.0
  0
LINE
  5
595
330
18
100
AcDbEntity
  8
1
 62
     1
100
AcDbLine
 10
52.74425214230359
 20
3.623353172006153
 30
0.0
 11
52.68651708846565
 21
3.675307817809655
 31
0.0
  0
LINE
  5
596
330
18
100
AcDbEntity
  8
1
 62
     1
100
AcDbLine
 10
52.74425214230358
 20
-0.736282550406318
 30
0.0
 11
52.68651708846564
 21
-0.6731884325602233
 31
0.0
  0
LINE
  5
597
330
18
100
AcDbEntity
  8
1
 62
     1
100
AcDbLine
 10
50.79040598845744
 20
1.398967616832128
 30
0.0
 11
50.7326709346195
 21
1.460823089303282
 31
0.0
  0
LINE
  5
598
330
18
100
AcDbEntity
  8
1
 62
     1
100
AcDbLine
 10
48.83655983461128
 20
3.375590512580535
 30
0.0
 11
48.77882478077336
 21
3.429193887796333
 31
0.0
  0
LINE
  5
599
330
18
100
AcDbEntity
  8
1
 62
     1
100
AcDbLine
 10
46.88271368076513
 20
4.969460734396916
 30
0.0
 11
46.82497862692718
 21
5.008734199486637
 31
0.0
  0
LINE
  5
59A
330
18
100
AcDbEntity
  8
1
 62
     1
100
AcDbLine
 10
44.92886752691898
 20
5.999852030904336
 30
0.0
 11
44.87113247308104
 21
6.020342322758546
 31
0.0
  0
LINE
  5
59B
330
18
100
AcDbEntity
  8
1
 62
     1
100
AcDbLine
 10
42.97502137307282
 20
6.349929563776485
 30
0.0
 11
42.91728631923488
 21
6.349313214622134
 31
0.0
  0
LINE
  5
59C
330
18
100
AcDbEntity
  8
1
 62
     1
100
AcDbLine
 10
41.02117521922666
 20
5.97999852477256
 30
0.0
 11
40.96344016538873
 21
5.958345528098794
 31
0.0
  0
LINE
  5
59D
330
18
100
AcDbEntity
  8
1
 62
     1
100
AcDbLine
 10
41.0211752192267
 20
3.280601204175527
 30
0.0
 11
40.96344016538873
 21
3.334793858862135
 31
0.0
  0
LINE
  5
59E
330
18
100
AcDbEntity
  8
1
 62
     1
100
AcDbLine
 10
42.97502137307284
 20
1.289958931973678
 30
0.0
 11
42.91728631923487
 21
1.352056154776533
 31
0.0
  0
LINE
  5
59F
330
18
100
AcDbEntity
  8
1
 62
     1
100
AcDbLine
 10
44.92886752691896
 20
-0.8469499494425985
 30
0.0
 11
44.87113247308103
 21
-0.7839893796526974
 31
0.0
  0
LINE
  5
5A0
330
18
100
AcDbEntity
  8
1
 62
     1
100
AcDbLine
 10
46.88271368076512
 20
-2.887824367738835
 30
0.0
 11
46.8249786269272
 21
-2.831139584607198
 31
0.0
  0
LINE
  5
5A1
330
18
100
AcDbEntity
  8
1
 62
     1
100
AcDbLine
 10
48.83655983461128
 20
-4.601252746478755
 30
0.0
 11
48.77882478077333
 21
-4.557271134022049
 31
0.0
  0
LINE
  5
5A2
330
18
100
AcDbEntity
  8
1
 62
     1
100
AcDbLine
 10
50.79040598845744
 20
-5.792952456862745
 30
0.0
 11
50.73267093461951
 21
-5.766660894102094
 31
0.0
  0
LINE
  5
5A3
330
18
100
AcDbEntity
  8
1
 62
     1
100
AcDbLine
 10
52.74425214230358
 20
-6.327798688336525
 30
0.0
 11
52.68651708846564
 21
-6.322178335559278
 31
0.0
  0
LINE
  5
5A4
330
18
100
AcDbEntity
  8
1
 62
     1
100
AcDbLine
 10
53.58320466859681
 20
-4.896892276833849
 30
0.0
 11
53.69230769230769
 21
-4.707770400340054
 31
0.0
  0
LINE
  5
5A5
330
18
100
AcDbEntity
  8
1
 62
     1
100
AcDbLine
 10
38.97416698
 20
3.678044065247779
 30
0.0
 11
38.97416698
 21
0.9074457284964188
 31
0.0
  0
LINE
  5
5A6
330
18
100
AcDbEntity
  8
1
 62
     1
100
AcDbLine
 10
38.97416698
 20
-3.930431578975757
 30
0.0
 11
38.97416698
 21
-4.37319243862576
 31
0.0
  0
LINE
  5
5A7
330
18
100
AcDbEntity
  8
1
 62
     1
100
AcDbLine
 10
38.97416698
 20
-4.37319243862576
 30
0.0
 11
38.97416698
 21
-4.4
 31
0.0
  0
LINE
  5
5A8
330
18
100
AcDbEntity
  8
1
 62
     1
100
AcDbLine
 10
38.97416697999999
 20
-3.930431578975756
 30
0.0
 11
38.97416697999999
 21
-3.323098077082307
 31
0.0
  0
LINE
  5
5A9
330
18
100
AcDbEntity
  8
1
 62
     1
100
AcDbLine
 10
40.96344016538873
 20
-6.35
 30
0.0
 11
41.02117521922669
 21
-6.35
 31
0.0
  0
ARC
  5
5AA
330
18
100
AcDbEntity
  8
1
 62
     1
100
AcDbCircle
 10
-209.8083450792025
 20
-142.7901128940613
 30
0.0
 40
296.8710751835879
100
AcDbArc
 50
29.79044159268346
 51
29.97356944126362
  0
LINE
  5
5AB
330
18
100
AcDbEntity
  8
1
 62
     1
100
AcDbLine
 10
47.35798575122728
 20
5.526805010356016
 30
0.0
 11
46.88271368076514
 21
6.349999999999991
 31
0.0
  0
LINE
  5
5AC
330
18
100
AcDbEntity
  8
1
 62
     1
100
AcDbLine
 10
46.82497862692719
 20
6.349999999999999
 30
0.0
 11
45.87692307692308
 21
4.707920384615385
 31
0.0
  0
LINE
  5
5AD
330
18
100
AcDbEntity
  8
1
 62
     1
100
AcDbLine
 10
43.0332329953863
 20
6.249174559695268
 30
0.0
 11
43.03885499902223
 21
6.239436274504396
 31
0.0
  0
ARC
  5
5AE
330
18
100
AcDbEntity
  8
1
 62
     1
100
AcDbCircle
 10
-30.16601501208661
 20
-36.19246789641349
 30
0.0
 40
84.61327491426104
100
AcDbArc
 50
28.88101661886562
 51
30.09796438959609
  0
LINE
  5
5AF
330
18
100
AcDbEntity
  8
1
 62
     1
100
AcDbLine
 10
43.92307692307693
 20
4.707920384615385
 30
0.0
 11
43.0332329953329
 21
6.249174559664432
 31
0.0
  0
LINE
  5
5B0
330
18
100
AcDbEntity
  8
1
 62
     1
100
AcDbLine
 10
44.87113247308104
 20
6.35
 30
0.0
 11
43.92307692307692
 21
4.707920384615385
 31
0.0
  0
LINE
  5
5B1
330
18
100
AcDbEntity
  8
1
 62
     1
100
AcDbLine
 10
45.87692307692308
 20
4.707920384615384
 30
0.0
 11
44.92886752691897
 21
6.350000000000005
 31
0.0
  0
LINE
  5
5B2
330
18
100
AcDbEntity
  8
1
 62
     1
100
AcDbLine
 10
38.97416698
 20
-4.4
 30
0.0
 11
39.58366465418919
 21
-5.455680943403944
 31
0.0
  0
LINE
  5
5B3
330
18
100
AcDbEntity
  8
1
 62
     1
100
AcDbLine
 10
55.32616827529831
 20
5.262151392924431
 30
0.0
 11
55.32617489111592
 21
5.262139933996016
 31
0.0
  0
LINE
  5
5B4
330
18
100
AcDbEntity
  8
1
 62
     1
100
AcDbLine
 10
55.32617489111591
 20
5.262139933996015
 30
0.0
 11
55.64615384615385
 21
4.701007452021031
 31
0.0
  0
LINE
  5
5B5
330
18
100
AcDbEntity
  8
1
 62
     1
100
AcDbLine
 10
55.64615384615385
 20
4.707920384615385
 30
0.0
 11
55.32616827516466
 21
5.26215139284724
 31
0.0
  0
LINE
  5
5B6
330
18
100
AcDbEntity
  8
1
 62
     1
100
AcDbLine
 10
56.1922100666208
 20
5.653717061275158
 30
0.0
 11
55.64615384615384
 21
4.707920384615385
 31
0.0
  0
LINE
  5
5B7
330
18
100
AcDbEntity
  8
1
 62
     1
100
AcDbLine
 10
57.6
 20
4.707920384615385
 30
0.0
 11
57.26172577560891
 21
5.29382825497197
 31
0.0
  0
LINE
  5
5B8
330
18
100
AcDbEntity
  8
1
 62
     1
100
AcDbLine
 10
52.68651708846566
 20
-6.35
 30
0.0
 11
52.74425214230359
 21
-6.35
 31
0.0
  0
LINE
  5
5B9
330
18
100
AcDbEntity
  8
1
 62
     1
100
AcDbLine
 10
50.73267093461949
 20
-6.35
 30
0.0
 11
50.79040598845745
 21
-6.35
 31
0.0
  0
LINE
  5
5BA
330
18
100
AcDbEntity
  8
1
 62
     1
100
AcDbLine
 10
40.16797475486837
 20
0.0474264560530035
 30
0.0
 11
40.22206329779404
 21
-0.0011704968445827
 31
0.0
  0
LINE
  5
5BB
330
18
100
AcDbEntity
  8
1
 62
     1
100
AcDbLine
 10
40.22206329779404
 20
-0.0011704968445827
 30
0.0
 11
40.27556294033372
 21
-0.0532271475360888
 31
0.0
  0
LINE
  5
5BC
330
18
100
AcDbEntity
  8
1
 62
     1
100
AcDbLine
 10
40.27556294033372
 20
-0.0532271475360888
 30
0.0
 11
40.32848130383096
 21
-0.1086214002573098
 31
0.0
  0
LINE
  5
5BD
330
18
100
AcDbEntity
  8
1
 62
     1
100
AcDbLine
 10
40.32848130383096
 20
-0.1086214002573098
 30
0.0
 11
40.43251824519525
 21
-0.2288552940295382
 31
0.0
  0
LINE
  5
5BE
330
18
100
AcDbEntity
  8
1
 62
     1
100
AcDbLine
 10
40.43251824519525
 20
-0.2288552940295382
 30
0.0
 11
40.5341886760197
 21
-0.3608921023501956
 31
0.0
  0
LINE
  5
5BF
330
18
100
AcDbEntity
  8
1
 62
     1
100
AcDbLine
 10
40.5341886760197
 20
-0.3608921023501956
 30
0.0
 11
40.63352496677747
 21
-0.5038154377212715
 31
0.0
  0
LINE
  5
5C0
330
18
100
AcDbEntity
  8
1
 62
     1
100
AcDbLine
 10
40.63352496677747
 20
-0.5038154377212715
 30
0.0
 11
40.73056680706072
 21
-0.6567607212184766
 31
0.0
  0
LINE
  5
5C1
330
18
100
AcDbEntity
  8
1
 62
     1
100
AcDbLine
 10
40.73056680706072
 20
-0.6567607212184766
 30
0.0
 11
40.82535768011823
 21
-0.8189093272694057
 31
0.0
  0
LINE
  5
5C2
330
18
100
AcDbEntity
  8
1
 62
     1
100
AcDbLine
 10
40.82535768011823
 20
-0.8189093272694057
 30
0.0
 11
40.96344016538872
 21
-1.077735432492331
 31
0.0
  0
ARC
  5
5C3
330
18
100
AcDbEntity
  8
1
 62
     1
100
AcDbCircle
 10
30.67885746785921
 20
-9.3514576177039
 30
0.0
 40
13.32999105047632
100
AcDbArc
 50
45.5397452910981
 51
47.55837218232756
  0
LINE
  5
5C4
330
18
100
AcDbEntity
  8
1
 62
     1
100
AcDbLine
 10
39.5428989337464
 20
0.6066570037717369
 30
0.0
 11
39.47524001033514
 21
0.6661129873161546
 31
0.0
  0
LINE
  5
5C5
330
18
100
AcDbEntity
  8
1
 62
     1
100
AcDbLine
 10
39.47524001033514
 20
0.6661129873161546
 30
0.0
 11
39.40658650026307
 21
0.7198523030799752
 31
0.0
  0
LINE
  5
5C6
330
18
100
AcDbEntity
  8
1
 62
     1
100
AcDbLine
 10
39.40658650026307
 20
0.7198523030799752
 30
0.0
 11
39.33692205767388
 21
0.7676346148956734
 31
0.0
  0
LINE
  5
5C7
330
18
100
AcDbEntity
  8
1
 62
     1
100
AcDbLine
 10
39.33692205767388
 20
0.7676346148956734
 30
0.0
 11
39.3017235820689
 21
0.7892015294235745
 31
0.0
  0
LINE
  5
5C8
330
18
100
AcDbEntity
  8
1
 62
     1
100
AcDbLine
 10
39.3017235820689
 20
0.7892015294235745
 30
0.0
 11
39.26626901572247
 21
0.8091820948258056
 31
0.0
  0
LINE
  5
5C9
330
18
100
AcDbEntity
  8
1
 62
     1
100
AcDbLine
 10
39.26626901572247
 20
0.8091820948258056
 30
0.0
 11
39.23056700826488
 21
0.8275381908531425
 31
0.0
  0
LINE
  5
5CA
330
18
100
AcDbEntity
  8
1
 62
     1
100
AcDbLine
 10
39.23056700826488
 20
0.8275381908531425
 30
0.0
 11
39.19462859065174
 21
0.8442302604445374
 31
0.0
  0
LINE
  5
5CB
330
18
100
AcDbEntity
  8
1
 62
     1
100
AcDbLine
 10
39.19462859065174
 20
0.8442302604445374
 30
0.0
 11
39.15845599753378
 21
0.8592228002338218
 31
0.0
  0
LINE
  5
5CC
330
18
100
AcDbEntity
  8
1
 62
     1
100
AcDbLine
 10
39.15845599753378
 20
0.8592228002338218
 30
0.0
 11
39.12204416260273
 21
0.8724839954049404
 31
0.0
  0
LINE
  5
5CD
330
18
100
AcDbEntity
  8
1
 62
     1
100
AcDbLine
 10
39.12204416260273
 20
0.8724839954049404
 30
0.0
 11
39.08540616048377
 21
0.8839737975012815
 31
0.0
  0
LINE
  5
5CE
330
18
100
AcDbEntity
  8
1
 62
     1
100
AcDbLine
 10
39.08540616048377
 20
0.8839737975012815
 30
0.0
 11
39.04853956762438
 21
0.8936568218959422
 31
0.0
  0
LINE
  5
5CF
330
18
100
AcDbEntity
  8
1
 62
     1
100
AcDbLine
 10
39.04853956762438
 20
0.8936568218959422
 30
0.0
 11
39.01145518539251
 21
0.9014941548349015
 31
0.0
  0
LINE
  5
5D0
330
18
100
AcDbEntity
  8
1
 62
     1
100
AcDbLine
 10
39.01145518539251
 20
0.9014941548349015
 30
0.0
 11
38.97416698000001
 21
0.9074457284964188
 31
0.0
  0
LINE
  5
5D1
330
18
100
AcDbEntity
  8
1
 62
     1
100
AcDbLine
 10
39.6744493332686
 20
0.485609810506443
 30
0.0
 11
39.67443161034324
 21
0.4856260031892216
 31
0.0
  0
LINE
  5
5D2
330
18
100
AcDbEntity
  8
1
 62
     1
100
AcDbLine
 10
39.67443161034324
 20
0.4856260031892216
 30
0.0
 11
39.6731631997458
 21
0.4867849776096889
 31
0.0
  0
LINE
  5
5D3
330
18
100
AcDbEntity
  8
1
 62
     1
100
AcDbLine
 10
39.5429053587699
 20
0.6066514391739775
 30
0.0
 11
39.54289912755146
 21
0.6066572129325627
 31
0.0
  0
ARC
  5
5D4
330
18
100
AcDbEntity
  8
1
 62
     1
100
AcDbCircle
 10
57.61316058054283
 20
3.886647572422792
 30
0.0
 40
3.635260432361974
100
AcDbArc
 50
225.7482542332546
 51
237.2360983659205
  0
LINE
  5
5D5
330
18
100
AcDbEntity
  8
1
 62
     1
100
AcDbLine
 10
51.99374345354087
 20
0.2828852924033499
 30
0.0
 11
51.99375235269894
 21
0.2828773679288136
 31
0.0
  0
LINE
  5
5D6
330
18
100
AcDbEntity
  8
1
 62
     1
100
AcDbLine
 10
51.99375235269893
 20
0.2828773679288136
 30
0.0
 11
52.08665537102408
 21
0.1941140987150105
 31
0.0
  0
LINE
  5
5D7
330
18
100
AcDbEntity
  8
1
 62
     1
100
AcDbLine
 10
52.08665537102408
 20
0.1941140987150105
 30
0.0
 11
52.17770963205313
 21
0.0953762373191853
 31
0.0
  0
LINE
  5
5D8
330
18
100
AcDbEntity
  8
1
 62
     1
100
AcDbLine
 10
52.17770963205313
 20
0.0953762373191853
 30
0.0
 11
52.26692270598592
 21
-0.0126925762112994
 31
0.0
  0
LINE
  5
5D9
330
18
100
AcDbEntity
  8
1
 62
     1
100
AcDbLine
 10
52.26692270598592
 20
-0.0126925762112994
 30
0.0
 11
52.35433779644246
 21
-0.1295152401368417
 31
0.0
  0
LINE
  5
5DA
330
18
100
AcDbEntity
  8
1
 62
     1
100
AcDbLine
 10
52.35433779644246
 20
-0.1295152401368417
 30
0.0
 11
52.43996940254177
 21
-0.2545024512333403
 31
0.0
  0
LINE
  5
5DB
330
18
100
AcDbEntity
  8
1
 62
     1
100
AcDbLine
 10
52.43996940254177
 20
-0.2545024512333403
 30
0.0
 11
52.52385670291768
 21
-0.3871221077076898
 31
0.0
  0
LINE
  5
5DC
330
18
100
AcDbEntity
  8
1
 62
     1
100
AcDbLine
 10
52.52385670291768
 20
-0.3871221077076898
 30
0.0
 11
52.68651708846566
 21
-0.673188432560252
 31
0.0
  0
LINE
  5
5DD
330
18
100
AcDbEntity
  8
1
 62
     1
100
AcDbLine
 10
51.99375242576365
 20
0.2828774499816255
 30
0.0
 11
51.99374352663598
 21
0.2828853744886041
 31
0.0
  0
ARC
  5
5DE
330
18
100
AcDbEntity
  8
1
 62
     1
100
AcDbCircle
 10
41.38380276063155
 20
-9.024333780402756
 30
0.0
 40
14.04493638947268
100
AcDbArc
 50
42.50254192054567
 51
45.82315381308897
  0
ARC
  5
5DF
330
18
100
AcDbEntity
  8
1
 62
     1
100
AcDbCircle
 10
49.00312340361899
 20
0.097786977263955
 30
0.0
 40
2.20202420675482
100
AcDbArc
 50
38.24122970056849
 51
44.48985729805131
  0
LINE
  5
5E0
330
18
100
AcDbEntity
  8
1
 62
     1
100
AcDbLine
 10
51.17135823325975
 20
1.048571485300855
 30
0.0
 11
51.17001674373481
 21
1.049870765246391
 31
0.0
  0
LINE
  5
5E1
330
18
100
AcDbEntity
  8
1
 62
     1
100
AcDbLine
 10
42.9817625913406
 20
1.282699860926883
 30
0.0
 11
43.21242039740949
 21
1.050125945566779
 31
0.0
  0
LINE
  5
5E2
330
18
100
AcDbEntity
  8
1
 62
     1
100
AcDbLine
 10
43.21242039740949
 20
1.050125945566779
 30
0.0
 11
43.32899937390704
 21
0.944356709985387
 31
0.0
  0
LINE
  5
5E3
330
18
100
AcDbEntity
  8
1
 62
     1
100
AcDbLine
 10
43.32899937390704
 20
0.944356709985387
 30
0.0
 11
43.44636312949041
 21
0.8459430772405802
 31
0.0
  0
LINE
  5
5E4
330
18
100
AcDbEntity
  8
1
 62
     1
100
AcDbLine
 10
43.44636312949041
 20
0.8459430772405802
 30
0.0
 11
43.5644922628467
 21
0.7551198196177975
 31
0.0
  0
LINE
  5
5E5
330
18
100
AcDbEntity
  8
1
 62
     1
100
AcDbLine
 10
43.5644922628467
 20
0.7551198196177975
 30
0.0
 11
43.68335365826488
 21
0.6721255600460257
 31
0.0
  0
LINE
  5
5E6
330
18
100
AcDbEntity
  8
1
 62
     1
100
AcDbLine
 10
43.68335365826488
 20
0.6721255600460257
 30
0.0
 11
43.80290221637921
 21
0.5971992420433421
 31
0.0
  0
LINE
  5
5E7
330
18
100
AcDbEntity
  8
1
 62
     1
100
AcDbLine
 10
43.80290221637921
 20
0.5971992420433421
 30
0.0
 11
43.92307692307692
 21
0.530577695135973
 31
0.0
  0
LINE
  5
5E8
330
18
100
AcDbEntity
  8
SK1
100
AcDbLine
 10
0.0
 20
4.6609
 30
0.0
 11
-16.94899999999999
 21
4.6609
 31
0.0
  0
LINE
  5
5E9
330
18
100
AcDbEntity
  8
SK1
100
AcDbLine
 10
-16.94899999999999
 20
-3.4925
 30
0.0
 11
-16.94899999999999
 21
-4.6609
 31
0.0
  0
LINE
  5
5EA
330
18
100
AcDbEntity
  8
SK1
100
AcDbLine
 10
-27.65890999999999
 20
3.086491950418794
 30
0.0
 11
-16.94899999999999
 21
3.086491950418794
 31
0.0
  0
LINE
  5
5EB
330
18
100
AcDbEntity
  8
SK1
100
AcDbLine
 10
-27.65890999999999
 20
3.492500000000001
 30
0.0
 11
-16.94899999999999
 21
3.492500000000001
 31
0.0
  0
ARC
  5
5EC
330
18
100
AcDbEntity
  8
SK1
100
AcDbCircle
 10
-18.41318303839836
 20
-3.089783219888204
 30
0.0
 40
11.11865910240033
100
AcDbArc
 50
146.2565214491957
 51
150.8648651576619
  0
LINE
  5
5ED
330
18
100
AcDbEntity
  8
SK1
100
AcDbLine
 10
-27.65890999999999
 20
3.492500000000002
 30
0.0
 11
-27.65890999999999
 21
3.086491950418794
 31
0.0
  0
LINE
  5
5EE
330
18
100
AcDbEntity
  8
SK1
100
AcDbLine
 10
-28.12499999999999
 20
3.492500000000001
 30
0.0
 11
-27.65890999999999
 21
3.492500000000001
 31
0.0
  0
LINE
  5
5EF
330
18
100
AcDbEntity
  8
SK1
100
AcDbLine
 10
-16.94899999999999
 20
4.6609
 30
0.0
 11
-16.94899999999999
 21
4.660655259991866
 31
0.0
  0
LINE
  5
5F0
330
18
100
AcDbEntity
  8
SK1
100
AcDbLine
 10
-16.94899999999999
 20
4.660655259991866
 30
0.0
 11
-16.94899999999999
 21
4.585719339955271
 31
0.0
  0
LINE
  5
5F1
330
18
100
AcDbEntity
  8
SK1
100
AcDbLine
 10
-16.94899999999999
 20
4.585719339955271
 30
0.0
 11
-16.94899999999999
 21
3.492500000000002
 31
0.0
  0
LINE
  5
5F2
330
18
100
AcDbEntity
  8
SK1
100
AcDbLine
 10
-27.65890999999999
 20
-3.08649195041879
 30
0.0
 11
-16.94899999999999
 21
-3.08649195041879
 31
0.0
  0
LINE
  5
5F3
330
18
100
AcDbEntity
  8
SK1
100
AcDbLine
 10
-27.65890999999999
 20
-3.086491950418791
 30
0.0
 11
-27.65890999999999
 21
-3.492500000000001
 31
0.0
  0
LINE
  5
5F4
330
18
100
AcDbEntity
  8
SK1
100
AcDbLine
 10
-27.65890999999999
 20
-3.492500000000001
 30
0.0
 11
-16.94899999999999
 21
-3.492500000000001
 31
0.0
  0
LINE
  5
5F5
330
18
100
AcDbEntity
  8
SK1
100
AcDbLine
 10
-28.125
 20
2.323547866109067
 30
0.0
 11
-28.12499999999999
 21
-2.323547866109065
 31
0.0
  0
LINE
  5
5F6
330
18
100
AcDbEntity
  8
SK1
100
AcDbLine
 10
-28.12499999999999
 20
3.4925
 30
0.0
 11
-28.125
 21
2.323547866109067
 31
0.0
  0
LINE
  5
5F7
330
18
100
AcDbEntity
  8
SK1
100
AcDbLine
 10
-28.125
 20
-2.323547866109064
 30
0.0
 11
-28.125
 21
-3.492499999999999
 31
0.0
  0
ARC
  5
5F8
330
18
100
AcDbEntity
  8
SK1
100
AcDbCircle
 10
-18.41318303839917
 20
3.089783219887671
 30
0.0
 40
11.11865910239936
100
AcDbArc
 50
209.1351348423377
 51
213.7434785508043
  0
LINE
  5
5F9
330
18
100
AcDbEntity
  8
SK1
100
AcDbLine
 10
-28.12499999999999
 20
-3.492500000000001
 30
0.0
 11
-27.65890999999999
 21
-3.4925
 31
0.0
  0
LINE
  5
5FA
330
18
100
AcDbEntity
  8
SK1
100
AcDbLine
 10
-16.94899999999999
 20
3.086491950418797
 30
0.0
 11
-16.94899999999999
 21
-3.086491950418792
 31
0.0
  0
LINE
  5
5FB
330
18
100
AcDbEntity
  8
SK1
100
AcDbLine
 10
-16.94899999999999
 20
-4.6609
 30
0.0
 11
-0.0000000000000004
 21
-4.6609
 31
0.0
  0
DIMENSION
  5
5FC
330
18
100
AcDbEntity
  8
2
100
AcDbDimension
  2
*D0
 10
72.60000000000005
 20
-6.349999999999947
 30
0.0
 11
69.4007500000001
 21
-24.44099999999996
 31
0.0
 70
    32
  1
UNC1/2-13
 71
     5
 42
12.7
  3
STANDARD
100
AcDbAlignedDimension
 13
57.6
 23
6.35
 33
0.0
 14
57.6
 24
-6.35
 34
0.0
 50
90.0000000000002
100
AcDbRotatedDimension
  0
DIMENSION
  5
60A
330
18
100
AcDbEntity
  8
2
100
AcDbDimension
  2
*D1
 10
57.6
 20
75.0
 30
0.0
 11
28.8
 21
77.39775
 31
0.0
 70
    32
  1
<>
 71
     5
 42
57.6
  3
STANDARD
100
AcDbAlignedDimension
 13
0.0
 23
0.0
 33
0.0
 14
57.6
 24
0.0
 34
0.0
100
AcDbRotatedDimension
  0
DIMENSION
  5
617
330
18
100
AcDbEntity
  8
SK2
100
AcDbDimension
  2
*D2
 10
-43.1249999999762
 20
-4.660900000133586
 30
0.0
 11
-45.52274999992417
 21
-14.85765000014582
 31
0.0
 70
    32
  1
%%c<>
 71
     5
 42
9.3218
  3
STANDARD
100
AcDbAlignedDimension
 13
-16.94899999999999
 23
4.6609
 33
0.0
 14
-16.94899999999999
 24
-4.6609
 34
0.0
 50
90.0000000002924
100
AcDbRotatedDimension
  0
DIMENSION
  5
625
330
18
100
AcDbEntity
  8
2
100
AcDbDimension
  2
*D3
 10
57.6
 20
60.0
 30
0.0
 11
48.28708349
 21
62.39775
 31
0.0
 70
    32
  1
<>
 71
     5
 42
18.62583302
  3
STANDARD
100
AcDbAlignedDimension
 13
38.97416698
 23
4.4
 33
0.0
 14
57.6
 24
6.35
 34
0.0
100
AcDbRotatedDimension
  0
DIMENSION
  5
632
330
18
100
AcDbEntity
  8
SK2
100
AcDbDimension
  2
*D4
 10
57.6
 20
90.0
 30
0.0
 11
14.7375
 21
92.39775
 31
0.0
 70
    32
  1
<>
 71
     5
 42
85.725
  3
STANDARD
100
AcDbAlignedDimension
 13
-28.12499999999999
 23
6.35
 33
0.0
 14
57.6
 24
6.35
 34
0.0
100
AcDbRotatedDimension
  0
ENDSEC
  0
SECTION
  2
OBJECTS
  0
DICTIONARY
  5
C
330
0
100
AcDbDictionary
281
     1
  3
ACAD_COLOR
350
387
  3
ACAD_GROUP
350
D
  3
ACAD_LAYOUT
350
301
  3
ACAD_MATERIAL
350
386
  3
ACAD_MLEADERSTYLE
350
63F
  3
ACAD_MLINESTYLE
350
E
  3
ACAD_PLOTSETTINGS
350
302
  3
ACAD_PLOTSTYLENAME
350
2FF
  3
ACAD_SCALELIST
350
3A0
  3
ACAD_TABLESTYLE
350
388
  3
ACAD_VISUALSTYLE
350
3C5
  3
ACDBHEADERROUNDTRIPXREC
350
640
  3
AcDbVariableDictionary
350
357
  0
DICTIONARY
  5
387
102
{ACAD_REACTORS
330
C
102
}
330
C
100
AcDbDictionary
281
     1
  0
DICTIONARY
  5
D
102
{ACAD_REACTORS
330
C
102
}
330
C
100
AcDbDictionary
281
     1
  0
DICTIONARY
  5
301
102
{ACAD_REACTORS
330
C
102
}
330
C
100
AcDbDictionary
281
     1
  3
Layout1
350
33B
  3
Model
350
303
  0
DICTIONARY
  5
386
102
{ACAD_REACTORS
330
C
102
}
330
C
100
AcDbDictionary
281
     1
  3
ByBlock
350
3C3
  3
ByLayer
350
3C2
  3
Global
350
3C4
  0
DICTIONARY
  5
63F
102
{ACAD_REACTORS
330
C
102
}
330
C
100
AcDbDictionary
281
     1
  0
DICTIONARY
  5
E
102
{ACAD_REACTORS
330
C
102
}
330
C
100
AcDbDictionary
281
     1
  3
STANDARD
350
1B
  0
DICTIONARY
  5
302
102
{ACAD_REACTORS
330
C
102
}
330
C
100
AcDbDictionary
281
     1
  0
ACDBDICTIONARYWDFLT
  5
2FF
102
{ACAD_REACTORS
330
C
102
}
330
C
100
AcDbDictionary
281
     1
  3
Normal
350
300
100
AcDbDictionaryWithDefault
340
300
  0
DICTIONARY
  5
3A0
102
{ACAD_REACTORS
330
C
102
}
330
C
100
AcDbDictionary
281
     1
  3
A0
350
3A1
  3
A1
350
3A2
  3
A2
350
3A3
  3
A3
350
3A4
  3
A4
350
3A5
  3
A5
350
3A6
  3
A6
350
3A7
  3
A7
350
3A8
  3
A8
350
3A9
  3
A9
350
3AA
  3
B0
350
3AB
  3
B1
350
3AC
  3
B2
350
3AD
  3
B3
350
3AE
  3
B4
350
3AF
  3
B5
350
3B0
  3
B6
350
3B1
  3
B7
350
3B2
  3
B8
350
3B3
  3
B9
350
3B4
  3
C0
350
3B5
  3
C1
350
3B6
  3
C2
350
3B7
  3
C3
350
3B8
  3
C4
350
3B9
  3
C5
350
3BA
  3
C6
350
3BB
  3
C7
350
3BC
  3
C8
350
3BD
  3
C9
350
3BE
  3
D0
350
3BF
  3
D1
350
3C0
  3
D2
350
3C1
  0
DICTIONARY
  5
388
102
{ACAD_REACTORS
330
C
102
}
330
C
100
AcDbDictionary
281
     1
  3
Standard
350
389
  0
DICTIONARY
  5
3C5
102
{ACAD_REACTORS
330
C
102
}
330
C
100
AcDbDictionary
281
     1
  3
2dWireframe
350
3CA
  3
3D Hidden
350
3CC
  3
3dWireframe
350
3CB
  3
Basic
350
3CD
  3
Brighten
350
3D1
  3
ColorChange
350
3D5
  3
Conceptual
350
3CF
  3
Dim
350
3D0
  3
Facepattern
350
3D4
  3
Flat
350
3C6
  3
FlatWithEdges
350
3C7
  3
Gouraud
350
3C8
  3
GouraudWithEdges
350
3C9
  3
Linepattern
350
3D3
  3
Realistic
350
3CE
  3
Thicken
350
3D2
  0
DICTIONARY
  5
640
102
{ACAD_REACTORS
330
C
102
}
330
C
100
AcDbDictionary
281
     1
  3
COLORDICT
350
641
  3
MATERIALDICT
350
642
  0
DICTIONARY
  5
357
102
{ACAD_REACTORS
330
C
102
}
330
C
100
AcDbDictionary
281
     1
  3
CANNOSCALE
350
643
  3
CTABLESTYLE
350
38D
  3
DIMASSOC
350
359
  3
HIDETEXT
350
358
  3
PROJECTNAME
350
38E
  0
LAYOUT
  5
33B
102
{ACAD_REACTORS
330
301
102
}
330
301
100
AcDbPlotSettings
  1

  2
Lexmark Optra PS2
  4

  6

 40
0.0
 41
0.0
 42
0.0
 43
0.0
 44
0.0
 45
0.0
 46
0.0
 47
0.0
 48
0.0
 49
0.0
140
0.0
141
0.0
142
1.0
143
1.0
 70
   688
 72
     0
 73
     0
 74
     5
  7
monochrome.ctb
 75
    16
147
1.0
148
0.0
149
0.0
100
AcDbLayout
  1
Layout1
 70
     1
 71
     1
 10
0.0
 20
0.0
 11
12.0
 21
9.0
 12
0.0
 22
0.0
 32
0.0
 14
0.0
 24
0.0
 34
0.0
 15
0.0
 25
0.0
 35
0.0
146
0.0
 13
0.0
 23
0.0
 33
0.0
 16
1.0
 26
0.0
 36
0.0
 17
0.0
 27
1.0
 37
0.0
 76
     0
330
338
  0
LAYOUT
  5
303
102
{ACAD_REACTORS
330
301
102
}
330
301
100
AcDbPlotSettings
  1

  2
Lexmark Optra Rx
  4
A4
  6

 40
6.805083274841307
 41
5.535083293914794
 42
6.974411010742187
 43
7.14373779296875
 44
209.9733276367186
 45
296.9259948730469
 46
0.0
 47
0.0
 48
0.0
 49
0.0
140
0.0
141
0.0
142
1.0
143
2.976565420630886
 70
 11952
 72
     1
 73
     1
 74
     0
  7
monochrome.ctb
 75
     0
147
0.335957675604539
148
204.1199660668592
149
172.3933209647495
100
AcDbLayout
  1
Model
 70
     1
 71
     0
 10
0.0
 20
0.0
 11
12.0
 21
9.0
 12
0.0
 22
0.0
 32
0.0
 14
0.0
 24
0.0
 34
0.0
 15
0.0
 25
0.0
 35
0.0
146
0.0
 13
0.0
 23
0.0
 33
0.0
 16
1.0
 26
0.0
 36
0.0
 17
0.0
 27
1.0
 37
0.0
 76
     0
330
18
331
39A
  0
MATERIAL
  5
3C3
102
{ACAD_REACTORS
330
386
102
}
102
{ACAD_XDICTIONARY
360
646
102
}
330
386
100
AcDbMaterial
  1
ByBlock
  0
MATERIAL
  5
3C2
102
{ACAD_REACTORS
330
386
102
}
102
{ACAD_XDICTIONARY
360
644
102
}
330
386
100
AcDbMaterial
  1
ByLayer
  0
MATERIAL
  5
3C4
102
{ACAD_REACTORS
330
386
102
}
102
{ACAD_XDICTIONARY
360
648
102
}
330
386
100
AcDbMaterial
  1
Global
  0
MLINESTYLE
  5
1B
102
{ACAD_REACTORS
330
E
102
}
330
E
100
AcDbMlineStyle
  2
STANDARD
 70
     0
  3

 62
     0
 51
90.0
 52
90.0
 71
     2
 49
0.5
 62
   256
  6
BYLAYER
 49
-0.5
 62
   256
  6
BYLAYER
  0
ACDBPLACEHOLDER
  5
300
102
{ACAD_REACTORS
330
2FF
102
}
330
2FF
  0
SCALE
  5
3A1
102
{ACAD_REACTORS
330
3A0
102
}
330
3A0
100
AcDbScale
 70
     0
300
1:1
140
1.0
141
1.0
290
     1
  0
SCALE
  5
3A2
102
{ACAD_REACTORS
330
3A0
102
}
330
3A0
100
AcDbScale
 70
     0
300
1:2
140
1.0
141
2.0
290
     0
  0
SCALE
  5
3A3
102
{ACAD_REACTORS
330
3A0
102
}
330
3A0
100
AcDbScale
 70
     0
300
1:4
140
1.0
141
4.0
290
     0
  0
SCALE
  5
3A4
102
{ACAD_REACTORS
330
3A0
102
}
330
3A0
100
AcDbScale
 70
     0
300
1:5
140
1.0
141
5.0
290
     0
  0
SCALE
  5
3A5
102
{ACAD_REACTORS
330
3A0
102
}
330
3A0
100
AcDbScale
 70
     0
300
1:8
140
1.0
141
8.0
290
     0
  0
SCALE
  5
3A6
102
{ACAD_REACTORS
330
3A0
102
}
330
3A0
100
AcDbScale
 70
     0
300
1:10
140
1.0
141
10.0
290
     0
  0
SCALE
  5
3A7
102
{ACAD_REACTORS
330
3A0
102
}
330
3A0
100
AcDbScale
 70
     0
300
1:16
140
1.0
141
16.0
290
     0
  0
SCALE
  5
3A8
102
{ACAD_REACTORS
330
3A0
102
}
330
3A0
100
AcDbScale
 70
     0
300
1:20
140
1.0
141
20.0
290
     0
  0
SCALE
  5
3A9
102
{ACAD_REACTORS
330
3A0
102
}
330
3A0
100
AcDbScale
 70
     0
300
1:30
140
1.0
141
30.0
290
     0
  0
SCALE
  5
3AA
102
{ACAD_REACTORS
330
3A0
102
}
330
3A0
100
AcDbScale
 70
     0
300
1:40
140
1.0
141
40.0
290
     0
  0
SCALE
  5
3AB
102
{ACAD_REACTORS
330
3A0
102
}
330
3A0
100
AcDbScale
 70
     0
300
1:50
140
1.0
141
50.0
290
     0
  0
SCALE
  5
3AC
102
{ACAD_REACTORS
330
3A0
102
}
330
3A0
100
AcDbScale
 70
     0
300
1:100
140
1.0
141
100.0
290
     0
  0
SCALE
  5
3AD
102
{ACAD_REACTORS
330
3A0
102
}
330
3A0
100
AcDbScale
 70
     0
300
2:1
140
2.0
141
1.0
290
     0
  0
SCALE
  5
3AE
102
{ACAD_REACTORS
330
3A0
102
}
330
3A0
100
AcDbScale
 70
     0
300
4:1
140
4.0
141
1.0
290
     0
  0
SCALE
  5
3AF
102
{ACAD_REACTORS
330
3A0
102
}
330
3A0
100
AcDbScale
 70
     0
300
8:1
140
8.0
141
1.0
290
     0
  0
SCALE
  5
3B0
102
{ACAD_REACTORS
330
3A0
102
}
330
3A0
100
AcDbScale
 70
     0
300
10:1
140
10.0
141
1.0
290
     0
  0
SCALE
  5
3B1
102
{ACAD_REACTORS
330
3A0
102
}
330
3A0
100
AcDbScale
 70
     0
300
100:1
140
100.0
141
1.0
290
     0
  0
SCALE
  5
3B2
102
{ACAD_REACTORS
330
3A0
102
}
330
3A0
100
AcDbScale
 70
     0
300
1/128" = 1'-0"
140
0.0078125
141
12.0
290
     0
  0
SCALE
  5
3B3
102
{ACAD_REACTORS
330
3A0
102
}
330
3A0
100
AcDbScale
 70
     0
300
1/64" = 1'-0"
140
0.015625
141
12.0
290
     0
  0
SCALE
  5
3B4
102
{ACAD_REACTORS
330
3A0
102
}
330
3A0
100
AcDbScale
 70
     0
300
1/32" = 1'-0"
140
0.03125
141
12.0
290
     0
  0
SCALE
  5
3B5
102
{ACAD_REACTORS
330
3A0
102
}
330
3A0
100
AcDbScale
 70
     0
300
1/16" = 1'-0"
140
0.0625
141
12.0
290
     0
  0
SCALE
  5
3B6
102
{ACAD_REACTORS
330
3A0
102
}
330
3A0
100
AcDbScale
 70
     0
300
3/32" = 1'-0"
140
0.09375
141
12.0
290
     0
  0
SCALE
  5
3B7
102
{ACAD_REACTORS
330
3A0
102
}
330
3A0
100
AcDbScale
 70
     0
300
1/8" = 1'-0"
140
0.125
141
12.0
290
     0
  0
SCALE
  5
3B8
102
{ACAD_REACTORS
330
3A0
102
}
330
3A0
100
AcDbScale
 70
     0
300
3/16" = 1'-0"
140
0.1875
141
12.0
290
     0
  0
SCALE
  5
3B9
102
{ACAD_REACTORS
330
3A0
102
}
330
3A0
100
AcDbScale
 70
     0
300
1/4" = 1'-0"
140
0.25
141
12.0
290
     0
  0
SCALE
  5
3BA
102
{ACAD_REACTORS
330
3A0
102
}
330
3A0
100
AcDbScale
 70
     0
300
3/8" = 1'-0"
140
0.375
141
12.0
290
     0
  0
SCALE
  5
3BB
102
{ACAD_REACTORS
330
3A0
102
}
330
3A0
100
AcDbScale
 70
     0
300
1/2" = 1'-0"
140
0.5
141
12.0
290
     0
  0
SCALE
  5
3BC
102
{ACAD_REACTORS
330
3A0
102
}
330
3A0
100
AcDbScale
 70
     0
300
3/4" = 1'-0"
140
0.75
141
12.0
290
     0
  0
SCALE
  5
3BD
102
{ACAD_REACTORS
330
3A0
102
}
330
3A0
100
AcDbScale
 70
     0
300
1" = 1'-0"
140
1.0
141
12.0
290
     0
  0
SCALE
  5
3BE
102
{ACAD_REACTORS
330
3A0
102
}
330
3A0
100
AcDbScale
 70
     0
300
1-1/2" = 1'-0"
140
1.5
141
12.0
290
     0
  0
SCALE
  5
3BF
102
{ACAD_REACTORS
330
3A0
102
}
330
3A0
100
AcDbScale
 70
     0
300
3" = 1'-0"
140
3.0
141
12.0
290
     0
  0
SCALE
  5
3C0
102
{ACAD_REACTORS
330
3A0
102
}
330
3A0
100
AcDbScale
 70
     0
300
6" = 1'-0"
140
6.0
141
12.0
290
     0
  0
SCALE
  5
3C1
102
{ACAD_REACTORS
330
3A0
102
}
330
3A0
100
AcDbScale
 70
     0
300
1'-0" = 1'-0"
140
12.0
141
12.0
290
     0
  0
TABLESTYLE
  5
389
102
{ACAD_REACTORS
330
388
102
}
330
388
100
AcDbTableStyle
  3
Standard
 70
     0
 71
     0
 40
1.5
 41
1.5
280
     0
281
     0
  7
STANDARD
140
4.5
170
     2
 62
     0
 63
   257
283
     0
274
    -2
284
     1
 64
     0
275
    -2
285
     1
 65
     0
276
    -2
286
     1
 66
     0
277
    -2
287
     1
 67
     0
278
    -2
288
     1
 68
     0
279
    -2
289
     1
 69
     0
  7
STANDARD
140
6.0
170
     5
 62
     0
 63
   257
283
     0
274
    -2
284
     1
 64
     0
275
    -2
285
     1
 65
     0
276
    -2
286
     1
 66
     0
277
    -2
287
     1
 67
     0
278
    -2
288
     1
 68
     0
279
    -2
289
     1
 69
     0
  7
STANDARD
140
4.5
170
     5
 62
     0
 63
   257
283
     0
274
    -2
284
     1
 64
     0
275
    -2
285
     1
 65
     0
276
    -2
286
     1
 66
     0
277
    -2
287
     1
 67
     0
278
    -2
288
     1
 68
     0
279
    -2
289
     1
 69
     0
  0
VISUALSTYLE
  5
3CA
102
{ACAD_REACTORS
330
3C5
102
}
102
{ACAD_XDICTIONARY
360
652
102
}
330
3C5
100
AcDbVisualStyle
  2
2dWireframe
 70
     4
 71
     0
 72
     2
 73
     0
 90
        0
 40
-0.6
 41
-30.0
 62
     5
 63
     7
 74
     1
 91
        4
 64
     7
 65
   257
 75
     1
175
     1
 42
1.0
 92
        0
 66
   257
 43
1.0
 76
     1
 77
     6
 78
     2
 67
     7
 79
     5
170
     0
171
     0
290
     0
174
     0
 93
        1
 44
0.0
173
     0
291
     0
 45
0.0
1001
ACAD
1000
AcDbSavedByObjectVersion
1070
     0
  0
VISUALSTYLE
  5
3CC
102
{ACAD_REACTORS
330
3C5
102
}
102
{ACAD_XDICTIONARY
360
656
102
}
330
3C5
100
AcDbVisualStyle
  2
3D Hidden
 70
     6
 71
     1
 72
     2
 73
     2
 90
        0
 40
-0.6
 41
-30.0
 62
     5
 63
     7
 74
     2
 91
        2
 64
     7
 65
   257
 75
     2
175
     1
 42
40.0
 92
        0
 66
   257
 43
1.0
 76
     1
 77
     6
 78
     2
 67
     7
 79
     3
170
     0
171
     0
290
     0
174
     0
 93
        1
 44
0.0
173
     0
291
     0
 45
0.0
1001
ACAD
1000
AcDbSavedByObjectVersion
1070
     0
  0
VISUALSTYLE
  5
3CB
102
{ACAD_REACTORS
330
3C5
102
}
102
{ACAD_XDICTIONARY
360
654
102
}
330
3C5
100
AcDbVisualStyle
  2
3dWireframe
 70
     5
 71
     0
 72
     2
 73
     0
 90
        0
 40
-0.6
 41
-30.0
 62
     5
 63
     7
 74
     1
 91
        4
 64
     7
 65
   257
 75
     1
175
     1
 42
1.0
 92
        0
 66
   257
 43
1.0
 76
     1
 77
     6
 78
     2
 67
     7
 79
     5
170
     0
171
     0
290
     0
174
     0
 93
        1
 44
0.0
173
     0
291
     0
 45
0.0
1001
ACAD
1000
AcDbSavedByObjectVersion
1070
     0
  0
VISUALSTYLE
  5
3CD
102
{ACAD_REACTORS
330
3C5
102
}
102
{ACAD_XDICTIONARY
360
658
102
}
330
3C5
100
AcDbVisualStyle
  2
Basic
 70
     7
 71
     1
 72
     0
 73
     1
 90
        0
 40
-0.6
 41
-30.0
 62
     5
 63
     7
 74
     0
 91
        4
 64
     7
 65
   257
 75
     1
175
     1
 42
1.0
 92
        8
 66
     7
 43
1.0
 76
     1
 77
     6
 78
     2
 67
     7
 79
     5
170
     0
171
     0
290
     0
174
     0
 93
        1
 44
0.0
173
     0
291
     1
 45
0.0
1001
ACAD
1000
AcDbSavedByObjectVersion
1070
     0
  0
VISUALSTYLE
  5
3D1
102
{ACAD_REACTORS
330
3C5
102
}
102
{ACAD_XDICTIONARY
360
660
102
}
330
3C5
100
AcDbVisualStyle
  2
Brighten
 70
    12
 71
     2
 72
     2
 73
     0
 90
        0
 40
-0.6
 41
-30.0
 62
     5
 63
     7
 74
     1
 91
        4
 64
     7
 65
   257
 75
     1
175
     1
 42
1.0
 92
        8
 66
     7
 43
1.0
 76
     1
 77
     6
 78
     2
 67
     7
 79
     5
170
     0
171
     0
290
     0
174
     0
 93
        1
 44
50.0
173
     0
291
     1
 45
0.0
1001
ACAD
1000
AcDbSavedByObjectVersion
1070
     0
  0
VISUALSTYLE
  5
3D5
102
{ACAD_REACTORS
330
3C5
102
}
102
{ACAD_XDICTIONARY
360
668
102
}
330
3C5
100
AcDbVisualStyle
  2
ColorChange
 70
    16
 71
     2
 72
     2
 73
     3
 90
        0
 40
-0.6
 41
-30.0
 62
     5
 63
     8
 74
     1
 91
        4
 64
     7
 65
   257
 75
     1
175
     1
 42
1.0
 92
        8
 66
     8
 43
1.0
 76
     1
 77
     6
 78
     2
 67
     7
 79
     5
170
     0
171
     0
290
     0
174
     0
 93
        1
 44
0.0
173
     0
291
     1
 45
0.0
1001
ACAD
1000
AcDbSavedByObjectVersion
1070
     0
  0
VISUALSTYLE
  5
3CF
102
{ACAD_REACTORS
330
3C5
102
}
102
{ACAD_XDICTIONARY
360
65C
102
}
330
3C5
100
AcDbVisualStyle
  2
Conceptual
 70
     9
 71
     3
 72
     2
 73
     0
 90
        0
 40
-0.6
 41
-30.0
 62
     5
 63
     7
 74
     2
 91
        2
 64
     7
 65
   257
 75
     1
175
     1
 42
40.0
 92
        8
 66
     7
 43
1.0
 76
     1
 77
     6
 78
     2
 67
     7
 79
     3
170
     0
171
     0
290
     0
174
     0
 93
        1
 44
0.0
173
     0
291
     0
 45
0.0
1001
ACAD
1000
AcDbSavedByObjectVersion
1070
     0
  0
VISUALSTYLE
  5
3D0
102
{ACAD_REACTORS
330
3C5
102
}
102
{ACAD_XDICTIONARY
360
65E
102
}
330
3C5
100
AcDbVisualStyle
  2
Dim
 70
    11
 71
     2
 72
     2
 73
     0
 90
        0
 40
-0.6
 41
-30.0
 62
     5
 63
     7
 74
     1
 91
        4
 64
     7
 65
   257
 75
     1
175
     1
 42
1.0
 92
        8
 66
     7
 43
1.0
 76
     1
 77
     6
 78
     2
 67
     7
 79
     5
170
     0
171
     0
290
     0
174
     0
 93
        1
 44
-50.0
173
     0
291
     1
 45
0.0
1001
ACAD
1000
AcDbSavedByObjectVersion
1070
     0
  0
VISUALSTYLE
  5
3D4
102
{ACAD_REACTORS
330
3C5
102
}
102
{ACAD_XDICTIONARY
360
666
102
}
330
3C5
100
AcDbVisualStyle
  2
Facepattern
 70
    15
 71
     2
 72
     2
 73
     0
 90
        0
 40
-0.6
 41
-30.0
 62
     5
 63
     7
 74
     1
 91
        4
 64
     7
 65
   257
 75
     1
175
     1
 42
1.0
 92
        8
 66
     7
 43
1.0
 76
     1
 77
     6
 78
     2
 67
     7
 79
     5
170
     0
171
     0
290
     0
174
     0
 93
        1
 44
0.0
173
     0
291
     1
 45
0.0
1001
ACAD
1000
AcDbSavedByObjectVersion
1070
     0
  0
VISUALSTYLE
  5
3C6
102
{ACAD_REACTORS
330
3C5
102
}
102
{ACAD_XDICTIONARY
360
64A
102
}
330
3C5
100
AcDbVisualStyle
  2
Flat
 70
     0
 71
     2
 72
     1
 73
     1
 90
        2
 40
-0.6
 41
30.0
 62
     5
 63
     7
 74
     0
 91
        4
 64
     7
 65
   257
 75
     1
175
     1
 42
1.0
 92
        8
 66
     7
 43
1.0
 76
     1
 77
     6
 78
     2
 67
     7
 79
     5
170
     0
171
     0
290
     0
174
     0
 93
       13
 44
0.0
173
     0
291
     1
 45
0.0
1001
ACAD
1000
AcDbSavedByObjectVersion
1070
     0
  0
VISUALSTYLE
  5
3C7
102
{ACAD_REACTORS
330
3C5
102
}
102
{ACAD_XDICTIONARY
360
64C
102
}
330
3C5
100
AcDbVisualStyle
  2
FlatWithEdges
 70
     1
 71
     2
 72
     1
 73
     1
 90
        2
 40
-0.6
 41
30.0
 62
     5
 63
     7
 74
     1
 91
        4
 64
     7
 65
   257
 75
     1
175
     1
 42
1.0
 92
        0
 66
   257
 43
1.0
 76
     1
 77
     6
 78
     2
 67
     7
 79
     5
170
     0
171
     0
290
     0
174
     0
 93
       13
 44
0.0
173
     0
291
     1
 45
0.0
1001
ACAD
1000
AcDbSavedByObjectVersion
1070
     0
  0
VISUALSTYLE
  5
3C8
102
{ACAD_REACTORS
330
3C5
102
}
102
{ACAD_XDICTIONARY
360
64E
102
}
330
3C5
100
AcDbVisualStyle
  2
Gouraud
 70
     2
 71
     2
 72
     2
 73
     1
 90
        2
 40
-0.6
 41
30.0
 62
     5
 63
     7
 74
     0
 91
        4
 64
     7
 65
   257
 75
     1
175
     1
 42
1.0
 92
        0
 66
     7
 43
1.0
 76
     1
 77
     6
 78
     2
 67
     7
 79
     5
170
     0
171
     0
290
     0
174
     0
 93
       13
 44
0.0
173
     0
291
     1
 45
0.0
1001
ACAD
1000
AcDbSavedByObjectVersion
1070
     0
  0
VISUALSTYLE
  5
3C9
102
{ACAD_REACTORS
330
3C5
102
}
102
{ACAD_XDICTIONARY
360
650
102
}
330
3C5
100
AcDbVisualStyle
  2
GouraudWithEdges
 70
     3
 71
     2
 72
     2
 73
     1
 90
        2
 40
-0.6
 41
30.0
 62
     5
 63
     7
 74
     1
 91
        4
 64
     7
 65
   257
 75
     1
175
     1
 42
1.0
 92
        0
 66
   257
 43
1.0
 76
     1
 77
     6
 78
     2
 67
     7
 79
     5
170
     0
171
     0
290
     0
174
     0
 93
       13
 44
0.0
173
     0
291
     1
 45
0.0
1001
ACAD
1000
AcDbSavedByObjectVersion
1070
     0
  0
VISUALSTYLE
  5
3D3
102
{ACAD_REACTORS
330
3C5
102
}
102
{ACAD_XDICTIONARY
360
664
102
}
330
3C5
100
AcDbVisualStyle
  2
Linepattern
 70
    14
 71
     2
 72
     2
 73
     0
 90
        0
 40
-0.6
 41
-30.0
 62
     5
 63
     7
 74
     1
 91
        4
 64
     7
 65
   257
 75
     7
175
     7
 42
1.0
 92
        8
 66
     7
 43
1.0
 76
     1
 77
     6
 78
     2
 67
     7
 79
     5
170
     0
171
     0
290
     0
174
     0
 93
        1
 44
0.0
173
     0
291
     1
 45
0.0
1001
ACAD
1000
AcDbSavedByObjectVersion
1070
     0
  0
VISUALSTYLE
  5
3CE
102
{ACAD_REACTORS
330
3C5
102
}
102
{ACAD_XDICTIONARY
360
65A
102
}
330
3C5
100
AcDbVisualStyle
  2
Realistic
 70
     8
 71
     2
 72
     2
 73
     0
 90
        0
 40
-0.6
 41
-30.0
 62
     5
 63
     7
 74
     1
 91
        0
 64
     7
 65
   257
 75
     1
175
     1
 42
1.0
 92
        8
 66
     8
 43
1.0
 76
     1
 77
     6
 78
     2
 67
     7
 79
     5
170
     0
171
     0
290
     0
174
     0
 93
       13
 44
0.0
173
     0
291
     0
 45
0.0
1001
ACAD
1000
AcDbSavedByObjectVersion
1070
     0
  0
VISUALSTYLE
  5
3D2
102
{ACAD_REACTORS
330
3C5
102
}
102
{ACAD_XDICTIONARY
360
662
102
}
330
3C5
100
AcDbVisualStyle
  2
Thicken
 70
    13
 71
     2
 72
     2
 73
     0
 90
        0
 40
-0.6
 41
-30.0
 62
     5
 63
     7
 74
     1
 91
        4
 64
     7
 65
   257
 75
     1
175
     1
 42
1.0
 92
       12
 66
     7
 43
1.0
 76
     1
 77
     6
 78
     2
 67
     7
 79
     5
170
     0
171
     0
290
     0
174
     0
 93
        1
 44
0.0
173
     0
291
     1
 45
0.0
1001
ACAD
1000
AcDbSavedByObjectVersion
1070
     0
  0
XRECORD
  5
641
102
{ACAD_REACTORS
330
640
102
}
330
640
100
AcDbXrecord
280
     1
340
387
  0
XRECORD
  5
642
102
{ACAD_REACTORS
330
640
102
}
330
640
100
AcDbXrecord
280
     1
340
386
  0
DICTIONARYVAR
  5
643
102
{ACAD_REACTORS
330
357
102
}
330
357
100
DictionaryVariables
280
     0
  1
1:1
  0
DICTIONARYVAR
  5
38D
102
{ACAD_REACTORS
330
357
102
}
330
357
100
DictionaryVariables
280
     0
  1
Standard
  0
DICTIONARYVAR
  5
359
102
{ACAD_REACTORS
330
357
102
}
330
357
100
DictionaryVariables
280
     0
  1
2
  0
DICTIONARYVAR
  5
358
102
{ACAD_REACTORS
330
357
102
}
330
357
100
DictionaryVariables
280
     0
  1
1
  0
DICTIONARYVAR
  5
38E
102
{ACAD_REACTORS
330
357
102
}
330
357
100
DictionaryVariables
280
     0
  1

  0
DICTIONARY
  5
646
330
3C3
100
AcDbDictionary
280
     1
281
     1
  3
ACAD_XREC_ROUNDTRIP
360
647
  0
DICTIONARY
  5
644
330
3C2
100
AcDbDictionary
280
     1
281
     1
  3
ACAD_XREC_ROUNDTRIP
360
645
  0
DICTIONARY
  5
648
330
3C4
100
AcDbDictionary
280
     1
281
     1
  3
ACAD_XREC_ROUNDTRIP
360
649
  0
DICTIONARY
  5
652
330
3CA
100
AcDbDictionary
280
     1
281
     1
  3
ACAD_XREC_ROUNDTRIP
360
653
  0
DICTIONARY
  5
656
330
3CC
100
AcDbDictionary
280
     1
281
     1
  3
ACAD_XREC_ROUNDTRIP
360
657
  0
DICTIONARY
  5
654
330
3CB
100
AcDbDictionary
280
     1
281
     1
  3
ACAD_XREC_ROUNDTRIP
360
655
  0
DICTIONARY
  5
658
330
3CD
100
AcDbDictionary
280
     1
281
     1
  3
ACAD_XREC_ROUNDTRIP
360
659
  0
DICTIONARY
  5
660
330
3D1
100
AcDbDictionary
280
     1
281
     1
  3
ACAD_XREC_ROUNDTRIP
360
661
  0
DICTIONARY
  5
668
330
3D5
100
AcDbDictionary
280
     1
281
     1
  3
ACAD_XREC_ROUNDTRIP
360
669
  0
DICTIONARY
  5
65C
330
3CF
100
AcDbDictionary
280
     1
281
     1
  3
ACAD_XREC_ROUNDTRIP
360
65D
  0
DICTIONARY
  5
65E
330
3D0
100
AcDbDictionary
280
     1
281
     1
  3
ACAD_XREC_ROUNDTRIP
360
65F
  0
DICTIONARY
  5
666
330
3D4
100
AcDbDictionary
280
     1
281
     1
  3
ACAD_XREC_ROUNDTRIP
360
667
  0
DICTIONARY
  5
64A
330
3C6
100
AcDbDictionary
280
     1
281
     1
  3
ACAD_XREC_ROUNDTRIP
360
64B
  0
DICTIONARY
  5
64C
330
3C7
100
AcDbDictionary
280
     1
281
     1
  3
ACAD_XREC_ROUNDTRIP
360
64D
  0
DICTIONARY
  5
64E
330
3C8
100
AcDbDictionary
280
     1
281
     1
  3
ACAD_XREC_ROUNDTRIP
360
64F
  0
DICTIONARY
  5
650
330
3C9
100
AcDbDictionary
280
     1
281
     1
  3
ACAD_XREC_ROUNDTRIP
360
651
  0
DICTIONARY
  5
664
330
3D3
100
AcDbDictionary
280
     1
281
     1
  3
ACAD_XREC_ROUNDTRIP
360
665
  0
DICTIONARY
  5
65A
330
3CE
100
AcDbDictionary
280
     1
281
     1
  3
ACAD_XREC_ROUNDTRIP
360
65B
  0
DICTIONARY
  5
662
330
3D2
100
AcDbDictionary
280
     1
281
     1
  3
ACAD_XREC_ROUNDTRIP
360
663
  0
XRECORD
  5
647
102
{ACAD_REACTORS
330
646
102
}
330
646
100
AcDbXrecord
280
     1
102
MATERIAL
148
0.0
149
0.0
149
0.0
 93
        0
 94
      127
282
     0
 72
     1
 77
     1
171
     1
175
     1
179
     1
273
     0
  0
XRECORD
  5
645
102
{ACAD_REACTORS
330
644
102
}
330
644
100
AcDbXrecord
280
     1
102
MATERIAL
148
0.0
149
0.0
149
0.0
 93
        0
 94
      127
282
     0
 72
     1
 77
     1
171
     1
175
     1
179
     1
273
     0
  0
XRECORD
  5
649
102
{ACAD_REACTORS
330
648
102
}
330
648
100
AcDbXrecord
280
     1
102
MATERIAL
148
0.0
149
0.0
149
0.0
 93
        0
 94
      127
282
     0
 72
     1
 77
     1
171
     1
175
     1
179
     1
273
     0
  0
XRECORD
  5
653
102
{ACAD_REACTORS
330
652
102
}
330
652
100
AcDbXrecord
280
     1
102
RTVSPropertyOp0
 70
     1
102
RTVSPropertyOp1
 70
     1
102
RTVSPropertyOp2
 70
     1
102
RTVSPropertyOp3
 70
     1
102
RTVSPropertyOp4
 70
     1
102
RTVSPropertyOp5
 70
     1
102
RTVSPropertyOp6
 70
     1
102
RTVSPropertyOp7
 70
     1
102
RTVSPropertyOp8
 70
     1
102
RTVSPropertyOp9
 70
     1
102
RTVSPropertyOp10
 70
     1
102
RTVSPropertyOp11
 70
     1
102
RTVSPropertyOp12
 70
     1
102
RTVSPropertyOp13
 70
     1
102
RTVSPropertyOp14
 70
     1
102
RTVSPropertyOp15
 70
     1
102
RTVSPropertyOp16
 70
     1
102
RTVSPropertyOp17
 70
     1
102
RTVSPropertyOp18
 70
     1
102
RTVSPropertyOp19
 70
     1
102
RTVSPropertyOp20
 70
     1
102
RTVSPropertyOp21
 70
     1
102
RTVSPropertyOp22
 70
     1
102
RTVSPropertyOp23
 70
     1
102
RTVSPropertyOp24
 70
     1
102
RTVSPropertyOp25
 70
     1
102
RTVSPropertyOp26
 70
     1
102
RTVSPropertyOp27
 70
     1
102
RTVSPropertyOp28
 70
     1
102
RTVSPropertyOp29
 70
     1
102
RTVSPropertyOp30
 70
     1
102
RTVSPropertyOp31
 70
     1
102
RTVSPropertyOp32
 70
     1
  0
XRECORD
  5
657
102
{ACAD_REACTORS
330
656
102
}
330
656
100
AcDbXrecord
280
     1
102
RTVSPropertyOp0
 70
     1
102
RTVSPropertyOp1
 70
     1
102
RTVSPropertyOp2
 70
     1
102
RTVSPropertyOp3
 70
     1
102
RTVSPropertyOp4
 70
     1
102
RTVSPropertyOp5
 70
     1
102
RTVSPropertyOp6
 70
     1
102
RTVSPropertyOp7
 70
     1
102
RTVSPropertyOp8
 70
     1
102
RTVSPropertyOp9
 70
     1
102
RTVSPropertyOp10
 70
     1
102
RTVSPropertyOp11
 70
     1
102
RTVSPropertyOp12
 70
     1
102
RTVSPropertyOp13
 70
     1
102
RTVSPropertyOp14
 70
     1
102
RTVSPropertyOp15
 70
     1
102
RTVSPropertyOp16
 70
     1
102
RTVSPropertyOp17
 70
     1
102
RTVSPropertyOp18
 70
     1
102
RTVSPropertyOp19
 70
     1
102
RTVSPropertyOp20
 70
     1
102
RTVSPropertyOp21
 70
     1
102
RTVSPropertyOp22
 70
     1
102
RTVSPropertyOp23
 70
     1
102
RTVSPropertyOp24
 70
     1
102
RTVSPropertyOp25
 70
     1
102
RTVSPropertyOp26
 70
     1
102
RTVSPropertyOp27
 70
     1
102
RTVSPropertyOp28
 70
     1
102
RTVSPropertyOp29
 70
     1
102
RTVSPropertyOp30
 70
     1
102
RTVSPropertyOp31
 70
     1
102
RTVSPropertyOp32
 70
     1
  0
XRECORD
  5
655
102
{ACAD_REACTORS
330
654
102
}
330
654
100
AcDbXrecord
280
     1
102
RTVSPropertyOp0
 70
     1
102
RTVSPropertyOp1
 70
     1
102
RTVSPropertyOp2
 70
     1
102
RTVSPropertyOp3
 70
     1
102
RTVSPropertyOp4
 70
     1
102
RTVSPropertyOp5
 70
     1
102
RTVSPropertyOp6
 70
     1
102
RTVSPropertyOp7
 70
     1
102
RTVSPropertyOp8
 70
     1
102
RTVSPropertyOp9
 70
     1
102
RTVSPropertyOp10
 70
     1
102
RTVSPropertyOp11
 70
     1
102
RTVSPropertyOp12
 70
     1
102
RTVSPropertyOp13
 70
     1
102
RTVSPropertyOp14
 70
     1
102
RTVSPropertyOp15
 70
     1
102
RTVSPropertyOp16
 70
     1
102
RTVSPropertyOp17
 70
     1
102
RTVSPropertyOp18
 70
     1
102
RTVSPropertyOp19
 70
     1
102
RTVSPropertyOp20
 70
     1
102
RTVSPropertyOp21
 70
     1
102
RTVSPropertyOp22
 70
     1
102
RTVSPropertyOp23
 70
     1
102
RTVSPropertyOp24
 70
     1
102
RTVSPropertyOp25
 70
     1
102
RTVSPropertyOp26
 70
     1
102
RTVSPropertyOp27
 70
     1
102
RTVSPropertyOp28
 70
     1
102
RTVSPropertyOp29
 70
     1
102
RTVSPropertyOp30
 70
     1
102
RTVSPropertyOp31
 70
     1
102
RTVSPropertyOp32
 70
     1
  0
XRECORD
  5
659
102
{ACAD_REACTORS
330
658
102
}
330
658
100
AcDbXrecord
280
     1
102
RTVSPropertyOp0
 70
     1
102
RTVSPropertyOp1
 70
     1
102
RTVSPropertyOp2
 70
     1
102
RTVSPropertyOp3
 70
     1
102
RTVSPropertyOp4
 70
     1
102
RTVSPropertyOp5
 70
     1
102
RTVSPropertyOp6
 70
     1
102
RTVSPropertyOp7
 70
     1
102
RTVSPropertyOp8
 70
     1
102
RTVSPropertyOp9
 70
     1
102
RTVSPropertyOp10
 70
     1
102
RTVSPropertyOp11
 70
     1
102
RTVSPropertyOp12
 70
     1
102
RTVSPropertyOp13
 70
     1
102
RTVSPropertyOp14
 70
     1
102
RTVSPropertyOp15
 70
     1
102
RTVSPropertyOp16
 70
     1
102
RTVSPropertyOp17
 70
     1
102
RTVSPropertyOp18
 70
     1
102
RTVSPropertyOp19
 70
     1
102
RTVSPropertyOp20
 70
     1
102
RTVSPropertyOp21
 70
     1
102
RTVSPropertyOp22
 70
     1
102
RTVSPropertyOp23
 70
     1
102
RTVSPropertyOp24
 70
     1
102
RTVSPropertyOp25
 70
     1
102
RTVSPropertyOp26
 70
     1
102
RTVSPropertyOp27
 70
     1
102
RTVSPropertyOp28
 70
     1
102
RTVSPropertyOp29
 70
     1
102
RTVSPropertyOp30
 70
     1
102
RTVSPropertyOp31
 70
     1
102
RTVSPropertyOp32
 70
     1
  0
XRECORD
  5
661
102
{ACAD_REACTORS
330
660
102
}
330
660
100
AcDbXrecord
280
     1
102
RTVSPropertyOp0
 70
     1
102
RTVSPropertyOp1
 70
     1
102
RTVSPropertyOp2
 70
     1
102
RTVSPropertyOp3
 70
     1
102
RTVSPropertyOp4
 70
     1
102
RTVSPropertyOp5
 70
     1
102
RTVSPropertyOp6
 70
     1
102
RTVSPropertyOp7
 70
     1
102
RTVSPropertyOp8
 70
     1
102
RTVSPropertyOp9
 70
     1
102
RTVSPropertyOp10
 70
     1
102
RTVSPropertyOp11
 70
     1
102
RTVSPropertyOp12
 70
     1
102
RTVSPropertyOp13
 70
     1
102
RTVSPropertyOp14
 70
     1
102
RTVSPropertyOp15
 70
     1
102
RTVSPropertyOp16
 70
     1
102
RTVSPropertyOp17
 70
     1
102
RTVSPropertyOp18
 70
     1
102
RTVSPropertyOp19
 70
     1
102
RTVSPropertyOp20
 70
     1
102
RTVSPropertyOp21
 70
     1
102
RTVSPropertyOp22
 70
     1
102
RTVSPropertyOp23
 70
     1
102
RTVSPropertyOp24
 70
     1
102
RTVSPropertyOp25
 70
     1
102
RTVSPropertyOp26
 70
     1
102
RTVSPropertyOp27
 70
     1
102
RTVSPropertyOp28
 70
     1
102
RTVSPropertyOp29
 70
     1
102
RTVSPropertyOp30
 70
     1
102
RTVSPropertyOp31
 70
     1
102
RTVSPropertyOp32
 70
     1
  0
XRECORD
  5
669
102
{ACAD_REACTORS
330
668
102
}
330
668
100
AcDbXrecord
280
     1
102
RTVSPropertyOp0
 70
     1
102
RTVSPropertyOp1
 70
     1
102
RTVSPropertyOp2
 70
     1
102
RTVSPropertyOp3
 70
     1
102
RTVSPropertyOp4
 70
     1
102
RTVSPropertyOp5
 70
     1
102
RTVSPropertyOp6
 70
     1
102
RTVSPropertyOp7
 70
     1
102
RTVSPropertyOp8
 70
     1
102
RTVSPropertyOp9
 70
     1
102
RTVSPropertyOp10
 70
     1
102
RTVSPropertyOp11
 70
     1
102
RTVSPropertyOp12
 70
     1
102
RTVSPropertyOp13
 70
     1
102
RTVSPropertyOp14
 70
     1
102
RTVSPropertyOp15
 70
     1
102
RTVSPropertyOp16
 70
     1
102
RTVSPropertyOp17
 70
     1
102
RTVSPropertyOp18
 70
     1
102
RTVSPropertyOp19
 70
     1
102
RTVSPropertyOp20
 70
     1
102
RTVSPropertyOp21
 70
     1
102
RTVSPropertyOp22
 70
     1
102
RTVSPropertyOp23
 70
     1
102
RTVSPropertyOp24
 70
     1
102
RTVSPropertyOp25
 70
     1
102
RTVSPropertyOp26
 70
     1
102
RTVSPropertyOp27
 70
     1
102
RTVSPropertyOp28
 70
     1
102
RTVSPropertyOp29
 70
     1
102
RTVSPropertyOp30
 70
     1
102
RTVSPropertyOp31
 70
     1
102
RTVSPropertyOp32
 70
     1
  0
XRECORD
  5
65D
102
{ACAD_REACTORS
330
65C
102
}
330
65C
100
AcDbXrecord
280
     1
102
RTVSPropertyOp0
 70
     1
102
RTVSPropertyOp1
 70
     1
102
RTVSPropertyOp2
 70
     1
102
RTVSPropertyOp3
 70
     1
102
RTVSPropertyOp4
 70
     1
102
RTVSPropertyOp5
 70
     1
102
RTVSPropertyOp6
 70
     1
102
RTVSPropertyOp7
 70
     1
102
RTVSPropertyOp8
 70
     1
102
RTVSPropertyOp9
 70
     1
102
RTVSPropertyOp10
 70
     1
102
RTVSPropertyOp11
 70
     1
102
RTVSPropertyOp12
 70
     1
102
RTVSPropertyOp13
 70
     1
102
RTVSPropertyOp14
 70
     1
102
RTVSPropertyOp15
 70
     1
102
RTVSPropertyOp16
 70
     1
102
RTVSPropertyOp17
 70
     1
102
RTVSPropertyOp18
 70
     1
102
RTVSPropertyOp19
 70
     1
102
RTVSPropertyOp20
 70
     1
102
RTVSPropertyOp21
 70
     1
102
RTVSPropertyOp22
 70
     1
102
RTVSPropertyOp23
 70
     1
102
RTVSPropertyOp24
 70
     1
102
RTVSPropertyOp25
 70
     1
102
RTVSPropertyOp26
 70
     1
102
RTVSPropertyOp27
 70
     1
102
RTVSPropertyOp28
 70
     1
102
RTVSPropertyOp29
 70
     1
102
RTVSPropertyOp30
 70
     1
102
RTVSPropertyOp31
 70
     1
102
RTVSPropertyOp32
 70
     1
  0
XRECORD
  5
65F
102
{ACAD_REACTORS
330
65E
102
}
330
65E
100
AcDbXrecord
280
     1
102
RTVSPropertyOp0
 70
     1
102
RTVSPropertyOp1
 70
     1
102
RTVSPropertyOp2
 70
     1
102
RTVSPropertyOp3
 70
     1
102
RTVSPropertyOp4
 70
     1
102
RTVSPropertyOp5
 70
     1
102
RTVSPropertyOp6
 70
     1
102
RTVSPropertyOp7
 70
     1
102
RTVSPropertyOp8
 70
     1
102
RTVSPropertyOp9
 70
     1
102
RTVSPropertyOp10
 70
     1
102
RTVSPropertyOp11
 70
     1
102
RTVSPropertyOp12
 70
     1
102
RTVSPropertyOp13
 70
     1
102
RTVSPropertyOp14
 70
     1
102
RTVSPropertyOp15
 70
     1
102
RTVSPropertyOp16
 70
     1
102
RTVSPropertyOp17
 70
     1
102
RTVSPropertyOp18
 70
     1
102
RTVSPropertyOp19
 70
     1
102
RTVSPropertyOp20
 70
     1
102
RTVSPropertyOp21
 70
     1
102
RTVSPropertyOp22
 70
     1
102
RTVSPropertyOp23
 70
     1
102
RTVSPropertyOp24
 70
     1
102
RTVSPropertyOp25
 70
     1
102
RTVSPropertyOp26
 70
     1
102
RTVSPropertyOp27
 70
     1
102
RTVSPropertyOp28
 70
     1
102
RTVSPropertyOp29
 70
     1
102
RTVSPropertyOp30
 70
     1
102
RTVSPropertyOp31
 70
     1
102
RTVSPropertyOp32
 70
     1
  0
XRECORD
  5
667
102
{ACAD_REACTORS
330
666
102
}
330
666
100
AcDbXrecord
280
     1
102
RTVSPropertyOp0
 70
     1
102
RTVSPropertyOp1
 70
     1
102
RTVSPropertyOp2
 70
     1
102
RTVSPropertyOp3
 70
     1
102
RTVSPropertyOp4
 70
     1
102
RTVSPropertyOp5
 70
     1
102
RTVSPropertyOp6
 70
     1
102
RTVSPropertyOp7
 70
     1
102
RTVSPropertyOp8
 70
     1
102
RTVSPropertyOp9
 70
     1
102
RTVSPropertyOp10
 70
     1
102
RTVSPropertyOp11
 70
     1
102
RTVSPropertyOp12
 70
     1
102
RTVSPropertyOp13
 70
     1
102
RTVSPropertyOp14
 70
     1
102
RTVSPropertyOp15
 70
     1
102
RTVSPropertyOp16
 70
     1
102
RTVSPropertyOp17
 70
     1
102
RTVSPropertyOp18
 70
     1
102
RTVSPropertyOp19
 70
     1
102
RTVSPropertyOp20
 70
     1
102
RTVSPropertyOp21
 70
     1
102
RTVSPropertyOp22
 70
     1
102
RTVSPropertyOp23
 70
     1
102
RTVSPropertyOp24
 70
     1
102
RTVSPropertyOp25
 70
     1
102
RTVSPropertyOp26
 70
     1
102
RTVSPropertyOp27
 70
     1
102
RTVSPropertyOp28
 70
     1
102
RTVSPropertyOp29
 70
     1
102
RTVSPropertyOp30
 70
     1
102
RTVSPropertyOp31
 70
     1
102
RTVSPropertyOp32
 70
     1
  0
XRECORD
  5
64B
102
{ACAD_REACTORS
330
64A
102
}
330
64A
100
AcDbXrecord
280
     1
102
RTVSPropertyOp0
 70
     1
102
RTVSPropertyOp1
 70
     1
102
RTVSPropertyOp2
 70
     1
102
RTVSPropertyOp3
 70
     1
102
RTVSPropertyOp4
 70
     1
102
RTVSPropertyOp5
 70
     1
102
RTVSPropertyOp6
 70
     1
102
RTVSPropertyOp7
 70
     1
102
RTVSPropertyOp8
 70
     1
102
RTVSPropertyOp9
 70
     1
102
RTVSPropertyOp10
 70
     1
102
RTVSPropertyOp11
 70
     1
102
RTVSPropertyOp12
 70
     1
102
RTVSPropertyOp13
 70
     1
102
RTVSPropertyOp14
 70
     1
102
RTVSPropertyOp15
 70
     1
102
RTVSPropertyOp16
 70
     1
102
RTVSPropertyOp17
 70
     1
102
RTVSPropertyOp18
 70
     1
102
RTVSPropertyOp19
 70
     1
102
RTVSPropertyOp20
 70
     1
102
RTVSPropertyOp21
 70
     1
102
RTVSPropertyOp22
 70
     1
102
RTVSPropertyOp23
 70
     1
102
RTVSPropertyOp24
 70
     1
102
RTVSPropertyOp25
 70
     1
102
RTVSPropertyOp26
 70
     1
102
RTVSPropertyOp27
 70
     1
102
RTVSPropertyOp28
 70
     1
102
RTVSPropertyOp29
 70
     1
102
RTVSPropertyOp30
 70
     1
102
RTVSPropertyOp31
 70
     1
102
RTVSPropertyOp32
 70
     1
  0
XRECORD
  5
64D
102
{ACAD_REACTORS
330
64C
102
}
330
64C
100
AcDbXrecord
280
     1
102
RTVSPropertyOp0
 70
     1
102
RTVSPropertyOp1
 70
     1
102
RTVSPropertyOp2
 70
     1
102
RTVSPropertyOp3
 70
     1
102
RTVSPropertyOp4
 70
     1
102
RTVSPropertyOp5
 70
     1
102
RTVSPropertyOp6
 70
     1
102
RTVSPropertyOp7
 70
     1
102
RTVSPropertyOp8
 70
     1
102
RTVSPropertyOp9
 70
     1
102
RTVSPropertyOp10
 70
     1
102
RTVSPropertyOp11
 70
     1
102
RTVSPropertyOp12
 70
     1
102
RTVSPropertyOp13
 70
     1
102
RTVSPropertyOp14
 70
     1
102
RTVSPropertyOp15
 70
     1
102
RTVSPropertyOp16
 70
     1
102
RTVSPropertyOp17
 70
     1
102
RTVSPropertyOp18
 70
     1
102
RTVSPropertyOp19
 70
     1
102
RTVSPropertyOp20
 70
     1
102
RTVSPropertyOp21
 70
     1
102
RTVSPropertyOp22
 70
     1
102
RTVSPropertyOp23
 70
     1
102
RTVSPropertyOp24
 70
     1
102
RTVSPropertyOp25
 70
     1
102
RTVSPropertyOp26
 70
     1
102
RTVSPropertyOp27
 70
     1
102
RTVSPropertyOp28
 70
     1
102
RTVSPropertyOp29
 70
     1
102
RTVSPropertyOp30
 70
     1
102
RTVSPropertyOp31
 70
     1
102
RTVSPropertyOp32
 70
     1
  0
XRECORD
  5
64F
102
{ACAD_REACTORS
330
64E
102
}
330
64E
100
AcDbXrecord
280
     1
102
RTVSPropertyOp0
 70
     1
102
RTVSPropertyOp1
 70
     1
102
RTVSPropertyOp2
 70
     1
102
RTVSPropertyOp3
 70
     1
102
RTVSPropertyOp4
 70
     1
102
RTVSPropertyOp5
 70
     1
102
RTVSPropertyOp6
 70
     1
102
RTVSPropertyOp7
 70
     1
102
RTVSPropertyOp8
 70
     1
102
RTVSPropertyOp9
 70
     1
102
RTVSPropertyOp10
 70
     1
102
RTVSPropertyOp11
 70
     1
102
RTVSPropertyOp12
 70
     1
102
RTVSPropertyOp13
 70
     1
102
RTVSPropertyOp14
 70
     1
102
RTVSPropertyOp15
 70
     1
102
RTVSPropertyOp16
 70
     1
102
RTVSPropertyOp17
 70
     1
102
RTVSPropertyOp18
 70
     1
102
RTVSPropertyOp19
 70
     1
102
RTVSPropertyOp20
 70
     1
102
RTVSPropertyOp21
 70
     1
102
RTVSPropertyOp22
 70
     1
102
RTVSPropertyOp23
 70
     1
102
RTVSPropertyOp24
 70
     1
102
RTVSPropertyOp25
 70
     1
102
RTVSPropertyOp26
 70
     1
102
RTVSPropertyOp27
 70
     1
102
RTVSPropertyOp28
 70
     1
102
RTVSPropertyOp29
 70
     1
102
RTVSPropertyOp30
 70
     1
102
RTVSPropertyOp31
 70
     1
102
RTVSPropertyOp32
 70
     1
  0
XRECORD
  5
651
102
{ACAD_REACTORS
330
650
102
}
330
650
100
AcDbXrecord
280
     1
102
RTVSPropertyOp0
 70
     1
102
RTVSPropertyOp1
 70
     1
102
RTVSPropertyOp2
 70
     1
102
RTVSPropertyOp3
 70
     1
102
RTVSPropertyOp4
 70
     1
102
RTVSPropertyOp5
 70
     1
102
RTVSPropertyOp6
 70
     1
102
RTVSPropertyOp7
 70
     1
102
RTVSPropertyOp8
 70
     1
102
RTVSPropertyOp9
 70
     1
102
RTVSPropertyOp10
 70
     1
102
RTVSPropertyOp11
 70
     1
102
RTVSPropertyOp12
 70
     1
102
RTVSPropertyOp13
 70
     1
102
RTVSPropertyOp14
 70
     1
102
RTVSPropertyOp15
 70
     1
102
RTVSPropertyOp16
 70
     1
102
RTVSPropertyOp17
 70
     1
102
RTVSPropertyOp18
 70
     1
102
RTVSPropertyOp19
 70
     1
102
RTVSPropertyOp20
 70
     1
102
RTVSPropertyOp21
 70
     1
102
RTVSPropertyOp22
 70
     1
102
RTVSPropertyOp23
 70
     1
102
RTVSPropertyOp24
 70
     1
102
RTVSPropertyOp25
 70
     1
102
RTVSPropertyOp26
 70
     1
102
RTVSPropertyOp27
 70
     1
102
RTVSPropertyOp28
 70
     1
102
RTVSPropertyOp29
 70
     1
102
RTVSPropertyOp30
 70
     1
102
RTVSPropertyOp31
 70
     1
102
RTVSPropertyOp32
 70
     1
  0
XRECORD
  5
665
102
{ACAD_REACTORS
330
664
102
}
330
664
100
AcDbXrecord
280
     1
102
RTVSPropertyOp0
 70
     1
102
RTVSPropertyOp1
 70
     1
102
RTVSPropertyOp2
 70
     1
102
RTVSPropertyOp3
 70
     1
102
RTVSPropertyOp4
 70
     1
102
RTVSPropertyOp5
 70
     1
102
RTVSPropertyOp6
 70
     1
102
RTVSPropertyOp7
 70
     1
102
RTVSPropertyOp8
 70
     1
102
RTVSPropertyOp9
 70
     1
102
RTVSPropertyOp10
 70
     1
102
RTVSPropertyOp11
 70
     1
102
RTVSPropertyOp12
 70
     1
102
RTVSPropertyOp13
 70
     1
102
RTVSPropertyOp14
 70
     1
102
RTVSPropertyOp15
 70
     1
102
RTVSPropertyOp16
 70
     1
102
RTVSPropertyOp17
 70
     1
102
RTVSPropertyOp18
 70
     1
102
RTVSPropertyOp19
 70
     1
102
RTVSPropertyOp20
 70
     1
102
RTVSPropertyOp21
 70
     1
102
RTVSPropertyOp22
 70
     1
102
RTVSPropertyOp23
 70
     1
102
RTVSPropertyOp24
 70
     1
102
RTVSPropertyOp25
 70
     1
102
RTVSPropertyOp26
 70
     1
102
RTVSPropertyOp27
 70
     1
102
RTVSPropertyOp28
 70
     1
102
RTVSPropertyOp29
 70
     1
102
RTVSPropertyOp30
 70
     1
102
RTVSPropertyOp31
 70
     1
102
RTVSPropertyOp32
 70
     1
  0
XRECORD
  5
65B
102
{ACAD_REACTORS
330
65A
102
}
330
65A
100
AcDbXrecord
280
     1
102
RTVSPropertyOp0
 70
     1
102
RTVSPropertyOp1
 70
     1
102
RTVSPropertyOp2
 70
     1
102
RTVSPropertyOp3
 70
     1
102
RTVSPropertyOp4
 70
     1
102
RTVSPropertyOp5
 70
     1
102
RTVSPropertyOp6
 70
     1
102
RTVSPropertyOp7
 70
     1
102
RTVSPropertyOp8
 70
     1
102
RTVSPropertyOp9
 70
     1
102
RTVSPropertyOp10
 70
     1
102
RTVSPropertyOp11
 70
     1
102
RTVSPropertyOp12
 70
     1
102
RTVSPropertyOp13
 70
     1
102
RTVSPropertyOp14
 70
     1
102
RTVSPropertyOp15
 70
     1
102
RTVSPropertyOp16
 70
     1
102
RTVSPropertyOp17
 70
     1
102
RTVSPropertyOp18
 70
     1
102
RTVSPropertyOp19
 70
     1
102
RTVSPropertyOp20
 70
     1
102
RTVSPropertyOp21
 70
     1
102
RTVSPropertyOp22
 70
     1
102
RTVSPropertyOp23
 70
     1
102
RTVSPropertyOp24
 70
     1
102
RTVSPropertyOp25
 70
     1
102
RTVSPropertyOp26
 70
     1
102
RTVSPropertyOp27
 70
     1
102
RTVSPropertyOp28
 70
     1
102
RTVSPropertyOp29
 70
     1
102
RTVSPropertyOp30
 70
     1
102
RTVSPropertyOp31
 70
     1
102
RTVSPropertyOp32
 70
     1
  0
XRECORD
  5
663
102
{ACAD_REACTORS
330
662
102
}
330
662
100
AcDbXrecord
280
     1
102
RTVSPropertyOp0
 70
     1
102
RTVSPropertyOp1
 70
     1
102
RTVSPropertyOp2
 70
     1
102
RTVSPropertyOp3
 70
     1
102
RTVSPropertyOp4
 70
     1
102
RTVSPropertyOp5
 70
     1
102
RTVSPropertyOp6
 70
     1
102
RTVSPropertyOp7
 70
     1
102
RTVSPropertyOp8
 70
     1
102
RTVSPropertyOp9
 70
     1
102
RTVSPropertyOp10
 70
     1
102
RTVSPropertyOp11
 70
     1
102
RTVSPropertyOp12
 70
     1
102
RTVSPropertyOp13
 70
     1
102
RTVSPropertyOp14
 70
     1
102
RTVSPropertyOp15
 70
     1
102
RTVSPropertyOp16
 70
     1
102
RTVSPropertyOp17
 70
     1
102
RTVSPropertyOp18
 70
     1
102
RTVSPropertyOp19
 70
     1
102
RTVSPropertyOp20
 70
     1
102
RTVSPropertyOp21
 70
     1
102
RTVSPropertyOp22
 70
     1
102
RTVSPropertyOp23
 70
     1
102
RTVSPropertyOp24
 70
     1
102
RTVSPropertyOp25
 70
     1
102
RTVSPropertyOp26
 70
     1
102
RTVSPropertyOp27
 70
     1
102
RTVSPropertyOp28
 70
     1
102
RTVSPropertyOp29
 70
     1
102
RTVSPropertyOp30
 70
     1
102
RTVSPropertyOp31
 70
     1
102
RTVSPropertyOp32
 70
     1
  0
ENDSEC
  0
EOF
