  0
SECTION
  2
HEADER
  9
$ACADVER
  1
AC1015
  9
$ACADMAINTVER
 70
     6
  9
$DWGCODEPAGE
  3
ANSI_1252
  9
$INSBASE
 10
0.0
 20
0.0
 30
0.0
  9
$EXTMIN
 10
1.000000000000000E+20
 20
1.000000000000000E+20
 30
1.000000000000000E+20
  9
$EXTMAX
 10
-1.000000000000000E+20
 20
-1.000000000000000E+20
 30
-1.000000000000000E+20
  9
$LIMMIN
 10
-170.0
 20
-170.0
  9
$LIMMAX
 10
519.0
 20
260.0
  9
$ORTHOMODE
 70
     0
  9
$REGENMODE
 70
     1
  9
$FILLMODE
 70
     1
  9
$QTEXTMODE
 70
     0
  9
$MIRRTEXT
 70
     0
  9
$LTSCALE
 40
1.0
  9
$ATTMODE
 70
     1
  9
$TEXTSIZE
 40
3.5
  9
$TRACEWID
 40
1.0
  9
$TEXTSTYLE
  7
SIMPLEX
  9
$CLAYER
  8
1
  9
$CELTYPE
  6
BYLAYER
  9
$CECOLOR
 62
   256
  9
$CELTSCALE
 40
1.0
  9
$DISPSILH
 70
     0
  9
$DIMSCALE
 40
1.0
  9
$DIMASZ
 40
2.5
  9
$DIMEXO
 40
0.0
  9
$DIMDLI
 40
3.75
  9
$DIMRND
 40
0.0
  9
$DIMDLE
 40
0.0
  9
$DIMEXE
 40
1.25
  9
$DIMTP
 40
0.0
  9
$DIMTM
 40
0.0
  9
$DIMTXT
 40
3.5
  9
$DIMCEN
 40
0.0
  9
$DIMTSZ
 40
0.0
  9
$DIMTOL
 70
     0
  9
$DIMLIM
 70
     0
  9
$DIMTIH
 70
     0
  9
$DIMTOH
 70
     0
  9
$DIMSE1
 70
     0
  9
$DIMSE2
 70
     0
  9
$DIMTAD
 70
     1
  9
$DIMZIN
 70
     8
  9
$DIMBLK
  1

  9
$DIMASO
 70
     1
  9
$DIMSHO
 70
     1
  9
$DIMPOST
  1

  9
$DIMAPOST
  1

  9
$DIMALT
 70
     0
  9
$DIMALTD
 70
     3
  9
$DIMALTF
 40
0.039370078
  9
$DIMLFAC
 40
1.0
  9
$DIMTOFL
 70
     0
  9
$DIMTVP
 40
0.0
  9
$DIMTIX
 70
     0
  9
$DIMSOXD
 70
     0
  9
$DIMSAH
 70
     0
  9
$DIMBLK1
  1

  9
$DIMBLK2
  1

  9
$DIMSTYLE
  2
STANDARD
  9
$DIMCLRD
 70
     0
  9
$DIMCLRE
 70
     0
  9
$DIMCLRT
 70
     0
  9
$DIMTFAC
 40
1.0
  9
$DIMGAP
 40
0.625
  9
$DIMJUST
 70
     0
  9
$DIMSD1
 70
     0
  9
$DIMSD2
 70
     0
  9
$DIMTOLJ
 70
     0
  9
$DIMTZIN
 70
     8
  9
$DIMALTZ
 70
     0
  9
$DIMALTTZ
 70
     0
  9
$DIMUPT
 70
     0
  9
$DIMDEC
 70
     2
  9
$DIMTDEC
 70
     2
  9
$DIMALTU
 70
     2
  9
$DIMALTTD
 70
     3
  9
$DIMTXSTY
  7
SIMPLEX
  9
$DIMAUNIT
 70
     0
  9
$DIMADEC
 70
     2
  9
$DIMALTRND
 40
0.0
  9
$DIMAZIN
 70
     2
  9
$DIMDSEP
 70
    46
  9
$DIMATFIT
 70
     3
  9
$DIMFRAC
 70
     0
  9
$DIMLDRBLK
  1

  9
$DIMLUNIT
 70
     2
  9
$DIMLWD
 70
    -2
  9
$DIMLWE
 70
    -2
  9
$DIMTMOVE
 70
     0
  9
$LUNITS
 70
     2
  9
$LUPREC
 70
     4
  9
$SKETCHINC
 40
1.0
  9
$FILLETRAD
 40
0.0
  9
$AUNITS
 70
     0
  9
$AUPREC
 70
     0
  9
$MENU
  1
c:\tdm21\cad\caduti13\tdm13
  9
$ELEVATION
 40
0.0
  9
$PELEVATION
 40
0.0
  9
$THICKNESS
 40
0.0
  9
$LIMCHECK
 70
     0
  9
$CHAMFERA
 40
0.0
  9
$CHAMFERB
 40
0.0
  9
$CHAMFERC
 40
0.0
  9
$CHAMFERD
 40
0.0
  9
$SKPOLY
 70
     0
  9
$TDCREATE
 40
2454957.593642639
  9
$TDUCREATE
 40
2454957.510309306
  9
$TDUPDATE
 40
2456861.380582998
  9
$TDUUPDATE
 40
2456861.297249665
  9
$TDINDWG
 40
0.0009643519
  9
$TDUSRTIMER
 40
0.0009475231
  9
$USRTIMER
 70
     1
  9
$ANGBASE
 50
0.0
  9
$ANGDIR
 70
     0
  9
$PDMODE
 70
     1
  9
$PDSIZE
 40
0.0
  9
$PLINEWID
 40
0.0
  9
$SPLFRAME
 70
     0
  9
$SPLINETYPE
 70
     6
  9
$SPLINESEGS
 70
     8
  9
$HANDSEED
  5
65D
  9
$SURFTAB1
 70
     6
  9
$SURFTAB2
 70
     6
  9
$SURFTYPE
 70
     6
  9
$SURFU
 70
     6
  9
$SURFV
 70
     6
  9
$UCSBASE
  2

  9
$UCSNAME
  2

  9
$UCSORG
 10
0.0
 20
0.0
 30
0.0
  9
$UCSXDIR
 10
1.0
 20
0.0
 30
0.0
  9
$UCSYDIR
 10
0.0
 20
1.0
 30
0.0
  9
$UCSORTHOREF
  2

  9
$UCSORTHOVIEW
 70
     0
  9
$UCSORGTOP
 10
0.0
 20
0.0
 30
0.0
  9
$UCSORGBOTTOM
 10
0.0
 20
0.0
 30
0.0
  9
$UCSORGLEFT
 10
0.0
 20
0.0
 30
0.0
  9
$UCSORGRIGHT
 10
0.0
 20
0.0
 30
0.0
  9
$UCSORGFRONT
 10
0.0
 20
0.0
 30
0.0
  9
$UCSORGBACK
 10
0.0
 20
0.0
 30
0.0
  9
$PUCSBASE
  2

  9
$PUCSNAME
  2

  9
$PUCSORG
 10
0.0
 20
0.0
 30
0.0
  9
$PUCSXDIR
 10
1.0
 20
0.0
 30
0.0
  9
$PUCSYDIR
 10
0.0
 20
1.0
 30
0.0
  9
$PUCSORTHOREF
  2

  9
$PUCSORTHOVIEW
 70
     0
  9
$PUCSORGTOP
 10
0.0
 20
0.0
 30
0.0
  9
$PUCSORGBOTTOM
 10
0.0
 20
0.0
 30
0.0
  9
$PUCSORGLEFT
 10
0.0
 20
0.0
 30
0.0
  9
$PUCSORGRIGHT
 10
0.0
 20
0.0
 30
0.0
  9
$PUCSORGFRONT
 10
0.0
 20
0.0
 30
0.0
  9
$PUCSORGBACK
 10
0.0
 20
0.0
 30
0.0
  9
$USERI1
 70
     0
  9
$USERI2
 70
     0
  9
$USERI3
 70
     0
  9
$USERI4
 70
     0
  9
$USERI5
 70
     0
  9
$USERR1
 40
0.0
  9
$USERR2
 40
0.0
  9
$USERR3
 40
0.0
  9
$USERR4
 40
0.0
  9
$USERR5
 40
0.0
  9
$WORLDVIEW
 70
     1
  9
$SHADEDGE
 70
     3
  9
$SHADEDIF
 70
    70
  9
$TILEMODE
 70
     1
  9
$MAXACTVP
 70
    64
  9
$PINSBASE
 10
0.0
 20
0.0
 30
0.0
  9
$PLIMCHECK
 70
     0
  9
$PEXTMIN
 10
0.0
 20
0.0
 30
0.0
  9
$PEXTMAX
 10
0.0
 20
0.0
 30
0.0
  9
$PLIMMIN
 10
0.0
 20
0.0
  9
$PLIMMAX
 10
12.0
 20
9.0
  9
$UNITMODE
 70
     0
  9
$VISRETAIN
 70
     0
  9
$PLINEGEN
 70
     0
  9
$PSLTSCALE
 70
     1
  9
$TREEDEPTH
 70
  3020
  9
$CMLSTYLE
  2
STANDARD
  9
$CMLJUST
 70
     0
  9
$CMLSCALE
 40
20.0
  9
$PROXYGRAPHICS
 70
     1
  9
$MEASUREMENT
 70
     1
  9
$CELWEIGHT
370
    -1
  9
$ENDCAPS
280
     0
  9
$JOINSTYLE
280
     0
  9
$LWDISPLAY
290
     0
  9
$INSUNITS
 70
     4
  9
$HYPERLINKBASE
  1

  9
$STYLESHEET
  1
MONOCHROME.CTB
  9
$XEDIT
290
     1
  9
$CEPSNTYPE
380
     0
  9
$PSTYLEMODE
290
     1
  9
$FINGERPRINTGUID
  2
{46B44192-1510-48B1-B61B-CBE2ADA013A7}
  9
$VERSIONGUID
  2
{6160D478-9A74-4C97-9D8A-D4A65CE74B12}
  9
$EXTNAMES
290
     1
  9
$PSVPSCALE
 40
0.0
  9
$OLESTARTUP
290
     0
  0
ENDSEC
  0
SECTION
  2
CLASSES
  0
CLASS
  1
ACDBDICTIONARYWDFLT
  2
AcDbDictionaryWithDefault
  3
ObjectDBX Classes
 90
        0
280
     0
281
     0
  0
CLASS
  1
ACDBPLACEHOLDER
  2
AcDbPlaceHolder
  3
ObjectDBX Classes
 90
        0
280
     0
281
     0
  0
CLASS
  1
LAYOUT
  2
AcDbLayout
  3
ObjectDBX Classes
 90
        0
280
     0
281
     0
  0
CLASS
  1
DICTIONARYVAR
  2
AcDbDictionaryVar
  3
ObjectDBX Classes
 90
        0
280
     0
281
     0
  0
CLASS
  1
TABLESTYLE
  2
AcDbTableStyle
  3
ObjectDBX Classes
 90
     4095
280
     0
281
     0
  0
CLASS
  1
SCALE
  2
AcDbScale
  3
ObjectDBX Classes
 90
     1153
280
     0
281
     0
  0
CLASS
  1
MATERIAL
  2
AcDbMaterial
  3
ObjectDBX Classes
 90
     1153
280
     0
281
     0
  0
CLASS
  1
VISUALSTYLE
  2
AcDbVisualStyle
  3
ObjectDBX Classes
 90
     4095
280
     0
281
     0
  0
ENDSEC
  0
SECTION
  2
TABLES
  0
TABLE
  2
VPORT
  5
8
330
0
100
AcDbSymbolTable
 70
     1
  0
VPORT
  5
39A
330
8
100
AcDbSymbolTableRecord
100
AcDbViewportTableRecord
  2
*Active
 70
     0
 10
0.0
 20
0.0
 11
1.0
 21
1.0
 12
218.9201881351169
 22
109.7549380673833
 13
0.0
 23
0.0
 14
5.0
 24
5.0
 15
5.0
 25
5.0
 16
0.0
 26
0.0
 36
1.0
 17
0.0
 27
0.0
 37
0.0
 40
564.6711112651689
 41
1.066073697585768
 42
50.0
 43
0.0
 44
0.0
 50
0.0
 51
0.0
 71
     0
 72
  2000
 73
     1
 74
     1
 75
     0
 76
     0
 77
     0
 78
     0
281
     0
 65
     1
110
0.0
120
0.0
130
0.0
111
1.0
121
0.0
131
0.0
112
0.0
122
1.0
132
0.0
 79
     0
146
0.0
  0
ENDTAB
  0
TABLE
  2
LTYPE
  5
5
330
0
100
AcDbSymbolTable
 70
     3
  0
LTYPE
  5
12
330
5
100
AcDbSymbolTableRecord
100
AcDbLinetypeTableRecord
  2
BYBLOCK
 70
     0
  3

 72
    65
 73
     0
 40
0.0
  0
LTYPE
  5
13
330
5
100
AcDbSymbolTableRecord
100
AcDbLinetypeTableRecord
  2
BYLAYER
 70
     0
  3

 72
    65
 73
     0
 40
0.0
  0
LTYPE
  5
14
330
5
100
AcDbSymbolTableRecord
100
AcDbLinetypeTableRecord
  2
CONTINUOUS
 70
     0
  3
Solid line
 72
    65
 73
     0
 40
0.0
  0
LTYPE
  5
20
330
5
100
AcDbSymbolTableRecord
100
AcDbLinetypeTableRecord
  2
HIDDEN
 70
     0
  3
Hidden __ __ __ __ __ __ __ __ __ __ __ __ __ _
 72
    65
 73
     2
 40
9.524999999999997
 49
6.349999999999998
 74
     0
 49
-3.174999999999998
 74
     0
  0
LTYPE
  5
351
330
5
100
AcDbSymbolTableRecord
100
AcDbLinetypeTableRecord
  2
CENTER
 70
     0
  3
Dash dot __ . __ . __ . __ . __ . __ . __ . __
 72
    65
 73
     4
 40
25.4
 49
12.7
 74
     0
 49
-6.349999999999998
 74
     0
 49
0.0
 74
     0
 49
-6.349999999999998
 74
     0
  0
ENDTAB
  0
TABLE
  2
LAYER
  5
2
330
0
100
AcDbSymbolTable
 70
    16
  0
LAYER
  5
F
330
2
100
AcDbSymbolTableRecord
100
AcDbLayerTableRecord
  2
0
 70
     0
 62
     7
  6
CONTINUOUS
370
    -3
390
300
  0
LAYER
  5
23
330
2
100
AcDbSymbolTableRecord
100
AcDbLayerTableRecord
  2
1
 70
     0
 62
     4
  6
CONTINUOUS
370
    -3
390
300
  0
LAYER
  5
24
330
2
100
AcDbSymbolTableRecord
100
AcDbLayerTableRecord
  2
SK1
 70
     0
 62
     4
  6
CONTINUOUS
370
    -3
390
300
  0
LAYER
  5
25
330
2
100
AcDbSymbolTableRecord
100
AcDbLayerTableRecord
  2
2
 70
     0
 62
     7
  6
CONTINUOUS
370
    -3
390
300
  0
LAYER
  5
26
330
2
100
AcDbSymbolTableRecord
100
AcDbLayerTableRecord
  2
2L
 70
     0
 62
     7
  6
CONTINUOUS
370
    -3
390
300
  0
LAYER
  5
27
330
2
100
AcDbSymbolTableRecord
100
AcDbLayerTableRecord
  2
SK2
 70
     0
 62
     7
  6
CONTINUOUS
370
    -3
390
300
  0
LAYER
  5
28
330
2
100
AcDbSymbolTableRecord
100
AcDbLayerTableRecord
  2
3
 70
     0
 62
     1
  6
HIDDEN
370
    -3
390
300
  0
LAYER
  5
29
330
2
100
AcDbSymbolTableRecord
100
AcDbLayerTableRecord
  2
SK3
 70
     0
 62
     1
  6
HIDDEN
370
    -3
390
300
  0
LAYER
  5
2A
330
2
100
AcDbSymbolTableRecord
100
AcDbLayerTableRecord
  2
4
 70
     0
 62
     2
  6
CENTER
370
    -3
390
300
  0
LAYER
  5
2B
330
2
100
AcDbSymbolTableRecord
100
AcDbLayerTableRecord
  2
SK4
 70
     0
 62
     2
  6
CENTER
370
    -3
390
300
  0
LAYER
  5
2C
330
2
100
AcDbSymbolTableRecord
100
AcDbLayerTableRecord
  2
5
 70
     0
 62
    -7
  6
CONTINUOUS
370
    -3
390
300
  0
LAYER
  5
2D
330
2
100
AcDbSymbolTableRecord
100
AcDbLayerTableRecord
  2
6
 70
     0
 62
     5
  6
CONTINUOUS
370
    -3
390
300
  0
LAYER
  5
2E
330
2
100
AcDbSymbolTableRecord
100
AcDbLayerTableRecord
  2
SK6
 70
     0
 62
     5
  6
CONTINUOUS
370
    -3
390
300
  0
LAYER
  5
2F
330
2
100
AcDbSymbolTableRecord
100
AcDbLayerTableRecord
  2
DEFPOINTS
 70
     0
 62
     7
  6
CONTINUOUS
290
     0
370
    -3
390
300
  0
LAYER
  5
375
330
2
100
AcDbSymbolTableRecord
100
AcDbLayerTableRecord
  2
CUT
 70
     0
 62
     1
  6
CONTINUOUS
370
    -3
390
300
  0
LAYER
  5
376
330
2
100
AcDbSymbolTableRecord
100
AcDbLayerTableRecord
  2
NOCUT
 70
     0
 62
     7
  6
CONTINUOUS
370
    -3
390
300
  0
ENDTAB
  0
TABLE
  2
STYLE
  5
3
330
0
100
AcDbSymbolTable
 70
     4
  0
STYLE
  5
10
330
3
100
AcDbSymbolTableRecord
100
AcDbTextStyleTableRecord
  2
STANDARD
 70
     0
 40
0.0
 41
1.0
 50
0.0
 71
     0
 42
5.0
  3
txt
  4

  0
STYLE
  5
1D
330
3
100
AcDbSymbolTableRecord
100
AcDbTextStyleTableRecord
  2
TXT
 70
     0
 40
8.0
 41
1.0
 50
0.0
 71
     0
 42
8.0
  3
txt
  4

  0
STYLE
  5
1E
330
3
100
AcDbSymbolTableRecord
100
AcDbTextStyleTableRecord
  2
SIMPLEX
 70
     0
 40
0.0
 41
1.0
 50
0.0
 71
     0
 42
3.5
  3
simplex
  4

  0
STYLE
  5
34C
330
3
100
AcDbSymbolTableRecord
100
AcDbTextStyleTableRecord
  2

 70
     1
 40
0.0
 41
1.0
 50
0.0
 71
     0
 42
2.5
  3
ltypeshp.shx
  4

  0
ENDTAB
  0
TABLE
  2
VIEW
  5
6
330
0
100
AcDbSymbolTable
 70
     0
  0
ENDTAB
  0
TABLE
  2
UCS
  5
7
330
0
100
AcDbSymbolTable
 70
     0
  0
ENDTAB
  0
TABLE
  2
APPID
  5
9
330
0
100
AcDbSymbolTable
 70
     1
  0
APPID
  5
11
330
9
100
AcDbSymbolTableRecord
100
AcDbRegAppTableRecord
  2
ACAD
 70
     0
  0
ENDTAB
  0
TABLE
  2
DIMSTYLE
  5
A
330
0
100
AcDbSymbolTable
 70
     1
100
AcDbDimStyleTable
  0
DIMSTYLE
105
3F
102
{ACAD_REACTORS
330
5F0
330
5FE
330
60B
330
618
330
625
102
}
330
A
100
AcDbSymbolTableRecord
100
AcDbDimStyleTableRecord
  2
STANDARD
 70
     0
 41
2.5
 42
0.0
 43
3.75
 44
1.25
 73
     0
 74
     0
 77
     1
 78
     8
 79
     2
140
3.5
141
0.0
143
0.039370078
147
0.625
171
     3
178
     0
179
     2
271
     2
272
     2
274
     3
283
     0
284
     8
340
1E
  0
ENDTAB
  0
TABLE
  2
BLOCK_RECORD
  5
1
330
0
100
AcDbSymbolTable
 70
     5
  0
BLOCK_RECORD
  5
18
330
1
100
AcDbSymbolTableRecord
100
AcDbBlockTableRecord
  2
*MODEL_SPACE
340
303
  0
BLOCK_RECORD
  5
338
330
1
100
AcDbSymbolTableRecord
100
AcDbBlockTableRecord
  2
*Paper_Space
340
33B
  0
BLOCK_RECORD
  5
5F1
330
1
100
AcDbSymbolTableRecord
100
AcDbBlockTableRecord
  2
*D0
340
0
  0
BLOCK_RECORD
  5
5FF
330
1
100
AcDbSymbolTableRecord
100
AcDbBlockTableRecord
  2
*D1
340
0
  0
BLOCK_RECORD
  5
60C
330
1
100
AcDbSymbolTableRecord
100
AcDbBlockTableRecord
  2
*D2
340
0
  0
BLOCK_RECORD
  5
619
330
1
100
AcDbSymbolTableRecord
100
AcDbBlockTableRecord
  2
*D3
340
0
  0
BLOCK_RECORD
  5
626
330
1
100
AcDbSymbolTableRecord
100
AcDbBlockTableRecord
  2
*D4
340
0
  0
ENDTAB
  0
ENDSEC
  0
SECTION
  2
BLOCKS
  0
BLOCK
  5
32
330
18
100
AcDbEntity
  8
0
100
AcDbBlockBegin
  2
*MODEL_SPACE
 70
     0
 10
0.0
 20
0.0
 30
0.0
  3
*MODEL_SPACE
  1

  0
ENDBLK
  5
33
330
18
100
AcDbEntity
  8
0
100
AcDbBlockEnd
  0
BLOCK
  5
339
330
338
100
AcDbEntity
 67
     1
  8
0
100
AcDbBlockBegin
  2
*Paper_Space
 70
     0
 10
0.0
 20
0.0
 30
0.0
  3
*Paper_Space
  1

  0
ENDBLK
  5
33A
330
338
100
AcDbEntity
 67
     1
  8
0
100
AcDbBlockEnd
  0
BLOCK
  5
5F2
330
5F1
100
AcDbEntity
  8
0
100
AcDbBlockBegin
  2
*D0
 70
     1
 10
0.0
 20
0.0
 30
0.0
  3
*D0
  1

  0
LINE
  5
5F4
330
5F1
100
AcDbEntity
  8
2
 62
     0
370
    -2
100
AcDbLine
 10
65.6
 20
12.7
 30
0.0
 11
81.85000000000001
 21
12.70000000000006
 31
0.0
  0
LINE
  5
5F5
330
5F1
100
AcDbEntity
  8
2
 62
     0
370
    -2
100
AcDbLine
 10
65.6
 20
-12.7
 30
0.0
 11
81.8500000000001
 21
-12.69999999999994
 31
0.0
  0
LINE
  5
5F6
330
5F1
100
AcDbEntity
  8
2
 62
     0
370
    -2
100
AcDbLine
 10
80.6000000000001
 20
-12.69999999999995
 30
0.0
 11
80.6000000000002
 21
-41.25449999999994
 31
0.0
  0
LINE
  5
5F7
330
5F1
100
AcDbEntity
  8
2
 62
     0
370
    -2
100
AcDbLine
 10
80.60000000000002
 20
10.20000000000005
 30
0.0
 11
80.60000000000008
 21
-10.19999999999995
 31
0.0
  0
SOLID
  5
5F8
330
5F1
100
AcDbEntity
  8
2
 62
     0
100
AcDbTrace
 10
81.0166666666667
 20
10.20000000000005
 30
0.0
 11
80.18333333333335
 21
10.20000000000005
 31
0.0
 12
80.60000000000001
 22
12.70000000000005
 32
0.0
 13
80.60000000000001
 23
12.70000000000005
 33
0.0
  0
SOLID
  5
5F9
330
5F1
100
AcDbEntity
  8
2
 62
     0
100
AcDbTrace
 10
80.18333333333341
 20
-10.19999999999995
 30
0.0
 11
81.01666666666675
 21
-10.19999999999995
 31
0.0
 12
80.6000000000001
 22
-12.69999999999995
 32
0.0
 13
80.6000000000001
 23
-12.69999999999995
 33
0.0
  0
MTEXT
  5
5FA
330
5F1
100
AcDbEntity
  8
2
 62
     0
100
AcDbMText
 10
77.87325000000016
 20
-28.22724999999995
 30
0.0
 40
3.5
 41
0.0
 71
     5
 72
     1
  1
UNS1"-14
  7
SIMPLEX
 11
-3.356894814614647E-15
 21
1.0
 31
0.0
 73
     1
 44
1.0
  0
POINT
  5
5FB
330
5F1
100
AcDbEntity
  8
DEFPOINTS
 62
     0
100
AcDbPoint
 10
65.6
 20
12.7
 30
0.0
  0
POINT
  5
5FC
330
5F1
100
AcDbEntity
  8
DEFPOINTS
 62
     0
100
AcDbPoint
 10
65.6
 20
-12.7
 30
0.0
  0
POINT
  5
5FD
330
5F1
100
AcDbEntity
  8
DEFPOINTS
 62
     0
100
AcDbPoint
 10
80.6000000000001
 20
-12.69999999999995
 30
0.0
  0
ENDBLK
  5
5F3
330
5F1
100
AcDbEntity
  8
0
100
AcDbBlockEnd
  0
BLOCK
  5
600
330
5FF
100
AcDbEntity
  8
0
100
AcDbBlockBegin
  2
*D1
 70
     1
 10
0.0
 20
0.0
 30
0.0
  3
*D1
  1

  0
LINE
  5
602
330
5FF
100
AcDbEntity
  8
2
 62
     0
370
    -2
100
AcDbLine
 10
0.0
 20
0.0
 30
0.0
 11
0.0
 21
76.25
 31
0.0
  0
LINE
  5
603
330
5FF
100
AcDbEntity
  8
2
 62
     0
370
    -2
100
AcDbLine
 10
65.6
 20
0.0
 30
0.0
 11
65.6
 21
76.25
 31
0.0
  0
LINE
  5
604
330
5FF
100
AcDbEntity
  8
2
 62
     0
370
    -2
100
AcDbLine
 10
2.5
 20
75.0
 30
0.0
 11
63.09999999999999
 21
75.0
 31
0.0
  0
SOLID
  5
605
330
5FF
100
AcDbEntity
  8
2
 62
     0
100
AcDbTrace
 10
2.5
 20
75.41666666666667
 30
0.0
 11
2.5
 21
74.58333333333333
 31
0.0
 12
0.0
 22
75.0
 32
0.0
 13
0.0
 23
75.0
 33
0.0
  0
SOLID
  5
606
330
5FF
100
AcDbEntity
  8
2
 62
     0
100
AcDbTrace
 10
63.09999999999999
 20
74.58333333333333
 30
0.0
 11
63.09999999999999
 21
75.41666666666667
 31
0.0
 12
65.6
 22
75.0
 32
0.0
 13
65.6
 23
75.0
 33
0.0
  0
MTEXT
  5
607
330
5FF
100
AcDbEntity
  8
2
 62
     0
100
AcDbMText
 10
32.8
 20
77.39775
 30
0.0
 40
3.5
 41
0.0
 71
     5
 72
     1
  1
65.6
  7
SIMPLEX
 73
     1
 44
1.0
  0
POINT
  5
608
330
5FF
100
AcDbEntity
  8
DEFPOINTS
 62
     0
100
AcDbPoint
 10
0.0
 20
0.0
 30
0.0
  0
POINT
  5
609
330
5FF
100
AcDbEntity
  8
DEFPOINTS
 62
     0
100
AcDbPoint
 10
65.6
 20
0.0
 30
0.0
  0
POINT
  5
60A
330
5FF
100
AcDbEntity
  8
DEFPOINTS
 62
     0
100
AcDbPoint
 10
65.6
 20
75.0
 30
0.0
  0
ENDBLK
  5
601
330
5FF
100
AcDbEntity
  8
0
100
AcDbBlockEnd
  0
BLOCK
  5
60D
330
60C
100
AcDbEntity
  8
0
100
AcDbBlockBegin
  2
*D2
 70
     1
 10
0.0
 20
0.0
 30
0.0
  3
*D2
  1

  0
LINE
  5
60F
330
60C
100
AcDbEntity
  8
SK2
 62
     0
370
    -2
100
AcDbLine
 10
-44.026
 20
10.16
 30
0.0
 11
-80.85000000005184
 21
10.15999999981207
 31
0.0
  0
LINE
  5
610
330
60C
100
AcDbEntity
  8
SK2
 62
     0
370
    -2
100
AcDbLine
 10
-44.026
 20
-10.16
 30
0.0
 11
-80.84999999994814
 21
-10.16000000018793
 31
0.0
  0
LINE
  5
611
330
60C
100
AcDbEntity
  8
SK2
 62
     0
370
    -2
100
AcDbLine
 10
-79.60000000003907
 20
7.659999999818451
 30
0.0
 11
-79.5999999999609
 21
-7.660000000181549
 31
0.0
  0
SOLID
  5
612
330
60C
100
AcDbEntity
  8
SK2
 62
     0
100
AcDbTrace
 10
-79.1833333333724
 20
7.659999999820577
 30
0.0
 11
-80.01666666670575
 21
7.659999999816325
 31
0.0
 12
-79.60000000005184
 22
10.15999999981845
 32
0.0
 13
-79.60000000005184
 23
10.15999999981845
 33
0.0
  0
SOLID
  5
613
330
60C
100
AcDbEntity
  8
SK2
 62
     0
100
AcDbTrace
 10
-80.01666666662757
 20
-7.660000000183675
 30
0.0
 11
-79.18333333329423
 21
-7.660000000179423
 31
0.0
 12
-79.59999999994814
 22
-10.16000000018155
 32
0.0
 13
-79.59999999994814
 23
-10.16000000018155
 33
0.0
  0
MTEXT
  5
614
330
60C
100
AcDbEntity
  8
SK2
 62
     0
100
AcDbMText
 10
-81.99775
 20
-0.0000000001937851
 30
0.0
 40
3.5
 41
0.0
 71
     5
 72
     1
  1
%%c20.32
  7
SIMPLEX
 11
-5.103179471300640E-12
 21
1.0
 31
0.0
 73
     1
 44
1.0
  0
POINT
  5
615
330
60C
100
AcDbEntity
  8
DEFPOINTS
 62
     0
100
AcDbPoint
 10
-44.026
 20
10.16
 30
0.0
  0
POINT
  5
616
330
60C
100
AcDbEntity
  8
DEFPOINTS
 62
     0
100
AcDbPoint
 10
-44.026
 20
-10.16
 30
0.0
  0
POINT
  5
617
330
60C
100
AcDbEntity
  8
DEFPOINTS
 62
     0
100
AcDbPoint
 10
-79.59999999994814
 20
-10.16000000018155
 30
0.0
  0
ENDBLK
  5
60E
330
60C
100
AcDbEntity
  8
0
100
AcDbBlockEnd
  0
BLOCK
  5
61A
330
619
100
AcDbEntity
  8
0
100
AcDbBlockBegin
  2
*D3
 70
     1
 10
0.0
 20
0.0
 30
0.0
  3
*D3
  1

  0
LINE
  5
61C
330
619
100
AcDbEntity
  8
2
 62
     0
370
    -2
100
AcDbLine
 10
34.01228675999999
 20
9.95
 30
0.0
 11
34.01228675999999
 21
61.25
 31
0.0
  0
LINE
  5
61D
330
619
100
AcDbEntity
  8
2
 62
     0
370
    -2
100
AcDbLine
 10
65.6
 20
12.7
 30
0.0
 11
65.6
 21
61.25
 31
0.0
  0
LINE
  5
61E
330
619
100
AcDbEntity
  8
2
 62
     0
370
    -2
100
AcDbLine
 10
36.51228675999999
 20
60.0
 30
0.0
 11
63.09999999999999
 21
60.0
 31
0.0
  0
SOLID
  5
61F
330
619
100
AcDbEntity
  8
2
 62
     0
100
AcDbTrace
 10
36.51228675999999
 20
60.41666666666666
 30
0.0
 11
36.51228675999999
 21
59.58333333333334
 31
0.0
 12
34.01228675999999
 22
60.0
 32
0.0
 13
34.01228675999999
 23
60.0
 33
0.0
  0
SOLID
  5
620
330
619
100
AcDbEntity
  8
2
 62
     0
100
AcDbTrace
 10
63.09999999999999
 20
59.58333333333334
 30
0.0
 11
63.09999999999999
 21
60.41666666666666
 31
0.0
 12
65.6
 22
60.0
 32
0.0
 13
65.6
 23
60.0
 33
0.0
  0
MTEXT
  5
621
330
619
100
AcDbEntity
  8
2
 62
     0
100
AcDbMText
 10
49.80614337999999
 20
62.39775
 30
0.0
 40
3.5
 41
0.0
 71
     5
 72
     1
  1
31.59
  7
SIMPLEX
 73
     1
 44
1.0
  0
POINT
  5
622
330
619
100
AcDbEntity
  8
DEFPOINTS
 62
     0
100
AcDbPoint
 10
34.01228675999999
 20
9.95
 30
0.0
  0
POINT
  5
623
330
619
100
AcDbEntity
  8
DEFPOINTS
 62
     0
100
AcDbPoint
 10
65.6
 20
12.7
 30
0.0
  0
POINT
  5
624
330
619
100
AcDbEntity
  8
DEFPOINTS
 62
     0
100
AcDbPoint
 10
65.6
 20
60.0
 30
0.0
  0
ENDBLK
  5
61B
330
619
100
AcDbEntity
  8
0
100
AcDbBlockEnd
  0
BLOCK
  5
627
330
626
100
AcDbEntity
  8
0
100
AcDbBlockBegin
  2
*D4
 70
     1
 10
0.0
 20
0.0
 30
0.0
  3
*D4
  1

  0
LINE
  5
629
330
626
100
AcDbEntity
  8
SK2
 62
     0
370
    -2
100
AcDbLine
 10
-64.6
 20
12.7
 30
0.0
 11
-64.6
 21
91.25
 31
0.0
  0
LINE
  5
62A
330
626
100
AcDbEntity
  8
SK2
 62
     0
370
    -2
100
AcDbLine
 10
65.6
 20
12.7
 30
0.0
 11
65.6
 21
91.25
 31
0.0
  0
LINE
  5
62B
330
626
100
AcDbEntity
  8
SK2
 62
     0
370
    -2
100
AcDbLine
 10
-62.09999999999999
 20
90.0
 30
0.0
 11
63.09999999999999
 21
90.0
 31
0.0
  0
SOLID
  5
62C
330
626
100
AcDbEntity
  8
SK2
 62
     0
100
AcDbTrace
 10
-62.09999999999999
 20
90.41666666666667
 30
0.0
 11
-62.09999999999999
 21
89.58333333333333
 31
0.0
 12
-64.6
 22
90.0
 32
0.0
 13
-64.6
 23
90.0
 33
0.0
  0
SOLID
  5
62D
330
626
100
AcDbEntity
  8
SK2
 62
     0
100
AcDbTrace
 10
63.09999999999999
 20
89.58333333333333
 30
0.0
 11
63.09999999999999
 21
90.41666666666667
 31
0.0
 12
65.6
 22
90.0
 32
0.0
 13
65.6
 23
90.0
 33
0.0
  0
MTEXT
  5
62E
330
626
100
AcDbEntity
  8
SK2
 62
     0
100
AcDbMText
 10
0.5
 20
92.39775
 30
0.0
 40
3.5
 41
0.0
 71
     5
 72
     1
  1
130.2
  7
SIMPLEX
 73
     1
 44
1.0
  0
POINT
  5
62F
330
626
100
AcDbEntity
  8
DEFPOINTS
 62
     0
100
AcDbPoint
 10
-64.6
 20
12.7
 30
0.0
  0
POINT
  5
630
330
626
100
AcDbEntity
  8
DEFPOINTS
 62
     0
100
AcDbPoint
 10
65.6
 20
12.7
 30
0.0
  0
POINT
  5
631
330
626
100
AcDbEntity
  8
DEFPOINTS
 62
     0
100
AcDbPoint
 10
65.6
 20
90.0
 30
0.0
  0
ENDBLK
  5
628
330
626
100
AcDbEntity
  8
0
100
AcDbBlockEnd
  0
ENDSEC
  0
SECTION
  2
ENTITIES
  0
LINE
  5
3D6
330
18
100
AcDbEntity
  8
SK4
100
AcDbLine
 10
-66.6
 20
0.0
 30
0.0
 11
10.09999999999999
 21
0.0
 31
0.0
  0
LINE
  5
3D7
330
18
100
AcDbEntity
  8
4
100
AcDbLine
 10
8.099999999999994
 20
0.0
 30
0.0
 11
67.6
 21
0.0
 31
0.0
  0
LINE
  5
3D8
330
18
100
AcDbEntity
  8
SK4
100
AcDbLine
 10
8.099999999999994
 20
0.0
 30
0.0
 11
67.6
 21
0.0
 31
0.0
  0
LINE
  5
3D9
330
18
100
AcDbEntity
  8
1
100
AcDbLine
 10
10.09999999999999
 20
10.16
 30
0.0
 11
10.09999999999999
 21
10.1498989961296
 31
0.0
  0
LINE
  5
3DA
330
18
100
AcDbEntity
  8
1
100
AcDbLine
 10
10.09999999999999
 20
10.1498989961296
 30
0.0
 11
10.09999999999999
 21
9.248377619608615
 31
0.0
  0
LINE
  5
3DB
330
18
100
AcDbEntity
  8
1
100
AcDbLine
 10
10.09999999999999
 20
9.248377619608615
 30
0.0
 11
10.09999999999999
 21
-10.16
 31
0.0
  0
LINE
  5
3DC
330
18
100
AcDbEntity
  8
1
100
AcDbLine
 10
10.09999999999999
 20
10.16
 30
0.0
 11
-0.0000000000000018
 21
10.16
 31
0.0
  0
LINE
  5
3DD
330
18
100
AcDbEntity
  8
1
100
AcDbLine
 10
10.09999999999999
 20
9.95
 30
0.0
 11
15.71534519579518
 21
9.95
 31
0.0
  0
ARC
  5
3DE
330
18
100
AcDbEntity
  8
1
100
AcDbCircle
 10
33.10673439699407
 20
-6.628078774082471
 30
0.0
 40
16.57808124612992
100
AcDbArc
 50
86.8687472129895
 51
89.99764218789197
  0
LINE
  5
3DF
330
18
100
AcDbEntity
  8
1
100
AcDbLine
 10
33.10741661120279
 20
9.95
 30
0.0
 11
34.01228675999999
 21
9.95
 31
0.0
  0
ARC
  5
3E0
330
18
100
AcDbEntity
  8
1
100
AcDbCircle
 10
-68.17011998065196
 20
-131.5546876973825
 30
0.0
 40
167.7096541168253
100
AcDbArc
 50
52.46242867315607
 51
53.10303175863154
  0
LINE
  5
3E1
330
18
100
AcDbEntity
  8
1
100
AcDbLine
 10
34.01228675999999
 20
1.713429990076634
 30
0.0
 11
34.01228675999999
 21
1.777949725412017
 31
0.0
  0
LINE
  5
3E2
330
18
100
AcDbEntity
  8
1
100
AcDbLine
 10
34.01228675999999
 20
1.777949725412017
 30
0.0
 11
34.01228675999998
 21
9.925252282298013
 31
0.0
  0
LINE
  5
3E3
330
18
100
AcDbEntity
  8
1
100
AcDbLine
 10
11.59999999999999
 20
-8.042613124901557
 30
0.0
 11
12.60937389792861
 21
-8.478241119187429
 31
0.0
  0
LINE
  5
3E4
330
18
100
AcDbEntity
  8
1
100
AcDbLine
 10
12.60937389792861
 20
-8.478241119187429
 30
0.0
 11
13.61875764127056
 21
-8.861399517748328
 31
0.0
  0
LINE
  5
3E5
330
18
100
AcDbEntity
  8
1
100
AcDbLine
 10
13.61875764127056
 20
-8.861399517748328
 30
0.0
 11
14.62813910116047
 21
-9.18971194639824
 31
0.0
  0
LINE
  5
3E6
330
18
100
AcDbEntity
  8
1
100
AcDbLine
 10
14.62813910116047
 20
-9.18971194639824
 30
0.0
 11
15.6375090517712
 21
-9.461144635648104
 31
0.0
  0
LINE
  5
3E7
330
18
100
AcDbEntity
  8
1
100
AcDbLine
 10
15.6375090517712
 20
-9.461144635648104
 30
0.0
 11
16.6468888938839
 21
-9.674022682637586
 31
0.0
  0
LINE
  5
3E8
330
18
100
AcDbEntity
  8
1
100
AcDbLine
 10
16.6468888938839
 20
-9.674022682637586
 30
0.0
 11
17.65627297884939
 21
-9.827027197536907
 31
0.0
  0
LINE
  5
3E9
330
18
100
AcDbEntity
  8
1
100
AcDbLine
 10
17.65627297884939
 20
-9.827027197536907
 30
0.0
 11
18.6656483633067
 21
-9.919209567490837
 31
0.0
  0
LINE
  5
3EA
330
18
100
AcDbEntity
  8
1
100
AcDbLine
 10
18.6656483633067
 20
-9.919209567490837
 30
0.0
 11
19.67501370656292
 21
-9.949999999999896
 31
0.0
  0
LINE
  5
3EB
330
18
100
AcDbEntity
  8
1
100
AcDbLine
 10
11.59999999999999
 20
-8.042613124901573
 30
0.0
 11
11.59999999999999
 21
-9.949999999999998
 31
0.0
  0
LINE
  5
3EC
330
18
100
AcDbEntity
  8
1
100
AcDbLine
 10
11.59999999999999
 20
-2.003707697889176
 30
0.0
 11
15.98466507106437
 21
-5.154814679157407
 31
0.0
  0
LINE
  5
3ED
330
18
100
AcDbEntity
  8
1
100
AcDbLine
 10
15.98466507106437
 20
-5.154814679157407
 30
0.0
 11
18.17699231745951
 21
-6.527225210405478
 31
0.0
  0
LINE
  5
3EE
330
18
100
AcDbEntity
  8
1
100
AcDbLine
 10
18.17699231745951
 20
-6.527225210405478
 30
0.0
 11
19.27316561748401
 21
-7.144403311066638
 31
0.0
  0
LINE
  5
3EF
330
18
100
AcDbEntity
  8
1
100
AcDbLine
 10
19.27316561748401
 20
-7.144403311066638
 30
0.0
 11
20.36932359584802
 21
-7.709429090842439
 31
0.0
  0
LINE
  5
3F0
330
18
100
AcDbEntity
  8
1
100
AcDbLine
 10
20.36932359584802
 20
-7.709429090842439
 30
0.0
 11
21.46549350176024
 21
-8.218192160429458
 31
0.0
  0
LINE
  5
3F1
330
18
100
AcDbEntity
  8
1
100
AcDbLine
 10
21.46549350176024
 20
-8.218192160429458
 30
0.0
 11
22.5616625998493
 21
-8.666974426782865
 31
0.0
  0
LINE
  5
3F2
330
18
100
AcDbEntity
  8
1
100
AcDbLine
 10
22.5616625998493
 20
-8.666974426782865
 30
0.0
 11
23.65782079160176
 21
-9.052495821717887
 31
0.0
  0
LINE
  5
3F3
330
18
100
AcDbEntity
  8
1
100
AcDbLine
 10
23.65782079160176
 20
-9.052495821717887
 30
0.0
 11
24.75399405348716
 21
-9.371951914708312
 31
0.0
  0
LINE
  5
3F4
330
18
100
AcDbEntity
  8
1
100
AcDbLine
 10
24.75399405348716
 20
-9.371951914708312
 30
0.0
 11
25.85015321707344
 21
-9.623002772575175
 31
0.0
  0
LINE
  5
3F5
330
18
100
AcDbEntity
  8
1
100
AcDbLine
 10
25.85015321707344
 20
-9.623002772575175
 30
0.0
 11
26.94632116841212
 21
-9.803820347577643
 31
0.0
  0
LINE
  5
3F6
330
18
100
AcDbEntity
  8
1
100
AcDbLine
 10
26.94632116841212
 20
-9.803820347577643
 30
0.0
 11
28.04249161824925
 21
-9.913085071163092
 31
0.0
  0
LINE
  5
3F7
330
18
100
AcDbEntity
  8
1
100
AcDbLine
 10
28.04249161824925
 20
-9.913085071163092
 30
0.0
 11
29.13864161579966
 21
-9.949997492594237
 31
0.0
  0
LINE
  5
3F8
330
18
100
AcDbEntity
  8
1
100
AcDbLine
 10
29.13864161579966
 20
-9.949997492594237
 30
0.0
 11
29.14774791715209
 21
-9.949999999997004
 31
0.0
  0
LINE
  5
3F9
330
18
100
AcDbEntity
  8
1
100
AcDbLine
 10
34.01228675999999
 20
-7.295263538384861
 30
0.0
 11
34.01228675999999
 21
-5.569997814470707
 31
0.0
  0
LINE
  5
3FA
330
18
100
AcDbEntity
  8
1
100
AcDbLine
 10
11.6
 20
9.094683701238209
 30
0.0
 11
12.51622092751968
 21
8.783449855749385
 31
0.0
  0
LINE
  5
3FB
330
18
100
AcDbEntity
  8
1
100
AcDbLine
 10
12.51622092751968
 20
8.783449855749385
 30
0.0
 11
13.43244731953089
 21
8.42741905320636
 31
0.0
  0
LINE
  5
3FC
330
18
100
AcDbEntity
  8
1
100
AcDbLine
 10
13.43244731953089
 20
8.42741905320636
 30
0.0
 11
14.34867629993607
 21
8.028407388139911
 31
0.0
  0
LINE
  5
3FD
330
18
100
AcDbEntity
  8
1
100
AcDbLine
 10
14.34867629993607
 20
8.028407388139911
 30
0.0
 11
15.26490539841696
 21
7.588450629774142
 31
0.0
  0
LINE
  5
3FE
330
18
100
AcDbEntity
  8
1
100
AcDbLine
 10
15.26490539841696
 20
7.588450629774142
 30
0.0
 11
17.09735438433186
 21
6.594879316895079
 31
0.0
  0
LINE
  5
3FF
330
18
100
AcDbEntity
  8
1
100
AcDbLine
 10
17.09735438433186
 20
6.594879316895079
 30
0.0
 11
18.92980005391791
 21
5.466945975564048
 31
0.0
  0
LINE
  5
400
330
18
100
AcDbEntity
  8
1
100
AcDbLine
 10
18.92980005391791
 20
5.466945975564048
 30
0.0
 11
20.76225740599055
 21
4.227621790353723
 31
0.0
  0
LINE
  5
401
330
18
100
AcDbEntity
  8
1
100
AcDbLine
 10
20.76225740599055
 20
4.227621790353723
 30
0.0
 11
26.25959175409563
 21
0.1020994327504864
 31
0.0
  0
LINE
  5
402
330
18
100
AcDbEntity
  8
1
100
AcDbLine
 10
11.6
 20
9.094683701238196
 30
0.0
 11
11.6
 21
-2.003707697889176
 31
0.0
  0
LINE
  5
403
330
18
100
AcDbEntity
  8
1
100
AcDbLine
 10
34.01228675999999
 20
9.95
 30
0.0
 11
34.01228676
 21
9.949998530567123
 31
0.0
  0
LINE
  5
404
330
18
100
AcDbEntity
  8
1
100
AcDbLine
 10
34.01228676
 20
9.949998530567123
 30
0.0
 11
34.01228675999999
 21
9.949573809279505
 31
0.0
  0
LINE
  5
405
330
18
100
AcDbEntity
  8
1
100
AcDbLine
 10
34.01228675999999
 20
9.949573809279505
 30
0.0
 11
34.01228675999999
 21
9.943896798558612
 31
0.0
  0
LINE
  5
406
330
18
100
AcDbEntity
  8
1
100
AcDbLine
 10
34.01228675999999
 20
9.943896798558612
 30
0.0
 11
34.01228675999999
 21
9.925252282298013
 31
0.0
  0
LINE
  5
407
330
18
100
AcDbEntity
  8
1
100
AcDbLine
 10
34.01228675999999
 20
1.431364560306605
 30
0.0
 11
34.01228675999999
 21
1.713429990076638
 31
0.0
  0
LINE
  5
408
330
18
100
AcDbEntity
  8
1
100
AcDbLine
 10
34.01228675999999
 20
1.431364560306604
 30
0.0
 11
34.01228675999999
 21
-5.569997814470665
 31
0.0
  0
LINE
  5
409
330
18
100
AcDbEntity
  8
1
100
AcDbLine
 10
34.01228675999999
 20
-9.243007278159642
 30
0.0
 11
34.01228675999999
 21
-7.295263538384861
 31
0.0
  0
LINE
  5
40A
330
18
100
AcDbEntity
  8
1
100
AcDbLine
 10
-0.000000000000004
 20
-10.16
 30
0.0
 11
10.09999999999999
 21
-10.16
 31
0.0
  0
LINE
  5
40B
330
18
100
AcDbEntity
  8
1
100
AcDbLine
 10
10.09999999999999
 20
-9.95
 30
0.0
 11
11.59999999999999
 21
-9.95
 31
0.0
  0
LINE
  5
40C
330
18
100
AcDbEntity
  8
1
100
AcDbLine
 10
29.14774791715209
 20
-9.949999999997004
 30
0.0
 11
29.75581810273913
 21
-9.938821435049562
 31
0.0
  0
LINE
  5
40D
330
18
100
AcDbEntity
  8
1
100
AcDbLine
 10
29.75581810273913
 20
-9.938821435049562
 30
0.0
 11
30.36388215058704
 21
-9.905312401411882
 31
0.0
  0
LINE
  5
40E
330
18
100
AcDbEntity
  8
1
100
AcDbLine
 10
30.36388215058704
 20
-9.905312401411882
 30
0.0
 11
30.97194644584147
 21
-9.849548438667924
 31
0.0
  0
LINE
  5
40F
330
18
100
AcDbEntity
  8
1
100
AcDbLine
 10
30.97194644584147
 20
-9.849548438667924
 30
0.0
 11
31.58001745298473
 21
-9.771653377653232
 31
0.0
  0
LINE
  5
410
330
18
100
AcDbEntity
  8
1
100
AcDbLine
 10
31.58001745298473
 20
-9.771653377653232
 30
0.0
 11
32.18809193651575
 21
-9.671801697264433
 31
0.0
  0
LINE
  5
411
330
18
100
AcDbEntity
  8
1
100
AcDbLine
 10
32.18809193651575
 20
-9.671801697264433
 30
0.0
 11
32.79615709676337
 21
-9.550220154445963
 31
0.0
  0
LINE
  5
412
330
18
100
AcDbEntity
  8
1
100
AcDbLine
 10
32.79615709676337
 20
-9.550220154445963
 30
0.0
 11
34.01228675999999
 21
-9.243007278159634
 31
0.0
  0
LINE
  5
413
330
18
100
AcDbEntity
  8
1
100
AcDbLine
 10
19.67501370656292
 20
-9.95
 30
0.0
 11
29.14774791715208
 21
-9.95
 31
0.0
  0
LINE
  5
414
330
18
100
AcDbEntity
  8
1
100
AcDbLine
 10
32.51899263195871
 20
2.565399282137889
 30
0.0
 11
30.41853705227506
 21
4.098306423685671
 31
0.0
  0
LINE
  5
415
330
18
100
AcDbEntity
  8
1
100
AcDbLine
 10
30.41853705227506
 20
4.098306423685671
 30
0.0
 11
28.31808481827116
 21
5.521560985467252
 31
0.0
  0
LINE
  5
416
330
18
100
AcDbEntity
  8
1
100
AcDbLine
 10
28.31808481827116
 20
5.521560985467252
 30
0.0
 11
26.21761869290987
 21
6.797094037769828
 31
0.0
  0
LINE
  5
417
330
18
100
AcDbEntity
  8
1
100
AcDbLine
 10
26.21761869290987
 20
6.797094037769828
 30
0.0
 11
25.1673983957119
 21
7.368610026409034
 31
0.0
  0
LINE
  5
418
330
18
100
AcDbEntity
  8
1
100
AcDbLine
 10
25.1673983957119
 20
7.368610026409034
 30
0.0
 11
24.11716399832224
 21
7.890763027833312
 31
0.0
  0
LINE
  5
419
330
18
100
AcDbEntity
  8
1
100
AcDbLine
 10
24.11716399832224
 20
7.890763027833312
 30
0.0
 11
23.06693217639896
 21
8.360046782568112
 31
0.0
  0
LINE
  5
41A
330
18
100
AcDbEntity
  8
1
100
AcDbLine
 10
23.06693217639896
 20
8.360046782568112
 30
0.0
 11
22.01671166500773
 21
8.773313481905651
 31
0.0
  0
LINE
  5
41B
330
18
100
AcDbEntity
  8
1
100
AcDbLine
 10
22.01671166500773
 20
8.773313481905651
 30
0.0
 11
20.96647766766292
 21
9.127804053942903
 31
0.0
  0
LINE
  5
41C
330
18
100
AcDbEntity
  8
1
100
AcDbLine
 10
20.96647766766292
 20
9.127804053942903
 30
0.0
 11
19.91624636205433
 21
9.421137711410807
 31
0.0
  0
LINE
  5
41D
330
18
100
AcDbEntity
  8
1
100
AcDbLine
 10
19.91624636205433
 20
9.421137711410807
 30
0.0
 11
18.86602561865758
 21
9.65134651113937
 31
0.0
  0
LINE
  5
41E
330
18
100
AcDbEntity
  8
1
100
AcDbLine
 10
18.86602561865758
 20
9.65134651113937
 30
0.0
 11
17.81579143534638
 21
9.816893967774345
 31
0.0
  0
LINE
  5
41F
330
18
100
AcDbEntity
  8
1
100
AcDbLine
 10
17.81579143534638
 20
9.816893967774345
 30
0.0
 11
16.76556020165493
 21
9.916668192632782
 31
0.0
  0
LINE
  5
420
330
18
100
AcDbEntity
  8
1
100
AcDbLine
 10
16.76556020165493
 20
9.916668192632782
 30
0.0
 11
15.71534519579518
 21
9.949999999999994
 31
0.0
  0
LINE
  5
421
330
18
100
AcDbEntity
  8
1
100
AcDbLine
 10
24.41138087634371
 20
7.749671570726363
 30
0.0
 11
25.49839280172498
 21
8.250082088486463
 31
0.0
  0
LINE
  5
422
330
18
100
AcDbEntity
  8
1
100
AcDbLine
 10
25.49839280172498
 20
8.250082088486463
 30
0.0
 11
26.58539061425111
 21
8.69127396223555
 31
0.0
  0
LINE
  5
423
330
18
100
AcDbEntity
  8
1
100
AcDbLine
 10
26.58539061425111
 20
8.69127396223555
 30
0.0
 11
27.67240380930155
 21
9.070092640889916
 31
0.0
  0
LINE
  5
424
330
18
100
AcDbEntity
  8
1
100
AcDbLine
 10
27.67240380930155
 20
9.070092640889916
 30
0.0
 11
28.75940912367745
 21
9.383811536162012
 31
0.0
  0
LINE
  5
425
330
18
100
AcDbEntity
  8
1
100
AcDbLine
 10
28.75940912367745
 20
9.383811536162012
 30
0.0
 11
29.84641173758697
 21
9.630179597916323
 31
0.0
  0
LINE
  5
426
330
18
100
AcDbEntity
  8
1
100
AcDbLine
 10
29.84641173758697
 20
9.630179597916323
 30
0.0
 11
30.93342552743248
 21
9.807432742602126
 31
0.0
  0
LINE
  5
427
330
18
100
AcDbEntity
  8
1
100
AcDbLine
 10
30.93342552743248
 20
9.807432742602126
 30
0.0
 11
32.0204238975896
 21
9.914294280721558
 31
0.0
  0
LINE
  5
428
330
18
100
AcDbEntity
  8
1
100
AcDbLine
 10
32.0204238975896
 20
9.914294280721558
 30
0.0
 11
33.10741661120279
 21
9.95
 31
0.0
  0
LINE
  5
429
330
18
100
AcDbEntity
  8
1
100
AcDbLine
 10
26.25959175409563
 20
0.1020994327504864
 30
0.0
 11
26.25959684797366
 21
0.1020954815994989
 31
0.0
  0
LINE
  5
42A
330
18
100
AcDbEntity
  8
1
100
AcDbLine
 10
26.25959684797366
 20
0.1020954815994989
 30
0.0
 11
30.13595028406103
 21
-2.863731540382326
 31
0.0
  0
LINE
  5
42B
330
18
100
AcDbEntity
  8
1
100
AcDbLine
 10
30.13595028406103
 20
-2.863731540382326
 30
0.0
 11
34.01228675999999
 21
-5.569997814470663
 31
0.0
  0
LINE
  5
42C
330
18
100
AcDbEntity
  8
1
100
AcDbLine
 10
26.25959686184116
 20
0.1020954706294469
 30
0.0
 11
26.25959175399192
 21
0.1020994326167798
 31
0.0
  0
LINE
  5
42D
330
18
100
AcDbEntity
  8
1
 62
     1
100
AcDbLine
 10
64.14990910153978
 20
12.01358684503619
 30
0.0
 11
65.452973104039
 21
11.63744114943493
 31
0.0
  0
LINE
  5
42E
330
18
100
AcDbEntity
  8
1
 62
     1
100
AcDbLine
 10
35.59999999999999
 20
12.7
 30
0.0
 11
35.81093275103407
 21
12.7
 31
0.0
  0
LINE
  5
42F
330
18
100
AcDbEntity
  8
1
 62
     1
100
AcDbLine
 10
37.33192439182307
 20
12.7
 30
0.0
 11
37.62521846531978
 21
12.7
 31
0.0
  0
LINE
  5
430
330
18
100
AcDbEntity
  8
1
 62
     1
100
AcDbLine
 10
39.14621010610878
 20
12.7
 30
0.0
 11
39.43950417960551
 21
12.7
 31
0.0
  0
LINE
  5
431
330
18
100
AcDbEntity
  8
1
 62
     1
100
AcDbLine
 10
40.96049582039449
 20
12.7
 30
0.0
 11
41.25378989389121
 21
12.7
 31
0.0
  0
LINE
  5
432
330
18
100
AcDbEntity
  8
1
 62
     1
100
AcDbLine
 10
60.91763867753735
 20
12.7
 30
0.0
 11
61.21093275103408
 21
12.7
 31
0.0
  0
LINE
  5
433
330
18
100
AcDbEntity
  8
1
 62
     1
100
AcDbLine
 10
46.40335296325163
 20
-12.7
 30
0.0
 11
46.14447591508286
 21
-12.25161200871927
 31
0.0
  0
LINE
  5
434
330
18
100
AcDbEntity
  8
1
 62
     1
100
AcDbLine
 10
47.45714285714286
 20
-11.38278321428571
 30
0.0
 11
46.69664703674835
 21
-12.70000000000001
 31
0.0
  0
LINE
  5
435
330
18
100
AcDbEntity
  8
1
 62
     1
100
AcDbLine
 10
49.27142857142857
 20
-11.38278321428571
 30
0.0
 11
48.51093275103408
 21
-12.7
 31
0.0
  0
LINE
  5
436
330
18
100
AcDbEntity
  8
1
 62
     1
100
AcDbLine
 10
50.03192439182307
 20
-12.7
 30
0.0
 11
49.27142857142857
 21
-11.38278321428571
 31
0.0
  0
LINE
  5
437
330
18
100
AcDbEntity
  8
1
 62
     1
100
AcDbLine
 10
51.08571428571429
 20
-11.38278321428571
 30
0.0
 11
50.32521846531979
 21
-12.70000000000001
 31
0.0
  0
LINE
  5
438
330
18
100
AcDbEntity
  8
1
 62
     1
100
AcDbLine
 10
52.9
 20
-11.38278321428571
 30
0.0
 11
52.1395041796055
 21
-12.70000000000001
 31
0.0
  0
LINE
  5
439
330
18
100
AcDbEntity
  8
1
 62
     1
100
AcDbLine
 10
54.71428571428572
 20
-11.38278321428571
 30
0.0
 11
53.95378989389121
 21
-12.70000000000001
 31
0.0
  0
ARC
  5
43A
330
18
100
AcDbEntity
  8
1
 62
     1
100
AcDbCircle
 10
86.78271072049886
 20
25.74599745780227
 30
0.0
 40
35.70616356755917
100
AcDbArc
 50
230.6644659152841
 51
233.318313239948
  0
ARC
  5
43B
330
18
100
AcDbEntity
  8
1
 62
     1
100
AcDbCircle
 10
69.25309290900384
 20
6.191018991755323
 30
0.0
 40
16.232274578557
100
AcDbArc
 50
251.6763965809926
 51
256.4608874597681
  0
ARC
  5
43C
330
18
100
AcDbEntity
  8
1
 62
     1
100
AcDbCircle
 10
94.41365580086678
 20
34.89516525280041
 30
0.0
 40
47.62127195511284
100
AcDbArc
 50
228.0744339763319
 51
229.1664742714571
  0
ARC
  5
43D
330
18
100
AcDbEntity
  8
1
 62
     1
100
AcDbCircle
 10
70.11615484230143
 20
8.640493035584726
 30
0.0
 40
18.83041381528522
100
AcDbArc
 50
246.4577168938088
 51
248.6995568509925
  0
ARC
  5
43E
330
18
100
AcDbEntity
  8
1
 62
     1
100
AcDbCircle
 10
67.69446491228851
 20
-3.708047569565266
 30
0.0
 40
8.505521950633561
100
AcDbArc
 50
227.7119020568552
 51
233.1599919886987
  0
LINE
  5
43F
330
18
100
AcDbEntity
  8
1
 62
     1
100
AcDbLine
 10
59.39664703674835
 20
2.552939629282284
 30
0.0
 11
59.39664703674834
 21
-6.322035215672343
 31
0.0
  0
LINE
  5
440
330
18
100
AcDbEntity
  8
1
 62
     1
100
AcDbLine
 10
57.58236132246265
 20
4.281237876216145
 30
0.0
 11
57.58236132246265
 21
-4.706153605713955
 31
0.0
  0
LINE
  5
441
330
18
100
AcDbEntity
  8
1
 62
     1
100
AcDbLine
 10
55.76807560817693
 20
5.924028711317145
 30
0.0
 11
55.47478153468021
 21
6.179320794110044
 31
0.0
  0
LINE
  5
442
330
18
100
AcDbEntity
  8
1
 62
     1
100
AcDbLine
 10
55.76807560817693
 20
-2.996276890366305
 30
0.0
 11
55.4747815346802
 21
-2.713324757885576
 31
0.0
  0
LINE
  5
443
330
18
100
AcDbEntity
  8
1
 62
     1
100
AcDbLine
 10
55.76807560817692
 20
5.924028711317147
 30
0.0
 11
55.76807560817693
 21
-2.996276890366298
 31
0.0
  0
LINE
  5
444
330
18
100
AcDbEntity
  8
1
 62
     1
100
AcDbLine
 10
52.13950417960549
 20
8.824206124196234
 30
0.0
 11
51.84621010614709
 21
9.030725123154749
 31
0.0
  0
LINE
  5
445
330
18
100
AcDbEntity
  8
1
 62
     1
100
AcDbLine
 10
51.84621010610878
 20
9.030725124217959
 30
0.0
 11
51.84621010610878
 21
0.8575884867029158
 31
0.0
  0
LINE
  5
446
330
18
100
AcDbEntity
  8
1
 62
     1
100
AcDbLine
 10
50.32521846531977
 20
10.02366799030962
 30
0.0
 11
50.03192439182307
 21
10.19934737507686
 31
0.0
  0
LINE
  5
447
330
18
100
AcDbEntity
  8
1
 62
     1
100
AcDbLine
 10
50.32521846531979
 20
2.350543057824602
 30
0.0
 11
50.03192439182308
 21
2.635277696534038
 31
0.0
  0
LINE
  5
448
330
18
100
AcDbEntity
  8
1
 62
     1
100
AcDbLine
 10
46.69664703674836
 20
11.80203455898404
 30
0.0
 11
46.40335296325162
 21
11.90619295668163
 31
0.0
  0
LINE
  5
449
330
18
100
AcDbEntity
  8
1
 62
     1
100
AcDbLine
 10
46.69664703674835
 20
5.740793368181124
 30
0.0
 11
46.40335296325161
 21
5.998298341182578
 31
0.0
  0
LINE
  5
44A
330
18
100
AcDbEntity
  8
1
 62
     1
100
AcDbLine
 10
43.06807560817693
 20
12.64223454285706
 30
0.0
 11
43.06807560817694
 21
8.674697122781932
 31
0.0
  0
LINE
  5
44B
330
18
100
AcDbEntity
  8
1
 62
     1
100
AcDbLine
 10
41.25378989389121
 20
9.895685736115384
 30
0.0
 11
40.96049582039448
 21
10.07509657183918
 31
0.0
  0
LINE
  5
44C
330
18
100
AcDbEntity
  8
1
 62
     1
100
AcDbLine
 10
35.59999999999999
 20
12.7
 30
0.0
 11
35.59999999999999
 21
12.69992027489942
 31
0.0
  0
LINE
  5
44D
330
18
100
AcDbEntity
  8
1
 62
     1
100
AcDbLine
 10
35.59999999999999
 20
12.69992027489942
 30
0.0
 11
35.59999999999999
 21
12.67643051835798
 31
0.0
  0
LINE
  5
44E
330
18
100
AcDbEntity
  8
1
 62
     1
100
AcDbLine
 10
35.59999999999999
 20
12.67643051835798
 30
0.0
 11
35.59999999999999
 21
12.34602199522323
 31
0.0
  0
ARC
  5
44F
330
18
100
AcDbEntity
  8
1
 62
     1
100
AcDbCircle
 10
344.713110913795
 20
-170.3999364670231
 30
0.0
 40
327.685696353731
100
AcDbArc
 50
150.9171304508957
 51
151.1918628699837
  0
ARC
  5
450
330
18
100
AcDbEntity
  8
1
 62
     1
100
AcDbCircle
 10
77.04314824722155
 20
2.044063289321986
 30
0.0
 40
22.8692626042365
100
AcDbArc
 50
215.1444844408333
 51
218.3296305870939
  0
ARC
  5
451
330
18
100
AcDbEntity
  8
1
 62
     1
100
AcDbCircle
 10
180.6247044410035
 20
-77.77429086724258
 30
0.0
 40
137.8979986209308
100
AcDbArc
 50
150.8796446858502
 51
151.5356589759587
  0
ARC
  5
452
330
18
100
AcDbEntity
  8
1
 62
     1
100
AcDbCircle
 10
70.67069837779307
 20
-1.739378730937332
 30
0.0
 40
13.79250474758979
100
AcDbArc
 50
220.3358517198052
 51
224.9973770719622
  0
ARC
  5
453
330
18
100
AcDbEntity
  8
1
 62
     1
100
AcDbCircle
 10
88.5043701394305
 20
8.203792175188191
 30
0.0
 40
37.48166615869599
100
AcDbArc
 50
211.4490400611938
 51
213.6107044886902
  0
ARC
  5
454
330
18
100
AcDbEntity
  8
1
 62
     1
100
AcDbCircle
 10
-558.5503964595794
 20
337.131911438121
 30
0.0
 40
706.9392066870583
100
AcDbArc
 50
330.3407253081259
 51
330.4655143261659
  0
LINE
  5
455
330
18
100
AcDbEntity
  8
1
 62
     1
100
AcDbLine
 10
55.32994005197128
 20
-12.44912730987401
 30
0.0
 11
55.4747815346802
 21
-12.6984842528976
 31
0.0
  0
LINE
  5
456
330
18
100
AcDbEntity
  8
1
 62
     1
100
AcDbLine
 10
55.32994005197129
 20
-12.44912730987401
 30
0.0
 11
54.71428571428572
 21
-11.38278321428571
 31
0.0
  0
ARC
  5
457
330
18
100
AcDbEntity
  8
1
 62
     1
100
AcDbCircle
 10
-72.86669884662355
 20
63.81761361846482
 30
0.0
 40
148.0812720008108
100
AcDbArc
 50
328.9175163016435
 51
329.4922233637732
  0
LINE
  5
458
330
18
100
AcDbEntity
  8
1
 62
     1
100
AcDbLine
 10
53.95378989389122
 20
-12.63252608232787
 30
0.0
 11
53.95378989389121
 21
-12.7
 31
0.0
  0
LINE
  5
459
330
18
100
AcDbEntity
  8
1
 62
     1
100
AcDbLine
 10
54.71428571428572
 20
-11.38278321428571
 30
0.0
 11
54.71428571428572
 21
-11.38277700117418
 31
0.0
  0
LINE
  5
45A
330
18
100
AcDbEntity
  8
1
 62
     1
100
AcDbLine
 10
54.71428571428572
 20
-11.38277700117418
 30
0.0
 11
54.71428571428572
 21
-11.38097526968352
 31
0.0
  0
LINE
  5
45B
330
18
100
AcDbEntity
  8
1
 62
     1
100
AcDbLine
 10
54.71428571428572
 20
-11.38097526968352
 30
0.0
 11
54.71428571428572
 21
-11.35665599866709
 31
0.0
  0
LINE
  5
45C
330
18
100
AcDbEntity
  8
1
 62
     1
100
AcDbLine
 10
53.6604958203945
 20
-12.70000000000001
 30
0.0
 11
52.9
 21
-11.38278321428571
 31
0.0
  0
LINE
  5
45D
330
18
100
AcDbEntity
  8
1
 62
     1
100
AcDbLine
 10
53.66049582039449
 20
-12.5993324705571
 30
0.0
 11
53.6604958203945
 21
-12.7
 31
0.0
  0
ARC
  5
45E
330
18
100
AcDbEntity
  8
1
 62
     1
100
AcDbCircle
 10
-8.45923459594001
 20
27.31948293812028
 30
0.0
 40
72.41313052067115
100
AcDbArc
 50
326.8087082394008
 51
327.9244700071711
  0
LINE
  5
45F
330
18
100
AcDbEntity
  8
1
 62
     1
100
AcDbLine
 10
52.13950417960549
 20
-12.32206764534836
 30
0.0
 11
52.1395041796055
 21
-12.7
 31
0.0
  0
LINE
  5
460
330
18
100
AcDbEntity
  8
1
 62
     1
100
AcDbLine
 10
52.9
 20
-11.38278321428571
 30
0.0
 11
52.9
 21
-11.38272687775353
 31
0.0
  0
LINE
  5
461
330
18
100
AcDbEntity
  8
1
 62
     1
100
AcDbLine
 10
52.9
 20
-11.38272687775353
 30
0.0
 11
52.9
 21
-11.36616918171885
 31
0.0
  0
LINE
  5
462
330
18
100
AcDbEntity
  8
1
 62
     1
100
AcDbLine
 10
52.9
 20
-11.36616918171885
 30
0.0
 11
52.89999999999999
 21
-11.13458476646613
 31
0.0
  0
LINE
  5
463
330
18
100
AcDbEntity
  8
1
 62
     1
100
AcDbLine
 10
51.84621010610878
 20
-12.70000000000001
 30
0.0
 11
51.08571428571429
 21
-11.38278321428571
 31
0.0
  0
LINE
  5
464
330
18
100
AcDbEntity
  8
1
 62
     1
100
AcDbLine
 10
51.84621010610878
 20
-12.24853802876651
 30
0.0
 11
51.84621010610878
 21
-12.7
 31
0.0
  0
ARC
  5
465
330
18
100
AcDbEntity
  8
1
 62
     1
100
AcDbCircle
 10
103.4836036471153
 20
20.74736728465925
 30
0.0
 40
66.15678292841697
100
AcDbArc
 50
209.0380174523402
 51
209.9206604957071
  0
LINE
  5
466
330
18
100
AcDbEntity
  8
1
 62
     1
100
AcDbLine
 10
46.40335296325163
 20
-9.78055346159985
 30
0.0
 11
46.40335296325163
 21
-12.7
 31
0.0
  0
ARC
  5
467
330
18
100
AcDbEntity
  8
1
 62
     1
100
AcDbCircle
 10
-122.7270096811523
 20
-86.80802843780194
 30
0.0
 40
185.8448100374155
100
AcDbArc
 50
24.48606504189789
 51
25.04571741152491
  0
LINE
  5
468
330
18
100
AcDbEntity
  8
1
 62
     1
100
AcDbLine
 10
45.64285714285714
 20
-11.36447185832047
 30
0.0
 11
45.64285714285715
 21
-8.1322511635436
 31
0.0
  0
ARC
  5
469
330
18
100
AcDbEntity
  8
1
 62
     1
100
AcDbCircle
 10
38.95165614493958
 20
-0.721624381026869
 30
0.0
 40
9.984239859146737
100
AcDbArc
 50
306.4420311748688
 51
312.0795022742723
  0
LINE
  5
46A
330
18
100
AcDbEntity
  8
1
 62
     1
100
AcDbLine
 10
44.88236132246265
 20
-8.753494764500568
 30
0.0
 11
44.88236132246264
 21
-12.65209419093289
 31
0.0
  0
ARC
  5
46B
330
18
100
AcDbEntity
  8
1
 62
     1
100
AcDbCircle
 10
236.0855222578302
 20
87.76445654693339
 30
0.0
 40
216.2146203632236
100
AcDbArc
 50
207.2277655901948
 51
207.6648438338821
  0
ARC
  5
46C
330
18
100
AcDbEntity
  8
1
 62
     1
100
AcDbCircle
 10
-57.70443757074727
 20
-55.7924041301217
 30
0.0
 40
112.6794513122294
100
AcDbArc
 50
24.79323248309642
 51
25.69981825326658
  0
LINE
  5
46D
330
18
100
AcDbEntity
  8
1
 62
     1
100
AcDbLine
 10
43.82857142857143
 20
-11.16000016732537
 30
0.0
 11
43.82857142857142
 21
-6.92826347609999
 31
0.0
  0
ARC
  5
46E
330
18
100
AcDbEntity
  8
1
 62
     1
100
AcDbCircle
 10
40.19947167712807
 20
-1.546459061615361
 30
0.0
 40
6.490822951904777
100
AcDbArc
 50
296.2284250046416
 51
303.9928786104257
  0
LINE
  5
46F
330
18
100
AcDbEntity
  8
1
 62
     1
100
AcDbLine
 10
43.06807560817694
 20
-7.368938497852112
 30
0.0
 11
43.06807560817693
 21
-12.37038798436153
 31
0.0
  0
ARC
  5
470
330
18
100
AcDbEntity
  8
1
 62
     1
100
AcDbCircle
 10
136.2488195960287
 20
-52.28124142835026
 30
0.0
 40
85.4682842606318
100
AcDbArc
 50
150.3501031011592
 51
151.3974481541409
  0
ARC
  5
471
330
18
100
AcDbEntity
  8
1
 62
     1
100
AcDbCircle
 10
35.65447774804721
 20
1.431512780227393
 30
0.0
 40
15.86727592987255
100
AcDbArc
 50
314.0997554912964
 51
318.0586003552294
  0
LINE
  5
472
330
18
100
AcDbEntity
  8
1
 62
     1
100
AcDbLine
 10
46.69664703674835
 20
-9.96321929310405
 30
0.0
 11
46.69664703674835
 21
-12.7
 31
0.0
  0
LINE
  5
473
330
18
100
AcDbEntity
  8
1
 62
     1
100
AcDbLine
 10
47.45714285714286
 20
-11.38278321428571
 30
0.0
 11
47.45714285714286
 21
-11.38231850506133
 31
0.0
  0
LINE
  5
474
330
18
100
AcDbEntity
  8
1
 62
     1
100
AcDbLine
 10
47.45714285714286
 20
-11.38231850506133
 30
0.0
 11
47.45714285714285
 21
-11.24094946216685
 31
0.0
  0
LINE
  5
475
330
18
100
AcDbEntity
  8
1
 62
     1
100
AcDbLine
 10
47.45714285714285
 20
-11.24094946216685
 30
0.0
 11
47.45714285714285
 21
-9.173816702271454
 31
0.0
  0
LINE
  5
476
330
18
100
AcDbEntity
  8
1
 62
     1
100
AcDbLine
 10
48.21763867753734
 20
-12.69999999999998
 30
0.0
 11
47.45714285714286
 21
-11.38278321428571
 31
0.0
  0
LINE
  5
477
330
18
100
AcDbEntity
  8
1
 62
     1
100
AcDbLine
 10
48.21763867753734
 20
-10.82493152291181
 30
0.0
 11
48.21763867753734
 21
-12.7
 31
0.0
  0
ARC
  5
478
330
18
100
AcDbEntity
  8
1
 62
     1
100
AcDbCircle
 10
29.03348467222072
 20
5.52793517683067
 30
0.0
 40
25.52811066084902
100
AcDbArc
 50
319.7277147096876
 51
322.4448533680841
  0
LINE
  5
479
330
18
100
AcDbEntity
  8
1
 62
     1
100
AcDbLine
 10
48.51093275103408
 20
-10.97395115144268
 30
0.0
 11
48.51093275103408
 21
-12.7
 31
0.0
  0
LINE
  5
47A
330
18
100
AcDbEntity
  8
1
 62
     1
100
AcDbLine
 10
49.27142857142857
 20
-11.38278321428571
 30
0.0
 11
49.27142857142857
 21
-11.3824947750657
 31
0.0
  0
LINE
  5
47B
330
18
100
AcDbEntity
  8
1
 62
     1
100
AcDbLine
 10
49.27142857142857
 20
-11.3824947750657
 30
0.0
 11
49.27142857142858
 21
-11.29568109088782
 31
0.0
  0
LINE
  5
47C
330
18
100
AcDbEntity
  8
1
 62
     1
100
AcDbLine
 10
49.27142857142858
 20
-11.29568109088782
 30
0.0
 11
49.27142857142857
 21
-10.03215601661184
 31
0.0
  0
LINE
  5
47D
330
18
100
AcDbEntity
  8
1
 62
     1
100
AcDbLine
 10
50.03192439182307
 20
-11.65310674524829
 30
0.0
 11
50.03192439182307
 21
-12.7
 31
0.0
  0
ARC
  5
47E
330
18
100
AcDbEntity
  8
1
 62
     1
100
AcDbCircle
 10
16.55036243171145
 20
12.92215744445808
 30
0.0
 40
41.83566593837969
100
AcDbArc
 50
323.8351402147657
 51
325.6390604511681
  0
LINE
  5
47F
330
18
100
AcDbEntity
  8
1
 62
     1
100
AcDbLine
 10
50.32521846531977
 20
-11.76550410962086
 30
0.0
 11
50.32521846531979
 21
-12.7
 31
0.0
  0
LINE
  5
480
330
18
100
AcDbEntity
  8
1
 62
     1
100
AcDbLine
 10
51.08571428571429
 20
-11.38278321428571
 30
0.0
 11
51.08571428571429
 21
-11.38263150952115
 31
0.0
  0
LINE
  5
481
330
18
100
AcDbEntity
  8
1
 62
     1
100
AcDbLine
 10
51.08571428571429
 20
-11.38263150952115
 30
0.0
 11
51.08571428571429
 21
-11.33749098422521
 31
0.0
  0
LINE
  5
482
330
18
100
AcDbEntity
  8
1
 62
     1
100
AcDbLine
 10
51.08571428571429
 20
-11.33749098422521
 30
0.0
 11
51.0857142857143
 21
-10.69012554069917
 31
0.0
  0
ARC
  5
483
330
18
100
AcDbEntity
  8
1
 62
     1
100
AcDbCircle
 10
-158.245443181833
 20
-108.7422410228456
 30
0.0
 40
222.9570847145947
100
AcDbArc
 50
25.62967753274565
 51
26.07770222349813
  0
ARC
  5
484
330
18
100
AcDbEntity
  8
1
 62
     1
100
AcDbCircle
 10
-25.47102640843207
 20
-39.76721069138414
 30
0.0
 40
75.64807797687976
100
AcDbArc
 50
25.55817974323514
 51
26.86221481479153
  0
LINE
  5
485
330
18
100
AcDbEntity
  8
1
 62
     1
100
AcDbLine
 10
42.01428571428571
 20
-10.73263290181402
 30
0.0
 11
42.01428571428571
 21
-5.585898800478472
 31
0.0
  0
ARC
  5
486
330
18
100
AcDbEntity
  8
1
 62
     1
100
AcDbCircle
 10
38.10402783470085
 20
3.544279216557308
 30
0.0
 40
4.802847120914838
100
AcDbArc
 50
241.4816516254006
 51
251.3903681517332
  0
LINE
  5
487
330
18
100
AcDbEntity
  8
1
 62
     1
100
AcDbLine
 10
35.59999999999999
 20
12.34602199522328
 30
0.0
 11
35.22873081545495
 21
11.83608189333366
 31
0.0
  0
LINE
  5
488
330
18
100
AcDbEntity
  8
1
 62
     1
100
AcDbLine
 10
35.22873081545495
 20
11.83608189333366
 30
0.0
 11
34.84058468553057
 21
11.25961209184606
 31
0.0
  0
LINE
  5
489
330
18
100
AcDbEntity
  8
1
 62
     1
100
AcDbLine
 10
34.84058468553057
 20
11.25961209184606
 30
0.0
 11
34.01228675999999
 21
9.925252282298015
 31
0.0
  0
LINE
  5
48A
330
18
100
AcDbEntity
  8
1
 62
     1
100
AcDbLine
 10
34.01228675999999
 20
9.95
 30
0.0
 11
35.59999999999999
 21
12.7
 31
0.0
  0
ARC
  5
48B
330
18
100
AcDbEntity
  8
1
 62
     1
100
AcDbCircle
 10
-1.039975133432087
 20
-26.14042235197342
 30
0.0
 40
41.66264842896668
100
AcDbArc
 50
22.92616789393263
 51
25.47646180182169
  0
LINE
  5
48C
330
18
100
AcDbEntity
  8
1
 62
     1
100
AcDbLine
 10
37.33192439182307
 20
-2.17138373995245
 30
0.0
 11
37.33192439182307
 21
-9.9108412472168
 31
0.0
  0
ARC
  5
48D
330
18
100
AcDbEntity
  8
1
 62
     1
100
AcDbCircle
 10
16.50302175291213
 20
-14.94273748679648
 30
0.0
 40
24.43238530670651
100
AcDbArc
 50
31.51476781943052
 51
34.77615121353773
  0
LINE
  5
48E
330
18
100
AcDbEntity
  8
1
 62
     1
100
AcDbLine
 10
36.57142857142857
 20
-8.21966610047744
 30
0.0
 11
36.57142857142857
 21
-1.007216136108993
 31
0.0
  0
ARC
  5
48F
330
18
100
AcDbEntity
  8
1
 62
     1
100
AcDbCircle
 10
38.69998181349899
 20
1.280776312126258
 30
0.0
 40
3.889113952513191
100
AcDbArc
 50
253.9575096603892
 51
265.3649206064666
  0
ARC
  5
490
330
18
100
AcDbEntity
  8
1
 62
     1
100
AcDbCircle
 10
-12.74454270678433
 20
-33.34511118677927
 30
0.0
 40
56.52430579880992
100
AcDbArc
 50
23.36148923071002
 51
25.23430448356601
  0
LINE
  5
491
330
18
100
AcDbEntity
  8
1
 62
     1
100
AcDbLine
 10
39.14621010610878
 20
-3.91367636797065
 30
0.0
 11
39.14621010610877
 21
-10.9313743898135
 31
0.0
  0
ARC
  5
492
330
18
100
AcDbEntity
  8
1
 62
     1
100
AcDbCircle
 10
7.510474180776239
 20
-21.28241887723254
 30
0.0
 40
36.08992729757411
100
AcDbArc
 50
28.76779292469379
 51
31.18397115878106
  0
LINE
  5
493
330
18
100
AcDbEntity
  8
1
 62
     1
100
AcDbLine
 10
38.38571428571429
 20
-9.247636326390865
 30
0.0
 11
38.38571428571429
 21
-2.595512407501434
 31
0.0
  0
ARC
  5
494
330
18
100
AcDbEntity
  8
1
 62
     1
100
AcDbCircle
 10
39.53670361635123
 20
-0.3857104349400586
 30
0.0
 40
3.804434031563492
100
AcDbArc
 50
268.5359857956129
 51
280.0404896630931
  0
LINE
  5
495
330
18
100
AcDbEntity
  8
1
 62
     1
100
AcDbLine
 10
39.43950417960551
 20
-4.188887620862152
 30
0.0
 11
39.43950417960551
 21
-11.07632696921685
 31
0.0
  0
ARC
  5
496
330
18
100
AcDbEntity
  8
1
 62
     1
100
AcDbCircle
 10
-38.36821473850775
 20
-47.44821291916377
 30
0.0
 40
86.9973588307515
100
AcDbArc
 50
24.2377838075988
 51
25.42997015592806
  0
LINE
  5
497
330
18
100
AcDbEntity
  8
1
 62
     1
100
AcDbLine
 10
40.9604958203945
 20
-5.577802812283904
 30
0.0
 11
40.96049582039449
 21
-11.73357858731131
 31
0.0
  0
ARC
  5
498
330
18
100
AcDbEntity
  8
1
 62
     1
100
AcDbCircle
 10
-5.705155567181606
 20
-29.19607269060063
 30
0.0
 40
52.30195717383812
100
AcDbArc
 50
26.84473782808987
 51
28.63443399496104
  0
LINE
  5
499
330
18
100
AcDbEntity
  8
1
 62
     1
100
AcDbLine
 10
40.2
 20
-10.09090571863559
 30
0.0
 11
40.2
 21
-4.131968278304502
 31
0.0
  0
ARC
  5
49A
330
18
100
AcDbEntity
  8
1
 62
     1
100
AcDbCircle
 10
40.19763428865792
 20
-1.369736282891143
 30
0.0
 40
4.590656884822982
100
AcDbArc
 50
283.301100538437
 51
293.3101440864884
  0
LINE
  5
49B
330
18
100
AcDbEntity
  8
1
 62
     1
100
AcDbLine
 10
41.25378989389121
 20
-5.837205610686008
 30
0.0
 11
41.25378989389122
 21
-11.84161200105248
 31
0.0
  0
ARC
  5
49C
330
18
100
AcDbEntity
  8
1
 62
     1
100
AcDbCircle
 10
46.14369076771011
 20
-20.40523319428368
 30
0.0
 40
36.44504030811656
100
AcDbArc
 50
58.00677824171123
 51
60.39179873421815
  0
ARC
  5
49D
330
18
100
AcDbEntity
  8
1
 62
     1
100
AcDbCircle
 10
50.42816001296796
 20
-12.71428552122364
 30
0.0
 40
27.63993750434251
100
AcDbArc
 50
62.30121112798259
 51
63.88441123224778
  0
LINE
  5
49E
330
18
100
AcDbEntity
  8
1
 62
     1
100
AcDbLine
 10
62.59479743090827
 20
12.46248924734753
 30
0.0
 11
63.27584912105334
 21
12.26589517273669
 31
0.0
  0
LINE
  5
49F
330
18
100
AcDbEntity
  8
1
 62
     1
100
AcDbLine
 10
65.452973104039
 20
-2.889137507719782
 30
0.0
 11
65.6
 21
-2.896460163546342
 31
0.0
  0
LINE
  5
4A0
330
18
100
AcDbEntity
  8
1
 62
     1
100
AcDbLine
 10
65.452973104039
 20
-2.889137507719811
 30
0.0
 11
65.452973104039
 21
-9.59015266862068
 31
0.0
  0
LINE
  5
4A1
330
18
100
AcDbEntity
  8
1
 62
     1
100
AcDbLine
 10
65.452973104039
 20
-9.5901526686207
 30
0.0
 11
65.6
 21
-9.425003138859049
 31
0.0
  0
LINE
  5
4A2
330
18
100
AcDbEntity
  8
1
 62
     1
100
AcDbLine
 10
63.78571428571429
 20
-8.431130132640728
 30
0.0
 11
63.78571428571428
 21
-1.31571977251951
 31
0.0
  0
ARC
  5
4A3
330
18
100
AcDbEntity
  8
1
 62
     1
100
AcDbCircle
 10
28.7343324290341
 20
-25.12409425209891
 30
0.0
 40
38.82338169879189
100
AcDbArc
 50
24.18575338757113
 51
25.46578330967299
  0
LINE
  5
4A4
330
18
100
AcDbEntity
  8
1
 62
     1
100
AcDbLine
 10
64.14990910153978
 20
-1.870920184162105
 30
0.0
 11
64.14990910153978
 21
-9.218286537316708
 31
0.0
  0
LINE
  5
4A5
330
18
100
AcDbEntity
  8
1
 62
     1
100
AcDbLine
 10
63.27584912105335
 20
-1.135686419208947
 30
0.0
 11
63.27584912105336
 21
-8.903582958557488
 31
0.0
  0
ARC
  5
4A6
330
18
100
AcDbEntity
  8
1
 62
     1
100
AcDbCircle
 10
48.70830860163726
 20
-10.35090811027101
 30
0.0
 40
17.00494331497101
100
AcDbArc
 50
35.25328607895312
 51
38.74328126809854
  0
LINE
  5
4A7
330
18
100
AcDbEntity
  8
1
 62
     1
100
AcDbLine
 10
61.97142857142858
 20
-7.268857118315712
 30
0.0
 11
61.97142857142858
 21
0.2913141916124341
 31
0.0
  0
ARC
  5
4A8
330
18
100
AcDbEntity
  8
1
 62
     1
100
AcDbCircle
 10
33.02747867710777
 20
-21.41129971948356
 30
0.0
 40
32.21433842175178
100
AcDbArc
 50
23.38985328207728
 51
26.04081971731009
  0
LINE
  5
4A9
330
18
100
AcDbEntity
  8
1
 62
     1
100
AcDbLine
 10
62.59479743090826
 20
-0.5357138257849167
 30
0.0
 11
62.59479743090827
 21
-8.622594596854677
 31
0.0
  0
ARC
  5
4AA
330
18
100
AcDbEntity
  8
1
 62
     1
100
AcDbCircle
 10
95.05869917187772
 20
35.47329358197811
 30
0.0
 40
51.46616347958209
100
AcDbArc
 50
209.6362719697471
 51
211.3056896821228
  0
LINE
  5
4AB
330
18
100
AcDbEntity
  8
1
 62
     1
100
AcDbLine
 10
50.32521846531979
 20
10.02366799030962
 30
0.0
 11
50.32521846531979
 21
2.350543057824595
 31
0.0
  0
LINE
  5
4AC
330
18
100
AcDbEntity
  8
1
 62
     1
100
AcDbLine
 10
51.08571428571429
 20
1.768522522357102
 30
0.0
 11
51.08571428571429
 21
8.731318404621312
 31
0.0
  0
ARC
  5
4AD
330
18
100
AcDbEntity
  8
1
 62
     1
100
AcDbCircle
 10
53.49980126055973
 20
4.374653020117489
 30
0.0
 40
6.77918768595651
100
AcDbArc
 50
120.7685072501629
 51
128.5885251813689
  0
LINE
  5
4AE
330
18
100
AcDbEntity
  8
1
 62
     1
100
AcDbLine
 10
49.27142857142858
 20
3.33602375755107
 30
0.0
 11
49.27142857142858
 21
9.673620227259592
 31
0.0
  0
ARC
  5
4AF
330
18
100
AcDbEntity
  8
1
 62
     1
100
AcDbCircle
 10
47.70792373190212
 20
0.9559140138186177
 30
0.0
 40
2.847748150354595
100
AcDbArc
 50
47.50181302456176
 51
56.69890757322057
  0
LINE
  5
4B0
330
18
100
AcDbEntity
  8
1
 62
     1
100
AcDbLine
 10
50.03192439182307
 20
10.19934737507686
 30
0.0
 11
50.03192439182307
 21
2.63527769653406
 31
0.0
  0
ARC
  5
4B1
330
18
100
AcDbEntity
  8
1
 62
     1
100
AcDbCircle
 10
112.5430979458172
 20
46.21910548654826
 30
0.0
 40
73.06768761049209
100
AcDbArc
 50
208.7960105732328
 51
210.0105733968968
  0
LINE
  5
4B2
330
18
100
AcDbEntity
  8
1
 62
     1
100
AcDbLine
 10
48.51093275103408
 20
11.02293051541446
 30
0.0
 11
48.51093275103407
 21
4.086478232420487
 31
0.0
  0
ARC
  5
4B3
330
18
100
AcDbEntity
  8
1
 62
     1
100
AcDbCircle
 10
55.66030086646434
 20
2.775244725967077
 30
0.0
 40
11.21492308697671
100
AcDbArc
 50
131.5791607726505
 51
137.0078429130858
  0
LINE
  5
4B4
330
18
100
AcDbEntity
  8
1
 62
     1
100
AcDbLine
 10
47.45714285714286
 20
4.836896456220276
 30
0.0
 11
47.45714285714286
 21
10.4227142605549
 31
0.0
  0
LINE
  5
4B5
330
18
100
AcDbEntity
  8
1
 62
     1
100
AcDbLine
 10
47.45714285714284
 20
4.836896456220277
 30
0.0
 11
47.55594128384445
 21
4.79786369286321
 31
0.0
  0
LINE
  5
4B6
330
18
100
AcDbEntity
  8
1
 62
     1
100
AcDbLine
 10
47.55594128384445
 20
4.79786369286321
 30
0.0
 11
47.65365668087316
 21
4.75271940496382
 31
0.0
  0
LINE
  5
4B7
330
18
100
AcDbEntity
  8
1
 62
     1
100
AcDbLine
 10
47.65365668087316
 20
4.75271940496382
 30
0.0
 11
47.7502980746862
 21
4.701584859674277
 31
0.0
  0
LINE
  5
4B8
330
18
100
AcDbEntity
  8
1
 62
     1
100
AcDbLine
 10
47.7502980746862
 20
4.701584859674277
 30
0.0
 11
47.84586820747503
 21
4.644586240627562
 31
0.0
  0
LINE
  5
4B9
330
18
100
AcDbEntity
  8
1
 62
     1
100
AcDbLine
 10
47.84586820747503
 20
4.644586240627562
 30
0.0
 11
47.94038152010472
 21
4.581840016576891
 31
0.0
  0
LINE
  5
4BA
330
18
100
AcDbEntity
  8
1
 62
     1
100
AcDbLine
 10
47.94038152010472
 20
4.581840016576891
 30
0.0
 11
48.03383898129114
 21
4.513472163709572
 31
0.0
  0
LINE
  5
4BB
330
18
100
AcDbEntity
  8
1
 62
     1
100
AcDbLine
 10
48.03383898129114
 20
4.513472163709572
 30
0.0
 11
48.12625846380552
 21
4.439594103186074
 31
0.0
  0
LINE
  5
4BC
330
18
100
AcDbEntity
  8
1
 62
     1
100
AcDbLine
 10
48.12625846380552
 20
4.439594103186074
 30
0.0
 11
48.21763867753735
 21
4.360332386772574
 31
0.0
  0
LINE
  5
4BD
330
18
100
AcDbEntity
  8
1
 62
     1
100
AcDbLine
 10
48.21763867753734
 20
11.16426053728046
 30
0.0
 11
48.21763867753734
 21
4.360332386772596
 31
0.0
  0
ARC
  5
4BE
330
18
100
AcDbEntity
  8
1
 62
     1
100
AcDbCircle
 10
144.5045175625337
 20
64.82421721669265
 30
0.0
 40
111.2552427156295
100
AcDbArc
 50
208.4623638429866
 51
209.2735277159247
  0
LINE
  5
4BF
330
18
100
AcDbEntity
  8
1
 62
     1
100
AcDbLine
 10
46.69664703674835
 20
11.80203455898404
 30
0.0
 11
46.69664703674835
 21
5.740793368181117
 31
0.0
  0
ARC
  5
4C0
330
18
100
AcDbEntity
  8
1
 62
     1
100
AcDbCircle
 10
1957.22231000476
 20
1084.682902652418
 30
0.0
 40
2193.913760821389
100
AcDbArc
 50
209.2514307249973
 51
209.2920476298607
  0
ARC
  5
4C1
330
18
100
AcDbEntity
  8
1
 62
     1
100
AcDbCircle
 10
69.6612984631428
 20
-5.357464255652516
 30
0.0
 40
30.72978085889217
100
AcDbArc
 50
144.6761673323152
 51
147.2078417674602
  0
LINE
  5
4C2
330
18
100
AcDbEntity
  8
1
 62
     1
100
AcDbLine
 10
43.82857142857142
 20
7.52077633984003
 30
0.0
 11
43.82857142857143
 21
11.28558871113836
 31
0.0
  0
ARC
  5
4C3
330
18
100
AcDbEntity
  8
1
 62
     1
100
AcDbCircle
 10
44.2007612992734
 20
5.990665883800127
 30
0.0
 40
1.574653028502605
100
AcDbArc
 50
75.72168970010615
 51
103.6713368595366
  0
LINE
  5
4C4
330
18
100
AcDbEntity
  8
1
 62
     1
100
AcDbLine
 10
44.5890672489659
 20
12.41032686392942
 30
0.0
 11
44.5890672489659
 21
7.516463829331184
 31
0.0
  0
ARC
  5
4C5
330
18
100
AcDbEntity
  8
1
 62
     1
100
AcDbCircle
 10
229.7075938524448
 20
113.1594592765376
 30
0.0
 40
210.5322617970745
100
AcDbArc
 50
208.6105255692727
 51
209.0397672027258
  0
LINE
  5
4C6
330
18
100
AcDbEntity
  8
1
 62
     1
100
AcDbLine
 10
44.88236132246264
 20
12.34542023636441
 30
0.0
 11
44.88236132246264
 21
7.280449755794317
 31
0.0
  0
ARC
  5
4C7
330
18
100
AcDbEntity
  8
1
 62
     1
100
AcDbCircle
 10
60.5527259293203
 20
-0.2838007489757182
 30
0.0
 40
18.67639511619908
100
AcDbArc
 50
139.2543833533682
 51
142.970483661492
  0
LINE
  5
4C8
330
18
100
AcDbEntity
  8
1
 62
     1
100
AcDbLine
 10
45.64285714285714
 20
6.241163306956135
 30
0.0
 11
45.64285714285715
 21
10.9636384333257
 31
0.0
  0
LINE
  5
4C9
330
18
100
AcDbEntity
  8
1
 62
     1
100
AcDbLine
 10
45.64285714285713
 20
6.241163306956132
 30
0.0
 11
45.7416556711742
 21
6.231650545136633
 31
0.0
  0
LINE
  5
4CA
330
18
100
AcDbEntity
  8
1
 62
     1
100
AcDbLine
 10
45.7416556711742
 20
6.231650545136633
 30
0.0
 11
45.83937113994801
 21
6.215983764724974
 31
0.0
  0
LINE
  5
4CB
330
18
100
AcDbEntity
  8
1
 62
     1
100
AcDbLine
 10
45.83937113994801
 20
6.215983764724974
 30
0.0
 11
45.93601256393508
 21
6.194260770385738
 31
0.0
  0
LINE
  5
4CC
330
18
100
AcDbEntity
  8
1
 62
     1
100
AcDbLine
 10
45.93601256393508
 20
6.194260770385738
 30
0.0
 11
46.03158269632515
 21
6.166583399933047
 31
0.0
  0
LINE
  5
4CD
330
18
100
AcDbEntity
  8
1
 62
     1
100
AcDbLine
 10
46.03158269632515
 20
6.166583399933047
 30
0.0
 11
46.12609597041863
 21
6.133048102634267
 31
0.0
  0
LINE
  5
4CE
330
18
100
AcDbEntity
  8
1
 62
     1
100
AcDbLine
 10
46.12609597041863
 20
6.133048102634267
 30
0.0
 11
46.21955337885167
 21
6.093757673074371
 31
0.0
  0
LINE
  5
4CF
330
18
100
AcDbEntity
  8
1
 62
     1
100
AcDbLine
 10
46.21955337885167
 20
6.093757673074371
 30
0.0
 11
46.31197279391522
 21
6.048806323223372
 31
0.0
  0
LINE
  5
4D0
330
18
100
AcDbEntity
  8
1
 62
     1
100
AcDbLine
 10
46.31197279391522
 20
6.048806323223372
 30
0.0
 11
46.40335296325163
 21
5.998298341182549
 31
0.0
  0
LINE
  5
4D1
330
18
100
AcDbEntity
  8
1
 62
     1
100
AcDbLine
 10
46.40335296325163
 20
11.90619295668163
 30
0.0
 11
46.40335296325162
 21
5.998298341182569
 31
0.0
  0
ARC
  5
4D2
330
18
100
AcDbEntity
  8
1
 62
     1
100
AcDbCircle
 10
53.06969938399796
 20
4.812329708446059
 30
0.0
 40
4.392515660470104
100
AcDbArc
 50
106.1740960254244
 51
116.8507792059534
  0
LINE
  5
4D3
330
18
100
AcDbEntity
  8
1
 62
     1
100
AcDbLine
 10
51.08571428571429
 20
1.768522522357102
 30
0.0
 11
51.28222828847156
 21
1.572539680889201
 31
0.0
  0
LINE
  5
4D4
330
18
100
AcDbEntity
  8
1
 62
     1
100
AcDbLine
 10
51.28222828847156
 20
1.572539680889201
 30
0.0
 11
51.47443984999929
 21
1.354549210867501
 31
0.0
  0
LINE
  5
4D5
330
18
100
AcDbEntity
  8
1
 62
     1
100
AcDbLine
 10
51.47443984999929
 20
1.354549210867501
 30
0.0
 11
51.66241053611383
 21
1.115824493020382
 31
0.0
  0
LINE
  5
4D6
330
18
100
AcDbEntity
  8
1
 62
     1
100
AcDbLine
 10
51.66241053611383
 20
1.115824493020382
 30
0.0
 11
51.8462101061088
 21
0.8575884867029024
 31
0.0
  0
ARC
  5
4D7
330
18
100
AcDbEntity
  8
1
 62
     1
100
AcDbCircle
 10
83.84889868648669
 20
27.91265653734569
 30
0.0
 40
37.01152528091931
100
AcDbArc
 50
211.047138190239
 51
213.259116369497
  0
LINE
  5
4D8
330
18
100
AcDbEntity
  8
1
 62
     1
100
AcDbLine
 10
52.1395041796055
 20
8.824206124196236
 30
0.0
 11
52.1395041796055
 21
0.5676627436103484
 31
0.0
  0
LINE
  5
4D9
330
18
100
AcDbEntity
  8
1
 62
     1
100
AcDbLine
 10
52.9
 20
0.1656980719648534
 30
0.0
 11
52.89999999999999
 21
7.614627684631867
 31
0.0
  0
LINE
  5
4DA
330
18
100
AcDbEntity
  8
1
 62
     1
100
AcDbLine
 10
52.89999999999999
 20
0.1656980719648527
 30
0.0
 11
53.09650435407245
 21
-0.080848176808842
 31
0.0
  0
LINE
  5
4DB
330
18
100
AcDbEntity
  8
1
 62
     1
100
AcDbLine
 10
53.09650435407245
 20
-0.080848176808842
 30
0.0
 11
53.28871993933636
 21
-0.3477728360641706
 31
0.0
  0
LINE
  5
4DC
330
18
100
AcDbEntity
  8
1
 62
     1
100
AcDbLine
 10
53.28871993933636
 20
-0.3477728360641706
 30
0.0
 11
53.47669449112362
 21
-0.6336739054769883
 31
0.0
  0
LINE
  5
4DD
330
18
100
AcDbEntity
  8
1
 62
     1
100
AcDbLine
 10
53.47669449112362
 20
-0.6336739054769883
 30
0.0
 11
53.6604958203945
 21
-0.9372270486906931
 31
0.0
  0
LINE
  5
4DE
330
18
100
AcDbEntity
  8
1
 62
     1
100
AcDbLine
 10
53.6604958203945
 20
7.681735688046443
 30
0.0
 11
53.6604958203945
 21
-0.9372270486906445
 31
0.0
  0
ARC
  5
4DF
330
18
100
AcDbEntity
  8
1
 62
     1
100
AcDbCircle
 10
43.79013219711641
 20
-10.75535801185414
 30
0.0
 40
14.90443322254837
100
AcDbArc
 50
25.08873496451182
 51
31.2752539472704
  0
LINE
  5
4E0
330
18
100
AcDbEntity
  8
1
 62
     1
100
AcDbLine
 10
57.28906724896592
 20
4.553487437219096
 30
0.0
 11
57.28906724896591
 21
-4.435230904340947
 31
0.0
  0
ARC
  5
4E1
330
18
100
AcDbEntity
  8
1
 62
     1
100
AcDbCircle
 10
67.56567304812192
 20
12.71319079481921
 30
0.0
 40
13.06763819336659
100
AcDbArc
 50
220.1845964557048
 51
225.1067530706813
  0
LINE
  5
4E2
330
18
100
AcDbEntity
  8
1
 62
     1
100
AcDbLine
 10
58.34285714285714
 20
-4.534889987534921
 30
0.0
 11
58.34285714285713
 21
3.455942932205566
 31
0.0
  0
ARC
  5
4E3
330
18
100
AcDbEntity
  8
1
 62
     1
100
AcDbCircle
 10
40.91878148201397
 20
-14.12095863811196
 30
0.0
 40
19.887076715554
100
AcDbArc
 50
23.88449720044282
 51
28.81793043418967
  0
LINE
  5
4E4
330
18
100
AcDbEntity
  8
1
 62
     1
100
AcDbLine
 10
59.10335296325164
 20
2.83670977374768
 30
0.0
 11
59.10335296325164
 21
-6.068551541346307
 31
0.0
  0
ARC
  5
4E5
330
18
100
AcDbEntity
  8
1
 62
     1
100
AcDbCircle
 10
65.6526003377187
 20
8.984403444255284
 30
0.0
 40
8.972164207926701
100
AcDbArc
 50
225.7925466816445
 51
232.2280834716177
  0
LINE
  5
4E6
330
18
100
AcDbEntity
  8
1
 62
     1
100
AcDbLine
 10
60.15714285714286
 20
-5.961406711582915
 30
0.0
 11
60.15714285714287
 21
1.892527425871017
 31
0.0
  0
ARC
  5
4E7
330
18
100
AcDbEntity
  8
1
 62
     1
100
AcDbCircle
 10
37.04231011236279
 20
-17.79657912351472
 30
0.0
 40
25.9686660008429
100
AcDbArc
 50
23.16538886843522
 51
27.11318887491086
  0
LINE
  5
4E8
330
18
100
AcDbEntity
  8
1
 62
     1
100
AcDbLine
 10
60.91763867753735
 20
1.063274872859353
 30
0.0
 11
60.91763867753735
 21
-7.580667781171549
 31
0.0
  0
ARC
  5
4E9
330
18
100
AcDbEntity
  8
1
 62
     1
100
AcDbCircle
 10
70.95543962795892
 20
16.99774614728246
 30
0.0
 40
18.79579421624021
100
AcDbArc
 50
216.0972934149947
 51
219.8641680546058
  0
LINE
  5
4EA
330
18
100
AcDbEntity
  8
1
 62
     1
100
AcDbLine
 10
56.52857142857141
 20
-3.017799171051529
 30
0.0
 11
56.52857142857143
 21
4.950333964445237
 31
0.0
  0
ARC
  5
4EB
330
18
100
AcDbEntity
  8
1
 62
     1
100
AcDbCircle
 10
64.91415043846798
 20
5.767356586807132
 30
0.0
 40
6.21693084345965
100
AcDbArc
 50
233.4402151687038
 51
241.7472546418634
  0
LINE
  5
4EC
330
18
100
AcDbEntity
  8
1
 62
     1
100
AcDbLine
 10
61.21093275103407
 20
0.7736509885223315
 30
0.0
 11
61.21093275103408
 21
-7.811650523295276
 31
0.0
  0
LINE
  5
4ED
330
18
100
AcDbEntity
  8
1
 62
     1
100
AcDbLine
 10
57.58236132246265
 20
12.56858406777384
 30
0.0
 11
57.28906724904054
 21
12.52363529949229
 31
0.0
  0
LINE
  5
4EE
330
18
100
AcDbEntity
  8
1
 62
     1
100
AcDbLine
 10
55.76807560817691
 20
12.1861805295498
 30
0.0
 11
55.4747815346802
 21
12.10123782745093
 31
0.0
  0
LINE
  5
4EF
330
18
100
AcDbEntity
  8
1
 62
     1
100
AcDbLine
 10
52.13950417960551
 20
10.70369879912667
 30
0.0
 11
51.84621010610878
 21
10.54462393379853
 31
0.0
  0
LINE
  5
4F0
330
18
100
AcDbEntity
  8
1
 62
     1
100
AcDbLine
 10
54.71428571428572
 20
-1.440435715855716
 30
0.0
 11
54.71428571428572
 21
6.345852286174464
 31
0.0
  0
LINE
  5
4F1
330
18
100
AcDbEntity
  8
1
 62
     1
100
AcDbLine
 10
54.71428571428571
 20
-1.440435715855186
 30
0.0
 11
54.91079966575621
 21
-1.732645252966232
 31
0.0
  0
LINE
  5
4F2
330
18
100
AcDbEntity
  8
1
 62
     1
100
AcDbLine
 10
54.91079966575621
 20
-1.732645252966232
 30
0.0
 11
55.10301131512828
 21
-2.043163597389921
 31
0.0
  0
LINE
  5
4F3
330
18
100
AcDbEntity
  8
1
 62
     1
100
AcDbLine
 10
55.10301131512828
 20
-2.043163597389921
 30
0.0
 11
55.47478153468022
 21
-2.713324757885585
 31
0.0
  0
LINE
  5
4F4
330
18
100
AcDbEntity
  8
1
 62
     1
100
AcDbLine
 10
55.4747815346802
 20
6.179320794110044
 30
0.0
 11
55.4747815346802
 21
-2.713324757885592
 31
0.0
  0
ARC
  5
4F5
330
18
100
AcDbEntity
  8
1
 62
     1
100
AcDbCircle
 10
76.19136795212694
 20
21.96782312692512
 30
0.0
 40
26.55784382241729
100
AcDbArc
 50
213.1412550198884
 51
216.03134216569
  0
LINE
  5
4F6
330
18
100
AcDbEntity
  8
1
 62
     1
100
AcDbLine
 10
53.95378989389121
 20
7.448501348340633
 30
0.0
 11
53.95378989389121
 21
-1.226554838587472
 31
0.0
  0
LINE
  5
4F7
330
18
100
AcDbEntity
  8
1
 62
     1
100
AcDbLine
 10
41.25378989389121
 20
12.7
 30
0.0
 11
41.25378989389121
 21
12.69941158510314
 31
0.0
  0
LINE
  5
4F8
330
18
100
AcDbEntity
  8
1
 62
     1
100
AcDbLine
 10
41.25378989389121
 20
12.69941158510314
 30
0.0
 11
41.25378989389121
 21
12.51983988461187
 31
0.0
  0
LINE
  5
4F9
330
18
100
AcDbEntity
  8
1
 62
     1
100
AcDbLine
 10
41.25378989389121
 20
12.51983988461187
 30
0.0
 11
41.25378989389122
 21
9.895685736115379
 31
0.0
  0
LINE
  5
4FA
330
18
100
AcDbEntity
  8
1
 62
     1
100
AcDbLine
 10
40.2
 20
9.606815770857947
 30
0.0
 11
40.396513991609
 21
9.75690559290951
 31
0.0
  0
LINE
  5
4FB
330
18
100
AcDbEntity
  8
1
 62
     1
100
AcDbLine
 10
40.396513991609
 20
9.75690559290951
 30
0.0
 11
40.5887255430719
 21
9.884857416050735
 31
0.0
  0
LINE
  5
4FC
330
18
100
AcDbEntity
  8
1
 62
     1
100
AcDbLine
 10
40.5887255430719
 20
9.884857416050735
 30
0.0
 11
40.68323880442495
 21
9.940585837316037
 31
0.0
  0
LINE
  5
4FD
330
18
100
AcDbEntity
  8
1
 62
     1
100
AcDbLine
 10
40.68323880442495
 20
9.940585837316037
 30
0.0
 11
40.7766962222378
 21
9.990847691378702
 31
0.0
  0
LINE
  5
4FE
330
18
100
AcDbEntity
  8
1
 62
     1
100
AcDbLine
 10
40.7766962222378
 20
9.990847691378702
 30
0.0
 11
40.86911562620916
 21
10.03567564142859
 31
0.0
  0
LINE
  5
4FF
330
18
100
AcDbEntity
  8
1
 62
     1
100
AcDbLine
 10
40.86911562620916
 20
10.03567564142859
 30
0.0
 11
40.9604958203945
 21
10.07509657183917
 31
0.0
  0
LINE
  5
500
330
18
100
AcDbEntity
  8
1
 62
     1
100
AcDbLine
 10
40.96049582039449
 20
12.7
 30
0.0
 11
40.96049582039449
 21
12.69944854593117
 31
0.0
  0
LINE
  5
501
330
18
100
AcDbEntity
  8
1
 62
     1
100
AcDbLine
 10
40.96049582039449
 20
12.69944854593117
 30
0.0
 11
40.96049582039449
 21
12.5314338657865
 31
0.0
  0
LINE
  5
502
330
18
100
AcDbEntity
  8
1
 62
     1
100
AcDbLine
 10
40.96049582039449
 20
12.5314338657865
 30
0.0
 11
40.96049582039449
 21
10.07509657183918
 31
0.0
  0
LINE
  5
503
330
18
100
AcDbEntity
  8
1
 62
     1
100
AcDbLine
 10
42.01428571428572
 20
8.650179804297768
 30
0.0
 11
42.01428571428571
 21
11.38278321428571
 31
0.0
  0
LINE
  5
504
330
18
100
AcDbEntity
  8
1
 62
     1
100
AcDbLine
 10
42.01428571428572
 20
8.650179804297775
 30
0.0
 11
42.11308413559312
 21
8.699683060188825
 31
0.0
  0
LINE
  5
505
330
18
100
AcDbEntity
  8
1
 62
     1
100
AcDbLine
 10
42.11308413559312
 20
8.699683060188825
 30
0.0
 11
42.21079953496161
 21
8.743314796379854
 31
0.0
  0
LINE
  5
506
330
18
100
AcDbEntity
  8
1
 62
     1
100
AcDbLine
 10
42.21079953496161
 20
8.743314796379854
 30
0.0
 11
42.30744091865526
 21
8.781120568098459
 31
0.0
  0
LINE
  5
507
330
18
100
AcDbEntity
  8
1
 62
     1
100
AcDbLine
 10
42.30744091865526
 20
8.781120568098459
 30
0.0
 11
42.40301105894783
 21
8.813147938276854
 31
0.0
  0
LINE
  5
508
330
18
100
AcDbEntity
  8
1
 62
     1
100
AcDbLine
 10
42.40301105894783
 20
8.813147938276854
 30
0.0
 11
42.49752435921484
 21
8.839447895089718
 31
0.0
  0
LINE
  5
509
330
18
100
AcDbEntity
  8
1
 62
     1
100
AcDbLine
 10
42.49752435921484
 20
8.839447895089718
 30
0.0
 11
42.59098182929293
 21
8.860071133198655
 31
0.0
  0
LINE
  5
50A
330
18
100
AcDbEntity
  8
1
 62
     1
100
AcDbLine
 10
42.59098182929293
 20
8.860071133198655
 30
0.0
 11
42.68340129908265
 21
8.875072020977976
 31
0.0
  0
LINE
  5
50B
330
18
100
AcDbEntity
  8
1
 62
     1
100
AcDbLine
 10
42.68340129908265
 20
8.875072020977976
 30
0.0
 11
42.77478153468023
 21
8.884504423511745
 31
0.0
  0
LINE
  5
50C
330
18
100
AcDbEntity
  8
1
 62
     1
100
AcDbLine
 10
42.77478153468022
 20
12.66659268060011
 30
0.0
 11
42.77478153468022
 21
8.884504423506735
 31
0.0
  0
LINE
  5
50D
330
18
100
AcDbEntity
  8
1
 62
     1
100
AcDbLine
 10
35.81093275103407
 20
12.7
 30
0.0
 11
35.81093275103407
 21
12.69990927687706
 31
0.0
  0
LINE
  5
50E
330
18
100
AcDbEntity
  8
1
 62
     1
100
AcDbLine
 10
35.81093275103407
 20
12.69990927687706
 30
0.0
 11
35.81093275103407
 21
12.67314000631188
 31
0.0
  0
LINE
  5
50F
330
18
100
AcDbEntity
  8
1
 62
     1
100
AcDbLine
 10
35.81093275103407
 20
12.67314000631188
 30
0.0
 11
35.81093275103407
 21
12.29539112068927
 31
0.0
  0
LINE
  5
510
330
18
100
AcDbEntity
  8
1
 62
     1
100
AcDbLine
 10
36.57142857142857
 20
10.92919021752838
 30
0.0
 11
36.57142857142857
 21
11.38278321428571
 31
0.0
  0
ARC
  5
511
330
18
100
AcDbEntity
  8
1
 62
     1
100
AcDbCircle
 10
44.77876407641656
 20
4.804692234147782
 30
0.0
 40
10.24044251618497
100
AcDbArc
 50
136.6568234356717
 51
143.2688739297137
  0
LINE
  5
512
330
18
100
AcDbEntity
  8
1
 62
     1
100
AcDbLine
 10
37.33192439182307
 20
12.7
 30
0.0
 11
37.33192439182306
 21
12.69981091146925
 31
0.0
  0
LINE
  5
513
330
18
100
AcDbEntity
  8
1
 62
     1
100
AcDbLine
 10
37.33192439182306
 20
12.69981091146925
 30
0.0
 11
37.33192439182307
 21
12.64344794865949
 31
0.0
  0
LINE
  5
514
330
18
100
AcDbEntity
  8
1
 62
     1
100
AcDbLine
 10
37.33192439182307
 20
12.64344794865949
 30
0.0
 11
37.33192439182307
 21
11.83284160311442
 31
0.0
  0
LINE
  5
515
330
18
100
AcDbEntity
  8
1
 62
     1
100
AcDbLine
 10
37.62521846531978
 20
12.7
 30
0.0
 11
37.62521846531978
 21
12.6997882041192
 31
0.0
  0
LINE
  5
516
330
18
100
AcDbEntity
  8
1
 62
     1
100
AcDbLine
 10
37.62521846531978
 20
12.6997882041192
 30
0.0
 11
37.62521846531978
 21
12.6365376178783
 31
0.0
  0
LINE
  5
517
330
18
100
AcDbEntity
  8
1
 62
     1
100
AcDbLine
 10
37.62521846531978
 20
12.6365376178783
 30
0.0
 11
37.62521846531978
 21
11.72429446828436
 31
0.0
  0
LINE
  5
518
330
18
100
AcDbEntity
  8
1
 62
     1
100
AcDbLine
 10
38.38571428571428
 20
10.37157703589359
 30
0.0
 11
38.38571428571429
 21
11.38278321428571
 31
0.0
  0
LINE
  5
519
330
18
100
AcDbEntity
  8
1
 62
     1
100
AcDbLine
 10
38.38571428571429
 20
10.3715770358936
 30
0.0
 11
38.58222825047618
 21
10.57562376263796
 31
0.0
  0
LINE
  5
51A
330
18
100
AcDbEntity
  8
1
 62
     1
100
AcDbLine
 10
38.58222825047618
 20
10.57562376263796
 30
0.0
 11
38.77443990608785
 21
10.75913937403394
 31
0.0
  0
LINE
  5
51B
330
18
100
AcDbEntity
  8
1
 62
     1
100
AcDbLine
 10
38.77443990608785
 20
10.75913937403394
 30
0.0
 11
38.96241063492123
 21
10.92208071871203
 31
0.0
  0
LINE
  5
51C
330
18
100
AcDbEntity
  8
1
 62
     1
100
AcDbLine
 10
38.96241063492123
 20
10.92208071871203
 30
0.0
 11
39.14621010610878
 21
11.06446299523106
 31
0.0
  0
LINE
  5
51D
330
18
100
AcDbEntity
  8
1
 62
     1
100
AcDbLine
 10
39.14621010610878
 20
12.7
 30
0.0
 11
39.14621010610878
 21
12.69965171835146
 31
0.0
  0
LINE
  5
51E
330
18
100
AcDbEntity
  8
1
 62
     1
100
AcDbLine
 10
39.14621010610878
 20
12.69965171835146
 30
0.0
 11
39.14621010610878
 21
12.59465557024984
 31
0.0
  0
LINE
  5
51F
330
18
100
AcDbEntity
  8
1
 62
     1
100
AcDbLine
 10
39.14621010610878
 20
12.59465557024984
 30
0.0
 11
39.14621010610878
 21
11.06446299523105
 31
0.0
  0
LINE
  5
520
330
18
100
AcDbEntity
  8
1
 62
     1
100
AcDbLine
 10
39.43950417960551
 20
12.7
 30
0.0
 11
39.43950417960551
 21
12.69962183668835
 31
0.0
  0
LINE
  5
521
330
18
100
AcDbEntity
  8
1
 62
     1
100
AcDbLine
 10
39.43950417960551
 20
12.69962183668835
 30
0.0
 11
39.43950417960551
 21
12.58541681503352
 31
0.0
  0
LINE
  5
522
330
18
100
AcDbEntity
  8
1
 62
     1
100
AcDbLine
 10
39.43950417960551
 20
12.58541681503352
 30
0.0
 11
39.43950417960551
 21
10.91903104042594
 31
0.0
  0
LINE
  5
523
330
18
100
AcDbEntity
  8
1
 62
     1
100
AcDbLine
 10
40.2
 20
9.60681577085746
 30
0.0
 11
40.2
 21
11.38278321428571
 31
0.0
  0
ARC
  5
524
330
18
100
AcDbEntity
  8
1
 62
     1
100
AcDbCircle
 10
77.17318637703649
 20
1.161524558986267
 30
0.0
 40
18.22839641907668
100
AcDbArc
 50
143.1087243197398
 51
146.5074451099245
  0
LINE
  5
525
330
18
100
AcDbEntity
  8
1
 62
     1
100
AcDbLine
 10
62.59479743090827
 20
12.46248924734753
 30
0.0
 11
62.59479743090827
 21
12.46240855029354
 31
0.0
  0
LINE
  5
526
330
18
100
AcDbEntity
  8
1
 62
     1
100
AcDbLine
 10
62.59479743090827
 20
12.46240855029354
 30
0.0
 11
62.59479743090826
 21
12.43862426948231
 31
0.0
  0
LINE
  5
527
330
18
100
AcDbEntity
  8
1
 62
     1
100
AcDbLine
 10
62.59479743090826
 20
12.43862426948231
 30
0.0
 11
62.59479743090827
 21
12.10381778244974
 31
0.0
  0
LINE
  5
528
330
18
100
AcDbEntity
  8
1
 62
     1
100
AcDbLine
 10
63.27584912105335
 20
12.26589517273669
 30
0.0
 11
63.27584912105335
 21
12.26578237612387
 31
0.0
  0
LINE
  5
529
330
18
100
AcDbEntity
  8
1
 62
     1
100
AcDbLine
 10
63.27584912105335
 20
12.26578237612387
 30
0.0
 11
63.27584912105335
 21
12.23239595801084
 31
0.0
  0
LINE
  5
52A
330
18
100
AcDbEntity
  8
1
 62
     1
100
AcDbLine
 10
63.27584912105335
 20
12.23239595801084
 30
0.0
 11
63.27584912105335
 21
11.75821304982115
 31
0.0
  0
LINE
  5
52B
330
18
100
AcDbEntity
  8
1
 62
     1
100
AcDbLine
 10
63.78571428571428
 20
10.83846841699871
 30
0.0
 11
63.78571428571428
 21
11.38278321428571
 31
0.0
  0
ARC
  5
52C
330
18
100
AcDbEntity
  8
1
 62
     1
100
AcDbCircle
 10
72.43921432169255
 20
4.088457304376102
 30
0.0
 40
10.97476037271859
100
AcDbArc
 50
139.0526341620266
 51
142.0446120354629
  0
LINE
  5
52D
330
18
100
AcDbEntity
  8
1
 62
     1
100
AcDbLine
 10
64.14990910153978
 20
12.01358684503619
 30
0.0
 11
64.14990910153978
 21
12.01342638307416
 31
0.0
  0
LINE
  5
52E
330
18
100
AcDbEntity
  8
1
 62
     1
100
AcDbLine
 10
64.14990910153978
 20
12.01342638307416
 30
0.0
 11
64.14990910153979
 21
11.96567849792397
 31
0.0
  0
LINE
  5
52F
330
18
100
AcDbEntity
  8
1
 62
     1
100
AcDbLine
 10
64.14990910153979
 20
11.96567849792397
 30
0.0
 11
64.14990910153979
 21
11.28088192131587
 31
0.0
  0
LINE
  5
530
330
18
100
AcDbEntity
  8
1
 62
     1
100
AcDbLine
 10
65.452973104039
 20
11.63744114943493
 30
0.0
 11
65.452973104039
 21
11.63719737373799
 31
0.0
  0
LINE
  5
531
330
18
100
AcDbEntity
  8
1
 62
     1
100
AcDbLine
 10
65.452973104039
 20
11.63719737373799
 30
0.0
 11
65.45297310403902
 21
11.56409880465713
 31
0.0
  0
LINE
  5
532
330
18
100
AcDbEntity
  8
1
 62
     1
100
AcDbLine
 10
65.45297310403902
 20
11.56409880465713
 30
0.0
 11
65.452973104039
 21
10.50421429238524
 31
0.0
  0
LINE
  5
533
330
18
100
AcDbEntity
  8
1
 62
     1
100
AcDbLine
 10
64.26195019251782
 20
-9.254857079756576
 30
0.0
 11
64.14990910153973
 21
-9.341672042458798
 31
0.0
  0
ARC
  5
534
330
18
100
AcDbEntity
  8
1
 62
     1
100
AcDbCircle
 10
23.58011683760444
 20
42.71656535009549
 30
0.0
 40
65.99808260842434
100
AcDbArc
 50
306.2385760284858
 51
306.9751032291747
  0
LINE
  5
535
330
18
100
AcDbEntity
  8
1
 62
     1
100
AcDbLine
 10
65.6
 20
10.2399604930165
 30
0.0
 11
65.6
 21
11.38278321428571
 31
0.0
  0
LINE
  5
536
330
18
100
AcDbEntity
  8
1
 62
     1
100
AcDbLine
 10
65.6
 20
-9.425003138859047
 30
0.0
 11
65.60000000000001
 21
-2.89646016354635
 31
0.0
  0
LINE
  5
537
330
18
100
AcDbEntity
  8
1
 62
     1
100
AcDbLine
 10
61.21093275103408
 20
12.7
 30
0.0
 11
61.21093275103408
 21
12.69997162502715
 31
0.0
  0
LINE
  5
538
330
18
100
AcDbEntity
  8
1
 62
     1
100
AcDbLine
 10
61.21093275103408
 20
12.69997162502715
 30
0.0
 11
61.21093275103408
 21
12.69168624339389
 31
0.0
  0
LINE
  5
539
330
18
100
AcDbEntity
  8
1
 62
     1
100
AcDbLine
 10
61.21093275103408
 20
12.69168624339389
 30
0.0
 11
61.21093275103408
 21
12.57768129576314
 31
0.0
  0
LINE
  5
53A
330
18
100
AcDbEntity
  8
1
 62
     1
100
AcDbLine
 10
61.97142857142857
 20
11.22050807513327
 30
0.0
 11
61.97142857142857
 21
11.38278321428571
 31
0.0
  0
LINE
  5
53B
330
18
100
AcDbEntity
  8
1
 62
     1
100
AcDbLine
 10
60.15714285714287
 20
11.37844339653392
 30
0.0
 11
60.15714285714286
 21
11.38278321428571
 31
0.0
  0
ARC
  5
53C
330
18
100
AcDbEntity
  8
1
 62
     1
100
AcDbCircle
 10
89.54338085097089
 20
-5.835056630127385
 30
0.0
 40
34.05657487802692
100
AcDbArc
 50
147.1977076845191
 51
149.639618995677
  0
LINE
  5
53D
330
18
100
AcDbEntity
  8
1
 62
     1
100
AcDbLine
 10
60.91763867753735
 20
12.7
 30
0.0
 11
60.91763867753735
 21
12.69998003597523
 31
0.0
  0
LINE
  5
53E
330
18
100
AcDbEntity
  8
1
 62
     1
100
AcDbLine
 10
60.91763867753735
 20
12.69998003597523
 30
0.0
 11
60.91763867753735
 21
12.69416333183619
 31
0.0
  0
LINE
  5
53F
330
18
100
AcDbEntity
  8
1
 62
     1
100
AcDbLine
 10
60.91763867753735
 20
12.69416333183619
 30
0.0
 11
60.91763867753735
 21
12.61459629566137
 31
0.0
  0
LINE
  5
540
330
18
100
AcDbEntity
  8
1
 62
     1
100
AcDbLine
 10
59.39664703674835
 20
12.69995900868614
 30
0.0
 11
59.47751563291536
 21
12.55993155618469
 31
0.0
  0
ARC
  5
541
330
18
100
AcDbEntity
  8
1
 62
     1
100
AcDbCircle
 10
132.5777396906277
 20
-28.47733750701254
 30
0.0
 40
84.22452444957781
100
AcDbArc
 50
150.7348022334304
 51
151.8107536286126
  0
ARC
  5
542
330
18
100
AcDbEntity
  8
1
 62
     1
100
AcDbCircle
 10
1583.695278381218
 20
-757.0085036192966
 30
0.0
 40
1709.414064155619
100
AcDbArc
 50
153.2452089561068
 51
153.3018687313422
  0
ARC
  5
543
330
18
100
AcDbEntity
  8
1
 62
     1
100
AcDbCircle
 10
6.273839547244123
 20
30.01620924910365
 30
0.0
 40
49.55760835583381
100
AcDbArc
 50
334.7209869909546
 51
336.864564004961
  0
ARC
  5
544
330
18
100
AcDbEntity
  8
1
 62
     1
100
AcDbCircle
 10
-11.50946333308259
 20
40.21750563614182
 30
0.0
 40
71.24183812099322
100
AcDbArc
 50
334.7018861695081
 51
336.1727862298602
  0
ARC
  5
545
330
18
100
AcDbEntity
  8
1
 62
     1
100
AcDbCircle
 10
-65.64103671741303
 20
68.5758206761699
 30
0.0
 40
133.6351800761195
100
AcDbArc
 50
334.2405173637808
 51
335.0010300105111
  0
LINE
  5
546
330
18
100
AcDbEntity
  8
1
 62
     1
100
AcDbLine
 10
55.76807560817694
 20
-12.69067885139577
 30
0.0
 11
55.4747815346802
 21
-12.6984842528976
 31
0.0
  0
LINE
  5
547
330
18
100
AcDbEntity
  8
1
 62
     1
100
AcDbLine
 10
52.13950417960551
 20
-12.32206764534837
 30
0.0
 11
51.84621010610878
 21
-12.24853802876651
 31
0.0
  0
LINE
  5
548
330
18
100
AcDbEntity
  8
1
 62
     1
100
AcDbLine
 10
44.88236132246264
 20
-12.6520941909329
 30
0.0
 11
44.58906724896591
 21
-12.62359026200649
 31
0.0
  0
LINE
  5
549
330
18
100
AcDbEntity
  8
1
 62
     1
100
AcDbLine
 10
44.88236132246264
 20
-8.753494764500568
 30
0.0
 11
44.58906724896591
 21
-8.540830433606114
 31
0.0
  0
LINE
  5
54A
330
18
100
AcDbEntity
  8
1
 62
     1
100
AcDbLine
 10
44.58906724896591
 20
-8.540830435198641
 30
0.0
 11
44.58906724896591
 21
-12.6235902620065
 31
0.0
  0
LINE
  5
54B
330
18
100
AcDbEntity
  8
1
 62
     1
100
AcDbLine
 10
42.77478153468021
 20
-7.130524286263992
 30
0.0
 11
42.77478153468022
 21
-12.30143065873429
 31
0.0
  0
LINE
  5
54C
330
18
100
AcDbEntity
  8
1
 62
     1
100
AcDbLine
 10
39.43950417960551
 20
-11.07632696921685
 30
0.0
 11
39.14621010610878
 21
-10.93137438981351
 31
0.0
  0
LINE
  5
54D
330
18
100
AcDbEntity
  8
1
 62
     1
100
AcDbLine
 10
39.43950417960549
 20
-4.188887620862139
 30
0.0
 11
39.14621010610877
 21
-3.913676367970635
 31
0.0
  0
LINE
  5
54E
330
18
100
AcDbEntity
  8
1
 62
     1
100
AcDbLine
 10
37.62521846531978
 20
-2.456905276566023
 30
0.0
 11
37.62521846531978
 21
-10.08981673585556
 31
0.0
  0
LINE
  5
54F
330
18
100
AcDbEntity
  8
1
 62
     1
100
AcDbLine
 10
35.81093275103407
 20
-0.6758531402896633
 30
0.0
 11
35.81093275103407
 21
-8.901786679381294
 31
0.0
  0
LINE
  5
550
330
18
100
AcDbEntity
  8
1
 62
     1
100
AcDbLine
 10
35.59999999999999
 20
-0.4672230795296883
 30
0.0
 11
35.59999999999999
 21
-8.751635760949116
 31
0.0
  0
ARC
  5
551
330
18
100
AcDbEntity
  8
1
 62
     1
100
AcDbCircle
 10
90.99062430451605
 20
-41.32185718261618
 30
0.0
 40
63.1337105132063
100
AcDbArc
 50
149.5383176884077
 51
150.9283695562133
  0
LINE
  5
552
330
18
100
AcDbEntity
  8
1
 62
     1
100
AcDbLine
 10
35.6
 20
-8.751635760949128
 30
0.0
 11
34.84056809575454
 21
-7.087033674431682
 31
0.0
  0
LINE
  5
553
330
18
100
AcDbEntity
  8
1
 62
     1
100
AcDbLine
 10
34.84056809575454
 20
-7.087033674431682
 30
0.0
 11
34.43510410627803
 21
-6.302962743948573
 31
0.0
  0
LINE
  5
554
330
18
100
AcDbEntity
  8
1
 62
     1
100
AcDbLine
 10
34.43510410627803
 20
-6.302962743948573
 30
0.0
 11
34.01228675999999
 21
-5.569997814470671
 31
0.0
  0
LINE
  5
555
330
18
100
AcDbEntity
  8
1
 62
     1
100
AcDbLine
 10
35.59999999999999
 20
-0.4672230795296928
 30
0.0
 11
35.20697913337524
 21
0.0665673949629073
 31
0.0
  0
LINE
  5
556
330
18
100
AcDbEntity
  8
1
 62
     1
100
AcDbLine
 10
35.20697913337524
 20
0.0665673949629073
 30
0.0
 11
34.81114768890568
 21
0.5622964696068399
 31
0.0
  0
LINE
  5
557
330
18
100
AcDbEntity
  8
1
 62
     1
100
AcDbLine
 10
34.81114768890568
 20
0.5622964696068399
 30
0.0
 11
34.41280128093378
 21
1.017889883075948
 31
0.0
  0
LINE
  5
558
330
18
100
AcDbEntity
  8
1
 62
     1
100
AcDbLine
 10
34.41280128093378
 20
1.017889883075948
 30
0.0
 11
34.01228675999999
 21
1.431364560306602
 31
0.0
  0
ARC
  5
559
330
18
100
AcDbEntity
  8
1
 62
     1
100
AcDbCircle
 10
39.77969232864837
 20
-4.604056205938106
 30
0.0
 40
5.700018536494189
100
AcDbArc
 50
235.7470630738031
 51
243.6042972201213
  0
LINE
  5
55A
330
18
100
AcDbEntity
  8
1
 62
     1
100
AcDbLine
 10
34.01228675999999
 20
-7.295263538384861
 30
0.0
 11
34.01228675999999
 21
-5.569997814470707
 31
0.0
  0
ARC
  5
55B
330
18
100
AcDbEntity
  8
1
 62
     1
100
AcDbCircle
 10
-1065.510616960236
 20
644.1018494142421
 30
0.0
 40
1290.076851300217
100
AcDbArc
 50
329.3973482536106
 51
329.4637645350984
  0
ARC
  5
55C
330
18
100
AcDbEntity
  8
1
 62
     1
100
AcDbCircle
 10
369.3929440196782
 20
-216.5849837834752
 30
0.0
 40
384.9565313811768
100
AcDbArc
 50
147.7488466863678
 51
147.9616052554847
  0
LINE
  5
55D
330
18
100
AcDbEntity
  8
1
 62
     1
100
AcDbLine
 10
43.06807560817694
 20
-12.37038798436153
 30
0.0
 11
42.77478153468021
 21
-12.30143065873429
 31
0.0
  0
ARC
  5
55E
330
18
100
AcDbEntity
  8
1
 62
     1
100
AcDbCircle
 10
155.5869764553908
 20
-89.44404913883889
 30
0.0
 40
138.1818374229632
100
AcDbArc
 50
145.2761521502751
 51
145.833716672492
  0
LINE
  5
55F
330
18
100
AcDbEntity
  8
1
 62
     1
100
AcDbLine
 10
41.25378989389122
 20
-11.84161200105248
 30
0.0
 11
40.96049582039448
 21
-11.73357858166475
 31
0.0
  0
ARC
  5
560
330
18
100
AcDbEntity
  8
1
 62
     1
100
AcDbCircle
 10
95.897163461895
 20
-53.86929518240103
 30
0.0
 40
70.8428401798937
100
AcDbArc
 50
141.8323867495293
 51
142.8391214703811
  0
ARC
  5
561
330
18
100
AcDbEntity
  8
1
 62
     1
100
AcDbCircle
 10
67.88355626095247
 20
-36.65483263920136
 30
0.0
 40
40.26498110465565
100
AcDbArc
 50
137.1040548608708
 51
138.7187970765078
  0
LINE
  5
562
330
18
100
AcDbEntity
  8
1
 62
     1
100
AcDbLine
 10
37.6252184653198
 20
-10.08981673585556
 30
0.0
 11
37.33192439182306
 21
-9.910841247216794
 31
0.0
  0
ARC
  5
563
330
18
100
AcDbEntity
  8
1
 62
     1
100
AcDbCircle
 10
52.14073457772714
 20
-26.34756181801765
 30
0.0
 40
23.89599424274839
100
AcDbArc
 50
130.6579289586788
 51
133.1075879705953
  0
LINE
  5
564
330
18
100
AcDbEntity
  8
1
 62
     1
100
AcDbLine
 10
35.81093275103407
 20
-8.901786679381297
 30
0.0
 11
35.59999999999999
 21
-8.751635760949117
 31
0.0
  0
LINE
  5
565
330
18
100
AcDbEntity
  8
1
 62
     1
100
AcDbLine
 10
35.59999999999999
 20
-10.75746561151866
 30
0.0
 11
35.20693644711424
 21
-10.44207895540948
 31
0.0
  0
LINE
  5
566
330
18
100
AcDbEntity
  8
1
 62
     1
100
AcDbLine
 10
35.20693644711424
 20
-10.44207895540948
 30
0.0
 11
34.81112176474969
 21
-10.08428022576926
 31
0.0
  0
LINE
  5
567
330
18
100
AcDbEntity
  8
1
 62
     1
100
AcDbLine
 10
34.81112176474969
 20
-10.08428022576926
 30
0.0
 11
34.41278978027434
 21
-9.6844093653853
 31
0.0
  0
LINE
  5
568
330
18
100
AcDbEntity
  8
1
 62
     1
100
AcDbLine
 10
34.41278978027434
 20
-9.6844093653853
 30
0.0
 11
34.01228675999999
 21
-9.243007278159638
 31
0.0
  0
LINE
  5
569
330
18
100
AcDbEntity
  8
1
 62
     1
100
AcDbLine
 10
35.81093275103407
 20
-10.64501096493979
 30
0.0
 11
35.59999999999999
 21
-10.75746561151866
 31
0.0
  0
LINE
  5
56A
330
18
100
AcDbEntity
  8
1
 62
     1
100
AcDbLine
 10
65.6
 20
-1.07739889607194
 30
0.0
 11
65.60000000000004
 21
10.23996049301648
 31
0.0
  0
LINE
  5
56B
330
18
100
AcDbEntity
  8
1
 62
     1
100
AcDbLine
 10
65.452973104039
 20
10.50421429238526
 30
0.0
 11
65.6
 21
10.23996049301649
 31
0.0
  0
LINE
  5
56C
330
18
100
AcDbEntity
  8
1
 62
     1
100
AcDbLine
 10
63.27584912105334
 20
11.75821304982116
 30
0.0
 11
63.78571428571431
 21
10.83846841699872
 31
0.0
  0
ARC
  5
56D
330
18
100
AcDbEntity
  8
1
 62
     1
100
AcDbCircle
 10
-114.0915477434846
 20
-86.55007978713093
 30
0.0
 40
201.3883579221356
100
AcDbArc
 50
29.04411468823684
 51
29.48672503089931
  0
LINE
  5
56E
330
18
100
AcDbEntity
  8
1
 62
     1
100
AcDbLine
 10
61.21093275103408
 20
12.57768129576314
 30
0.0
 11
60.91763867753736
 21
12.61459629566137
 31
0.0
  0
LINE
  5
56F
330
18
100
AcDbEntity
  8
1
 62
     1
100
AcDbLine
 10
59.39664703471686
 20
12.69995899889195
 30
0.0
 11
59.10335296325162
 21
12.69590149528687
 31
0.0
  0
ARC
  5
570
330
18
100
AcDbEntity
  8
1
 62
     1
100
AcDbCircle
 10
1844.240126843182
 20
1090.65793763386
 30
0.0
 40
2086.725346860874
100
AcDbArc
 50
211.1072526879789
 51
211.1476494377767
  0
ARC
  5
571
330
18
100
AcDbEntity
  8
1
 62
     1
100
AcDbCircle
 10
252.4461442142398
 20
138.9651386234787
 30
0.0
 40
233.9982341649093
100
AcDbArc
 50
212.8058847751174
 51
213.1480301189305
  0
ARC
  5
572
330
18
100
AcDbEntity
  8
1
 62
     1
100
AcDbCircle
 10
138.3933766405869
 20
71.25510348066182
 30
0.0
 40
103.4094128930709
100
AcDbArc
 50
215.2584695285757
 51
215.9820413667937
  0
LINE
  5
573
330
18
100
AcDbEntity
  8
1
 62
     1
100
AcDbLine
 10
53.95378989389121
 20
11.56038536565662
 30
0.0
 11
53.6604958203945
 21
11.4371459737846
 31
0.0
  0
ARC
  5
574
330
18
100
AcDbEntity
  8
1
 62
     1
100
AcDbCircle
 10
95.84140261312152
 20
45.67875075142383
 30
0.0
 40
55.97421122961858
100
AcDbArc
 50
218.6706254215436
 51
219.9002192748864
  0
LINE
  5
575
330
18
100
AcDbEntity
  8
1
 62
     1
100
AcDbLine
 10
50.89873452008757
 20
9.040890388346252
 30
0.0
 11
51.08571428571429
 21
8.853811512399659
 31
0.0
  0
LINE
  5
576
330
18
100
AcDbEntity
  8
1
 62
     1
100
AcDbLine
 10
43.06807560817693
 20
12.64223454285706
 30
0.0
 11
42.77478153468022
 21
12.6665926806001
 31
0.0
  0
LINE
  5
577
330
18
100
AcDbEntity
  8
1
 62
     1
100
AcDbLine
 10
44.88236132246264
 20
12.34542023636441
 30
0.0
 11
44.5890672489659
 21
12.41032686392942
 31
0.0
  0
LINE
  5
578
330
18
100
AcDbEntity
  8
1
 62
     1
100
AcDbLine
 10
48.51093275103408
 20
11.02293051541445
 30
0.0
 11
48.21763868321322
 21
11.16426046615697
 31
0.0
  0
ARC
  5
579
330
18
100
AcDbEntity
  8
1
 62
     1
100
AcDbCircle
 10
53.57923075537715
 20
4.264693599840522
 30
0.0
 40
3.41808344565499
100
AcDbArc
 50
88.63763231736932
 51
101.4618747595556
  0
LINE
  5
57A
330
18
100
AcDbEntity
  8
1
 62
     1
100
AcDbLine
 10
53.95378989389121
 20
7.448501348024596
 30
0.0
 11
53.66049582039449
 21
7.681735688046441
 31
0.0
  0
ARC
  5
57B
330
18
100
AcDbEntity
  8
1
 62
     1
100
AcDbCircle
 10
54.3447021650366
 20
2.843473605373944
 30
0.0
 40
3.521860754659857
100
AcDbArc
 50
71.28524767008889
 51
83.97623667460515
  0
ARC
  5
57C
330
18
100
AcDbEntity
  8
1
 62
     1
100
AcDbCircle
 10
54.74992880495642
 20
0.6198012098468153
 30
0.0
 40
4.681635336636224
100
AcDbArc
 50
57.1583332545119
 51
67.67099316492208
  0
LINE
  5
57D
330
18
100
AcDbEntity
  8
1
 62
     1
100
AcDbLine
 10
57.58236131825461
 20
4.281237843940401
 30
0.0
 11
57.28906724896592
 21
4.553487437219093
 31
0.0
  0
ARC
  5
57E
330
18
100
AcDbEntity
  8
1
 62
     1
100
AcDbCircle
 10
54.23084513513167
 20
-2.365713110039427
 30
0.0
 40
7.127502969353648
100
AcDbArc
 50
46.87554521639758
 51
54.76528090703101
  0
LINE
  5
57F
330
18
100
AcDbEntity
  8
1
 62
     1
100
AcDbLine
 10
59.39664703674835
 20
2.552939629282283
 30
0.0
 11
59.38379855728051
 21
2.565399946559011
 31
0.0
  0
ARC
  5
580
330
18
100
AcDbEntity
  8
1
 62
     1
100
AcDbCircle
 10
52.26410761082399
 20
-6.104481013439488
 30
0.0
 40
11.23625567488564
100
AcDbArc
 50
39.63509437707005
 51
45.37489765554386
  0
LINE
  5
581
330
18
100
AcDbEntity
  8
1
 62
     1
100
AcDbLine
 10
61.21093275103406
 20
0.7736509885223312
 30
0.0
 11
60.91763867753735
 21
1.063274872859356
 31
0.0
  0
ARC
  5
582
330
18
100
AcDbEntity
  8
1
 62
     1
100
AcDbCircle
 10
64.98936095961474
 20
2.903170228594452
 30
0.0
 40
4.38729692005065
100
AcDbArc
 50
247.0105918793784
 51
254.0765850619454
  0
ARC
  5
583
330
18
100
AcDbEntity
  8
1
 62
     1
100
AcDbCircle
 10
43.43549392406081
 20
-15.06082807280953
 30
0.0
 40
24.55727309271094
100
AcDbArc
 50
32.48695379310426
 51
34.03619277227604
  0
LINE
  5
584
330
18
100
AcDbEntity
  8
1
 62
     1
100
AcDbLine
 10
65.6
 20
-1.077398896071942
 30
0.0
 11
65.6
 21
-2.89646016354635
 31
0.0
  0
LINE
  5
585
330
18
100
AcDbEntity
  8
1
 62
     1
100
AcDbLine
 10
34.01228675999999
 20
1.713429990076634
 30
0.0
 11
34.01228675999999
 21
1.777949725412017
 31
0.0
  0
LINE
  5
586
330
18
100
AcDbEntity
  8
1
 62
     1
100
AcDbLine
 10
34.01228675999999
 20
1.777949725412017
 30
0.0
 11
34.01228675999998
 21
9.925252282298013
 31
0.0
  0
ARC
  5
587
330
18
100
AcDbEntity
  8
1
 62
     1
100
AcDbCircle
 10
82.68673680543407
 20
-29.34262652446904
 30
0.0
 40
28.18754027152086
100
AcDbArc
 50
132.1091027759258
 51
133.5220570115619
  0
ARC
  5
588
330
18
100
AcDbEntity
  8
1
 62
     1
100
AcDbCircle
 10
70.93240890636689
 20
-20.63223509060226
 30
0.0
 40
16.08960014533267
100
AcDbArc
 50
123.8443236895842
 51
127.1719835264917
  0
LINE
  5
589
330
18
100
AcDbEntity
  8
1
 62
     1
100
AcDbLine
 10
61.21093275103409
 20
-7.811650523295277
 30
0.0
 11
60.91763867753737
 21
-7.580667781171556
 31
0.0
  0
ARC
  5
58A
330
18
100
AcDbEntity
  8
1
 62
     1
100
AcDbCircle
 10
64.2265540948272
 20
-15.52976508623349
 30
0.0
 40
10.39763600234192
100
AcDbArc
 50
113.0399907328772
 51
117.6792196237832
  0
LINE
  5
58B
330
18
100
AcDbEntity
  8
1
 62
     1
100
AcDbLine
 10
59.39664703674837
 20
-6.322035215672367
 30
0.0
 11
59.10335296325163
 21
-6.068551541346313
 31
0.0
  0
ARC
  5
58C
330
18
100
AcDbEntity
  8
1
 62
     1
100
AcDbCircle
 10
59.61163626685947
 20
-11.9516284000918
 30
0.0
 40
7.524317145822558
100
AcDbArc
 50
99.70760187014936
 51
105.6462208275505
  0
LINE
  5
58D
330
18
100
AcDbEntity
  8
1
 62
     1
100
AcDbLine
 10
57.58236132246265
 20
-4.706153605713967
 30
0.0
 11
57.28906724896593
 21
-4.435230904340976
 31
0.0
  0
ARC
  5
58E
330
18
100
AcDbEntity
  8
1
 62
     1
100
AcDbCircle
 10
55.96172977850549
 20
-9.523578474296169
 30
0.0
 40
6.530215575146071
100
AcDbArc
 50
85.02045475617793
 51
91.69937189877052
  0
ARC
  5
58F
330
18
100
AcDbEntity
  8
1
 62
     1
100
AcDbCircle
 10
52.44473403800361
 20
-8.041476571007072
 30
0.0
 40
6.98005044017588
100
AcDbArc
 50
71.02614660186414
 51
77.51423219602444
  0
LINE
  5
590
330
18
100
AcDbEntity
  8
1
 62
     1
100
AcDbLine
 10
53.95378989389123
 20
-1.226554837760203
 30
0.0
 11
53.66049582039449
 21
-0.9372270486906463
 31
0.0
  0
ARC
  5
591
330
18
100
AcDbEntity
  8
1
 62
     1
100
AcDbCircle
 10
48.41251716246922
 20
-7.397250516620782
 30
0.0
 40
8.793814605289189
100
AcDbArc
 50
59.31718422149481
 51
64.92390179352951
  0
LINE
  5
592
330
18
100
AcDbEntity
  8
1
 62
     1
100
AcDbLine
 10
52.1395041796055
 20
0.5676627436103476
 30
0.0
 11
51.84621010610877
 21
0.8575884867029344
 31
0.0
  0
ARC
  5
593
330
18
100
AcDbEntity
  8
1
 62
     1
100
AcDbCircle
 10
43.35159051689497
 20
-7.54359168919487
 30
0.0
 40
12.10481364986193
100
AcDbArc
 50
50.28886504169883
 51
54.82288329005451
  0
LINE
  5
594
330
18
100
AcDbEntity
  8
1
 62
     1
100
AcDbLine
 10
48.51093275103407
 20
4.086478232420495
 30
0.0
 11
48.55486316296199
 21
4.045718298329568
 31
0.0
  0
LINE
  5
595
330
18
100
AcDbEntity
  8
1
 62
     1
100
AcDbLine
 10
48.55486316296199
 20
4.045718298329568
 30
0.0
 11
48.55661914384157
 21
4.044081927066256
 31
0.0
  0
LINE
  5
596
330
18
100
AcDbEntity
  8
1
 62
     1
100
AcDbLine
 10
48.51093275103407
 20
4.086478232420494
 30
0.0
 11
48.41627929565222
 21
4.175098508256435
 31
0.0
  0
LINE
  5
597
330
18
100
AcDbEntity
  8
1
 62
     1
100
AcDbLine
 10
48.41627929565222
 20
4.175098508256435
 30
0.0
 11
48.41627619184868
 21
4.175101410519948
 31
0.0
  0
ARC
  5
598
330
18
100
AcDbEntity
  8
1
 62
     1
100
AcDbCircle
 10
28.63737685115997
 20
-10.22033599131974
 30
0.0
 40
24.10179226807607
100
AcDbArc
 50
38.66244353948017
 51
41.47086606590882
  0
ARC
  5
599
330
18
100
AcDbEntity
  8
1
 62
     1
100
AcDbCircle
 10
18.40885109282678
 20
-12.88486334983385
 30
0.0
 40
33.27894498622878
100
AcDbArc
 50
35.0797819938755
 51
37.29712770647324
  0
LINE
  5
59A
330
18
100
AcDbEntity
  8
1
 62
     1
100
AcDbLine
 10
44.88236132246264
 20
7.280449753932537
 30
0.0
 11
44.58906724896592
 21
7.516463829331171
 31
0.0
  0
ARC
  5
59B
330
18
100
AcDbEntity
  8
1
 62
     1
100
AcDbCircle
 10
5.899582617928417
 20
-16.64494106395063
 30
0.0
 40
44.97313092013542
100
AcDbArc
 50
32.50245691420349
 51
34.263176183017
  0
LINE
  5
59C
330
18
100
AcDbEntity
  8
1
 62
     1
100
AcDbLine
 10
43.06807560817692
 20
8.674697122781936
 30
0.0
 11
42.77478153468022
 21
8.884504423488279
 31
0.0
  0
ARC
  5
59D
330
18
100
AcDbEntity
  8
1
 62
     1
100
AcDbCircle
 10
-9.333679622162165
 20
-21.84432429510638
 30
0.0
 40
59.72036247049856
100
AcDbArc
 50
30.70520817044249
 51
32.10532356414933
  0
ARC
  5
59E
330
18
100
AcDbEntity
  8
1
 62
     1
100
AcDbCircle
 10
-28.23138824915988
 20
-29.17399756030244
 30
0.0
 40
78.65622452687494
100
AcDbArc
 50
29.5407004108211
 51
30.6455036217216
  0
LINE
  5
59F
330
18
100
AcDbEntity
  8
1
 62
     1
100
AcDbLine
 10
39.4395041796055
 20
10.91903104042594
 30
0.0
 11
39.14621010610878
 21
11.06446299523105
 31
0.0
  0
ARC
  5
5A0
330
18
100
AcDbEntity
  8
1
 62
     1
100
AcDbCircle
 10
-52.98568294077371
 20
-40.10641962038155
 30
0.0
 40
104.3875414750961
100
AcDbArc
 50
28.91839219276527
 51
29.77016560175306
  0
LINE
  5
5A1
330
18
100
AcDbEntity
  8
1
 62
     1
100
AcDbLine
 10
37.62521846531979
 20
11.72429446828436
 30
0.0
 11
37.33192439182306
 21
11.83284160311442
 31
0.0
  0
ARC
  5
5A2
330
18
100
AcDbEntity
  8
1
 62
     1
100
AcDbCircle
 10
-89.60878271849361
 20
-58.41581933355563
 30
0.0
 40
143.9797894088354
100
AcDbArc
 50
28.79192760563431
 51
29.4141564505673
  0
LINE
  5
5A3
330
18
100
AcDbEntity
  8
1
 62
     1
100
AcDbLine
 10
35.81093275103407
 20
12.29539112068927
 30
0.0
 11
35.59999999999999
 21
12.34602199522327
 31
0.0
  0
LINE
  5
5A4
330
18
100
AcDbEntity
  8
1
 62
     1
100
AcDbLine
 10
35.81093275103405
 20
-0.6758531402896427
 30
0.0
 11
35.59999999999999
 21
-0.4672230795296893
 31
0.0
  0
LINE
  5
5A5
330
18
100
AcDbEntity
  8
1
 62
     1
100
AcDbLine
 10
37.62521846531978
 20
-2.456905276566021
 30
0.0
 11
37.33192439182307
 21
-2.171383739952451
 31
0.0
  0
LINE
  5
5A6
330
18
100
AcDbEntity
  8
1
 62
     1
100
AcDbLine
 10
41.25378989389121
 20
-5.837205610686008
 30
0.0
 11
40.96049582039448
 21
-5.577802812283894
 31
0.0
  0
LINE
  5
5A7
330
18
100
AcDbEntity
  8
1
 62
     1
100
AcDbLine
 10
43.06807560817693
 20
-7.368938497852107
 30
0.0
 11
42.7747815346802
 21
-7.130524286263983
 31
0.0
  0
LINE
  5
5A8
330
18
100
AcDbEntity
  8
1
 62
     1
100
AcDbLine
 10
46.69664703674837
 20
-9.963219286272633
 30
0.0
 11
46.40335296325163
 21
-9.780553461599851
 31
0.0
  0
ARC
  5
5A9
330
18
100
AcDbEntity
  8
1
 62
     1
100
AcDbCircle
 10
-356.2635125284906
 20
-196.112737276321
 30
0.0
 40
444.9005897810777
100
AcDbArc
 50
24.61192913167154
 51
24.84603648290536
  0
LINE
  5
5AA
330
18
100
AcDbEntity
  8
1
 62
     1
100
AcDbLine
 10
48.51093275103405
 20
-10.97395115144266
 30
0.0
 11
48.21763867753737
 21
-10.82493152291182
 31
0.0
  0
ARC
  5
5AB
330
18
100
AcDbEntity
  8
1
 62
     1
100
AcDbCircle
 10
1015.834327213407
 20
442.4248454057751
 30
0.0
 40
1067.221232037813
100
AcDbArc
 50
205.0847271415355
 51
205.1808526891689
  0
LINE
  5
5AC
330
18
100
AcDbEntity
  8
1
 62
     1
100
AcDbLine
 10
50.32521846531979
 20
-11.76550410962085
 30
0.0
 11
50.03192439182308
 21
-11.6531067452483
 31
0.0
  0
ARC
  5
5AD
330
18
100
AcDbEntity
  8
1
 62
     1
100
AcDbCircle
 10
246.0376458234059
 20
83.47252234164208
 30
0.0
 40
216.5013993772293
100
AcDbArc
 50
205.7807487338318
 51
206.2396614397931
  0
ARC
  5
5AE
330
18
100
AcDbEntity
  8
1
 62
     1
100
AcDbCircle
 10
147.7418184770913
 20
37.1721333815075
 30
0.0
 40
106.4354597507197
100
AcDbArc
 50
206.991557322615
 51
207.8800043093408
  0
LINE
  5
5AF
330
18
100
AcDbEntity
  8
1
 62
     1
100
AcDbLine
 10
53.95378989389123
 20
-12.63252608232787
 30
0.0
 11
53.66049582039449
 21
-12.5993324705571
 31
0.0
  0
ARC
  5
5B0
330
18
100
AcDbEntity
  8
1
 62
     1
100
AcDbCircle
 10
110.0885686541721
 20
19.1264323555351
 30
0.0
 40
63.21019580910816
100
AcDbArc
 50
208.8324228147103
 51
209.9691110289289
  0
LINE
  5
5B1
330
18
100
AcDbEntity
  8
1
 62
     1
100
AcDbLine
 10
57.58236132246265
 20
-12.49536430848967
 30
0.0
 11
57.28906724896592
 21
-12.54401278683386
 31
0.0
  0
LINE
  5
5B2
330
18
100
AcDbEntity
  8
1
 62
     1
100
AcDbLine
 10
59.39664703674837
 20
-12.05048366449905
 30
0.0
 11
59.10335296325164
 21
-12.13900357268774
 31
0.0
  0
LINE
  5
5B3
330
18
100
AcDbEntity
  8
1
 62
     1
100
AcDbLine
 10
61.21093275103409
 20
-11.36492178236904
 30
0.0
 11
60.91763867753735
 21
-11.49154550669009
 31
0.0
  0
ARC
  5
5B4
330
18
100
AcDbEntity
  8
1
 62
     1
100
AcDbCircle
 10
112.1541425292063
 20
-37.89414461111286
 30
0.0
 40
56.27310683369713
100
AcDbArc
 50
149.2639048981927
 51
150.2952640992556
  0
ARC
  5
5B5
330
18
100
AcDbEntity
  8
1
 62
     1
100
AcDbCircle
 10
66.70681660252055
 20
-4.439063770835201
 30
0.0
 40
5.529351817945702
100
AcDbArc
 50
238.110040773092
 51
242.4561463956911
  0
LINE
  5
5B6
330
18
100
AcDbEntity
  8
1
 62
     1
100
AcDbLine
 10
34.01228675999999
 20
9.95
 30
0.0
 11
34.01228676
 21
9.949998530567123
 31
0.0
  0
LINE
  5
5B7
330
18
100
AcDbEntity
  8
1
 62
     1
100
AcDbLine
 10
34.01228676
 20
9.949998530567123
 30
0.0
 11
34.01228675999999
 21
9.949573809279505
 31
0.0
  0
LINE
  5
5B8
330
18
100
AcDbEntity
  8
1
 62
     1
100
AcDbLine
 10
34.01228675999999
 20
9.949573809279505
 30
0.0
 11
34.01228675999999
 21
9.943896798558612
 31
0.0
  0
LINE
  5
5B9
330
18
100
AcDbEntity
  8
1
 62
     1
100
AcDbLine
 10
34.01228675999999
 20
9.943896798558612
 30
0.0
 11
34.01228675999999
 21
9.925252282298013
 31
0.0
  0
LINE
  5
5BA
330
18
100
AcDbEntity
  8
1
 62
     1
100
AcDbLine
 10
34.01228675999999
 20
-9.243007278159642
 30
0.0
 11
34.01228675999999
 21
-7.295263538384861
 31
0.0
  0
LINE
  5
5BB
330
18
100
AcDbEntity
  8
1
 62
     1
100
AcDbLine
 10
34.01228675999999
 20
1.431364560306604
 30
0.0
 11
34.01228675999999
 21
-5.569997814470665
 31
0.0
  0
LINE
  5
5BC
330
18
100
AcDbEntity
  8
1
 62
     1
100
AcDbLine
 10
34.01228675999999
 20
1.431364560306605
 30
0.0
 11
34.01228675999999
 21
1.713429990076638
 31
0.0
  0
LINE
  5
5BD
330
18
100
AcDbEntity
  8
1
 62
     1
100
AcDbLine
 10
42.01428571428572
 20
11.38278321428571
 30
0.0
 11
41.25378989389121
 21
12.70000000000001
 31
0.0
  0
LINE
  5
5BE
330
18
100
AcDbEntity
  8
1
 62
     1
100
AcDbLine
 10
40.96049582039449
 20
12.7
 30
0.0
 11
40.2
 21
11.38278321428571
 31
0.0
  0
ARC
  5
5BF
330
18
100
AcDbEntity
  8
1
 62
     1
100
AcDbCircle
 10
84.89712718562012
 20
-13.13272541883835
 30
0.0
 40
49.39537652787251
100
AcDbArc
 50
148.5131425338118
 51
150.0242977137953
  0
LINE
  5
5C0
330
18
100
AcDbEntity
  8
1
 62
     1
100
AcDbLine
 10
42.10899580667537
 20
11.54682582980921
 30
0.0
 11
42.01428571428571
 21
11.38278321428571
 31
0.0
  0
LINE
  5
5C1
330
18
100
AcDbEntity
  8
1
 62
     1
100
AcDbLine
 10
36.57142857142857
 20
11.38278321428571
 30
0.0
 11
35.81093275103407
 21
12.7
 31
0.0
  0
LINE
  5
5C2
330
18
100
AcDbEntity
  8
1
 62
     1
100
AcDbLine
 10
37.33192439182306
 20
12.7
 30
0.0
 11
36.57142857142857
 21
11.38278321428571
 31
0.0
  0
LINE
  5
5C3
330
18
100
AcDbEntity
  8
1
 62
     1
100
AcDbLine
 10
38.38571428571429
 20
11.38278321428571
 30
0.0
 11
37.62521846531978
 21
12.70000000000001
 31
0.0
  0
LINE
  5
5C4
330
18
100
AcDbEntity
  8
1
 62
     1
100
AcDbLine
 10
39.14621010610878
 20
12.7
 30
0.0
 11
38.38571428571429
 21
11.38278321428571
 31
0.0
  0
LINE
  5
5C5
330
18
100
AcDbEntity
  8
1
 62
     1
100
AcDbLine
 10
40.2
 20
11.38278321428571
 30
0.0
 11
39.4395041796055
 21
12.7
 31
0.0
  0
LINE
  5
5C6
330
18
100
AcDbEntity
  8
1
 62
     1
100
AcDbLine
 10
62.59479743090827
 20
12.46248924734753
 30
0.0
 11
61.97142857142857
 21
11.38278321428571
 31
0.0
  0
LINE
  5
5C7
330
18
100
AcDbEntity
  8
1
 62
     1
100
AcDbLine
 10
63.78571428571428
 20
11.38278321428571
 30
0.0
 11
63.27584912105334
 21
12.26589517273669
 31
0.0
  0
LINE
  5
5C8
330
18
100
AcDbEntity
  8
1
 62
     1
100
AcDbLine
 10
64.14990910153978
 20
12.01358684503626
 30
0.0
 11
63.78571428571428
 21
11.38278321428571
 31
0.0
  0
LINE
  5
5C9
330
18
100
AcDbEntity
  8
1
 62
     1
100
AcDbLine
 10
65.6
 20
11.38278321428571
 30
0.0
 11
65.452973104039
 21
11.63744114943495
 31
0.0
  0
LINE
  5
5CA
330
18
100
AcDbEntity
  8
1
 62
     1
100
AcDbLine
 10
61.97142857142857
 20
11.38278321428571
 30
0.0
 11
61.21093275103408
 21
12.7
 31
0.0
  0
LINE
  5
5CB
330
18
100
AcDbEntity
  8
1
 62
     1
100
AcDbLine
 10
60.91763867753735
 20
12.7
 30
0.0
 11
60.15714285714285
 21
11.38278321428571
 31
0.0
  0
LINE
  5
5CC
330
18
100
AcDbEntity
  8
1
 62
     1
100
AcDbLine
 10
59.47751563291536
 20
12.55993155618469
 30
0.0
 11
59.47755614693535
 21
12.55986138386342
 31
0.0
  0
ARC
  5
5CD
330
18
100
AcDbEntity
  8
1
 62
     1
100
AcDbCircle
 10
-275.7313741395775
 20
-181.061128013914
 30
0.0
 40
387.1099453305699
100
AcDbArc
 50
29.80955623186112
 51
30.01128278702171
  0
LINE
  5
5CE
330
18
100
AcDbEntity
  8
1
 62
     1
100
AcDbLine
 10
60.15714285714285
 20
11.38278321428571
 30
0.0
 11
59.47751562937516
 21
12.55993155414075
 31
0.0
  0
LINE
  5
5CF
330
18
100
AcDbEntity
  8
1
 62
     1
100
AcDbLine
 10
53.6604958203945
 20
-12.7
 30
0.0
 11
53.95378989389121
 21
-12.7
 31
0.0
  0
LINE
  5
5D0
330
18
100
AcDbEntity
  8
1
 62
     1
100
AcDbLine
 10
51.84621010610878
 20
-12.7
 30
0.0
 11
52.1395041796055
 21
-12.7
 31
0.0
  0
LINE
  5
5D1
330
18
100
AcDbEntity
  8
1
 62
     1
100
AcDbLine
 10
50.03192439182307
 20
-12.7
 30
0.0
 11
50.32521846531979
 21
-12.7
 31
0.0
  0
LINE
  5
5D2
330
18
100
AcDbEntity
  8
1
 62
     1
100
AcDbLine
 10
48.21763867753734
 20
-12.7
 30
0.0
 11
48.51093275103408
 21
-12.7
 31
0.0
  0
LINE
  5
5D3
330
18
100
AcDbEntity
  8
1
 62
     1
100
AcDbLine
 10
46.40335296325163
 20
-12.7
 30
0.0
 11
46.69664703674836
 21
-12.7
 31
0.0
  0
LINE
  5
5D4
330
18
100
AcDbEntity
  8
1
 62
     1
100
AcDbLine
 10
59.38379855728051
 20
2.565399946559011
 30
0.0
 11
59.10335296325164
 21
2.836709773747677
 31
0.0
  0
LINE
  5
5D5
330
18
100
AcDbEntity
  8
1
 62
     1
100
AcDbLine
 10
49.63189510437008
 20
3.055693719848568
 30
0.0
 11
49.63189866277816
 21
3.055690498567516
 31
0.0
  0
ARC
  5
5D6
330
18
100
AcDbEntity
  8
1
 62
     1
100
AcDbCircle
 10
46.8810061648813
 20
0.0405715771337243
 30
0.0
 40
4.081511520267061
100
AcDbArc
 50
39.47064256061697
 51
47.62373315432653
  0
LINE
  5
5D7
330
18
100
AcDbEntity
  8
1
 62
     1
100
AcDbLine
 10
49.63189867666583
 20
3.055690513910174
 30
0.0
 11
49.63189511826087
 21
3.055693735193124
 31
0.0
  0
ARC
  5
5D8
330
18
100
AcDbEntity
  8
1
 62
     1
100
AcDbCircle
 10
36.69092374693533
 20
-8.644918638151022
 30
0.0
 40
17.37258082316961
100
AcDbArc
 50
43.60164690134875
 51
46.92037588775213
  0
LINE
  5
5D9
330
18
100
AcDbEntity
  8
1
 62
     1
100
AcDbLine
 10
48.41627619184867
 20
4.175101410519948
 30
0.0
 11
48.21763867753736
 21
4.360332386772578
 31
0.0
  0
LINE
  5
5DA
330
18
100
AcDbEntity
  8
1
 62
     1
100
AcDbLine
 10
48.55661898014452
 20
4.044081751436045
 30
0.0
 11
48.55486316300499
 21
4.045718298289496
 31
0.0
  0
LINE
  5
5DB
330
18
100
AcDbEntity
  8
1
 62
     1
100
AcDbLine
 10
48.41627929834274
 20
4.175098511133207
 30
0.0
 11
48.41627619453902
 21
4.175101413397105
 31
0.0
  0
LINE
  5
5DC
330
18
100
AcDbEntity
  8
SK1
100
AcDbLine
 10
0.0000000000000036
 20
10.16
 30
0.0
 11
-44.026
 21
10.16
 31
0.0
  0
LINE
  5
5DD
330
18
100
AcDbEntity
  8
SK1
100
AcDbLine
 10
-44.026
 20
-7.619999999999999
 30
0.0
 11
-44.026
 21
-10.16
 31
0.0
  0
LINE
  5
5DE
330
18
100
AcDbEntity
  8
SK1
100
AcDbLine
 10
-63.58399999999999
 20
6.720208330104064
 30
0.0
 11
-44.026
 21
6.720208330104064
 31
0.0
  0
LINE
  5
5DF
330
18
100
AcDbEntity
  8
SK1
100
AcDbLine
 10
-63.58399999999999
 20
7.620000000000001
 30
0.0
 11
-44.026
 21
7.620000000000001
 31
0.0
  0
ARC
  5
5E0
330
18
100
AcDbEntity
  8
SK1
100
AcDbCircle
 10
-43.48577193455203
 20
-6.690700445144908
 30
0.0
 40
24.16125329623814
100
AcDbArc
 50
146.2860778778721
 51
150.9140733694478
  0
LINE
  5
5E1
330
18
100
AcDbEntity
  8
SK1
100
AcDbLine
 10
-63.584
 20
7.620000000000002
 30
0.0
 11
-63.584
 21
6.720208330104065
 31
0.0
  0
LINE
  5
5E2
330
18
100
AcDbEntity
  8
SK1
100
AcDbLine
 10
-64.6
 20
7.620000000000001
 30
0.0
 11
-63.58399999999998
 21
7.620000000000003
 31
0.0
  0
LINE
  5
5E3
330
18
100
AcDbEntity
  8
SK1
100
AcDbLine
 10
-44.026
 20
10.16
 30
0.0
 11
-44.026
 21
10.15946794247827
 31
0.0
  0
LINE
  5
5E4
330
18
100
AcDbEntity
  8
SK1
100
AcDbLine
 10
-44.026
 20
10.15946794247827
 30
0.0
 11
-44.026
 21
9.996571285031333
 31
0.0
  0
LINE
  5
5E5
330
18
100
AcDbEntity
  8
SK1
100
AcDbLine
 10
-44.026
 20
9.996571285031333
 30
0.0
 11
-44.026
 21
7.620000000000002
 31
0.0
  0
LINE
  5
5E6
330
18
100
AcDbEntity
  8
SK1
100
AcDbLine
 10
-63.58399999999998
 20
-6.720208330104056
 30
0.0
 11
-44.026
 21
-6.720208330104056
 31
0.0
  0
LINE
  5
5E7
330
18
100
AcDbEntity
  8
SK1
100
AcDbLine
 10
-63.58399999999998
 20
-6.720208330104056
 30
0.0
 11
-63.58399999999998
 21
-7.619999999999999
 31
0.0
  0
LINE
  5
5E8
330
18
100
AcDbEntity
  8
SK1
100
AcDbLine
 10
-63.58399999999998
 20
-7.619999999999999
 30
0.0
 11
-44.026
 21
-7.619999999999999
 31
0.0
  0
LINE
  5
5E9
330
18
100
AcDbEntity
  8
SK1
100
AcDbLine
 10
-64.6
 20
5.054536180501631
 30
0.0
 11
-64.6
 21
-5.054536180501628
 31
0.0
  0
LINE
  5
5EA
330
18
100
AcDbEntity
  8
SK1
100
AcDbLine
 10
-64.6
 20
7.619999999999999
 30
0.0
 11
-64.6
 21
5.054536180501631
 31
0.0
  0
LINE
  5
5EB
330
18
100
AcDbEntity
  8
SK1
100
AcDbLine
 10
-64.59999999999998
 20
-5.054536180501623
 30
0.0
 11
-64.59999999999998
 21
-7.620000000000002
 31
0.0
  0
ARC
  5
5EC
330
18
100
AcDbEntity
  8
SK1
100
AcDbCircle
 10
-43.48577193455104
 20
6.6907004451455
 30
0.0
 40
24.16125329623929
100
AcDbArc
 50
209.0859266305522
 51
213.7139221221277
  0
LINE
  5
5ED
330
18
100
AcDbEntity
  8
SK1
100
AcDbLine
 10
-64.6
 20
-7.619999999999999
 30
0.0
 11
-63.58399999999999
 21
-7.62
 31
0.0
  0
LINE
  5
5EE
330
18
100
AcDbEntity
  8
SK1
100
AcDbLine
 10
-44.026
 20
6.720208330104072
 30
0.0
 11
-44.026
 21
-6.720208330104066
 31
0.0
  0
LINE
  5
5EF
330
18
100
AcDbEntity
  8
SK1
100
AcDbLine
 10
-44.026
 20
-10.16
 30
0.0
 11
0.000000000000008
 21
-10.16
 31
0.0
  0
DIMENSION
  5
5F0
330
18
100
AcDbEntity
  8
2
100
AcDbDimension
  2
*D0
 10
80.6000000000001
 20
-12.69999999999995
 30
0.0
 11
77.87325000000016
 21
-28.22724999999995
 31
0.0
 70
    32
  1
UNS1"-14
 71
     5
 42
25.4
  3
STANDARD
100
AcDbAlignedDimension
 13
65.6
 23
12.7
 33
0.0
 14
65.6
 24
-12.7
 34
0.0
 50
90.0000000000002
100
AcDbRotatedDimension
  0
DIMENSION
  5
5FE
330
18
100
AcDbEntity
  8
2
100
AcDbDimension
  2
*D1
 10
65.6
 20
75.0
 30
0.0
 11
32.8
 21
77.39775
 31
0.0
 70
    32
  1
<>
 71
     5
 42
65.6
  3
STANDARD
100
AcDbAlignedDimension
 13
0.0
 23
0.0
 33
0.0
 14
65.6
 24
0.0
 34
0.0
100
AcDbRotatedDimension
  0
DIMENSION
  5
60B
330
18
100
AcDbEntity
  8
SK2
100
AcDbDimension
  2
*D2
 10
-79.59999999994814
 20
-10.16000000018155
 30
0.0
 11
-81.99775
 21
-0.0000000001937851
 31
0.0
 70
    32
  1
%%c<>
 71
     5
 42
20.32
  3
STANDARD
100
AcDbAlignedDimension
 13
-44.026
 23
10.16
 33
0.0
 14
-44.026
 24
-10.16
 34
0.0
 50
90.0000000002924
100
AcDbRotatedDimension
  0
DIMENSION
  5
618
330
18
100
AcDbEntity
  8
2
100
AcDbDimension
  2
*D3
 10
65.6
 20
60.0
 30
0.0
 11
49.80614337999999
 21
62.39775
 31
0.0
 70
    32
  1
<>
 71
     5
 42
31.58771324
  3
STANDARD
100
AcDbAlignedDimension
 13
34.01228675999999
 23
9.95
 33
0.0
 14
65.6
 24
12.7
 34
0.0
100
AcDbRotatedDimension
  0
DIMENSION
  5
625
330
18
100
AcDbEntity
  8
SK2
100
AcDbDimension
  2
*D4
 10
65.6
 20
90.0
 30
0.0
 11
0.5
 21
92.39775
 31
0.0
 70
    32
  1
<>
 71
     5
 42
130.2
  3
STANDARD
100
AcDbAlignedDimension
 13
-64.6
 23
12.7
 33
0.0
 14
65.6
 24
12.7
 34
0.0
100
AcDbRotatedDimension
  0
ENDSEC
  0
SECTION
  2
OBJECTS
  0
DICTIONARY
  5
C
330
0
100
AcDbDictionary
281
     1
  3
ACAD_COLOR
350
387
  3
ACAD_GROUP
350
D
  3
ACAD_LAYOUT
350
301
  3
ACAD_MATERIAL
350
386
  3
ACAD_MLEADERSTYLE
350
632
  3
ACAD_MLINESTYLE
350
E
  3
ACAD_PLOTSETTINGS
350
302
  3
ACAD_PLOTSTYLENAME
350
2FF
  3
ACAD_SCALELIST
350
3A0
  3
ACAD_TABLESTYLE
350
388
  3
ACAD_VISUALSTYLE
350
3C5
  3
ACDBHEADERROUNDTRIPXREC
350
633
  3
AcDbVariableDictionary
350
357
  0
DICTIONARY
  5
387
102
{ACAD_REACTORS
330
C
102
}
330
C
100
AcDbDictionary
281
     1
  0
DICTIONARY
  5
D
102
{ACAD_REACTORS
330
C
102
}
330
C
100
AcDbDictionary
281
     1
  0
DICTIONARY
  5
301
102
{ACAD_REACTORS
330
C
102
}
330
C
100
AcDbDictionary
281
     1
  3
Layout1
350
33B
  3
Model
350
303
  0
DICTIONARY
  5
386
102
{ACAD_REACTORS
330
C
102
}
330
C
100
AcDbDictionary
281
     1
  3
ByBlock
350
3C3
  3
ByLayer
350
3C2
  3
Global
350
3C4
  0
DICTIONARY
  5
632
102
{ACAD_REACTORS
330
C
102
}
330
C
100
AcDbDictionary
281
     1
  0
DICTIONARY
  5
E
102
{ACAD_REACTORS
330
C
102
}
330
C
100
AcDbDictionary
281
     1
  3
STANDARD
350
1B
  0
DICTIONARY
  5
302
102
{ACAD_REACTORS
330
C
102
}
330
C
100
AcDbDictionary
281
     1
  0
ACDBDICTIONARYWDFLT
  5
2FF
102
{ACAD_REACTORS
330
C
102
}
330
C
100
AcDbDictionary
281
     1
  3
Normal
350
300
100
AcDbDictionaryWithDefault
340
300
  0
DICTIONARY
  5
3A0
102
{ACAD_REACTORS
330
C
102
}
330
C
100
AcDbDictionary
281
     1
  3
A0
350
3A1
  3
A1
350
3A2
  3
A2
350
3A3
  3
A3
350
3A4
  3
A4
350
3A5
  3
A5
350
3A6
  3
A6
350
3A7
  3
A7
350
3A8
  3
A8
350
3A9
  3
A9
350
3AA
  3
B0
350
3AB
  3
B1
350
3AC
  3
B2
350
3AD
  3
B3
350
3AE
  3
B4
350
3AF
  3
B5
350
3B0
  3
B6
350
3B1
  3
B7
350
3B2
  3
B8
350
3B3
  3
B9
350
3B4
  3
C0
350
3B5
  3
C1
350
3B6
  3
C2
350
3B7
  3
C3
350
3B8
  3
C4
350
3B9
  3
C5
350
3BA
  3
C6
350
3BB
  3
C7
350
3BC
  3
C8
350
3BD
  3
C9
350
3BE
  3
D0
350
3BF
  3
D1
350
3C0
  3
D2
350
3C1
  0
DICTIONARY
  5
388
102
{ACAD_REACTORS
330
C
102
}
330
C
100
AcDbDictionary
281
     1
  3
Standard
350
389
  0
DICTIONARY
  5
3C5
102
{ACAD_REACTORS
330
C
102
}
330
C
100
AcDbDictionary
281
     1
  3
2dWireframe
350
3CA
  3
3D Hidden
350
3CC
  3
3dWireframe
350
3CB
  3
Basic
350
3CD
  3
Brighten
350
3D1
  3
ColorChange
350
3D5
  3
Conceptual
350
3CF
  3
Dim
350
3D0
  3
Facepattern
350
3D4
  3
Flat
350
3C6
  3
FlatWithEdges
350
3C7
  3
Gouraud
350
3C8
  3
GouraudWithEdges
350
3C9
  3
Linepattern
350
3D3
  3
Realistic
350
3CE
  3
Thicken
350
3D2
  0
DICTIONARY
  5
633
102
{ACAD_REACTORS
330
C
102
}
330
C
100
AcDbDictionary
281
     1
  3
COLORDICT
350
634
  3
MATERIALDICT
350
635
  0
DICTIONARY
  5
357
102
{ACAD_REACTORS
330
C
102
}
330
C
100
AcDbDictionary
281
     1
  3
CANNOSCALE
350
636
  3
CTABLESTYLE
350
38D
  3
DIMASSOC
350
359
  3
HIDETEXT
350
358
  3
PROJECTNAME
350
38E
  0
LAYOUT
  5
33B
102
{ACAD_REACTORS
330
301
102
}
330
301
100
AcDbPlotSettings
  1

  2
Lexmark Optra PS2
  4

  6

 40
0.0
 41
0.0
 42
0.0
 43
0.0
 44
0.0
 45
0.0
 46
0.0
 47
0.0
 48
0.0
 49
0.0
140
0.0
141
0.0
142
1.0
143
1.0
 70
   688
 72
     0
 73
     0
 74
     5
  7
monochrome.ctb
 75
    16
147
1.0
148
0.0
149
0.0
100
AcDbLayout
  1
Layout1
 70
     1
 71
     1
 10
0.0
 20
0.0
 11
12.0
 21
9.0
 12
0.0
 22
0.0
 32
0.0
 14
0.0
 24
0.0
 34
0.0
 15
0.0
 25
0.0
 35
0.0
146
0.0
 13
0.0
 23
0.0
 33
0.0
 16
1.0
 26
0.0
 36
0.0
 17
0.0
 27
1.0
 37
0.0
 76
     0
330
338
  0
LAYOUT
  5
303
102
{ACAD_REACTORS
330
301
102
}
330
301
100
AcDbPlotSettings
  1

  2
Lexmark Optra Rx
  4
A4
  6

 40
6.805083274841307
 41
5.535083293914794
 42
6.974411010742187
 43
7.14373779296875
 44
209.9733276367186
 45
296.9259948730469
 46
0.0
 47
0.0
 48
0.0
 49
0.0
140
0.0
141
0.0
142
1.0
143
2.976565420630886
 70
 11952
 72
     1
 73
     1
 74
     0
  7
monochrome.ctb
 75
     0
147
0.335957675604539
148
204.1199660668592
149
172.3933209647495
100
AcDbLayout
  1
Model
 70
     1
 71
     0
 10
0.0
 20
0.0
 11
12.0
 21
9.0
 12
0.0
 22
0.0
 32
0.0
 14
0.0
 24
0.0
 34
0.0
 15
0.0
 25
0.0
 35
0.0
146
0.0
 13
0.0
 23
0.0
 33
0.0
 16
1.0
 26
0.0
 36
0.0
 17
0.0
 27
1.0
 37
0.0
 76
     0
330
18
331
39A
  0
MATERIAL
  5
3C3
102
{ACAD_REACTORS
330
386
102
}
102
{ACAD_XDICTIONARY
360
639
102
}
330
386
100
AcDbMaterial
  1
ByBlock
  0
MATERIAL
  5
3C2
102
{ACAD_REACTORS
330
386
102
}
102
{ACAD_XDICTIONARY
360
637
102
}
330
386
100
AcDbMaterial
  1
ByLayer
  0
MATERIAL
  5
3C4
102
{ACAD_REACTORS
330
386
102
}
102
{ACAD_XDICTIONARY
360
63B
102
}
330
386
100
AcDbMaterial
  1
Global
  0
MLINESTYLE
  5
1B
102
{ACAD_REACTORS
330
E
102
}
330
E
100
AcDbMlineStyle
  2
STANDARD
 70
     0
  3

 62
     0
 51
90.0
 52
90.0
 71
     2
 49
0.5
 62
   256
  6
BYLAYER
 49
-0.5
 62
   256
  6
BYLAYER
  0
ACDBPLACEHOLDER
  5
300
102
{ACAD_REACTORS
330
2FF
102
}
330
2FF
  0
SCALE
  5
3A1
102
{ACAD_REACTORS
330
3A0
102
}
330
3A0
100
AcDbScale
 70
     0
300
1:1
140
1.0
141
1.0
290
     1
  0
SCALE
  5
3A2
102
{ACAD_REACTORS
330
3A0
102
}
330
3A0
100
AcDbScale
 70
     0
300
1:2
140
1.0
141
2.0
290
     0
  0
SCALE
  5
3A3
102
{ACAD_REACTORS
330
3A0
102
}
330
3A0
100
AcDbScale
 70
     0
300
1:4
140
1.0
141
4.0
290
     0
  0
SCALE
  5
3A4
102
{ACAD_REACTORS
330
3A0
102
}
330
3A0
100
AcDbScale
 70
     0
300
1:5
140
1.0
141
5.0
290
     0
  0
SCALE
  5
3A5
102
{ACAD_REACTORS
330
3A0
102
}
330
3A0
100
AcDbScale
 70
     0
300
1:8
140
1.0
141
8.0
290
     0
  0
SCALE
  5
3A6
102
{ACAD_REACTORS
330
3A0
102
}
330
3A0
100
AcDbScale
 70
     0
300
1:10
140
1.0
141
10.0
290
     0
  0
SCALE
  5
3A7
102
{ACAD_REACTORS
330
3A0
102
}
330
3A0
100
AcDbScale
 70
     0
300
1:16
140
1.0
141
16.0
290
     0
  0
SCALE
  5
3A8
102
{ACAD_REACTORS
330
3A0
102
}
330
3A0
100
AcDbScale
 70
     0
300
1:20
140
1.0
141
20.0
290
     0
  0
SCALE
  5
3A9
102
{ACAD_REACTORS
330
3A0
102
}
330
3A0
100
AcDbScale
 70
     0
300
1:30
140
1.0
141
30.0
290
     0
  0
SCALE
  5
3AA
102
{ACAD_REACTORS
330
3A0
102
}
330
3A0
100
AcDbScale
 70
     0
300
1:40
140
1.0
141
40.0
290
     0
  0
SCALE
  5
3AB
102
{ACAD_REACTORS
330
3A0
102
}
330
3A0
100
AcDbScale
 70
     0
300
1:50
140
1.0
141
50.0
290
     0
  0
SCALE
  5
3AC
102
{ACAD_REACTORS
330
3A0
102
}
330
3A0
100
AcDbScale
 70
     0
300
1:100
140
1.0
141
100.0
290
     0
  0
SCALE
  5
3AD
102
{ACAD_REACTORS
330
3A0
102
}
330
3A0
100
AcDbScale
 70
     0
300
2:1
140
2.0
141
1.0
290
     0
  0
SCALE
  5
3AE
102
{ACAD_REACTORS
330
3A0
102
}
330
3A0
100
AcDbScale
 70
     0
300
4:1
140
4.0
141
1.0
290
     0
  0
SCALE
  5
3AF
102
{ACAD_REACTORS
330
3A0
102
}
330
3A0
100
AcDbScale
 70
     0
300
8:1
140
8.0
141
1.0
290
     0
  0
SCALE
  5
3B0
102
{ACAD_REACTORS
330
3A0
102
}
330
3A0
100
AcDbScale
 70
     0
300
10:1
140
10.0
141
1.0
290
     0
  0
SCALE
  5
3B1
102
{ACAD_REACTORS
330
3A0
102
}
330
3A0
100
AcDbScale
 70
     0
300
100:1
140
100.0
141
1.0
290
     0
  0
SCALE
  5
3B2
102
{ACAD_REACTORS
330
3A0
102
}
330
3A0
100
AcDbScale
 70
     0
300
1/128" = 1'-0"
140
0.0078125
141
12.0
290
     0
  0
SCALE
  5
3B3
102
{ACAD_REACTORS
330
3A0
102
}
330
3A0
100
AcDbScale
 70
     0
300
1/64" = 1'-0"
140
0.015625
141
12.0
290
     0
  0
SCALE
  5
3B4
102
{ACAD_REACTORS
330
3A0
102
}
330
3A0
100
AcDbScale
 70
     0
300
1/32" = 1'-0"
140
0.03125
141
12.0
290
     0
  0
SCALE
  5
3B5
102
{ACAD_REACTORS
330
3A0
102
}
330
3A0
100
AcDbScale
 70
     0
300
1/16" = 1'-0"
140
0.0625
141
12.0
290
     0
  0
SCALE
  5
3B6
102
{ACAD_REACTORS
330
3A0
102
}
330
3A0
100
AcDbScale
 70
     0
300
3/32" = 1'-0"
140
0.09375
141
12.0
290
     0
  0
SCALE
  5
3B7
102
{ACAD_REACTORS
330
3A0
102
}
330
3A0
100
AcDbScale
 70
     0
300
1/8" = 1'-0"
140
0.125
141
12.0
290
     0
  0
SCALE
  5
3B8
102
{ACAD_REACTORS
330
3A0
102
}
330
3A0
100
AcDbScale
 70
     0
300
3/16" = 1'-0"
140
0.1875
141
12.0
290
     0
  0
SCALE
  5
3B9
102
{ACAD_REACTORS
330
3A0
102
}
330
3A0
100
AcDbScale
 70
     0
300
1/4" = 1'-0"
140
0.25
141
12.0
290
     0
  0
SCALE
  5
3BA
102
{ACAD_REACTORS
330
3A0
102
}
330
3A0
100
AcDbScale
 70
     0
300
3/8" = 1'-0"
140
0.375
141
12.0
290
     0
  0
SCALE
  5
3BB
102
{ACAD_REACTORS
330
3A0
102
}
330
3A0
100
AcDbScale
 70
     0
300
1/2" = 1'-0"
140
0.5
141
12.0
290
     0
  0
SCALE
  5
3BC
102
{ACAD_REACTORS
330
3A0
102
}
330
3A0
100
AcDbScale
 70
     0
300
3/4" = 1'-0"
140
0.75
141
12.0
290
     0
  0
SCALE
  5
3BD
102
{ACAD_REACTORS
330
3A0
102
}
330
3A0
100
AcDbScale
 70
     0
300
1" = 1'-0"
140
1.0
141
12.0
290
     0
  0
SCALE
  5
3BE
102
{ACAD_REACTORS
330
3A0
102
}
330
3A0
100
AcDbScale
 70
     0
300
1-1/2" = 1'-0"
140
1.5
141
12.0
290
     0
  0
SCALE
  5
3BF
102
{ACAD_REACTORS
330
3A0
102
}
330
3A0
100
AcDbScale
 70
     0
300
3" = 1'-0"
140
3.0
141
12.0
290
     0
  0
SCALE
  5
3C0
102
{ACAD_REACTORS
330
3A0
102
}
330
3A0
100
AcDbScale
 70
     0
300
6" = 1'-0"
140
6.0
141
12.0
290
     0
  0
SCALE
  5
3C1
102
{ACAD_REACTORS
330
3A0
102
}
330
3A0
100
AcDbScale
 70
     0
300
1'-0" = 1'-0"
140
12.0
141
12.0
290
     0
  0
TABLESTYLE
  5
389
102
{ACAD_REACTORS
330
388
102
}
330
388
100
AcDbTableStyle
  3
Standard
 70
     0
 71
     0
 40
1.5
 41
1.5
280
     0
281
     0
  7
STANDARD
140
4.5
170
     2
 62
     0
 63
   257
283
     0
274
    -2
284
     1
 64
     0
275
    -2
285
     1
 65
     0
276
    -2
286
     1
 66
     0
277
    -2
287
     1
 67
     0
278
    -2
288
     1
 68
     0
279
    -2
289
     1
 69
     0
  7
STANDARD
140
6.0
170
     5
 62
     0
 63
   257
283
     0
274
    -2
284
     1
 64
     0
275
    -2
285
     1
 65
     0
276
    -2
286
     1
 66
     0
277
    -2
287
     1
 67
     0
278
    -2
288
     1
 68
     0
279
    -2
289
     1
 69
     0
  7
STANDARD
140
4.5
170
     5
 62
     0
 63
   257
283
     0
274
    -2
284
     1
 64
     0
275
    -2
285
     1
 65
     0
276
    -2
286
     1
 66
     0
277
    -2
287
     1
 67
     0
278
    -2
288
     1
 68
     0
279
    -2
289
     1
 69
     0
  0
VISUALSTYLE
  5
3CA
102
{ACAD_REACTORS
330
3C5
102
}
102
{ACAD_XDICTIONARY
360
645
102
}
330
3C5
100
AcDbVisualStyle
  2
2dWireframe
 70
     4
 71
     0
 72
     2
 73
     0
 90
        0
 40
-0.6
 41
-30.0
 62
     5
 63
     7
 74
     1
 91
        4
 64
     7
 65
   257
 75
     1
175
     1
 42
1.0
 92
        0
 66
   257
 43
1.0
 76
     1
 77
     6
 78
     2
 67
     7
 79
     5
170
     0
171
     0
290
     0
174
     0
 93
        1
 44
0.0
173
     0
291
     0
 45
0.0
1001
ACAD
1000
AcDbSavedByObjectVersion
1070
     0
  0
VISUALSTYLE
  5
3CC
102
{ACAD_REACTORS
330
3C5
102
}
102
{ACAD_XDICTIONARY
360
649
102
}
330
3C5
100
AcDbVisualStyle
  2
3D Hidden
 70
     6
 71
     1
 72
     2
 73
     2
 90
        0
 40
-0.6
 41
-30.0
 62
     5
 63
     7
 74
     2
 91
        2
 64
     7
 65
   257
 75
     2
175
     1
 42
40.0
 92
        0
 66
   257
 43
1.0
 76
     1
 77
     6
 78
     2
 67
     7
 79
     3
170
     0
171
     0
290
     0
174
     0
 93
        1
 44
0.0
173
     0
291
     0
 45
0.0
1001
ACAD
1000
AcDbSavedByObjectVersion
1070
     0
  0
VISUALSTYLE
  5
3CB
102
{ACAD_REACTORS
330
3C5
102
}
102
{ACAD_XDICTIONARY
360
647
102
}
330
3C5
100
AcDbVisualStyle
  2
3dWireframe
 70
     5
 71
     0
 72
     2
 73
     0
 90
        0
 40
-0.6
 41
-30.0
 62
     5
 63
     7
 74
     1
 91
        4
 64
     7
 65
   257
 75
     1
175
     1
 42
1.0
 92
        0
 66
   257
 43
1.0
 76
     1
 77
     6
 78
     2
 67
     7
 79
     5
170
     0
171
     0
290
     0
174
     0
 93
        1
 44
0.0
173
     0
291
     0
 45
0.0
1001
ACAD
1000
AcDbSavedByObjectVersion
1070
     0
  0
VISUALSTYLE
  5
3CD
102
{ACAD_REACTORS
330
3C5
102
}
102
{ACAD_XDICTIONARY
360
64B
102
}
330
3C5
100
AcDbVisualStyle
  2
Basic
 70
     7
 71
     1
 72
     0
 73
     1
 90
        0
 40
-0.6
 41
-30.0
 62
     5
 63
     7
 74
     0
 91
        4
 64
     7
 65
   257
 75
     1
175
     1
 42
1.0
 92
        8
 66
     7
 43
1.0
 76
     1
 77
     6
 78
     2
 67
     7
 79
     5
170
     0
171
     0
290
     0
174
     0
 93
        1
 44
0.0
173
     0
291
     1
 45
0.0
1001
ACAD
1000
AcDbSavedByObjectVersion
1070
     0
  0
VISUALSTYLE
  5
3D1
102
{ACAD_REACTORS
330
3C5
102
}
102
{ACAD_XDICTIONARY
360
653
102
}
330
3C5
100
AcDbVisualStyle
  2
Brighten
 70
    12
 71
     2
 72
     2
 73
     0
 90
        0
 40
-0.6
 41
-30.0
 62
     5
 63
     7
 74
     1
 91
        4
 64
     7
 65
   257
 75
     1
175
     1
 42
1.0
 92
        8
 66
     7
 43
1.0
 76
     1
 77
     6
 78
     2
 67
     7
 79
     5
170
     0
171
     0
290
     0
174
     0
 93
        1
 44
50.0
173
     0
291
     1
 45
0.0
1001
ACAD
1000
AcDbSavedByObjectVersion
1070
     0
  0
VISUALSTYLE
  5
3D5
102
{ACAD_REACTORS
330
3C5
102
}
102
{ACAD_XDICTIONARY
360
65B
102
}
330
3C5
100
AcDbVisualStyle
  2
ColorChange
 70
    16
 71
     2
 72
     2
 73
     3
 90
        0
 40
-0.6
 41
-30.0
 62
     5
 63
     8
 74
     1
 91
        4
 64
     7
 65
   257
 75
     1
175
     1
 42
1.0
 92
        8
 66
     8
 43
1.0
 76
     1
 77
     6
 78
     2
 67
     7
 79
     5
170
     0
171
     0
290
     0
174
     0
 93
        1
 44
0.0
173
     0
291
     1
 45
0.0
1001
ACAD
1000
AcDbSavedByObjectVersion
1070
     0
  0
VISUALSTYLE
  5
3CF
102
{ACAD_REACTORS
330
3C5
102
}
102
{ACAD_XDICTIONARY
360
64F
102
}
330
3C5
100
AcDbVisualStyle
  2
Conceptual
 70
     9
 71
     3
 72
     2
 73
     0
 90
        0
 40
-0.6
 41
-30.0
 62
     5
 63
     7
 74
     2
 91
        2
 64
     7
 65
   257
 75
     1
175
     1
 42
40.0
 92
        8
 66
     7
 43
1.0
 76
     1
 77
     6
 78
     2
 67
     7
 79
     3
170
     0
171
     0
290
     0
174
     0
 93
        1
 44
0.0
173
     0
291
     0
 45
0.0
1001
ACAD
1000
AcDbSavedByObjectVersion
1070
     0
  0
VISUALSTYLE
  5
3D0
102
{ACAD_REACTORS
330
3C5
102
}
102
{ACAD_XDICTIONARY
360
651
102
}
330
3C5
100
AcDbVisualStyle
  2
Dim
 70
    11
 71
     2
 72
     2
 73
     0
 90
        0
 40
-0.6
 41
-30.0
 62
     5
 63
     7
 74
     1
 91
        4
 64
     7
 65
   257
 75
     1
175
     1
 42
1.0
 92
        8
 66
     7
 43
1.0
 76
     1
 77
     6
 78
     2
 67
     7
 79
     5
170
     0
171
     0
290
     0
174
     0
 93
        1
 44
-50.0
173
     0
291
     1
 45
0.0
1001
ACAD
1000
AcDbSavedByObjectVersion
1070
     0
  0
VISUALSTYLE
  5
3D4
102
{ACAD_REACTORS
330
3C5
102
}
102
{ACAD_XDICTIONARY
360
659
102
}
330
3C5
100
AcDbVisualStyle
  2
Facepattern
 70
    15
 71
     2
 72
     2
 73
     0
 90
        0
 40
-0.6
 41
-30.0
 62
     5
 63
     7
 74
     1
 91
        4
 64
     7
 65
   257
 75
     1
175
     1
 42
1.0
 92
        8
 66
     7
 43
1.0
 76
     1
 77
     6
 78
     2
 67
     7
 79
     5
170
     0
171
     0
290
     0
174
     0
 93
        1
 44
0.0
173
     0
291
     1
 45
0.0
1001
ACAD
1000
AcDbSavedByObjectVersion
1070
     0
  0
VISUALSTYLE
  5
3C6
102
{ACAD_REACTORS
330
3C5
102
}
102
{ACAD_XDICTIONARY
360
63D
102
}
330
3C5
100
AcDbVisualStyle
  2
Flat
 70
     0
 71
     2
 72
     1
 73
     1
 90
        2
 40
-0.6
 41
30.0
 62
     5
 63
     7
 74
     0
 91
        4
 64
     7
 65
   257
 75
     1
175
     1
 42
1.0
 92
        8
 66
     7
 43
1.0
 76
     1
 77
     6
 78
     2
 67
     7
 79
     5
170
     0
171
     0
290
     0
174
     0
 93
       13
 44
0.0
173
     0
291
     1
 45
0.0
1001
ACAD
1000
AcDbSavedByObjectVersion
1070
     0
  0
VISUALSTYLE
  5
3C7
102
{ACAD_REACTORS
330
3C5
102
}
102
{ACAD_XDICTIONARY
360
63F
102
}
330
3C5
100
AcDbVisualStyle
  2
FlatWithEdges
 70
     1
 71
     2
 72
     1
 73
     1
 90
        2
 40
-0.6
 41
30.0
 62
     5
 63
     7
 74
     1
 91
        4
 64
     7
 65
   257
 75
     1
175
     1
 42
1.0
 92
        0
 66
   257
 43
1.0
 76
     1
 77
     6
 78
     2
 67
     7
 79
     5
170
     0
171
     0
290
     0
174
     0
 93
       13
 44
0.0
173
     0
291
     1
 45
0.0
1001
ACAD
1000
AcDbSavedByObjectVersion
1070
     0
  0
VISUALSTYLE
  5
3C8
102
{ACAD_REACTORS
330
3C5
102
}
102
{ACAD_XDICTIONARY
360
641
102
}
330
3C5
100
AcDbVisualStyle
  2
Gouraud
 70
     2
 71
     2
 72
     2
 73
     1
 90
        2
 40
-0.6
 41
30.0
 62
     5
 63
     7
 74
     0
 91
        4
 64
     7
 65
   257
 75
     1
175
     1
 42
1.0
 92
        0
 66
     7
 43
1.0
 76
     1
 77
     6
 78
     2
 67
     7
 79
     5
170
     0
171
     0
290
     0
174
     0
 93
       13
 44
0.0
173
     0
291
     1
 45
0.0
1001
ACAD
1000
AcDbSavedByObjectVersion
1070
     0
  0
VISUALSTYLE
  5
3C9
102
{ACAD_REACTORS
330
3C5
102
}
102
{ACAD_XDICTIONARY
360
643
102
}
330
3C5
100
AcDbVisualStyle
  2
GouraudWithEdges
 70
     3
 71
     2
 72
     2
 73
     1
 90
        2
 40
-0.6
 41
30.0
 62
     5
 63
     7
 74
     1
 91
        4
 64
     7
 65
   257
 75
     1
175
     1
 42
1.0
 92
        0
 66
   257
 43
1.0
 76
     1
 77
     6
 78
     2
 67
     7
 79
     5
170
     0
171
     0
290
     0
174
     0
 93
       13
 44
0.0
173
     0
291
     1
 45
0.0
1001
ACAD
1000
AcDbSavedByObjectVersion
1070
     0
  0
VISUALSTYLE
  5
3D3
102
{ACAD_REACTORS
330
3C5
102
}
102
{ACAD_XDICTIONARY
360
657
102
}
330
3C5
100
AcDbVisualStyle
  2
Linepattern
 70
    14
 71
     2
 72
     2
 73
     0
 90
        0
 40
-0.6
 41
-30.0
 62
     5
 63
     7
 74
     1
 91
        4
 64
     7
 65
   257
 75
     7
175
     7
 42
1.0
 92
        8
 66
     7
 43
1.0
 76
     1
 77
     6
 78
     2
 67
     7
 79
     5
170
     0
171
     0
290
     0
174
     0
 93
        1
 44
0.0
173
     0
291
     1
 45
0.0
1001
ACAD
1000
AcDbSavedByObjectVersion
1070
     0
  0
VISUALSTYLE
  5
3CE
102
{ACAD_REACTORS
330
3C5
102
}
102
{ACAD_XDICTIONARY
360
64D
102
}
330
3C5
100
AcDbVisualStyle
  2
Realistic
 70
     8
 71
     2
 72
     2
 73
     0
 90
        0
 40
-0.6
 41
-30.0
 62
     5
 63
     7
 74
     1
 91
        0
 64
     7
 65
   257
 75
     1
175
     1
 42
1.0
 92
        8
 66
     8
 43
1.0
 76
     1
 77
     6
 78
     2
 67
     7
 79
     5
170
     0
171
     0
290
     0
174
     0
 93
       13
 44
0.0
173
     0
291
     0
 45
0.0
1001
ACAD
1000
AcDbSavedByObjectVersion
1070
     0
  0
VISUALSTYLE
  5
3D2
102
{ACAD_REACTORS
330
3C5
102
}
102
{ACAD_XDICTIONARY
360
655
102
}
330
3C5
100
AcDbVisualStyle
  2
Thicken
 70
    13
 71
     2
 72
     2
 73
     0
 90
        0
 40
-0.6
 41
-30.0
 62
     5
 63
     7
 74
     1
 91
        4
 64
     7
 65
   257
 75
     1
175
     1
 42
1.0
 92
       12
 66
     7
 43
1.0
 76
     1
 77
     6
 78
     2
 67
     7
 79
     5
170
     0
171
     0
290
     0
174
     0
 93
        1
 44
0.0
173
     0
291
     1
 45
0.0
1001
ACAD
1000
AcDbSavedByObjectVersion
1070
     0
  0
XRECORD
  5
634
102
{ACAD_REACTORS
330
633
102
}
330
633
100
AcDbXrecord
280
     1
340
387
  0
XRECORD
  5
635
102
{ACAD_REACTORS
330
633
102
}
330
633
100
AcDbXrecord
280
     1
340
386
  0
DICTIONARYVAR
  5
636
102
{ACAD_REACTORS
330
357
102
}
330
357
100
DictionaryVariables
280
     0
  1
1:1
  0
DICTIONARYVAR
  5
38D
102
{ACAD_REACTORS
330
357
102
}
330
357
100
DictionaryVariables
280
     0
  1
Standard
  0
DICTIONARYVAR
  5
359
102
{ACAD_REACTORS
330
357
102
}
330
357
100
DictionaryVariables
280
     0
  1
2
  0
DICTIONARYVAR
  5
358
102
{ACAD_REACTORS
330
357
102
}
330
357
100
DictionaryVariables
280
     0
  1
1
  0
DICTIONARYVAR
  5
38E
102
{ACAD_REACTORS
330
357
102
}
330
357
100
DictionaryVariables
280
     0
  1

  0
DICTIONARY
  5
639
330
3C3
100
AcDbDictionary
280
     1
281
     1
  3
ACAD_XREC_ROUNDTRIP
360
63A
  0
DICTIONARY
  5
637
330
3C2
100
AcDbDictionary
280
     1
281
     1
  3
ACAD_XREC_ROUNDTRIP
360
638
  0
DICTIONARY
  5
63B
330
3C4
100
AcDbDictionary
280
     1
281
     1
  3
ACAD_XREC_ROUNDTRIP
360
63C
  0
DICTIONARY
  5
645
330
3CA
100
AcDbDictionary
280
     1
281
     1
  3
ACAD_XREC_ROUNDTRIP
360
646
  0
DICTIONARY
  5
649
330
3CC
100
AcDbDictionary
280
     1
281
     1
  3
ACAD_XREC_ROUNDTRIP
360
64A
  0
DICTIONARY
  5
647
330
3CB
100
AcDbDictionary
280
     1
281
     1
  3
ACAD_XREC_ROUNDTRIP
360
648
  0
DICTIONARY
  5
64B
330
3CD
100
AcDbDictionary
280
     1
281
     1
  3
ACAD_XREC_ROUNDTRIP
360
64C
  0
DICTIONARY
  5
653
330
3D1
100
AcDbDictionary
280
     1
281
     1
  3
ACAD_XREC_ROUNDTRIP
360
654
  0
DICTIONARY
  5
65B
330
3D5
100
AcDbDictionary
280
     1
281
     1
  3
ACAD_XREC_ROUNDTRIP
360
65C
  0
DICTIONARY
  5
64F
330
3CF
100
AcDbDictionary
280
     1
281
     1
  3
ACAD_XREC_ROUNDTRIP
360
650
  0
DICTIONARY
  5
651
330
3D0
100
AcDbDictionary
280
     1
281
     1
  3
ACAD_XREC_ROUNDTRIP
360
652
  0
DICTIONARY
  5
659
330
3D4
100
AcDbDictionary
280
     1
281
     1
  3
ACAD_XREC_ROUNDTRIP
360
65A
  0
DICTIONARY
  5
63D
330
3C6
100
AcDbDictionary
280
     1
281
     1
  3
ACAD_XREC_ROUNDTRIP
360
63E
  0
DICTIONARY
  5
63F
330
3C7
100
AcDbDictionary
280
     1
281
     1
  3
ACAD_XREC_ROUNDTRIP
360
640
  0
DICTIONARY
  5
641
330
3C8
100
AcDbDictionary
280
     1
281
     1
  3
ACAD_XREC_ROUNDTRIP
360
642
  0
DICTIONARY
  5
643
330
3C9
100
AcDbDictionary
280
     1
281
     1
  3
ACAD_XREC_ROUNDTRIP
360
644
  0
DICTIONARY
  5
657
330
3D3
100
AcDbDictionary
280
     1
281
     1
  3
ACAD_XREC_ROUNDTRIP
360
658
  0
DICTIONARY
  5
64D
330
3CE
100
AcDbDictionary
280
     1
281
     1
  3
ACAD_XREC_ROUNDTRIP
360
64E
  0
DICTIONARY
  5
655
330
3D2
100
AcDbDictionary
280
     1
281
     1
  3
ACAD_XREC_ROUNDTRIP
360
656
  0
XRECORD
  5
63A
102
{ACAD_REACTORS
330
639
102
}
330
639
100
AcDbXrecord
280
     1
102
MATERIAL
148
0.0
149
0.0
149
0.0
 93
        0
 94
      127
282
     0
 72
     1
 77
     1
171
     1
175
     1
179
     1
273
     0
  0
XRECORD
  5
638
102
{ACAD_REACTORS
330
637
102
}
330
637
100
AcDbXrecord
280
     1
102
MATERIAL
148
0.0
149
0.0
149
0.0
 93
        0
 94
      127
282
     0
 72
     1
 77
     1
171
     1
175
     1
179
     1
273
     0
  0
XRECORD
  5
63C
102
{ACAD_REACTORS
330
63B
102
}
330
63B
100
AcDbXrecord
280
     1
102
MATERIAL
148
0.0
149
0.0
149
0.0
 93
        0
 94
      127
282
     0
 72
     1
 77
     1
171
     1
175
     1
179
     1
273
     0
  0
XRECORD
  5
646
102
{ACAD_REACTORS
330
645
102
}
330
645
100
AcDbXrecord
280
     1
102
RTVSPropertyOp0
 70
     1
102
RTVSPropertyOp1
 70
     1
102
RTVSPropertyOp2
 70
     1
102
RTVSPropertyOp3
 70
     1
102
RTVSPropertyOp4
 70
     1
102
RTVSPropertyOp5
 70
     1
102
RTVSPropertyOp6
 70
     1
102
RTVSPropertyOp7
 70
     1
102
RTVSPropertyOp8
 70
     1
102
RTVSPropertyOp9
 70
     1
102
RTVSPropertyOp10
 70
     1
102
RTVSPropertyOp11
 70
     1
102
RTVSPropertyOp12
 70
     1
102
RTVSPropertyOp13
 70
     1
102
RTVSPropertyOp14
 70
     1
102
RTVSPropertyOp15
 70
     1
102
RTVSPropertyOp16
 70
     1
102
RTVSPropertyOp17
 70
     1
102
RTVSPropertyOp18
 70
     1
102
RTVSPropertyOp19
 70
     1
102
RTVSPropertyOp20
 70
     1
102
RTVSPropertyOp21
 70
     1
102
RTVSPropertyOp22
 70
     1
102
RTVSPropertyOp23
 70
     1
102
RTVSPropertyOp24
 70
     1
102
RTVSPropertyOp25
 70
     1
102
RTVSPropertyOp26
 70
     1
102
RTVSPropertyOp27
 70
     1
102
RTVSPropertyOp28
 70
     1
102
RTVSPropertyOp29
 70
     1
102
RTVSPropertyOp30
 70
     1
102
RTVSPropertyOp31
 70
     1
102
RTVSPropertyOp32
 70
     1
  0
XRECORD
  5
64A
102
{ACAD_REACTORS
330
649
102
}
330
649
100
AcDbXrecord
280
     1
102
RTVSPropertyOp0
 70
     1
102
RTVSPropertyOp1
 70
     1
102
RTVSPropertyOp2
 70
     1
102
RTVSPropertyOp3
 70
     1
102
RTVSPropertyOp4
 70
     1
102
RTVSPropertyOp5
 70
     1
102
RTVSPropertyOp6
 70
     1
102
RTVSPropertyOp7
 70
     1
102
RTVSPropertyOp8
 70
     1
102
RTVSPropertyOp9
 70
     1
102
RTVSPropertyOp10
 70
     1
102
RTVSPropertyOp11
 70
     1
102
RTVSPropertyOp12
 70
     1
102
RTVSPropertyOp13
 70
     1
102
RTVSPropertyOp14
 70
     1
102
RTVSPropertyOp15
 70
     1
102
RTVSPropertyOp16
 70
     1
102
RTVSPropertyOp17
 70
     1
102
RTVSPropertyOp18
 70
     1
102
RTVSPropertyOp19
 70
     1
102
RTVSPropertyOp20
 70
     1
102
RTVSPropertyOp21
 70
     1
102
RTVSPropertyOp22
 70
     1
102
RTVSPropertyOp23
 70
     1
102
RTVSPropertyOp24
 70
     1
102
RTVSPropertyOp25
 70
     1
102
RTVSPropertyOp26
 70
     1
102
RTVSPropertyOp27
 70
     1
102
RTVSPropertyOp28
 70
     1
102
RTVSPropertyOp29
 70
     1
102
RTVSPropertyOp30
 70
     1
102
RTVSPropertyOp31
 70
     1
102
RTVSPropertyOp32
 70
     1
  0
XRECORD
  5
648
102
{ACAD_REACTORS
330
647
102
}
330
647
100
AcDbXrecord
280
     1
102
RTVSPropertyOp0
 70
     1
102
RTVSPropertyOp1
 70
     1
102
RTVSPropertyOp2
 70
     1
102
RTVSPropertyOp3
 70
     1
102
RTVSPropertyOp4
 70
     1
102
RTVSPropertyOp5
 70
     1
102
RTVSPropertyOp6
 70
     1
102
RTVSPropertyOp7
 70
     1
102
RTVSPropertyOp8
 70
     1
102
RTVSPropertyOp9
 70
     1
102
RTVSPropertyOp10
 70
     1
102
RTVSPropertyOp11
 70
     1
102
RTVSPropertyOp12
 70
     1
102
RTVSPropertyOp13
 70
     1
102
RTVSPropertyOp14
 70
     1
102
RTVSPropertyOp15
 70
     1
102
RTVSPropertyOp16
 70
     1
102
RTVSPropertyOp17
 70
     1
102
RTVSPropertyOp18
 70
     1
102
RTVSPropertyOp19
 70
     1
102
RTVSPropertyOp20
 70
     1
102
RTVSPropertyOp21
 70
     1
102
RTVSPropertyOp22
 70
     1
102
RTVSPropertyOp23
 70
     1
102
RTVSPropertyOp24
 70
     1
102
RTVSPropertyOp25
 70
     1
102
RTVSPropertyOp26
 70
     1
102
RTVSPropertyOp27
 70
     1
102
RTVSPropertyOp28
 70
     1
102
RTVSPropertyOp29
 70
     1
102
RTVSPropertyOp30
 70
     1
102
RTVSPropertyOp31
 70
     1
102
RTVSPropertyOp32
 70
     1
  0
XRECORD
  5
64C
102
{ACAD_REACTORS
330
64B
102
}
330
64B
100
AcDbXrecord
280
     1
102
RTVSPropertyOp0
 70
     1
102
RTVSPropertyOp1
 70
     1
102
RTVSPropertyOp2
 70
     1
102
RTVSPropertyOp3
 70
     1
102
RTVSPropertyOp4
 70
     1
102
RTVSPropertyOp5
 70
     1
102
RTVSPropertyOp6
 70
     1
102
RTVSPropertyOp7
 70
     1
102
RTVSPropertyOp8
 70
     1
102
RTVSPropertyOp9
 70
     1
102
RTVSPropertyOp10
 70
     1
102
RTVSPropertyOp11
 70
     1
102
RTVSPropertyOp12
 70
     1
102
RTVSPropertyOp13
 70
     1
102
RTVSPropertyOp14
 70
     1
102
RTVSPropertyOp15
 70
     1
102
RTVSPropertyOp16
 70
     1
102
RTVSPropertyOp17
 70
     1
102
RTVSPropertyOp18
 70
     1
102
RTVSPropertyOp19
 70
     1
102
RTVSPropertyOp20
 70
     1
102
RTVSPropertyOp21
 70
     1
102
RTVSPropertyOp22
 70
     1
102
RTVSPropertyOp23
 70
     1
102
RTVSPropertyOp24
 70
     1
102
RTVSPropertyOp25
 70
     1
102
RTVSPropertyOp26
 70
     1
102
RTVSPropertyOp27
 70
     1
102
RTVSPropertyOp28
 70
     1
102
RTVSPropertyOp29
 70
     1
102
RTVSPropertyOp30
 70
     1
102
RTVSPropertyOp31
 70
     1
102
RTVSPropertyOp32
 70
     1
  0
XRECORD
  5
654
102
{ACAD_REACTORS
330
653
102
}
330
653
100
AcDbXrecord
280
     1
102
RTVSPropertyOp0
 70
     1
102
RTVSPropertyOp1
 70
     1
102
RTVSPropertyOp2
 70
     1
102
RTVSPropertyOp3
 70
     1
102
RTVSPropertyOp4
 70
     1
102
RTVSPropertyOp5
 70
     1
102
RTVSPropertyOp6
 70
     1
102
RTVSPropertyOp7
 70
     1
102
RTVSPropertyOp8
 70
     1
102
RTVSPropertyOp9
 70
     1
102
RTVSPropertyOp10
 70
     1
102
RTVSPropertyOp11
 70
     1
102
RTVSPropertyOp12
 70
     1
102
RTVSPropertyOp13
 70
     1
102
RTVSPropertyOp14
 70
     1
102
RTVSPropertyOp15
 70
     1
102
RTVSPropertyOp16
 70
     1
102
RTVSPropertyOp17
 70
     1
102
RTVSPropertyOp18
 70
     1
102
RTVSPropertyOp19
 70
     1
102
RTVSPropertyOp20
 70
     1
102
RTVSPropertyOp21
 70
     1
102
RTVSPropertyOp22
 70
     1
102
RTVSPropertyOp23
 70
     1
102
RTVSPropertyOp24
 70
     1
102
RTVSPropertyOp25
 70
     1
102
RTVSPropertyOp26
 70
     1
102
RTVSPropertyOp27
 70
     1
102
RTVSPropertyOp28
 70
     1
102
RTVSPropertyOp29
 70
     1
102
RTVSPropertyOp30
 70
     1
102
RTVSPropertyOp31
 70
     1
102
RTVSPropertyOp32
 70
     1
  0
XRECORD
  5
65C
102
{ACAD_REACTORS
330
65B
102
}
330
65B
100
AcDbXrecord
280
     1
102
RTVSPropertyOp0
 70
     1
102
RTVSPropertyOp1
 70
     1
102
RTVSPropertyOp2
 70
     1
102
RTVSPropertyOp3
 70
     1
102
RTVSPropertyOp4
 70
     1
102
RTVSPropertyOp5
 70
     1
102
RTVSPropertyOp6
 70
     1
102
RTVSPropertyOp7
 70
     1
102
RTVSPropertyOp8
 70
     1
102
RTVSPropertyOp9
 70
     1
102
RTVSPropertyOp10
 70
     1
102
RTVSPropertyOp11
 70
     1
102
RTVSPropertyOp12
 70
     1
102
RTVSPropertyOp13
 70
     1
102
RTVSPropertyOp14
 70
     1
102
RTVSPropertyOp15
 70
     1
102
RTVSPropertyOp16
 70
     1
102
RTVSPropertyOp17
 70
     1
102
RTVSPropertyOp18
 70
     1
102
RTVSPropertyOp19
 70
     1
102
RTVSPropertyOp20
 70
     1
102
RTVSPropertyOp21
 70
     1
102
RTVSPropertyOp22
 70
     1
102
RTVSPropertyOp23
 70
     1
102
RTVSPropertyOp24
 70
     1
102
RTVSPropertyOp25
 70
     1
102
RTVSPropertyOp26
 70
     1
102
RTVSPropertyOp27
 70
     1
102
RTVSPropertyOp28
 70
     1
102
RTVSPropertyOp29
 70
     1
102
RTVSPropertyOp30
 70
     1
102
RTVSPropertyOp31
 70
     1
102
RTVSPropertyOp32
 70
     1
  0
XRECORD
  5
650
102
{ACAD_REACTORS
330
64F
102
}
330
64F
100
AcDbXrecord
280
     1
102
RTVSPropertyOp0
 70
     1
102
RTVSPropertyOp1
 70
     1
102
RTVSPropertyOp2
 70
     1
102
RTVSPropertyOp3
 70
     1
102
RTVSPropertyOp4
 70
     1
102
RTVSPropertyOp5
 70
     1
102
RTVSPropertyOp6
 70
     1
102
RTVSPropertyOp7
 70
     1
102
RTVSPropertyOp8
 70
     1
102
RTVSPropertyOp9
 70
     1
102
RTVSPropertyOp10
 70
     1
102
RTVSPropertyOp11
 70
     1
102
RTVSPropertyOp12
 70
     1
102
RTVSPropertyOp13
 70
     1
102
RTVSPropertyOp14
 70
     1
102
RTVSPropertyOp15
 70
     1
102
RTVSPropertyOp16
 70
     1
102
RTVSPropertyOp17
 70
     1
102
RTVSPropertyOp18
 70
     1
102
RTVSPropertyOp19
 70
     1
102
RTVSPropertyOp20
 70
     1
102
RTVSPropertyOp21
 70
     1
102
RTVSPropertyOp22
 70
     1
102
RTVSPropertyOp23
 70
     1
102
RTVSPropertyOp24
 70
     1
102
RTVSPropertyOp25
 70
     1
102
RTVSPropertyOp26
 70
     1
102
RTVSPropertyOp27
 70
     1
102
RTVSPropertyOp28
 70
     1
102
RTVSPropertyOp29
 70
     1
102
RTVSPropertyOp30
 70
     1
102
RTVSPropertyOp31
 70
     1
102
RTVSPropertyOp32
 70
     1
  0
XRECORD
  5
652
102
{ACAD_REACTORS
330
651
102
}
330
651
100
AcDbXrecord
280
     1
102
RTVSPropertyOp0
 70
     1
102
RTVSPropertyOp1
 70
     1
102
RTVSPropertyOp2
 70
     1
102
RTVSPropertyOp3
 70
     1
102
RTVSPropertyOp4
 70
     1
102
RTVSPropertyOp5
 70
     1
102
RTVSPropertyOp6
 70
     1
102
RTVSPropertyOp7
 70
     1
102
RTVSPropertyOp8
 70
     1
102
RTVSPropertyOp9
 70
     1
102
RTVSPropertyOp10
 70
     1
102
RTVSPropertyOp11
 70
     1
102
RTVSPropertyOp12
 70
     1
102
RTVSPropertyOp13
 70
     1
102
RTVSPropertyOp14
 70
     1
102
RTVSPropertyOp15
 70
     1
102
RTVSPropertyOp16
 70
     1
102
RTVSPropertyOp17
 70
     1
102
RTVSPropertyOp18
 70
     1
102
RTVSPropertyOp19
 70
     1
102
RTVSPropertyOp20
 70
     1
102
RTVSPropertyOp21
 70
     1
102
RTVSPropertyOp22
 70
     1
102
RTVSPropertyOp23
 70
     1
102
RTVSPropertyOp24
 70
     1
102
RTVSPropertyOp25
 70
     1
102
RTVSPropertyOp26
 70
     1
102
RTVSPropertyOp27
 70
     1
102
RTVSPropertyOp28
 70
     1
102
RTVSPropertyOp29
 70
     1
102
RTVSPropertyOp30
 70
     1
102
RTVSPropertyOp31
 70
     1
102
RTVSPropertyOp32
 70
     1
  0
XRECORD
  5
65A
102
{ACAD_REACTORS
330
659
102
}
330
659
100
AcDbXrecord
280
     1
102
RTVSPropertyOp0
 70
     1
102
RTVSPropertyOp1
 70
     1
102
RTVSPropertyOp2
 70
     1
102
RTVSPropertyOp3
 70
     1
102
RTVSPropertyOp4
 70
     1
102
RTVSPropertyOp5
 70
     1
102
RTVSPropertyOp6
 70
     1
102
RTVSPropertyOp7
 70
     1
102
RTVSPropertyOp8
 70
     1
102
RTVSPropertyOp9
 70
     1
102
RTVSPropertyOp10
 70
     1
102
RTVSPropertyOp11
 70
     1
102
RTVSPropertyOp12
 70
     1
102
RTVSPropertyOp13
 70
     1
102
RTVSPropertyOp14
 70
     1
102
RTVSPropertyOp15
 70
     1
102
RTVSPropertyOp16
 70
     1
102
RTVSPropertyOp17
 70
     1
102
RTVSPropertyOp18
 70
     1
102
RTVSPropertyOp19
 70
     1
102
RTVSPropertyOp20
 70
     1
102
RTVSPropertyOp21
 70
     1
102
RTVSPropertyOp22
 70
     1
102
RTVSPropertyOp23
 70
     1
102
RTVSPropertyOp24
 70
     1
102
RTVSPropertyOp25
 70
     1
102
RTVSPropertyOp26
 70
     1
102
RTVSPropertyOp27
 70
     1
102
RTVSPropertyOp28
 70
     1
102
RTVSPropertyOp29
 70
     1
102
RTVSPropertyOp30
 70
     1
102
RTVSPropertyOp31
 70
     1
102
RTVSPropertyOp32
 70
     1
  0
XRECORD
  5
63E
102
{ACAD_REACTORS
330
63D
102
}
330
63D
100
AcDbXrecord
280
     1
102
RTVSPropertyOp0
 70
     1
102
RTVSPropertyOp1
 70
     1
102
RTVSPropertyOp2
 70
     1
102
RTVSPropertyOp3
 70
     1
102
RTVSPropertyOp4
 70
     1
102
RTVSPropertyOp5
 70
     1
102
RTVSPropertyOp6
 70
     1
102
RTVSPropertyOp7
 70
     1
102
RTVSPropertyOp8
 70
     1
102
RTVSPropertyOp9
 70
     1
102
RTVSPropertyOp10
 70
     1
102
RTVSPropertyOp11
 70
     1
102
RTVSPropertyOp12
 70
     1
102
RTVSPropertyOp13
 70
     1
102
RTVSPropertyOp14
 70
     1
102
RTVSPropertyOp15
 70
     1
102
RTVSPropertyOp16
 70
     1
102
RTVSPropertyOp17
 70
     1
102
RTVSPropertyOp18
 70
     1
102
RTVSPropertyOp19
 70
     1
102
RTVSPropertyOp20
 70
     1
102
RTVSPropertyOp21
 70
     1
102
RTVSPropertyOp22
 70
     1
102
RTVSPropertyOp23
 70
     1
102
RTVSPropertyOp24
 70
     1
102
RTVSPropertyOp25
 70
     1
102
RTVSPropertyOp26
 70
     1
102
RTVSPropertyOp27
 70
     1
102
RTVSPropertyOp28
 70
     1
102
RTVSPropertyOp29
 70
     1
102
RTVSPropertyOp30
 70
     1
102
RTVSPropertyOp31
 70
     1
102
RTVSPropertyOp32
 70
     1
  0
XRECORD
  5
640
102
{ACAD_REACTORS
330
63F
102
}
330
63F
100
AcDbXrecord
280
     1
102
RTVSPropertyOp0
 70
     1
102
RTVSPropertyOp1
 70
     1
102
RTVSPropertyOp2
 70
     1
102
RTVSPropertyOp3
 70
     1
102
RTVSPropertyOp4
 70
     1
102
RTVSPropertyOp5
 70
     1
102
RTVSPropertyOp6
 70
     1
102
RTVSPropertyOp7
 70
     1
102
RTVSPropertyOp8
 70
     1
102
RTVSPropertyOp9
 70
     1
102
RTVSPropertyOp10
 70
     1
102
RTVSPropertyOp11
 70
     1
102
RTVSPropertyOp12
 70
     1
102
RTVSPropertyOp13
 70
     1
102
RTVSPropertyOp14
 70
     1
102
RTVSPropertyOp15
 70
     1
102
RTVSPropertyOp16
 70
     1
102
RTVSPropertyOp17
 70
     1
102
RTVSPropertyOp18
 70
     1
102
RTVSPropertyOp19
 70
     1
102
RTVSPropertyOp20
 70
     1
102
RTVSPropertyOp21
 70
     1
102
RTVSPropertyOp22
 70
     1
102
RTVSPropertyOp23
 70
     1
102
RTVSPropertyOp24
 70
     1
102
RTVSPropertyOp25
 70
     1
102
RTVSPropertyOp26
 70
     1
102
RTVSPropertyOp27
 70
     1
102
RTVSPropertyOp28
 70
     1
102
RTVSPropertyOp29
 70
     1
102
RTVSPropertyOp30
 70
     1
102
RTVSPropertyOp31
 70
     1
102
RTVSPropertyOp32
 70
     1
  0
XRECORD
  5
642
102
{ACAD_REACTORS
330
641
102
}
330
641
100
AcDbXrecord
280
     1
102
RTVSPropertyOp0
 70
     1
102
RTVSPropertyOp1
 70
     1
102
RTVSPropertyOp2
 70
     1
102
RTVSPropertyOp3
 70
     1
102
RTVSPropertyOp4
 70
     1
102
RTVSPropertyOp5
 70
     1
102
RTVSPropertyOp6
 70
     1
102
RTVSPropertyOp7
 70
     1
102
RTVSPropertyOp8
 70
     1
102
RTVSPropertyOp9
 70
     1
102
RTVSPropertyOp10
 70
     1
102
RTVSPropertyOp11
 70
     1
102
RTVSPropertyOp12
 70
     1
102
RTVSPropertyOp13
 70
     1
102
RTVSPropertyOp14
 70
     1
102
RTVSPropertyOp15
 70
     1
102
RTVSPropertyOp16
 70
     1
102
RTVSPropertyOp17
 70
     1
102
RTVSPropertyOp18
 70
     1
102
RTVSPropertyOp19
 70
     1
102
RTVSPropertyOp20
 70
     1
102
RTVSPropertyOp21
 70
     1
102
RTVSPropertyOp22
 70
     1
102
RTVSPropertyOp23
 70
     1
102
RTVSPropertyOp24
 70
     1
102
RTVSPropertyOp25
 70
     1
102
RTVSPropertyOp26
 70
     1
102
RTVSPropertyOp27
 70
     1
102
RTVSPropertyOp28
 70
     1
102
RTVSPropertyOp29
 70
     1
102
RTVSPropertyOp30
 70
     1
102
RTVSPropertyOp31
 70
     1
102
RTVSPropertyOp32
 70
     1
  0
XRECORD
  5
644
102
{ACAD_REACTORS
330
643
102
}
330
643
100
AcDbXrecord
280
     1
102
RTVSPropertyOp0
 70
     1
102
RTVSPropertyOp1
 70
     1
102
RTVSPropertyOp2
 70
     1
102
RTVSPropertyOp3
 70
     1
102
RTVSPropertyOp4
 70
     1
102
RTVSPropertyOp5
 70
     1
102
RTVSPropertyOp6
 70
     1
102
RTVSPropertyOp7
 70
     1
102
RTVSPropertyOp8
 70
     1
102
RTVSPropertyOp9
 70
     1
102
RTVSPropertyOp10
 70
     1
102
RTVSPropertyOp11
 70
     1
102
RTVSPropertyOp12
 70
     1
102
RTVSPropertyOp13
 70
     1
102
RTVSPropertyOp14
 70
     1
102
RTVSPropertyOp15
 70
     1
102
RTVSPropertyOp16
 70
     1
102
RTVSPropertyOp17
 70
     1
102
RTVSPropertyOp18
 70
     1
102
RTVSPropertyOp19
 70
     1
102
RTVSPropertyOp20
 70
     1
102
RTVSPropertyOp21
 70
     1
102
RTVSPropertyOp22
 70
     1
102
RTVSPropertyOp23
 70
     1
102
RTVSPropertyOp24
 70
     1
102
RTVSPropertyOp25
 70
     1
102
RTVSPropertyOp26
 70
     1
102
RTVSPropertyOp27
 70
     1
102
RTVSPropertyOp28
 70
     1
102
RTVSPropertyOp29
 70
     1
102
RTVSPropertyOp30
 70
     1
102
RTVSPropertyOp31
 70
     1
102
RTVSPropertyOp32
 70
     1
  0
XRECORD
  5
658
102
{ACAD_REACTORS
330
657
102
}
330
657
100
AcDbXrecord
280
     1
102
RTVSPropertyOp0
 70
     1
102
RTVSPropertyOp1
 70
     1
102
RTVSPropertyOp2
 70
     1
102
RTVSPropertyOp3
 70
     1
102
RTVSPropertyOp4
 70
     1
102
RTVSPropertyOp5
 70
     1
102
RTVSPropertyOp6
 70
     1
102
RTVSPropertyOp7
 70
     1
102
RTVSPropertyOp8
 70
     1
102
RTVSPropertyOp9
 70
     1
102
RTVSPropertyOp10
 70
     1
102
RTVSPropertyOp11
 70
     1
102
RTVSPropertyOp12
 70
     1
102
RTVSPropertyOp13
 70
     1
102
RTVSPropertyOp14
 70
     1
102
RTVSPropertyOp15
 70
     1
102
RTVSPropertyOp16
 70
     1
102
RTVSPropertyOp17
 70
     1
102
RTVSPropertyOp18
 70
     1
102
RTVSPropertyOp19
 70
     1
102
RTVSPropertyOp20
 70
     1
102
RTVSPropertyOp21
 70
     1
102
RTVSPropertyOp22
 70
     1
102
RTVSPropertyOp23
 70
     1
102
RTVSPropertyOp24
 70
     1
102
RTVSPropertyOp25
 70
     1
102
RTVSPropertyOp26
 70
     1
102
RTVSPropertyOp27
 70
     1
102
RTVSPropertyOp28
 70
     1
102
RTVSPropertyOp29
 70
     1
102
RTVSPropertyOp30
 70
     1
102
RTVSPropertyOp31
 70
     1
102
RTVSPropertyOp32
 70
     1
  0
XRECORD
  5
64E
102
{ACAD_REACTORS
330
64D
102
}
330
64D
100
AcDbXrecord
280
     1
102
RTVSPropertyOp0
 70
     1
102
RTVSPropertyOp1
 70
     1
102
RTVSPropertyOp2
 70
     1
102
RTVSPropertyOp3
 70
     1
102
RTVSPropertyOp4
 70
     1
102
RTVSPropertyOp5
 70
     1
102
RTVSPropertyOp6
 70
     1
102
RTVSPropertyOp7
 70
     1
102
RTVSPropertyOp8
 70
     1
102
RTVSPropertyOp9
 70
     1
102
RTVSPropertyOp10
 70
     1
102
RTVSPropertyOp11
 70
     1
102
RTVSPropertyOp12
 70
     1
102
RTVSPropertyOp13
 70
     1
102
RTVSPropertyOp14
 70
     1
102
RTVSPropertyOp15
 70
     1
102
RTVSPropertyOp16
 70
     1
102
RTVSPropertyOp17
 70
     1
102
RTVSPropertyOp18
 70
     1
102
RTVSPropertyOp19
 70
     1
102
RTVSPropertyOp20
 70
     1
102
RTVSPropertyOp21
 70
     1
102
RTVSPropertyOp22
 70
     1
102
RTVSPropertyOp23
 70
     1
102
RTVSPropertyOp24
 70
     1
102
RTVSPropertyOp25
 70
     1
102
RTVSPropertyOp26
 70
     1
102
RTVSPropertyOp27
 70
     1
102
RTVSPropertyOp28
 70
     1
102
RTVSPropertyOp29
 70
     1
102
RTVSPropertyOp30
 70
     1
102
RTVSPropertyOp31
 70
     1
102
RTVSPropertyOp32
 70
     1
  0
XRECORD
  5
656
102
{ACAD_REACTORS
330
655
102
}
330
655
100
AcDbXrecord
280
     1
102
RTVSPropertyOp0
 70
     1
102
RTVSPropertyOp1
 70
     1
102
RTVSPropertyOp2
 70
     1
102
RTVSPropertyOp3
 70
     1
102
RTVSPropertyOp4
 70
     1
102
RTVSPropertyOp5
 70
     1
102
RTVSPropertyOp6
 70
     1
102
RTVSPropertyOp7
 70
     1
102
RTVSPropertyOp8
 70
     1
102
RTVSPropertyOp9
 70
     1
102
RTVSPropertyOp10
 70
     1
102
RTVSPropertyOp11
 70
     1
102
RTVSPropertyOp12
 70
     1
102
RTVSPropertyOp13
 70
     1
102
RTVSPropertyOp14
 70
     1
102
RTVSPropertyOp15
 70
     1
102
RTVSPropertyOp16
 70
     1
102
RTVSPropertyOp17
 70
     1
102
RTVSPropertyOp18
 70
     1
102
RTVSPropertyOp19
 70
     1
102
RTVSPropertyOp20
 70
     1
102
RTVSPropertyOp21
 70
     1
102
RTVSPropertyOp22
 70
     1
102
RTVSPropertyOp23
 70
     1
102
RTVSPropertyOp24
 70
     1
102
RTVSPropertyOp25
 70
     1
102
RTVSPropertyOp26
 70
     1
102
RTVSPropertyOp27
 70
     1
102
RTVSPropertyOp28
 70
     1
102
RTVSPropertyOp29
 70
     1
102
RTVSPropertyOp30
 70
     1
102
RTVSPropertyOp31
 70
     1
102
RTVSPropertyOp32
 70
     1
  0
ENDSEC
  0
EOF
