  0
SECTION
  2
HEADER
  9
$ACADVER
  1
AC1015
  9
$ACADMAINTVER
 70
     6
  9
$DWGCODEPAGE
  3
ANSI_1252
  9
$INSBASE
 10
0.0
 20
0.0
 30
0.0
  9
$EXTMIN
 10
1.000000000000000E+20
 20
1.000000000000000E+20
 30
1.000000000000000E+20
  9
$EXTMAX
 10
-1.000000000000000E+20
 20
-1.000000000000000E+20
 30
-1.000000000000000E+20
  9
$LIMMIN
 10
-170.0
 20
-170.0
  9
$LIMMAX
 10
519.0
 20
260.0
  9
$ORTHOMODE
 70
     0
  9
$REGENMODE
 70
     1
  9
$FILLMODE
 70
     1
  9
$QTEXTMODE
 70
     0
  9
$MIRRTEXT
 70
     0
  9
$LTSCALE
 40
1.0
  9
$ATTMODE
 70
     1
  9
$TEXTSIZE
 40
3.5
  9
$TRACEWID
 40
1.0
  9
$TEXTSTYLE
  7
SIMPLEX
  9
$CLAYER
  8
1
  9
$CELTYPE
  6
BYLAYER
  9
$CECOLOR
 62
   256
  9
$CELTSCALE
 40
1.0
  9
$DISPSILH
 70
     0
  9
$DIMSCALE
 40
1.0
  9
$DIMASZ
 40
2.5
  9
$DIMEXO
 40
0.0
  9
$DIMDLI
 40
3.75
  9
$DIMRND
 40
0.0
  9
$DIMDLE
 40
0.0
  9
$DIMEXE
 40
1.25
  9
$DIMTP
 40
0.0
  9
$DIMTM
 40
0.0
  9
$DIMTXT
 40
3.5
  9
$DIMCEN
 40
0.0
  9
$DIMTSZ
 40
0.0
  9
$DIMTOL
 70
     0
  9
$DIMLIM
 70
     0
  9
$DIMTIH
 70
     0
  9
$DIMTOH
 70
     0
  9
$DIMSE1
 70
     0
  9
$DIMSE2
 70
     0
  9
$DIMTAD
 70
     1
  9
$DIMZIN
 70
     8
  9
$DIMBLK
  1

  9
$DIMASO
 70
     1
  9
$DIMSHO
 70
     1
  9
$DIMPOST
  1

  9
$DIMAPOST
  1

  9
$DIMALT
 70
     0
  9
$DIMALTD
 70
     3
  9
$DIMALTF
 40
0.039370078
  9
$DIMLFAC
 40
1.0
  9
$DIMTOFL
 70
     0
  9
$DIMTVP
 40
0.0
  9
$DIMTIX
 70
     0
  9
$DIMSOXD
 70
     0
  9
$DIMSAH
 70
     0
  9
$DIMBLK1
  1

  9
$DIMBLK2
  1

  9
$DIMSTYLE
  2
STANDARD
  9
$DIMCLRD
 70
     0
  9
$DIMCLRE
 70
     0
  9
$DIMCLRT
 70
     0
  9
$DIMTFAC
 40
1.0
  9
$DIMGAP
 40
0.625
  9
$DIMJUST
 70
     0
  9
$DIMSD1
 70
     0
  9
$DIMSD2
 70
     0
  9
$DIMTOLJ
 70
     0
  9
$DIMTZIN
 70
     8
  9
$DIMALTZ
 70
     0
  9
$DIMALTTZ
 70
     0
  9
$DIMUPT
 70
     0
  9
$DIMDEC
 70
     2
  9
$DIMTDEC
 70
     2
  9
$DIMALTU
 70
     2
  9
$DIMALTTD
 70
     3
  9
$DIMTXSTY
  7
SIMPLEX
  9
$DIMAUNIT
 70
     0
  9
$DIMADEC
 70
     2
  9
$DIMALTRND
 40
0.0
  9
$DIMAZIN
 70
     2
  9
$DIMDSEP
 70
    46
  9
$DIMATFIT
 70
     3
  9
$DIMFRAC
 70
     0
  9
$DIMLDRBLK
  1

  9
$DIMLUNIT
 70
     2
  9
$DIMLWD
 70
    -2
  9
$DIMLWE
 70
    -2
  9
$DIMTMOVE
 70
     0
  9
$LUNITS
 70
     2
  9
$LUPREC
 70
     4
  9
$SKETCHINC
 40
1.0
  9
$FILLETRAD
 40
0.0
  9
$AUNITS
 70
     0
  9
$AUPREC
 70
     0
  9
$MENU
  1
c:\tdm21\cad\caduti13\tdm13
  9
$ELEVATION
 40
0.0
  9
$PELEVATION
 40
0.0
  9
$THICKNESS
 40
0.0
  9
$LIMCHECK
 70
     0
  9
$CHAMFERA
 40
0.0
  9
$CHAMFERB
 40
0.0
  9
$CHAMFERC
 40
0.0
  9
$CHAMFERD
 40
0.0
  9
$SKPOLY
 70
     0
  9
$TDCREATE
 40
2454957.593642639
  9
$TDUCREATE
 40
2454957.510309306
  9
$TDUPDATE
 40
2456861.370476447
  9
$TDUUPDATE
 40
2456861.287143114
  9
$TDINDWG
 40
0.0009643519
  9
$TDUSRTIMER
 40
0.0009475231
  9
$USRTIMER
 70
     1
  9
$ANGBASE
 50
0.0
  9
$ANGDIR
 70
     0
  9
$PDMODE
 70
     1
  9
$PDSIZE
 40
0.0
  9
$PLINEWID
 40
0.0
  9
$SPLFRAME
 70
     0
  9
$SPLINETYPE
 70
     6
  9
$SPLINESEGS
 70
     8
  9
$HANDSEED
  5
5A5
  9
$SURFTAB1
 70
     6
  9
$SURFTAB2
 70
     6
  9
$SURFTYPE
 70
     6
  9
$SURFU
 70
     6
  9
$SURFV
 70
     6
  9
$UCSBASE
  2

  9
$UCSNAME
  2

  9
$UCSORG
 10
0.0
 20
0.0
 30
0.0
  9
$UCSXDIR
 10
1.0
 20
0.0
 30
0.0
  9
$UCSYDIR
 10
0.0
 20
1.0
 30
0.0
  9
$UCSORTHOREF
  2

  9
$UCSORTHOVIEW
 70
     0
  9
$UCSORGTOP
 10
0.0
 20
0.0
 30
0.0
  9
$UCSORGBOTTOM
 10
0.0
 20
0.0
 30
0.0
  9
$UCSORGLEFT
 10
0.0
 20
0.0
 30
0.0
  9
$UCSORGRIGHT
 10
0.0
 20
0.0
 30
0.0
  9
$UCSORGFRONT
 10
0.0
 20
0.0
 30
0.0
  9
$UCSORGBACK
 10
0.0
 20
0.0
 30
0.0
  9
$PUCSBASE
  2

  9
$PUCSNAME
  2

  9
$PUCSORG
 10
0.0
 20
0.0
 30
0.0
  9
$PUCSXDIR
 10
1.0
 20
0.0
 30
0.0
  9
$PUCSYDIR
 10
0.0
 20
1.0
 30
0.0
  9
$PUCSORTHOREF
  2

  9
$PUCSORTHOVIEW
 70
     0
  9
$PUCSORGTOP
 10
0.0
 20
0.0
 30
0.0
  9
$PUCSORGBOTTOM
 10
0.0
 20
0.0
 30
0.0
  9
$PUCSORGLEFT
 10
0.0
 20
0.0
 30
0.0
  9
$PUCSORGRIGHT
 10
0.0
 20
0.0
 30
0.0
  9
$PUCSORGFRONT
 10
0.0
 20
0.0
 30
0.0
  9
$PUCSORGBACK
 10
0.0
 20
0.0
 30
0.0
  9
$USERI1
 70
     0
  9
$USERI2
 70
     0
  9
$USERI3
 70
     0
  9
$USERI4
 70
     0
  9
$USERI5
 70
     0
  9
$USERR1
 40
0.0
  9
$USERR2
 40
0.0
  9
$USERR3
 40
0.0
  9
$USERR4
 40
0.0
  9
$USERR5
 40
0.0
  9
$WORLDVIEW
 70
     1
  9
$SHADEDGE
 70
     3
  9
$SHADEDIF
 70
    70
  9
$TILEMODE
 70
     1
  9
$MAXACTVP
 70
    64
  9
$PINSBASE
 10
0.0
 20
0.0
 30
0.0
  9
$PLIMCHECK
 70
     0
  9
$PEXTMIN
 10
0.0
 20
0.0
 30
0.0
  9
$PEXTMAX
 10
0.0
 20
0.0
 30
0.0
  9
$PLIMMIN
 10
0.0
 20
0.0
  9
$PLIMMAX
 10
12.0
 20
9.0
  9
$UNITMODE
 70
     0
  9
$VISRETAIN
 70
     0
  9
$PLINEGEN
 70
     0
  9
$PSLTSCALE
 70
     1
  9
$TREEDEPTH
 70
  3020
  9
$CMLSTYLE
  2
STANDARD
  9
$CMLJUST
 70
     0
  9
$CMLSCALE
 40
20.0
  9
$PROXYGRAPHICS
 70
     1
  9
$MEASUREMENT
 70
     1
  9
$CELWEIGHT
370
    -1
  9
$ENDCAPS
280
     0
  9
$JOINSTYLE
280
     0
  9
$LWDISPLAY
290
     0
  9
$INSUNITS
 70
     4
  9
$HYPERLINKBASE
  1

  9
$STYLESHEET
  1
MONOCHROME.CTB
  9
$XEDIT
290
     1
  9
$CEPSNTYPE
380
     0
  9
$PSTYLEMODE
290
     1
  9
$FINGERPRINTGUID
  2
{46B44192-1510-48B1-B61B-CBE2ADA013A7}
  9
$VERSIONGUID
  2
{6160D478-9A74-4C97-9D8A-D4A65CE74B12}
  9
$EXTNAMES
290
     1
  9
$PSVPSCALE
 40
0.0
  9
$OLESTARTUP
290
     0
  0
ENDSEC
  0
SECTION
  2
CLASSES
  0
CLASS
  1
ACDBDICTIONARYWDFLT
  2
AcDbDictionaryWithDefault
  3
ObjectDBX Classes
 90
        0
280
     0
281
     0
  0
CLASS
  1
ACDBPLACEHOLDER
  2
AcDbPlaceHolder
  3
ObjectDBX Classes
 90
        0
280
     0
281
     0
  0
CLASS
  1
LAYOUT
  2
AcDbLayout
  3
ObjectDBX Classes
 90
        0
280
     0
281
     0
  0
CLASS
  1
DICTIONARYVAR
  2
AcDbDictionaryVar
  3
ObjectDBX Classes
 90
        0
280
     0
281
     0
  0
CLASS
  1
TABLESTYLE
  2
AcDbTableStyle
  3
ObjectDBX Classes
 90
     4095
280
     0
281
     0
  0
CLASS
  1
SCALE
  2
AcDbScale
  3
ObjectDBX Classes
 90
     1153
280
     0
281
     0
  0
CLASS
  1
MATERIAL
  2
AcDbMaterial
  3
ObjectDBX Classes
 90
     1153
280
     0
281
     0
  0
CLASS
  1
VISUALSTYLE
  2
AcDbVisualStyle
  3
ObjectDBX Classes
 90
     4095
280
     0
281
     0
  0
ENDSEC
  0
SECTION
  2
TABLES
  0
TABLE
  2
VPORT
  5
8
330
0
100
AcDbSymbolTable
 70
     1
  0
VPORT
  5
39A
330
8
100
AcDbSymbolTableRecord
100
AcDbViewportTableRecord
  2
*Active
 70
     0
 10
0.0
 20
0.0
 11
1.0
 21
1.0
 12
218.9201881351169
 22
109.7549380673833
 13
0.0
 23
0.0
 14
5.0
 24
5.0
 15
5.0
 25
5.0
 16
0.0
 26
0.0
 36
1.0
 17
0.0
 27
0.0
 37
0.0
 40
564.6711112651689
 41
1.066073697585768
 42
50.0
 43
0.0
 44
0.0
 50
0.0
 51
0.0
 71
     0
 72
  2000
 73
     1
 74
     1
 75
     0
 76
     0
 77
     0
 78
     0
281
     0
 65
     1
110
0.0
120
0.0
130
0.0
111
1.0
121
0.0
131
0.0
112
0.0
122
1.0
132
0.0
 79
     0
146
0.0
  0
ENDTAB
  0
TABLE
  2
LTYPE
  5
5
330
0
100
AcDbSymbolTable
 70
     3
  0
LTYPE
  5
12
330
5
100
AcDbSymbolTableRecord
100
AcDbLinetypeTableRecord
  2
BYBLOCK
 70
     0
  3

 72
    65
 73
     0
 40
0.0
  0
LTYPE
  5
13
330
5
100
AcDbSymbolTableRecord
100
AcDbLinetypeTableRecord
  2
BYLAYER
 70
     0
  3

 72
    65
 73
     0
 40
0.0
  0
LTYPE
  5
14
330
5
100
AcDbSymbolTableRecord
100
AcDbLinetypeTableRecord
  2
CONTINUOUS
 70
     0
  3
Solid line
 72
    65
 73
     0
 40
0.0
  0
LTYPE
  5
20
330
5
100
AcDbSymbolTableRecord
100
AcDbLinetypeTableRecord
  2
HIDDEN
 70
     0
  3
Hidden __ __ __ __ __ __ __ __ __ __ __ __ __ _
 72
    65
 73
     2
 40
9.524999999999997
 49
6.349999999999998
 74
     0
 49
-3.174999999999998
 74
     0
  0
LTYPE
  5
351
330
5
100
AcDbSymbolTableRecord
100
AcDbLinetypeTableRecord
  2
CENTER
 70
     0
  3
Dash dot __ . __ . __ . __ . __ . __ . __ . __
 72
    65
 73
     4
 40
25.4
 49
12.7
 74
     0
 49
-6.349999999999998
 74
     0
 49
0.0
 74
     0
 49
-6.349999999999998
 74
     0
  0
ENDTAB
  0
TABLE
  2
LAYER
  5
2
330
0
100
AcDbSymbolTable
 70
    16
  0
LAYER
  5
F
330
2
100
AcDbSymbolTableRecord
100
AcDbLayerTableRecord
  2
0
 70
     0
 62
     7
  6
CONTINUOUS
370
    -3
390
300
  0
LAYER
  5
23
330
2
100
AcDbSymbolTableRecord
100
AcDbLayerTableRecord
  2
1
 70
     0
 62
     4
  6
CONTINUOUS
370
    -3
390
300
  0
LAYER
  5
24
330
2
100
AcDbSymbolTableRecord
100
AcDbLayerTableRecord
  2
SK1
 70
     0
 62
     4
  6
CONTINUOUS
370
    -3
390
300
  0
LAYER
  5
25
330
2
100
AcDbSymbolTableRecord
100
AcDbLayerTableRecord
  2
2
 70
     0
 62
     7
  6
CONTINUOUS
370
    -3
390
300
  0
LAYER
  5
26
330
2
100
AcDbSymbolTableRecord
100
AcDbLayerTableRecord
  2
2L
 70
     0
 62
     7
  6
CONTINUOUS
370
    -3
390
300
  0
LAYER
  5
27
330
2
100
AcDbSymbolTableRecord
100
AcDbLayerTableRecord
  2
SK2
 70
     0
 62
     7
  6
CONTINUOUS
370
    -3
390
300
  0
LAYER
  5
28
330
2
100
AcDbSymbolTableRecord
100
AcDbLayerTableRecord
  2
3
 70
     0
 62
     1
  6
HIDDEN
370
    -3
390
300
  0
LAYER
  5
29
330
2
100
AcDbSymbolTableRecord
100
AcDbLayerTableRecord
  2
SK3
 70
     0
 62
     1
  6
HIDDEN
370
    -3
390
300
  0
LAYER
  5
2A
330
2
100
AcDbSymbolTableRecord
100
AcDbLayerTableRecord
  2
4
 70
     0
 62
     2
  6
CENTER
370
    -3
390
300
  0
LAYER
  5
2B
330
2
100
AcDbSymbolTableRecord
100
AcDbLayerTableRecord
  2
SK4
 70
     0
 62
     2
  6
CENTER
370
    -3
390
300
  0
LAYER
  5
2C
330
2
100
AcDbSymbolTableRecord
100
AcDbLayerTableRecord
  2
5
 70
     0
 62
    -7
  6
CONTINUOUS
370
    -3
390
300
  0
LAYER
  5
2D
330
2
100
AcDbSymbolTableRecord
100
AcDbLayerTableRecord
  2
6
 70
     0
 62
     5
  6
CONTINUOUS
370
    -3
390
300
  0
LAYER
  5
2E
330
2
100
AcDbSymbolTableRecord
100
AcDbLayerTableRecord
  2
SK6
 70
     0
 62
     5
  6
CONTINUOUS
370
    -3
390
300
  0
LAYER
  5
2F
330
2
100
AcDbSymbolTableRecord
100
AcDbLayerTableRecord
  2
DEFPOINTS
 70
     0
 62
     7
  6
CONTINUOUS
290
     0
370
    -3
390
300
  0
LAYER
  5
375
330
2
100
AcDbSymbolTableRecord
100
AcDbLayerTableRecord
  2
CUT
 70
     0
 62
     1
  6
CONTINUOUS
370
    -3
390
300
  0
LAYER
  5
376
330
2
100
AcDbSymbolTableRecord
100
AcDbLayerTableRecord
  2
NOCUT
 70
     0
 62
     7
  6
CONTINUOUS
370
    -3
390
300
  0
ENDTAB
  0
TABLE
  2
STYLE
  5
3
330
0
100
AcDbSymbolTable
 70
     4
  0
STYLE
  5
10
330
3
100
AcDbSymbolTableRecord
100
AcDbTextStyleTableRecord
  2
STANDARD
 70
     0
 40
0.0
 41
1.0
 50
0.0
 71
     0
 42
5.0
  3
txt
  4

  0
STYLE
  5
1D
330
3
100
AcDbSymbolTableRecord
100
AcDbTextStyleTableRecord
  2
TXT
 70
     0
 40
8.0
 41
1.0
 50
0.0
 71
     0
 42
8.0
  3
txt
  4

  0
STYLE
  5
1E
330
3
100
AcDbSymbolTableRecord
100
AcDbTextStyleTableRecord
  2
SIMPLEX
 70
     0
 40
0.0
 41
1.0
 50
0.0
 71
     0
 42
3.5
  3
simplex
  4

  0
STYLE
  5
34C
330
3
100
AcDbSymbolTableRecord
100
AcDbTextStyleTableRecord
  2

 70
     1
 40
0.0
 41
1.0
 50
0.0
 71
     0
 42
2.5
  3
ltypeshp.shx
  4

  0
ENDTAB
  0
TABLE
  2
VIEW
  5
6
330
0
100
AcDbSymbolTable
 70
     0
  0
ENDTAB
  0
TABLE
  2
UCS
  5
7
330
0
100
AcDbSymbolTable
 70
     0
  0
ENDTAB
  0
TABLE
  2
APPID
  5
9
330
0
100
AcDbSymbolTable
 70
     1
  0
APPID
  5
11
330
9
100
AcDbSymbolTableRecord
100
AcDbRegAppTableRecord
  2
ACAD
 70
     0
  0
ENDTAB
  0
TABLE
  2
DIMSTYLE
  5
A
330
0
100
AcDbSymbolTable
 70
     1
100
AcDbDimStyleTable
  0
DIMSTYLE
105
3F
102
{ACAD_REACTORS
330
537
330
545
330
552
330
560
330
56D
102
}
330
A
100
AcDbSymbolTableRecord
100
AcDbDimStyleTableRecord
  2
STANDARD
 70
     0
 41
2.5
 42
0.0
 43
3.75
 44
1.25
 73
     0
 74
     0
 77
     1
 78
     8
 79
     2
140
3.5
141
0.0
143
0.039370078
147
0.625
171
     3
178
     0
179
     2
271
     2
272
     2
274
     3
283
     0
284
     8
340
1E
  0
ENDTAB
  0
TABLE
  2
BLOCK_RECORD
  5
1
330
0
100
AcDbSymbolTable
 70
     5
  0
BLOCK_RECORD
  5
18
330
1
100
AcDbSymbolTableRecord
100
AcDbBlockTableRecord
  2
*MODEL_SPACE
340
303
  0
BLOCK_RECORD
  5
338
330
1
100
AcDbSymbolTableRecord
100
AcDbBlockTableRecord
  2
*Paper_Space
340
33B
  0
BLOCK_RECORD
  5
538
330
1
100
AcDbSymbolTableRecord
100
AcDbBlockTableRecord
  2
*D0
340
0
  0
BLOCK_RECORD
  5
546
330
1
100
AcDbSymbolTableRecord
100
AcDbBlockTableRecord
  2
*D1
340
0
  0
BLOCK_RECORD
  5
553
330
1
100
AcDbSymbolTableRecord
100
AcDbBlockTableRecord
  2
*D2
340
0
  0
BLOCK_RECORD
  5
561
330
1
100
AcDbSymbolTableRecord
100
AcDbBlockTableRecord
  2
*D3
340
0
  0
BLOCK_RECORD
  5
56E
330
1
100
AcDbSymbolTableRecord
100
AcDbBlockTableRecord
  2
*D4
340
0
  0
ENDTAB
  0
ENDSEC
  0
SECTION
  2
BLOCKS
  0
BLOCK
  5
32
330
18
100
AcDbEntity
  8
0
100
AcDbBlockBegin
  2
*MODEL_SPACE
 70
     0
 10
0.0
 20
0.0
 30
0.0
  3
*MODEL_SPACE
  1

  0
ENDBLK
  5
33
330
18
100
AcDbEntity
  8
0
100
AcDbBlockEnd
  0
BLOCK
  5
339
330
338
100
AcDbEntity
 67
     1
  8
0
100
AcDbBlockBegin
  2
*Paper_Space
 70
     0
 10
0.0
 20
0.0
 30
0.0
  3
*Paper_Space
  1

  0
ENDBLK
  5
33A
330
338
100
AcDbEntity
 67
     1
  8
0
100
AcDbBlockEnd
  0
BLOCK
  5
539
330
538
100
AcDbEntity
  8
0
100
AcDbBlockBegin
  2
*D0
 70
     1
 10
0.0
 20
0.0
 30
0.0
  3
*D0
  1

  0
LINE
  5
53B
330
538
100
AcDbEntity
  8
2
 62
     0
370
    -2
100
AcDbLine
 10
59.0
 20
7.9375
 30
0.0
 11
75.25
 21
7.937500000000058
 31
0.0
  0
LINE
  5
53C
330
538
100
AcDbEntity
  8
2
 62
     0
370
    -2
100
AcDbLine
 10
59.0
 20
-7.9375
 30
0.0
 11
75.25000000000006
 21
-7.937499999999943
 31
0.0
  0
LINE
  5
53D
330
538
100
AcDbEntity
  8
2
 62
     0
370
    -2
100
AcDbLine
 10
74.00000000000006
 20
-7.937499999999948
 30
0.0
 11
74.00000000000017
 21
-40.96149999999995
 31
0.0
  0
LINE
  5
53E
330
538
100
AcDbEntity
  8
2
 62
     0
370
    -2
100
AcDbLine
 10
74.00000000000001
 20
5.437500000000053
 30
0.0
 11
74.00000000000004
 21
-5.437499999999948
 31
0.0
  0
SOLID
  5
53F
330
538
100
AcDbEntity
  8
2
 62
     0
100
AcDbTrace
 10
74.41666666666669
 20
5.437500000000055
 30
0.0
 11
73.58333333333334
 21
5.437500000000052
 31
0.0
 12
74.0
 22
7.937500000000053
 32
0.0
 13
74.0
 23
7.937500000000053
 33
0.0
  0
SOLID
  5
540
330
538
100
AcDbEntity
  8
2
 62
     0
100
AcDbTrace
 10
73.58333333333337
 20
-5.437499999999949
 30
0.0
 11
74.41666666666671
 21
-5.437499999999946
 31
0.0
 12
74.00000000000006
 22
-7.937499999999948
 32
0.0
 13
74.00000000000006
 23
-7.937499999999948
 33
0.0
  0
MTEXT
  5
541
330
538
100
AcDbEntity
  8
2
 62
     0
100
AcDbMText
 10
70.80075000000011
 20
-25.69949999999996
 30
0.0
 40
3.5
 41
0.0
 71
     5
 72
     1
  1
UNC5/8-11
  7
SIMPLEX
 11
-3.580687802255623E-15
 21
1.0
 31
0.0
 73
     1
 44
1.0
  0
POINT
  5
542
330
538
100
AcDbEntity
  8
DEFPOINTS
 62
     0
100
AcDbPoint
 10
59.0
 20
7.9375
 30
0.0
  0
POINT
  5
543
330
538
100
AcDbEntity
  8
DEFPOINTS
 62
     0
100
AcDbPoint
 10
59.0
 20
-7.9375
 30
0.0
  0
POINT
  5
544
330
538
100
AcDbEntity
  8
DEFPOINTS
 62
     0
100
AcDbPoint
 10
74.00000000000006
 20
-7.937499999999948
 30
0.0
  0
ENDBLK
  5
53A
330
538
100
AcDbEntity
  8
0
100
AcDbBlockEnd
  0
BLOCK
  5
547
330
546
100
AcDbEntity
  8
0
100
AcDbBlockBegin
  2
*D1
 70
     1
 10
0.0
 20
0.0
 30
0.0
  3
*D1
  1

  0
LINE
  5
549
330
546
100
AcDbEntity
  8
2
 62
     0
370
    -2
100
AcDbLine
 10
0.0
 20
0.0
 30
0.0
 11
0.0
 21
76.25
 31
0.0
  0
LINE
  5
54A
330
546
100
AcDbEntity
  8
2
 62
     0
370
    -2
100
AcDbLine
 10
59.0
 20
0.0
 30
0.0
 11
59.0
 21
76.25
 31
0.0
  0
LINE
  5
54B
330
546
100
AcDbEntity
  8
2
 62
     0
370
    -2
100
AcDbLine
 10
2.5
 20
75.0
 30
0.0
 11
56.5
 21
75.0
 31
0.0
  0
SOLID
  5
54C
330
546
100
AcDbEntity
  8
2
 62
     0
100
AcDbTrace
 10
2.5
 20
75.41666666666667
 30
0.0
 11
2.5
 21
74.58333333333333
 31
0.0
 12
0.0
 22
75.0
 32
0.0
 13
0.0
 23
75.0
 33
0.0
  0
SOLID
  5
54D
330
546
100
AcDbEntity
  8
2
 62
     0
100
AcDbTrace
 10
56.5
 20
74.58333333333333
 30
0.0
 11
56.5
 21
75.41666666666667
 31
0.0
 12
59.0
 22
75.0
 32
0.0
 13
59.0
 23
75.0
 33
0.0
  0
MTEXT
  5
54E
330
546
100
AcDbEntity
  8
2
 62
     0
100
AcDbMText
 10
29.5
 20
77.39075
 30
0.0
 40
3.5
 41
0.0
 71
     5
 72
     1
  1
59
  7
SIMPLEX
 73
     1
 44
1.0
  0
POINT
  5
54F
330
546
100
AcDbEntity
  8
DEFPOINTS
 62
     0
100
AcDbPoint
 10
0.0
 20
0.0
 30
0.0
  0
POINT
  5
550
330
546
100
AcDbEntity
  8
DEFPOINTS
 62
     0
100
AcDbPoint
 10
59.0
 20
0.0
 30
0.0
  0
POINT
  5
551
330
546
100
AcDbEntity
  8
DEFPOINTS
 62
     0
100
AcDbPoint
 10
59.0
 20
75.0
 30
0.0
  0
ENDBLK
  5
548
330
546
100
AcDbEntity
  8
0
100
AcDbBlockEnd
  0
BLOCK
  5
554
330
553
100
AcDbEntity
  8
0
100
AcDbBlockBegin
  2
*D2
 70
     1
 10
0.0
 20
0.0
 30
0.0
  3
*D2
  1

  0
LINE
  5
556
330
553
100
AcDbEntity
  8
SK2
 62
     0
370
    -2
100
AcDbLine
 10
-30.0
 20
6.25
 30
0.0
 11
-59.2500000000319
 21
6.249999999850726
 31
0.0
  0
LINE
  5
557
330
553
100
AcDbEntity
  8
SK2
 62
     0
370
    -2
100
AcDbLine
 10
-30.0
 20
-6.25
 30
0.0
 11
-59.2499999999681
 21
-6.250000000149274
 31
0.0
  0
LINE
  5
558
330
553
100
AcDbEntity
  8
SK2
 62
     0
370
    -2
100
AcDbLine
 10
-57.9999999999681
 20
-6.250000000142895
 30
0.0
 11
-57.99999999987997
 21
-23.5205000001429
 31
0.0
  0
LINE
  5
559
330
553
100
AcDbEntity
  8
SK2
 62
     0
370
    -2
100
AcDbLine
 10
-58.00000000001913
 20
3.749999999857105
 30
0.0
 11
-57.99999999998087
 21
-3.750000000142895
 31
0.0
  0
SOLID
  5
55A
330
553
100
AcDbEntity
  8
SK2
 62
     0
100
AcDbTrace
 10
-57.58333333335247
 20
3.749999999859231
 30
0.0
 11
-58.4166666666858
 21
3.749999999854978
 31
0.0
 12
-58.0000000000319
 22
6.249999999857105
 32
0.0
 13
-58.0000000000319
 23
6.249999999857105
 33
0.0
  0
SOLID
  5
55B
330
553
100
AcDbEntity
  8
SK2
 62
     0
100
AcDbTrace
 10
-58.41666666664753
 20
-3.750000000145022
 30
0.0
 11
-57.5833333333142
 21
-3.750000000140769
 31
0.0
 12
-57.9999999999681
 22
-6.250000000142895
 32
0.0
 13
-57.9999999999681
 23
-6.250000000142895
 33
0.0
  0
MTEXT
  5
55C
330
553
100
AcDbEntity
  8
SK2
 62
     0
100
AcDbMText
 10
-60.39774999991766
 20
-16.13525000015513
 30
0.0
 40
3.5
 41
0.0
 71
     5
 72
     1
  1
%%c12.5
  7
SIMPLEX
 11
-5.103402145323344E-12
 21
1.0
 31
0.0
 73
     1
 44
1.0
  0
POINT
  5
55D
330
553
100
AcDbEntity
  8
DEFPOINTS
 62
     0
100
AcDbPoint
 10
-30.0
 20
6.25
 30
0.0
  0
POINT
  5
55E
330
553
100
AcDbEntity
  8
DEFPOINTS
 62
     0
100
AcDbPoint
 10
-30.0
 20
-6.25
 30
0.0
  0
POINT
  5
55F
330
553
100
AcDbEntity
  8
DEFPOINTS
 62
     0
100
AcDbPoint
 10
-57.9999999999681
 20
-6.250000000142895
 30
0.0
  0
ENDBLK
  5
555
330
553
100
AcDbEntity
  8
0
100
AcDbBlockEnd
  0
BLOCK
  5
562
330
561
100
AcDbEntity
  8
0
100
AcDbBlockBegin
  2
*D3
 70
     1
 10
0.0
 20
0.0
 30
0.0
  3
*D3
  1

  0
LINE
  5
564
330
561
100
AcDbEntity
  8
2
 62
     0
370
    -2
100
AcDbLine
 10
33.41025137
 20
6.05
 30
0.0
 11
33.41025137
 21
61.25
 31
0.0
  0
LINE
  5
565
330
561
100
AcDbEntity
  8
2
 62
     0
370
    -2
100
AcDbLine
 10
59.0
 20
7.9375
 30
0.0
 11
59.0
 21
61.25
 31
0.0
  0
LINE
  5
566
330
561
100
AcDbEntity
  8
2
 62
     0
370
    -2
100
AcDbLine
 10
35.91025137
 20
60.0
 30
0.0
 11
56.5
 21
60.0
 31
0.0
  0
SOLID
  5
567
330
561
100
AcDbEntity
  8
2
 62
     0
100
AcDbTrace
 10
35.91025137
 20
60.41666666666666
 30
0.0
 11
35.91025137
 21
59.58333333333334
 31
0.0
 12
33.41025137
 22
60.0
 32
0.0
 13
33.41025137
 23
60.0
 33
0.0
  0
SOLID
  5
568
330
561
100
AcDbEntity
  8
2
 62
     0
100
AcDbTrace
 10
56.5
 20
59.58333333333334
 30
0.0
 11
56.5
 21
60.41666666666666
 31
0.0
 12
59.0
 22
60.0
 32
0.0
 13
59.0
 23
60.0
 33
0.0
  0
MTEXT
  5
569
330
561
100
AcDbEntity
  8
2
 62
     0
100
AcDbMText
 10
46.205125685
 20
62.39775
 30
0.0
 40
3.5
 41
0.0
 71
     5
 72
     1
  1
25.59
  7
SIMPLEX
 73
     1
 44
1.0
  0
POINT
  5
56A
330
561
100
AcDbEntity
  8
DEFPOINTS
 62
     0
100
AcDbPoint
 10
33.41025137
 20
6.05
 30
0.0
  0
POINT
  5
56B
330
561
100
AcDbEntity
  8
DEFPOINTS
 62
     0
100
AcDbPoint
 10
59.0
 20
7.9375
 30
0.0
  0
POINT
  5
56C
330
561
100
AcDbEntity
  8
DEFPOINTS
 62
     0
100
AcDbPoint
 10
59.0
 20
60.0
 30
0.0
  0
ENDBLK
  5
563
330
561
100
AcDbEntity
  8
0
100
AcDbBlockEnd
  0
BLOCK
  5
56F
330
56E
100
AcDbEntity
  8
0
100
AcDbBlockBegin
  2
*D4
 70
     1
 10
0.0
 20
0.0
 30
0.0
  3
*D4
  1

  0
LINE
  5
571
330
56E
100
AcDbEntity
  8
SK2
 62
     0
370
    -2
100
AcDbLine
 10
-43.0
 20
7.9375
 30
0.0
 11
-43.0
 21
91.25
 31
0.0
  0
LINE
  5
572
330
56E
100
AcDbEntity
  8
SK2
 62
     0
370
    -2
100
AcDbLine
 10
59.0
 20
7.9375
 30
0.0
 11
59.0
 21
91.25
 31
0.0
  0
LINE
  5
573
330
56E
100
AcDbEntity
  8
SK2
 62
     0
370
    -2
100
AcDbLine
 10
-40.5
 20
90.0
 30
0.0
 11
56.5
 21
90.0
 31
0.0
  0
SOLID
  5
574
330
56E
100
AcDbEntity
  8
SK2
 62
     0
100
AcDbTrace
 10
-40.5
 20
90.41666666666667
 30
0.0
 11
-40.5
 21
89.58333333333333
 31
0.0
 12
-43.0
 22
90.0
 32
0.0
 13
-43.0
 23
90.0
 33
0.0
  0
SOLID
  5
575
330
56E
100
AcDbEntity
  8
SK2
 62
     0
100
AcDbTrace
 10
56.5
 20
89.58333333333333
 30
0.0
 11
56.5
 21
90.41666666666667
 31
0.0
 12
59.0
 22
90.0
 32
0.0
 13
59.0
 23
90.0
 33
0.0
  0
MTEXT
  5
576
330
56E
100
AcDbEntity
  8
SK2
 62
     0
100
AcDbMText
 10
8.0
 20
92.39075
 30
0.0
 40
3.5
 41
0.0
 71
     5
 72
     1
  1
102
  7
SIMPLEX
 73
     1
 44
1.0
  0
POINT
  5
577
330
56E
100
AcDbEntity
  8
DEFPOINTS
 62
     0
100
AcDbPoint
 10
-43.0
 20
7.9375
 30
0.0
  0
POINT
  5
578
330
56E
100
AcDbEntity
  8
DEFPOINTS
 62
     0
100
AcDbPoint
 10
59.0
 20
7.9375
 30
0.0
  0
POINT
  5
579
330
56E
100
AcDbEntity
  8
DEFPOINTS
 62
     0
100
AcDbPoint
 10
59.0
 20
90.0
 30
0.0
  0
ENDBLK
  5
570
330
56E
100
AcDbEntity
  8
0
100
AcDbBlockEnd
  0
ENDSEC
  0
SECTION
  2
ENTITIES
  0
LINE
  5
3D6
330
18
100
AcDbEntity
  8
SK4
100
AcDbLine
 10
-45.0
 20
0.0
 30
0.0
 11
21.5
 21
0.0
 31
0.0
  0
LINE
  5
3D7
330
18
100
AcDbEntity
  8
4
100
AcDbLine
 10
19.5
 20
0.0
 30
0.0
 11
61.0
 21
0.0
 31
0.0
  0
LINE
  5
3D8
330
18
100
AcDbEntity
  8
SK4
100
AcDbLine
 10
19.5
 20
0.0
 30
0.0
 11
61.0
 21
0.0
 31
0.0
  0
LINE
  5
3D9
330
18
100
AcDbEntity
  8
1
100
AcDbLine
 10
21.5
 20
6.25
 30
0.0
 11
21.5
 21
6.243786291910436
 31
0.0
  0
LINE
  5
3DA
330
18
100
AcDbEntity
  8
1
100
AcDbLine
 10
21.5
 20
6.243786291910436
 30
0.0
 11
21.5
 21
5.689208673479708
 31
0.0
  0
LINE
  5
3DB
330
18
100
AcDbEntity
  8
1
100
AcDbLine
 10
21.5
 20
5.689208673479708
 30
0.0
 11
21.5
 21
-6.25
 31
0.0
  0
LINE
  5
3DC
330
18
100
AcDbEntity
  8
1
100
AcDbLine
 10
21.5
 20
6.25
 30
0.0
 11
-0.0000000000000018
 21
6.25
 31
0.0
  0
LINE
  5
3DD
330
18
100
AcDbEntity
  8
1
100
AcDbLine
 10
21.5
 20
6.05
 30
0.0
 11
33.41025137
 21
6.05
 31
0.0
  0
LINE
  5
3DE
330
18
100
AcDbEntity
  8
1
100
AcDbLine
 10
24.00000000000001
 20
-5.095894672135486
 30
0.0
 11
24.00000000000001
 21
-6.05
 31
0.0
  0
LINE
  5
3DF
330
18
100
AcDbEntity
  8
1
100
AcDbLine
 10
24.00000000000001
 20
5.372087580084649
 30
0.0
 11
24.0
 21
-1.528270787126689
 31
0.0
  0
LINE
  5
3E0
330
18
100
AcDbEntity
  8
1
100
AcDbLine
 10
24.0
 20
-5.095894672135486
 30
0.0
 11
33.41025137
 21
-5.095894672135485
 31
0.0
  0
LINE
  5
3E1
330
18
100
AcDbEntity
  8
1
100
AcDbLine
 10
33.41025137
 20
-0.8568270413610151
 30
0.0
 11
33.41025137
 21
-1.52827078712667
 31
0.0
  0
LINE
  5
3E2
330
18
100
AcDbEntity
  8
1
100
AcDbLine
 10
24.0
 20
-1.528270787126688
 30
0.0
 11
33.41025137
 21
-1.52827078712669
 31
0.0
  0
LINE
  5
3E3
330
18
100
AcDbEntity
  8
1
100
AcDbLine
 10
24.0
 20
5.372087580084649
 30
0.0
 11
33.41025137
 21
5.372087580084649
 31
0.0
  0
LINE
  5
3E4
330
18
100
AcDbEntity
  8
1
100
AcDbLine
 10
33.41025137
 20
6.05
 30
0.0
 11
33.41025137
 21
6.049997738874906
 31
0.0
  0
LINE
  5
3E5
330
18
100
AcDbEntity
  8
1
100
AcDbLine
 10
33.41025137
 20
6.049997738874906
 30
0.0
 11
33.41025137
 21
6.049342810005359
 31
0.0
  0
LINE
  5
3E6
330
18
100
AcDbEntity
  8
1
100
AcDbLine
 10
33.41025137
 20
6.049342810005359
 30
0.0
 11
33.41025137
 21
6.04053329927652
 31
0.0
  0
LINE
  5
3E7
330
18
100
AcDbEntity
  8
1
100
AcDbLine
 10
33.41025137
 20
6.04053329927652
 30
0.0
 11
33.41025137
 21
5.96129313948413
 31
0.0
  0
LINE
  5
3E8
330
18
100
AcDbEntity
  8
1
100
AcDbLine
 10
33.41025136999999
 20
5.961293139484128
 30
0.0
 11
33.41025137
 21
5.372087580084639
 31
0.0
  0
LINE
  5
3E9
330
18
100
AcDbEntity
  8
1
100
AcDbLine
 10
33.41025137
 20
5.372087580084648
 30
0.0
 11
33.41025137
 21
-0.8568270413610823
 31
0.0
  0
LINE
  5
3EA
330
18
100
AcDbEntity
  8
1
100
AcDbLine
 10
33.41025136999999
 20
-1.528270787126689
 30
0.0
 11
33.41025137
 21
-5.095894672135152
 31
0.0
  0
LINE
  5
3EB
330
18
100
AcDbEntity
  8
1
100
AcDbLine
 10
-0.0000000000000062
 20
-6.25
 30
0.0
 11
21.5
 21
-6.25
 31
0.0
  0
LINE
  5
3EC
330
18
100
AcDbEntity
  8
1
100
AcDbLine
 10
21.5
 20
-6.05
 30
0.0
 11
24.0
 21
-6.049999999999998
 31
0.0
  0
LINE
  5
3ED
330
18
100
AcDbEntity
  8
1
 62
     1
100
AcDbLine
 10
59.0
 20
5.315920129168281
 30
0.0
 11
59.0
 21
5.987769545454546
 31
0.0
  0
LINE
  5
3EE
330
18
100
AcDbEntity
  8
1
 62
     1
100
AcDbLine
 10
59.00000000000001
 20
5.31592012916832
 30
0.0
 11
59.0
 21
-0.8568270413610823
 31
0.0
  0
LINE
  5
3EF
330
18
100
AcDbEntity
  8
1
 62
     1
100
AcDbLine
 10
59.00000000000001
 20
-1.495989028512972
 30
0.0
 11
59.00000000000001
 21
-0.8568270413610817
 31
0.0
  0
LINE
  5
3F0
330
18
100
AcDbEntity
  8
1
 62
     1
100
AcDbLine
 10
58.99999999999999
 20
-5.044544021274232
 30
0.0
 11
58.99999999999999
 21
-1.495989028512973
 31
0.0
  0
LINE
  5
3F1
330
18
100
AcDbEntity
  8
1
 62
     1
100
AcDbLine
 10
52.9008748357794
 20
7.42216253203899
 30
0.0
 11
53.61131582808333
 21
7.322318147241002
 31
0.0
  0
LINE
  5
3F2
330
18
100
AcDbEntity
  8
1
 62
     1
100
AcDbLine
 10
34.72567792762649
 20
7.9375
 30
0.0
 11
34.78341298146442
 21
7.9375
 31
0.0
  0
LINE
  5
3F3
330
18
100
AcDbEntity
  8
1
 62
     1
100
AcDbLine
 10
37.03476883671739
 20
7.937500000000001
 30
0.0
 11
37.09250389055533
 21
7.937500000000001
 31
0.0
  0
LINE
  5
3F4
330
18
100
AcDbEntity
  8
1
 62
     1
100
AcDbLine
 10
39.3438597458083
 20
7.937499999999999
 30
0.0
 11
39.40159479964627
 21
7.9375
 31
0.0
  0
LINE
  5
3F5
330
18
100
AcDbEntity
  8
1
 62
     1
100
AcDbLine
 10
41.65295065489921
 20
7.9375
 30
0.0
 11
41.71068570873717
 21
7.9375
 31
0.0
  0
LINE
  5
3F6
330
18
100
AcDbEntity
  8
1
 62
     1
100
AcDbLine
 10
48.63795843600988
 20
-2.498372807219771
 30
0.0
 11
48.58022338217193
 21
-2.498372807219771
 31
0.0
  0
LINE
  5
3F7
330
18
100
AcDbEntity
  8
1
 62
     1
100
AcDbLine
 10
46.32886752691896
 20
-2.498372807219771
 30
0.0
 11
46.27113247308102
 21
-2.498372807219771
 31
0.0
  0
LINE
  5
3F8
330
18
100
AcDbEntity
  8
1
 62
     1
100
AcDbLine
 10
41.71068570873716
 20
-2.498372807219771
 30
0.0
 11
41.6529506548992
 21
-2.498372807219771
 31
0.0
  0
LINE
  5
3F9
330
18
100
AcDbEntity
  8
1
 62
     1
100
AcDbLine
 10
39.40159479964626
 20
-6.859974573881207
 30
0.0
 11
39.3438597458083
 21
-6.859974573881209
 31
0.0
  0
LINE
  5
3FA
330
18
100
AcDbEntity
  8
1
 62
     1
100
AcDbLine
 10
37.09250389055533
 20
-2.498372807219771
 30
0.0
 11
37.0347688367174
 21
-2.498372807219771
 31
0.0
  0
LINE
  5
3FB
330
18
100
AcDbEntity
  8
1
 62
     1
100
AcDbLine
 10
34.78341298146442
 20
-2.498372807219771
 30
0.0
 11
34.72567792762649
 21
-2.498372807219771
 31
0.0
  0
LINE
  5
3FC
330
18
100
AcDbEntity
  8
1
 62
     1
100
AcDbLine
 10
58.63730674141026
 20
-1.820808709921429
 30
0.0
 11
57.17246006491637
 21
-1.92680559143345
 31
0.0
  0
LINE
  5
3FD
330
18
100
AcDbEntity
  8
1
 62
     1
100
AcDbLine
 10
58.63730674141026
 20
-5.582970194875012
 30
0.0
 11
57.17246006491636
 21
-5.769089126548616
 31
0.0
  0
LINE
  5
3FE
330
18
100
AcDbEntity
  8
1
 62
     1
100
AcDbLine
 10
56.1243112847468
 20
-2.002534219617466
 30
0.0
 11
55.03666745096883
 21
-2.081021870392452
 31
0.0
  0
LINE
  5
3FF
330
18
100
AcDbEntity
  8
1
 62
     1
100
AcDbLine
 10
56.1243112847468
 20
-5.905184473415249
 30
0.0
 11
55.03666745034788
 21
-6.048976991007509
 31
0.0
  0
LINE
  5
400
330
18
100
AcDbEntity
  8
1
 62
     1
100
AcDbLine
 10
53.61131582808333
 20
-2.183744303756567
 30
0.0
 11
52.9008748357794
 21
-2.234890852864081
 31
0.0
  0
LINE
  5
401
330
18
100
AcDbEntity
  8
1
 62
     1
100
AcDbLine
 10
51.09832037167928
 20
-2.364513623009652
 30
0.0
 11
50.76508222121092
 21
-2.388454990049958
 31
0.0
  0
LINE
  5
402
330
18
100
AcDbEntity
  8
1
 62
     1
100
AcDbLine
 10
33.48716127374343
 20
-1.59729056398239
 30
0.0
 11
33.41025137
 21
-1.52827078712669
 31
0.0
  0
LINE
  5
403
330
18
100
AcDbEntity
  8
1
 62
     1
100
AcDbLine
 10
33.48716127374343
 20
-5.2072855644279
 30
0.0
 11
33.41025137
 21
-5.095894672135486
 31
0.0
  0
LINE
  5
404
330
18
100
AcDbEntity
  8
1
 62
     1
100
AcDbLine
 10
53.61131582808336
 20
-6.241364851691007
 30
0.0
 11
52.9008748357794
 21
-6.338924209974253
 31
0.0
  0
LINE
  5
405
330
18
100
AcDbEntity
  8
1
 62
     1
100
AcDbLine
 10
51.09832037141987
 20
-6.591408454443695
 30
0.0
 11
50.76508222121092
 21
-6.638860536785619
 31
0.0
  0
LINE
  5
406
330
18
100
AcDbEntity
  8
1
 62
     1
100
AcDbLine
 10
48.63795843600989
 20
-6.859974573881207
 30
0.0
 11
48.58022338217194
 21
-6.859974573881207
 31
0.0
  0
LINE
  5
407
330
18
100
AcDbEntity
  8
1
 62
     1
100
AcDbLine
 10
46.32886752691896
 20
-6.859974573881207
 30
0.0
 11
46.27113247308102
 21
-6.859974573881207
 31
0.0
  0
LINE
  5
408
330
18
100
AcDbEntity
  8
1
 62
     1
100
AcDbLine
 10
44.01977661782806
 20
-6.859974573881207
 30
0.0
 11
43.9620415639901
 21
-6.859974573881207
 31
0.0
  0
LINE
  5
409
330
18
100
AcDbEntity
  8
1
 62
     1
100
AcDbLine
 10
41.71068570873717
 20
-6.859974573881207
 30
0.0
 11
41.65295065489921
 21
-6.859974573881207
 31
0.0
  0
LINE
  5
40A
330
18
100
AcDbEntity
  8
1
 62
     1
100
AcDbLine
 10
37.09250389055534
 20
-6.859974573881207
 30
0.0
 11
37.03476883671739
 21
-6.859974573881207
 31
0.0
  0
LINE
  5
40B
330
18
100
AcDbEntity
  8
1
 62
     1
100
AcDbLine
 10
34.78341298146442
 20
-6.859974573881207
 30
0.0
 11
34.72567792762649
 21
-6.859974573881207
 31
0.0
  0
LINE
  5
40C
330
18
100
AcDbEntity
  8
1
 62
     1
100
AcDbLine
 10
33.48716127374342
 20
-5.207285564427898
 30
0.0
 11
33.59999999999999
 21
-5.044544021274554
 31
0.0
  0
LINE
  5
40D
330
18
100
AcDbEntity
  8
1
 62
     1
100
AcDbLine
 10
48.58022338217194
 20
7.9375
 30
0.0
 11
48.63795843600988
 21
7.9375
 31
0.0
  0
LINE
  5
40E
330
18
100
AcDbEntity
  8
1
 62
     1
100
AcDbLine
 10
46.27113247308102
 20
7.9375
 30
0.0
 11
46.32886752691896
 21
7.9375
 31
0.0
  0
LINE
  5
40F
330
18
100
AcDbEntity
  8
1
 62
     1
100
AcDbLine
 10
43.96204156399013
 20
7.9375
 30
0.0
 11
44.01977661782809
 21
7.9375
 31
0.0
  0
LINE
  5
410
330
18
100
AcDbEntity
  8
1
 62
     1
100
AcDbLine
 10
58.63730674141026
 20
5.865757530090429
 30
0.0
 11
57.17246006491636
 21
6.037532480399944
 31
0.0
  0
LINE
  5
411
330
18
100
AcDbEntity
  8
1
 62
     1
100
AcDbLine
 10
57.17246006491636
 20
6.821839909983852
 30
0.0
 11
58.63730674141026
 21
6.615972403994923
 31
0.0
  0
LINE
  5
412
330
18
100
AcDbEntity
  8
1
 62
     1
100
AcDbLine
 10
56.1243112847468
 20
6.157796856650435
 30
0.0
 11
55.03666745034787
 21
6.280188737504302
 31
0.0
  0
LINE
  5
413
330
18
100
AcDbEntity
  8
1
 62
     1
100
AcDbLine
 10
55.03666745034788
 20
7.122001221011421
 30
0.0
 11
56.12431128474681
 21
6.969145275617963
 31
0.0
  0
LINE
  5
414
330
18
100
AcDbEntity
  8
1
 62
     1
100
AcDbLine
 10
50.76508222121092
 20
7.72232384306656
 30
0.0
 11
51.09832037141988
 21
7.67549101886404
 31
0.0
  0
LINE
  5
415
330
18
100
AcDbEntity
  8
1
 62
     1
100
AcDbLine
 10
58.63730674141026
 20
-1.820808709921428
 30
0.0
 11
59.0
 21
-1.495989028512974
 31
0.0
  0
LINE
  5
416
330
18
100
AcDbEntity
  8
1
 62
     1
100
AcDbLine
 10
58.63730674141027
 20
-1.820808709921429
 30
0.0
 11
58.63730674141026
 21
-5.582970194874724
 31
0.0
  0
ARC
  5
417
330
18
100
AcDbEntity
  8
1
 62
     1
100
AcDbCircle
 10
72.99417262091379
 20
-14.86140866477236
 30
0.0
 40
17.09411611088444
100
AcDbArc
 50
144.9504703255418
 51
147.1265510650765
  0
LINE
  5
418
330
18
100
AcDbEntity
  8
1
 62
     1
100
AcDbLine
 10
56.69090909090909
 20
-1.495989028512974
 30
0.0
 11
57.17246006491636
 21
-1.926805591433451
 31
0.0
  0
ARC
  5
419
330
18
100
AcDbEntity
  8
1
 62
     1
100
AcDbCircle
 10
42.57941636446586
 20
-14.94347547799365
 30
0.0
 40
17.23727293522636
100
AcDbArc
 50
32.15684289881123
 51
35.04889606879628
  0
LINE
  5
41A
330
18
100
AcDbEntity
  8
1
 62
     1
100
AcDbLine
 10
57.17246006491636
 20
-1.926805591433453
 30
0.0
 11
57.17246006491636
 21
-5.769089126548614
 31
0.0
  0
LINE
  5
41B
330
18
100
AcDbEntity
  8
1
 62
     1
100
AcDbLine
 10
56.1243112847468
 20
-2.002534219617464
 30
0.0
 11
56.69090909090909
 21
-1.495989028512974
 31
0.0
  0
LINE
  5
41C
330
18
100
AcDbEntity
  8
1
 62
     1
100
AcDbLine
 10
56.1243112847468
 20
-2.002534219617467
 30
0.0
 11
56.1243112847468
 21
-5.905184473415249
 31
0.0
  0
ARC
  5
41D
330
18
100
AcDbEntity
  8
1
 62
     1
100
AcDbCircle
 10
71.46909170614653
 20
-15.38748019223383
 30
0.0
 40
18.03816468533565
100
AcDbArc
 50
145.0126420518725
 51
148.2860385091258
  0
LINE
  5
41E
330
18
100
AcDbEntity
  8
1
 62
     1
100
AcDbLine
 10
56.69090909090907
 20
-5.044544021274232
 30
0.0
 11
56.69090909090909
 21
-1.495989028512974
 31
0.0
  0
LINE
  5
41F
330
18
100
AcDbEntity
  8
1
 62
     1
100
AcDbLine
 10
54.38181818181818
 20
-1.495989028512973
 30
0.0
 11
55.03666745034789
 21
-2.081021868125111
 31
0.0
  0
ARC
  5
420
330
18
100
AcDbEntity
  8
1
 62
     1
100
AcDbCircle
 10
39.72528156936362
 20
-15.31154559284239
 30
0.0
 40
17.89487905997658
100
AcDbArc
 50
31.17169226300883
 51
35.01149859629979
  0
LINE
  5
421
330
18
100
AcDbEntity
  8
1
 62
     1
100
AcDbLine
 10
55.03666745034788
 20
-2.081021869101497
 30
0.0
 11
55.03666745034789
 21
-6.04897699100751
 31
0.0
  0
ARC
  5
422
330
18
100
AcDbEntity
  8
1
 62
     1
100
AcDbCircle
 10
-72.78159019247367
 20
137.614256228747
 30
0.0
 40
186.9232038326371
100
AcDbArc
 50
311.5085299969699
 51
311.9086314659158
  0
LINE
  5
423
330
18
100
AcDbEntity
  8
1
 62
     1
100
AcDbLine
 10
51.09832037141989
 20
-2.364513622441027
 30
0.0
 11
51.09832037141987
 21
-6.591408454443689
 31
0.0
  0
ARC
  5
424
330
18
100
AcDbEntity
  8
1
 62
     1
100
AcDbCircle
 10
68.57984388320577
 20
-16.51390449323555
 30
0.0
 40
20.10112070869149
100
AcDbArc
 50
145.2079218098853
 51
150.4207972641571
  0
LINE
  5
425
330
18
100
AcDbEntity
  8
1
 62
     1
100
AcDbLine
 10
52.07272727272727
 20
-5.044544021274232
 30
0.0
 11
52.07272727272727
 21
-1.495989028512974
 31
0.0
  0
ARC
  5
426
330
18
100
AcDbEntity
  8
1
 62
     1
100
AcDbCircle
 10
168.9183789152193
 20
133.7905329915717
 30
0.0
 40
181.8128470299673
100
AcDbArc
 50
228.0816622409292
 51
228.5566650117623
  0
LINE
  5
427
330
18
100
AcDbEntity
  8
1
 62
     1
100
AcDbLine
 10
47.45454545454544
 20
-5.044544021274232
 30
0.0
 11
47.45454545454546
 21
-1.495989028512973
 31
0.0
  0
LINE
  5
428
330
18
100
AcDbEntity
  8
1
 62
     1
100
AcDbLine
 10
47.45454545454545
 20
-5.044544021274554
 30
0.0
 11
48.02354986722929
 21
-5.909071055952767
 31
0.0
  0
LINE
  5
429
330
18
100
AcDbEntity
  8
1
 62
     1
100
AcDbLine
 10
48.02354986722929
 20
-5.909071055952767
 30
0.0
 11
48.58022338217194
 21
-6.859974573881214
 31
0.0
  0
LINE
  5
42A
330
18
100
AcDbEntity
  8
1
 62
     1
100
AcDbLine
 10
48.58022338217194
 20
-2.498372807219774
 30
0.0
 11
48.58022338217193
 21
-6.859974573881206
 31
0.0
  0
ARC
  5
42B
330
18
100
AcDbEntity
  8
1
 62
     1
100
AcDbCircle
 10
-85.08717603808252
 20
146.2362178605205
 30
0.0
 40
198.4745541487557
100
AcDbArc
 50
311.4625511787514
 51
311.8976779701445
  0
LINE
  5
42C
330
18
100
AcDbEntity
  8
1
 62
     1
100
AcDbLine
 10
46.32886752691896
 20
-2.49837280721977
 30
0.0
 11
46.32886752691896
 21
-6.859974573881208
 31
0.0
  0
LINE
  5
42D
330
18
100
AcDbEntity
  8
1
 62
     1
100
AcDbLine
 10
46.32886752691897
 20
-6.859974573881214
 30
0.0
 11
46.88557545713513
 21
-5.909016485767701
 31
0.0
  0
LINE
  5
42E
330
18
100
AcDbEntity
  8
1
 62
     1
100
AcDbLine
 10
46.88557545713513
 20
-5.909016485767701
 30
0.0
 11
47.45454545454545
 21
-5.044544021274554
 31
0.0
  0
ARC
  5
42F
330
18
100
AcDbEntity
  8
1
 62
     1
100
AcDbCircle
 10
-82.7780851291929
 20
146.2362178607473
 30
0.0
 40
198.4745541490589
100
AcDbArc
 50
311.4625511787515
 51
311.8976779701441
  0
LINE
  5
430
330
18
100
AcDbEntity
  8
1
 62
     1
100
AcDbLine
 10
48.63795843600987
 20
-2.49837280721977
 30
0.0
 11
48.63795843600987
 21
-6.859974573881206
 31
0.0
  0
LINE
  5
431
330
18
100
AcDbEntity
  8
1
 62
     1
100
AcDbLine
 10
48.63795843600987
 20
-6.859974573881203
 30
0.0
 11
49.19466636622604
 21
-5.909016485767697
 31
0.0
  0
LINE
  5
432
330
18
100
AcDbEntity
  8
1
 62
     1
100
AcDbLine
 10
49.19466636622604
 20
-5.909016485767697
 30
0.0
 11
49.76363636363636
 21
-5.044544021274554
 31
0.0
  0
ARC
  5
433
330
18
100
AcDbEntity
  8
1
 62
     1
100
AcDbCircle
 10
166.412263584464
 20
128.4014690434403
 30
0.0
 40
174.5859552730115
100
AcDbArc
 50
228.075987420163
 51
228.5162146576826
  0
LINE
  5
434
330
18
100
AcDbEntity
  8
1
 62
     1
100
AcDbLine
 10
49.76363636363634
 20
-5.044544021274232
 30
0.0
 11
49.76363636363637
 21
-1.495989028512974
 31
0.0
  0
ARC
  5
435
330
18
100
AcDbEntity
  8
1
 62
     1
100
AcDbCircle
 10
33.9372412796409
 20
-16.08756740281993
 30
0.0
 40
19.29839511717003
100
AcDbArc
 50
29.31388484157681
 51
34.90578858920759
  0
LINE
  5
436
330
18
100
AcDbEntity
  8
1
 62
     1
100
AcDbLine
 10
50.76508222121092
 20
-2.388454990049958
 30
0.0
 11
50.76508222121091
 21
-6.638860536785605
 31
0.0
  0
LINE
  5
437
330
18
100
AcDbEntity
  8
1
 62
     1
100
AcDbLine
 10
53.61131582808333
 20
-2.18374430375659
 30
0.0
 11
54.38181818181818
 21
-1.495989028512973
 31
0.0
  0
LINE
  5
438
330
18
100
AcDbEntity
  8
1
 62
     1
100
AcDbLine
 10
53.61131582808333
 20
-2.18374430375657
 30
0.0
 11
53.61131582808333
 21
-6.241364851691009
 31
0.0
  0
ARC
  5
439
330
18
100
AcDbEntity
  8
1
 62
     1
100
AcDbCircle
 10
69.99678217920693
 20
-15.93807638965276
 30
0.0
 40
19.03963102063516
100
AcDbArc
 50
145.0990556947563
 51
149.3834906144245
  0
LINE
  5
43A
330
18
100
AcDbEntity
  8
1
 62
     1
100
AcDbLine
 10
54.38181818181818
 20
-5.044544021274232
 30
0.0
 11
54.38181818181817
 21
-1.495989028512972
 31
0.0
  0
LINE
  5
43B
330
18
100
AcDbEntity
  8
1
 62
     1
100
AcDbLine
 10
52.07272727272727
 20
-1.495989028512973
 30
0.0
 11
52.9008748357794
 21
-2.234890852864101
 31
0.0
  0
ARC
  5
43C
330
18
100
AcDbEntity
  8
1
 62
     1
100
AcDbCircle
 10
36.84459278862305
 20
-15.69299291122243
 30
0.0
 40
18.58193370294854
100
AcDbArc
 50
30.22422197031038
 51
34.96361424376538
  0
LINE
  5
43D
330
18
100
AcDbEntity
  8
1
 62
     1
100
AcDbLine
 10
52.90087483577939
 20
-2.234890852864078
 30
0.0
 11
52.9008748357794
 21
-6.338924209974251
 31
0.0
  0
ARC
  5
43E
330
18
100
AcDbEntity
  8
1
 62
     1
100
AcDbCircle
 10
-87.39626694745671
 20
146.2362178608388
 30
0.0
 40
198.4745541491818
100
AcDbArc
 50
311.4625511787518
 51
311.8976779701441
  0
LINE
  5
43F
330
18
100
AcDbEntity
  8
1
 62
     1
100
AcDbLine
 10
44.01977661782808
 20
-2.49837280721977
 30
0.0
 11
44.01977661782807
 21
-6.859974573881206
 31
0.0
  0
LINE
  5
440
330
18
100
AcDbEntity
  8
1
 62
     1
100
AcDbLine
 10
44.01977661782806
 20
-6.8599745738812
 30
0.0
 11
44.57648454804422
 21
-5.909016485767692
 31
0.0
  0
LINE
  5
441
330
18
100
AcDbEntity
  8
1
 62
     1
100
AcDbLine
 10
44.57648454804422
 20
-5.909016485767692
 30
0.0
 11
45.14545454545455
 21
-5.044544021274555
 31
0.0
  0
ARC
  5
442
330
18
100
AcDbEntity
  8
1
 62
     1
100
AcDbCircle
 10
164.3001970964723
 20
133.7905329909383
 30
0.0
 40
181.8128470291184
100
AcDbArc
 50
228.0816622409284
 51
228.5566650117637
  0
LINE
  5
443
330
18
100
AcDbEntity
  8
1
 62
     1
100
AcDbLine
 10
42.83636363636363
 20
-5.044544021274554
 30
0.0
 11
43.40536804904747
 21
-5.90907105595277
 31
0.0
  0
LINE
  5
444
330
18
100
AcDbEntity
  8
1
 62
     1
100
AcDbLine
 10
43.40536804904747
 20
-5.90907105595277
 30
0.0
 11
43.96204156399013
 21
-6.859974573881216
 31
0.0
  0
LINE
  5
445
330
18
100
AcDbEntity
  8
1
 62
     1
100
AcDbLine
 10
43.96204156399012
 20
-2.49837280721977
 30
0.0
 11
43.96204156399011
 21
-6.859974573881206
 31
0.0
  0
ARC
  5
446
330
18
100
AcDbEntity
  8
1
 62
     1
100
AcDbCircle
 10
-89.7053578566041
 20
146.2362178609025
 30
0.0
 40
198.4745541492669
100
AcDbArc
 50
311.4625511787518
 51
311.8976779701438
  0
LINE
  5
447
330
18
100
AcDbEntity
  8
1
 62
     1
100
AcDbLine
 10
41.71068570873717
 20
-2.49837280721977
 30
0.0
 11
41.71068570873717
 21
-6.859974573881206
 31
0.0
  0
LINE
  5
448
330
18
100
AcDbEntity
  8
1
 62
     1
100
AcDbLine
 10
41.71068570873715
 20
-6.859974573881198
 30
0.0
 11
42.26739363895332
 21
-5.909016485767696
 31
0.0
  0
LINE
  5
449
330
18
100
AcDbEntity
  8
1
 62
     1
100
AcDbLine
 10
42.26739363895332
 20
-5.909016485767696
 30
0.0
 11
42.83636363636363
 21
-5.044544021274554
 31
0.0
  0
LINE
  5
44A
330
18
100
AcDbEntity
  8
1
 62
     1
100
AcDbLine
 10
42.83636363636363
 20
-5.044544021274232
 30
0.0
 11
42.83636363636362
 21
-1.495989028512972
 31
0.0
  0
ARC
  5
44B
330
18
100
AcDbEntity
  8
1
 62
     1
100
AcDbCircle
 10
166.609288007218
 20
133.790532992793
 30
0.0
 40
181.812847031604
100
AcDbArc
 50
228.0816622409308
 51
228.5566650117596
  0
LINE
  5
44C
330
18
100
AcDbEntity
  8
1
 62
     1
100
AcDbLine
 10
45.14545454545453
 20
-5.044544021274232
 30
0.0
 11
45.14545454545454
 21
-1.495989028512973
 31
0.0
  0
LINE
  5
44D
330
18
100
AcDbEntity
  8
1
 62
     1
100
AcDbLine
 10
45.14545454545455
 20
-5.044544021274555
 30
0.0
 11
45.71445895813839
 21
-5.909071055952763
 31
0.0
  0
LINE
  5
44E
330
18
100
AcDbEntity
  8
1
 62
     1
100
AcDbLine
 10
45.71445895813839
 20
-5.909071055952763
 30
0.0
 11
46.27113247308102
 21
-6.859974573881206
 31
0.0
  0
LINE
  5
44F
330
18
100
AcDbEntity
  8
1
 62
     1
100
AcDbLine
 10
46.27113247308102
 20
-2.49837280721977
 30
0.0
 11
46.27113247308102
 21
-6.859974573881206
 31
0.0
  0
ARC
  5
450
330
18
100
AcDbEntity
  8
1
 62
     1
100
AcDbCircle
 10
161.9911061878576
 20
133.7905329914729
 30
0.0
 40
181.8128470298343
100
AcDbArc
 50
228.0816622409293
 51
228.5566650117627
  0
LINE
  5
451
330
18
100
AcDbEntity
  8
1
 62
     1
100
AcDbLine
 10
40.52727272727272
 20
-5.044544021274232
 30
0.0
 11
40.52727272727273
 21
-1.495989028512973
 31
0.0
  0
LINE
  5
452
330
18
100
AcDbEntity
  8
1
 62
     1
100
AcDbLine
 10
40.52727272727272
 20
-5.044544021274555
 30
0.0
 11
41.09627713995658
 21
-5.909071055952763
 31
0.0
  0
LINE
  5
453
330
18
100
AcDbEntity
  8
1
 62
     1
100
AcDbLine
 10
41.09627713995658
 20
-5.909071055952763
 30
0.0
 11
41.65295065489921
 21
-6.859974573881214
 31
0.0
  0
LINE
  5
454
330
18
100
AcDbEntity
  8
1
 62
     1
100
AcDbLine
 10
41.65295065489921
 20
-2.49837280721977
 30
0.0
 11
41.65295065489921
 21
-6.859974573881206
 31
0.0
  0
ARC
  5
455
330
18
100
AcDbEntity
  8
1
 62
     1
100
AcDbCircle
 10
-92.01444876701166
 20
146.2362178623824
 30
0.0
 40
198.4745541512478
100
AcDbArc
 50
311.4625511787538
 51
311.8976779701414
  0
LINE
  5
456
330
18
100
AcDbEntity
  8
1
 62
     1
100
AcDbLine
 10
39.40159479964627
 20
-2.49837280721977
 30
0.0
 11
39.40159479964625
 21
-6.859974573881206
 31
0.0
  0
LINE
  5
457
330
18
100
AcDbEntity
  8
1
 62
     1
100
AcDbLine
 10
39.40159479964625
 20
-6.859974573881195
 30
0.0
 11
39.9583027298624
 21
-5.909016485767688
 31
0.0
  0
LINE
  5
458
330
18
100
AcDbEntity
  8
1
 62
     1
100
AcDbLine
 10
39.9583027298624
 20
-5.909016485767688
 30
0.0
 11
40.52727272727272
 21
-5.044544021274555
 31
0.0
  0
ARC
  5
459
330
18
100
AcDbEntity
  8
1
 62
     1
100
AcDbCircle
 10
159.6820152788489
 20
133.7905329915627
 30
0.0
 40
181.812847029956
100
AcDbArc
 50
228.0816622409289
 51
228.556665011762
  0
LINE
  5
45A
330
18
100
AcDbEntity
  8
1
 62
     1
100
AcDbLine
 10
38.21818181818183
 20
-5.044544021274556
 30
0.0
 11
38.78718623086566
 21
-5.909071055952767
 31
0.0
  0
LINE
  5
45B
330
18
100
AcDbEntity
  8
1
 62
     1
100
AcDbLine
 10
38.78718623086566
 20
-5.909071055952767
 30
0.0
 11
39.3438597458083
 21
-6.859974573881213
 31
0.0
  0
LINE
  5
45C
330
18
100
AcDbEntity
  8
1
 62
     1
100
AcDbLine
 10
39.3438597458083
 20
-2.49837280721977
 30
0.0
 11
39.3438597458083
 21
-6.859974573881206
 31
0.0
  0
ARC
  5
45D
330
18
100
AcDbEntity
  8
1
 62
     1
100
AcDbCircle
 10
-94.32353967447781
 20
146.236217860556
 30
0.0
 40
198.4745541488032
100
AcDbArc
 50
311.4625511787514
 51
311.8976779701445
  0
LINE
  5
45E
330
18
100
AcDbEntity
  8
1
 62
     1
100
AcDbLine
 10
37.09250389055533
 20
-2.49837280721977
 30
0.0
 11
37.09250389055533
 21
-6.859974573881208
 31
0.0
  0
LINE
  5
45F
330
18
100
AcDbEntity
  8
1
 62
     1
100
AcDbLine
 10
37.09250389055532
 20
-6.859974573881214
 30
0.0
 11
37.64921182077149
 21
-5.909016485767702
 31
0.0
  0
LINE
  5
460
330
18
100
AcDbEntity
  8
1
 62
     1
100
AcDbLine
 10
37.64921182077149
 20
-5.909016485767702
 30
0.0
 11
38.21818181818182
 21
-5.044544021274556
 31
0.0
  0
LINE
  5
461
330
18
100
AcDbEntity
  8
1
 62
     1
100
AcDbLine
 10
38.21818181818182
 20
-5.044544021274233
 30
0.0
 11
38.21818181818182
 21
-1.495989028512973
 31
0.0
  0
ARC
  5
462
330
18
100
AcDbEntity
  8
1
 62
     1
100
AcDbCircle
 10
157.3729243689163
 20
133.7905329906185
 30
0.0
 40
181.8128470286912
100
AcDbArc
 50
228.0816622409274
 51
228.5566650117639
  0
LINE
  5
463
330
18
100
AcDbEntity
  8
1
 62
     1
100
AcDbLine
 10
35.90909090909091
 20
-5.044544021274554
 30
0.0
 11
36.47809532177476
 21
-5.90907105595276
 31
0.0
  0
LINE
  5
464
330
18
100
AcDbEntity
  8
1
 62
     1
100
AcDbLine
 10
36.47809532177476
 20
-5.90907105595276
 30
0.0
 11
37.03476883671739
 21
-6.859974573881206
 31
0.0
  0
LINE
  5
465
330
18
100
AcDbEntity
  8
1
 62
     1
100
AcDbLine
 10
37.03476883671738
 20
-2.49837280721977
 30
0.0
 11
37.03476883671739
 21
-6.859974573881206
 31
0.0
  0
ARC
  5
466
330
18
100
AcDbEntity
  8
1
 62
     1
100
AcDbCircle
 10
-96.63263058297974
 20
146.2362178598941
 30
0.0
 40
198.4745541479172
100
AcDbArc
 50
311.4625511787505
 51
311.8976779701455
  0
LINE
  5
467
330
18
100
AcDbEntity
  8
1
 62
     1
100
AcDbLine
 10
34.78341298146442
 20
-2.49837280721977
 30
0.0
 11
34.78341298146441
 21
-6.859974573881206
 31
0.0
  0
LINE
  5
468
330
18
100
AcDbEntity
  8
1
 62
     1
100
AcDbLine
 10
34.78341298146442
 20
-6.859974573881214
 30
0.0
 11
35.34012091168057
 21
-5.909016485767696
 31
0.0
  0
LINE
  5
469
330
18
100
AcDbEntity
  8
1
 62
     1
100
AcDbLine
 10
35.34012091168057
 20
-5.909016485767696
 30
0.0
 11
35.90909090909091
 21
-5.044544021274554
 31
0.0
  0
LINE
  5
46A
330
18
100
AcDbEntity
  8
1
 62
     1
100
AcDbLine
 10
35.90909090909091
 20
-5.044544021274232
 30
0.0
 11
35.90909090909091
 21
-1.495989028512973
 31
0.0
  0
LINE
  5
46B
330
18
100
AcDbEntity
  8
1
 62
     1
100
AcDbLine
 10
33.48716127374342
 20
-1.597290563982389
 30
0.0
 11
33.59999999999999
 21
-1.495989028512973
 31
0.0
  0
LINE
  5
46C
330
18
100
AcDbEntity
  8
1
 62
     1
100
AcDbLine
 10
33.48716127374343
 20
-1.597290563982397
 30
0.0
 11
33.48716127374343
 21
-5.207285564427554
 31
0.0
  0
LINE
  5
46D
330
18
100
AcDbEntity
  8
1
 62
     1
100
AcDbLine
 10
33.59999999999999
 20
-5.044544021274232
 30
0.0
 11
33.59999999999999
 21
-1.495989028512974
 31
0.0
  0
ARC
  5
46E
330
18
100
AcDbEntity
  8
1
 62
     1
100
AcDbCircle
 10
155.0638334603298
 20
133.7905329911861
 30
0.0
 40
181.8128470294505
100
AcDbArc
 50
228.0816622409287
 51
228.5566650117632
  0
LINE
  5
46F
330
18
100
AcDbEntity
  8
1
 62
     1
100
AcDbLine
 10
33.59999999999999
 20
-5.044544021274554
 30
0.0
 11
34.16900441268385
 21
-5.909071055952767
 31
0.0
  0
LINE
  5
470
330
18
100
AcDbEntity
  8
1
 62
     1
100
AcDbLine
 10
34.16900441268385
 20
-5.909071055952767
 30
0.0
 11
34.72567792762649
 21
-6.85997457388121
 31
0.0
  0
LINE
  5
471
330
18
100
AcDbEntity
  8
1
 62
     1
100
AcDbLine
 10
34.72567792762649
 20
-2.49837280721977
 30
0.0
 11
34.72567792762649
 21
-6.859974573881206
 31
0.0
  0
LINE
  5
472
330
18
100
AcDbEntity
  8
1
 62
     1
100
AcDbLine
 10
33.48716127374343
 20
5.491066284034007
 30
0.0
 11
33.41025137
 21
5.372087580084649
 31
0.0
  0
LINE
  5
473
330
18
100
AcDbEntity
  8
1
 62
     1
100
AcDbLine
 10
33.41025137
 20
6.05
 30
0.0
 11
33.48716127374343
 21
6.183211861267247
 31
0.0
  0
LINE
  5
474
330
18
100
AcDbEntity
  8
1
 62
     1
100
AcDbLine
 10
33.41025137
 20
-0.8568270413610151
 30
0.0
 11
33.41025137
 21
-1.52827078712667
 31
0.0
  0
LINE
  5
475
330
18
100
AcDbEntity
  8
1
 62
     1
100
AcDbLine
 10
39.40159479964625
 20
-2.498372807219771
 30
0.0
 11
39.34385974580831
 21
-2.498372807219771
 31
0.0
  0
LINE
  5
476
330
18
100
AcDbEntity
  8
1
 62
     1
100
AcDbLine
 10
44.01977661782807
 20
-2.498372807219771
 30
0.0
 11
43.96204156399011
 21
-2.498372807219771
 31
0.0
  0
LINE
  5
477
330
18
100
AcDbEntity
  8
1
 62
     1
100
AcDbLine
 10
53.61131582808333
 20
6.436746490081632
 30
0.0
 11
52.90087483577939
 21
6.513098207219886
 31
0.0
  0
LINE
  5
478
330
18
100
AcDbEntity
  8
1
 62
     1
100
AcDbLine
 10
51.09832037141985
 20
6.70156281581784
 30
0.0
 11
50.76508222121092
 21
6.735548274657905
 31
0.0
  0
LINE
  5
479
330
18
100
AcDbEntity
  8
1
 62
     1
100
AcDbLine
 10
48.63795843600988
 20
6.888092450433684
 30
0.0
 11
48.58022338217195
 21
6.888092450433684
 31
0.0
  0
LINE
  5
47A
330
18
100
AcDbEntity
  8
1
 62
     1
100
AcDbLine
 10
46.32886752691898
 20
6.888092450433684
 30
0.0
 11
46.27113247308102
 21
6.888092450433684
 31
0.0
  0
LINE
  5
47B
330
18
100
AcDbEntity
  8
1
 62
     1
100
AcDbLine
 10
44.01977661782809
 20
6.888092450433684
 30
0.0
 11
43.96204156399013
 21
6.888092450433684
 31
0.0
  0
LINE
  5
47C
330
18
100
AcDbEntity
  8
1
 62
     1
100
AcDbLine
 10
41.71068570873716
 20
6.888092450433684
 30
0.0
 11
41.65295065489921
 21
6.888092450433684
 31
0.0
  0
LINE
  5
47D
330
18
100
AcDbEntity
  8
1
 62
     1
100
AcDbLine
 10
39.40159479964628
 20
6.888092450433684
 30
0.0
 11
39.34385974580831
 21
6.888092450433686
 31
0.0
  0
LINE
  5
47E
330
18
100
AcDbEntity
  8
1
 62
     1
100
AcDbLine
 10
37.09250389055533
 20
6.888092450433684
 30
0.0
 11
37.03476883671739
 21
6.888092450433684
 31
0.0
  0
LINE
  5
47F
330
18
100
AcDbEntity
  8
1
 62
     1
100
AcDbLine
 10
34.78341298146442
 20
6.888092450433684
 30
0.0
 11
34.72567792762649
 21
6.888092450433684
 31
0.0
  0
LINE
  5
480
330
18
100
AcDbEntity
  8
1
 62
     1
100
AcDbLine
 10
33.48716127374342
 20
5.491066284033971
 30
0.0
 11
33.59999999999999
 21
5.315920129168324
 31
0.0
  0
LINE
  5
481
330
18
100
AcDbEntity
  8
1
 62
     1
100
AcDbLine
 10
58.63730674141026
 20
6.615972403994923
 30
0.0
 11
58.63730674141026
 21
6.615811926916465
 31
0.0
  0
LINE
  5
482
330
18
100
AcDbEntity
  8
1
 62
     1
100
AcDbLine
 10
58.63730674141026
 20
6.615811926916465
 30
0.0
 11
58.63730674141027
 21
6.567554462751145
 31
0.0
  0
LINE
  5
483
330
18
100
AcDbEntity
  8
1
 62
     1
100
AcDbLine
 10
58.63730674141027
 20
6.567554462751145
 30
0.0
 11
58.63730674141026
 21
5.865757530090429
 31
0.0
  0
ARC
  5
484
330
18
100
AcDbEntity
  8
1
 62
     1
100
AcDbCircle
 10
41.72650132476508
 20
-5.682622794982159
 30
0.0
 40
20.4778084686455
100
AcDbArc
 50
32.48610247316141
 51
34.32914880242077
  0
ARC
  5
485
330
18
100
AcDbEntity
  8
1
 62
     1
100
AcDbCircle
 10
73.78913508796542
 20
-5.570136189079931
 30
0.0
 40
20.26955827438796
100
AcDbArc
 50
145.0635661032189
 51
147.5160085420366
  0
LINE
  5
486
330
18
100
AcDbEntity
  8
1
 62
     1
100
AcDbLine
 10
57.17246006491636
 20
6.821839909983852
 30
0.0
 11
57.17246006491636
 21
6.821672223937766
 31
0.0
  0
LINE
  5
487
330
18
100
AcDbEntity
  8
1
 62
     1
100
AcDbLine
 10
57.17246006491636
 20
6.821672223937766
 30
0.0
 11
57.17246006491636
 21
6.77123350916626
 31
0.0
  0
LINE
  5
488
330
18
100
AcDbEntity
  8
1
 62
     1
100
AcDbLine
 10
57.17246006491636
 20
6.77123350916626
 30
0.0
 11
57.17246006491636
 21
6.03753248039994
 31
0.0
  0
LINE
  5
489
330
18
100
AcDbEntity
  8
1
 62
     1
100
AcDbLine
 10
56.1243112847468
 20
6.969145275617962
 30
0.0
 11
56.12431128474681
 21
6.968971886439903
 31
0.0
  0
LINE
  5
48A
330
18
100
AcDbEntity
  8
1
 62
     1
100
AcDbLine
 10
56.12431128474681
 20
6.968971886439903
 30
0.0
 11
56.1243112847468
 21
6.91680503325513
 31
0.0
  0
LINE
  5
48B
330
18
100
AcDbEntity
  8
1
 62
     1
100
AcDbLine
 10
56.1243112847468
 20
6.91680503325513
 30
0.0
 11
56.12431128474681
 21
6.157796856650431
 31
0.0
  0
ARC
  5
48C
330
18
100
AcDbEntity
  8
1
 62
     1
100
AcDbCircle
 10
40.46500834156419
 20
-4.989483891040937
 30
0.0
 40
19.22177317314542
100
AcDbArc
 50
32.42047184494766
 51
35.44566260460331
  0
LINE
  5
48D
330
18
100
AcDbEntity
  8
1
 62
     1
100
AcDbLine
 10
56.69090909090909
 20
5.315920129168281
 30
0.0
 11
56.69090909090909
 21
5.987769545454546
 31
0.0
  0
LINE
  5
48E
330
18
100
AcDbEntity
  8
1
 62
     1
100
AcDbLine
 10
48.63795843600988
 20
7.9375
 30
0.0
 11
48.63795843600988
 21
7.937276733362574
 31
0.0
  0
LINE
  5
48F
330
18
100
AcDbEntity
  8
1
 62
     1
100
AcDbLine
 10
48.63795843600988
 20
7.937276733362574
 30
0.0
 11
48.63795843600988
 21
7.869932723386548
 31
0.0
  0
LINE
  5
490
330
18
100
AcDbEntity
  8
1
 62
     1
100
AcDbLine
 10
48.63795843600988
 20
7.869932723386548
 30
0.0
 11
48.63795843600989
 21
6.888092450433684
 31
0.0
  0
LINE
  5
491
330
18
100
AcDbEntity
  8
1
 62
     1
100
AcDbLine
 10
48.63795843600987
 20
6.888092450433684
 30
0.0
 11
48.91394630394608
 21
6.541336257856588
 31
0.0
  0
LINE
  5
492
330
18
100
AcDbEntity
  8
1
 62
     1
100
AcDbLine
 10
48.91394630394608
 20
6.541336257856588
 30
0.0
 11
49.19466636612413
 21
6.161119124715355
 31
0.0
  0
LINE
  5
493
330
18
100
AcDbEntity
  8
1
 62
     1
100
AcDbLine
 10
49.19466636612413
 20
6.161119124715355
 30
0.0
 11
49.76363636363637
 21
5.315920129168324
 31
0.0
  0
LINE
  5
494
330
18
100
AcDbEntity
  8
1
 62
     1
100
AcDbLine
 10
49.76363636363635
 20
5.31592012916828
 30
0.0
 11
49.76363636363636
 21
5.987769545454546
 31
0.0
  0
LINE
  5
495
330
18
100
AcDbEntity
  8
1
 62
     1
100
AcDbLine
 10
46.32886752691896
 20
7.9375
 30
0.0
 11
46.32886752691896
 21
7.937276733362574
 31
0.0
  0
LINE
  5
496
330
18
100
AcDbEntity
  8
1
 62
     1
100
AcDbLine
 10
46.32886752691896
 20
7.937276733362574
 30
0.0
 11
46.32886752691896
 21
7.869932723386548
 31
0.0
  0
LINE
  5
497
330
18
100
AcDbEntity
  8
1
 62
     1
100
AcDbLine
 10
46.32886752691896
 20
7.869932723386548
 30
0.0
 11
46.32886752691896
 21
6.888092450433684
 31
0.0
  0
LINE
  5
498
330
18
100
AcDbEntity
  8
1
 62
     1
100
AcDbLine
 10
46.32886752691897
 20
6.888092450433689
 30
0.0
 11
46.6048553948552
 21
6.541336257856595
 31
0.0
  0
LINE
  5
499
330
18
100
AcDbEntity
  8
1
 62
     1
100
AcDbLine
 10
46.6048553948552
 20
6.541336257856595
 30
0.0
 11
46.88557545703323
 21
6.161119124715359
 31
0.0
  0
LINE
  5
49A
330
18
100
AcDbEntity
  8
1
 62
     1
100
AcDbLine
 10
46.88557545703323
 20
6.161119124715359
 30
0.0
 11
47.45454545454545
 21
5.315920129168324
 31
0.0
  0
LINE
  5
49B
330
18
100
AcDbEntity
  8
1
 62
     1
100
AcDbLine
 10
47.45454545454546
 20
5.315920129168281
 30
0.0
 11
47.45454545454545
 21
5.987769545454546
 31
0.0
  0
LINE
  5
49C
330
18
100
AcDbEntity
  8
1
 62
     1
100
AcDbLine
 10
47.45454545454545
 20
5.315920129168324
 30
0.0
 11
48.02354986678954
 21
6.161167261897284
 31
0.0
  0
LINE
  5
49D
330
18
100
AcDbEntity
  8
1
 62
     1
100
AcDbLine
 10
48.02354986678954
 20
6.161167261897284
 30
0.0
 11
48.3042512535018
 21
6.541356927142063
 31
0.0
  0
LINE
  5
49E
330
18
100
AcDbEntity
  8
1
 62
     1
100
AcDbLine
 10
48.3042512535018
 20
6.541356927142063
 30
0.0
 11
48.58022338217194
 21
6.888092450433689
 31
0.0
  0
LINE
  5
49F
330
18
100
AcDbEntity
  8
1
 62
     1
100
AcDbLine
 10
48.58022338217194
 20
7.9375
 30
0.0
 11
48.58022338217194
 21
7.937276733362574
 31
0.0
  0
LINE
  5
4A0
330
18
100
AcDbEntity
  8
1
 62
     1
100
AcDbLine
 10
48.58022338217194
 20
7.937276733362574
 30
0.0
 11
48.58022338217194
 21
7.869932723386548
 31
0.0
  0
LINE
  5
4A1
330
18
100
AcDbEntity
  8
1
 62
     1
100
AcDbLine
 10
48.58022338217194
 20
7.869932723386548
 30
0.0
 11
48.58022338217194
 21
6.888092450433684
 31
0.0
  0
LINE
  5
4A2
330
18
100
AcDbEntity
  8
1
 62
     1
100
AcDbLine
 10
51.09832037141989
 20
7.675491018864039
 30
0.0
 11
51.09832037141989
 21
7.675283518054342
 31
0.0
  0
LINE
  5
4A3
330
18
100
AcDbEntity
  8
1
 62
     1
100
AcDbLine
 10
51.09832037141989
 20
7.675283518054342
 30
0.0
 11
51.09832037141989
 21
7.612747167598707
 31
0.0
  0
LINE
  5
4A4
330
18
100
AcDbEntity
  8
1
 62
     1
100
AcDbLine
 10
51.09832037141989
 20
7.612747167598707
 30
0.0
 11
51.09832037141988
 21
6.701562815817835
 31
0.0
  0
LINE
  5
4A5
330
18
100
AcDbEntity
  8
1
 62
     1
100
AcDbLine
 10
51.09832037141986
 20
6.70156281581783
 30
0.0
 11
51.58164941936543
 21
6.051115554595361
 31
0.0
  0
LINE
  5
4A6
330
18
100
AcDbEntity
  8
1
 62
     1
100
AcDbLine
 10
51.58164941936543
 20
6.051115554595361
 30
0.0
 11
52.07272727272728
 21
5.315920129168324
 31
0.0
  0
LINE
  5
4A7
330
18
100
AcDbEntity
  8
1
 62
     1
100
AcDbLine
 10
52.07272727272726
 20
5.31592012916828
 30
0.0
 11
52.07272727272727
 21
5.987769545454546
 31
0.0
  0
ARC
  5
4A8
330
18
100
AcDbEntity
  8
1
 62
     1
100
AcDbCircle
 10
70.73233143217695
 20
-5.078067139003251
 30
0.0
 40
19.37453686686568
100
AcDbArc
 50
144.1084083831541
 51
147.5559645404689
  0
LINE
  5
4A9
330
18
100
AcDbEntity
  8
1
 62
     1
100
AcDbLine
 10
55.03666745034788
 20
7.12200122101142
 30
0.0
 11
55.03666745034788
 21
7.121821419243556
 31
0.0
  0
LINE
  5
4AA
330
18
100
AcDbEntity
  8
1
 62
     1
100
AcDbLine
 10
55.03666745034788
 20
7.121821419243556
 30
0.0
 11
55.03666745034789
 21
7.067709235733728
 31
0.0
  0
LINE
  5
4AB
330
18
100
AcDbEntity
  8
1
 62
     1
100
AcDbLine
 10
55.03666745034789
 20
7.067709235733728
 30
0.0
 11
55.03666745034789
 21
6.280188737504299
 31
0.0
  0
LINE
  5
4AC
330
18
100
AcDbEntity
  8
1
 62
     1
100
AcDbLine
 10
49.76363636363637
 20
5.315920129168324
 30
0.0
 11
50.26861701457449
 21
6.070887611024859
 31
0.0
  0
LINE
  5
4AD
330
18
100
AcDbEntity
  8
1
 62
     1
100
AcDbLine
 10
50.26861701457449
 20
6.070887611024859
 30
0.0
 11
50.76508222121092
 21
6.735548274657905
 31
0.0
  0
LINE
  5
4AE
330
18
100
AcDbEntity
  8
1
 62
     1
100
AcDbLine
 10
50.76508222121092
 20
7.722323843066559
 30
0.0
 11
50.76508222121092
 21
7.72211365621085
 31
0.0
  0
LINE
  5
4AF
330
18
100
AcDbEntity
  8
1
 62
     1
100
AcDbLine
 10
50.76508222121092
 20
7.72211365621085
 30
0.0
 11
50.76508222121091
 21
7.658758814557769
 31
0.0
  0
LINE
  5
4B0
330
18
100
AcDbEntity
  8
1
 62
     1
100
AcDbLine
 10
50.76508222121091
 20
7.658758814557769
 30
0.0
 11
50.76508222121092
 21
6.735548274657905
 31
0.0
  0
LINE
  5
4B1
330
18
100
AcDbEntity
  8
1
 62
     1
100
AcDbLine
 10
53.61131582808333
 20
7.322318147241002
 30
0.0
 11
53.61131582808333
 21
7.322129153332895
 31
0.0
  0
LINE
  5
4B2
330
18
100
AcDbEntity
  8
1
 62
     1
100
AcDbLine
 10
53.61131582808333
 20
7.322129153332895
 30
0.0
 11
53.61131582808333
 21
7.265224898782964
 31
0.0
  0
LINE
  5
4B3
330
18
100
AcDbEntity
  8
1
 62
     1
100
AcDbLine
 10
53.61131582808333
 20
7.265224898782964
 30
0.0
 11
53.61131582808333
 21
6.436746490081627
 31
0.0
  0
ARC
  5
4B4
330
18
100
AcDbEntity
  8
1
 62
     1
100
AcDbCircle
 10
39.31253895041196
 20
-4.211149994467474
 30
0.0
 40
17.82793619160521
100
AcDbArc
 50
32.30181254809211
 51
36.67401754188316
  0
LINE
  5
4B5
330
18
100
AcDbEntity
  8
1
 62
     1
100
AcDbLine
 10
54.38181818181817
 20
5.315920129168281
 30
0.0
 11
54.38181818181818
 21
5.987769545454546
 31
0.0
  0
ARC
  5
4B6
330
18
100
AcDbEntity
  8
1
 62
     1
100
AcDbCircle
 10
67.61397616070215
 20
-4.540110253742601
 30
0.0
 40
18.40294213016803
100
AcDbArc
 50
143.0843154039228
 51
147.6177335264121
  0
LINE
  5
4B7
330
18
100
AcDbEntity
  8
1
 62
     1
100
AcDbLine
 10
52.9008748357794
 20
7.422162532038989
 30
0.0
 11
52.9008748357794
 21
7.421968611089593
 31
0.0
  0
LINE
  5
4B8
330
18
100
AcDbEntity
  8
1
 62
     1
100
AcDbLine
 10
52.9008748357794
 20
7.421968611089593
 30
0.0
 11
52.90087483577941
 21
7.363566256457108
 31
0.0
  0
LINE
  5
4B9
330
18
100
AcDbEntity
  8
1
 62
     1
100
AcDbLine
 10
52.90087483577941
 20
7.363566256457108
 30
0.0
 11
52.90087483577941
 21
6.513098207219885
 31
0.0
  0
LINE
  5
4BA
330
18
100
AcDbEntity
  8
1
 62
     1
100
AcDbLine
 10
40.52727272727273
 20
5.315920129168325
 30
0.0
 11
41.09627713951679
 21
6.161167261897287
 31
0.0
  0
LINE
  5
4BB
330
18
100
AcDbEntity
  8
1
 62
     1
100
AcDbLine
 10
41.09627713951679
 20
6.161167261897287
 30
0.0
 11
41.37697852622907
 21
6.541356927142065
 31
0.0
  0
LINE
  5
4BC
330
18
100
AcDbEntity
  8
1
 62
     1
100
AcDbLine
 10
41.37697852622907
 20
6.541356927142065
 30
0.0
 11
41.65295065489921
 21
6.88809245043369
 31
0.0
  0
LINE
  5
4BD
330
18
100
AcDbEntity
  8
1
 62
     1
100
AcDbLine
 10
41.65295065489921
 20
7.9375
 30
0.0
 11
41.65295065489922
 21
7.937276733362574
 31
0.0
  0
LINE
  5
4BE
330
18
100
AcDbEntity
  8
1
 62
     1
100
AcDbLine
 10
41.65295065489922
 20
7.937276733362574
 30
0.0
 11
41.65295065489921
 21
7.869932723386548
 31
0.0
  0
LINE
  5
4BF
330
18
100
AcDbEntity
  8
1
 62
     1
100
AcDbLine
 10
41.65295065489921
 20
7.869932723386548
 30
0.0
 11
41.65295065489921
 21
6.888092450433683
 31
0.0
  0
LINE
  5
4C0
330
18
100
AcDbEntity
  8
1
 62
     1
100
AcDbLine
 10
45.14545454545454
 20
5.315920129168324
 30
0.0
 11
45.71445895769862
 21
6.161167261897283
 31
0.0
  0
LINE
  5
4C1
330
18
100
AcDbEntity
  8
1
 62
     1
100
AcDbLine
 10
45.71445895769862
 20
6.161167261897283
 30
0.0
 11
45.99516034441088
 21
6.541356927142059
 31
0.0
  0
LINE
  5
4C2
330
18
100
AcDbEntity
  8
1
 62
     1
100
AcDbLine
 10
45.99516034441088
 20
6.541356927142059
 30
0.0
 11
46.27113247308102
 21
6.888092450433683
 31
0.0
  0
LINE
  5
4C3
330
18
100
AcDbEntity
  8
1
 62
     1
100
AcDbLine
 10
46.27113247308102
 20
7.9375
 30
0.0
 11
46.27113247308102
 21
7.937276733362574
 31
0.0
  0
LINE
  5
4C4
330
18
100
AcDbEntity
  8
1
 62
     1
100
AcDbLine
 10
46.27113247308102
 20
7.937276733362574
 30
0.0
 11
46.27113247308102
 21
7.869932723386548
 31
0.0
  0
LINE
  5
4C5
330
18
100
AcDbEntity
  8
1
 62
     1
100
AcDbLine
 10
46.27113247308102
 20
7.869932723386548
 30
0.0
 11
46.27113247308102
 21
6.888092450433683
 31
0.0
  0
LINE
  5
4C6
330
18
100
AcDbEntity
  8
1
 62
     1
100
AcDbLine
 10
41.71068570873717
 20
7.9375
 30
0.0
 11
41.71068570873717
 21
7.937276733362574
 31
0.0
  0
LINE
  5
4C7
330
18
100
AcDbEntity
  8
1
 62
     1
100
AcDbLine
 10
41.71068570873717
 20
7.937276733362574
 30
0.0
 11
41.71068570873717
 21
7.869932723386548
 31
0.0
  0
LINE
  5
4C8
330
18
100
AcDbEntity
  8
1
 62
     1
100
AcDbLine
 10
41.71068570873717
 20
7.869932723386548
 30
0.0
 11
41.71068570873717
 21
6.888092450433684
 31
0.0
  0
LINE
  5
4C9
330
18
100
AcDbEntity
  8
1
 62
     1
100
AcDbLine
 10
41.71068570873716
 20
6.888092450433678
 30
0.0
 11
41.98667357667338
 21
6.541336257856582
 31
0.0
  0
LINE
  5
4CA
330
18
100
AcDbEntity
  8
1
 62
     1
100
AcDbLine
 10
41.98667357667338
 20
6.541336257856582
 30
0.0
 11
42.2673936388514
 21
6.161119124715349
 31
0.0
  0
LINE
  5
4CB
330
18
100
AcDbEntity
  8
1
 62
     1
100
AcDbLine
 10
42.2673936388514
 20
6.161119124715349
 30
0.0
 11
42.83636363636363
 21
5.315920129168324
 31
0.0
  0
LINE
  5
4CC
330
18
100
AcDbEntity
  8
1
 62
     1
100
AcDbLine
 10
44.01977661782808
 20
7.9375
 30
0.0
 11
44.01977661782807
 21
7.937276733362574
 31
0.0
  0
LINE
  5
4CD
330
18
100
AcDbEntity
  8
1
 62
     1
100
AcDbLine
 10
44.01977661782807
 20
7.937276733362574
 30
0.0
 11
44.01977661782808
 21
7.869932723386548
 31
0.0
  0
LINE
  5
4CE
330
18
100
AcDbEntity
  8
1
 62
     1
100
AcDbLine
 10
44.01977661782808
 20
7.869932723386548
 30
0.0
 11
44.01977661782808
 21
6.888092450433684
 31
0.0
  0
LINE
  5
4CF
330
18
100
AcDbEntity
  8
1
 62
     1
100
AcDbLine
 10
44.01977661782806
 20
6.888092450433677
 30
0.0
 11
44.29576448576429
 21
6.541336257856581
 31
0.0
  0
LINE
  5
4D0
330
18
100
AcDbEntity
  8
1
 62
     1
100
AcDbLine
 10
44.29576448576429
 20
6.541336257856581
 30
0.0
 11
44.5764845479423
 21
6.16111912471535
 31
0.0
  0
LINE
  5
4D1
330
18
100
AcDbEntity
  8
1
 62
     1
100
AcDbLine
 10
44.5764845479423
 20
6.16111912471535
 30
0.0
 11
45.14545454545454
 21
5.315920129168324
 31
0.0
  0
LINE
  5
4D2
330
18
100
AcDbEntity
  8
1
 62
     1
100
AcDbLine
 10
45.14545454545454
 20
5.315920129168281
 30
0.0
 11
45.14545454545454
 21
5.987769545454546
 31
0.0
  0
LINE
  5
4D3
330
18
100
AcDbEntity
  8
1
 62
     1
100
AcDbLine
 10
42.83636363636364
 20
5.315920129168281
 30
0.0
 11
42.83636363636363
 21
5.987769545454546
 31
0.0
  0
LINE
  5
4D4
330
18
100
AcDbEntity
  8
1
 62
     1
100
AcDbLine
 10
42.83636363636363
 20
5.315920129168324
 30
0.0
 11
43.40536804860769
 21
6.161167261897287
 31
0.0
  0
LINE
  5
4D5
330
18
100
AcDbEntity
  8
1
 62
     1
100
AcDbLine
 10
43.40536804860769
 20
6.161167261897287
 30
0.0
 11
43.68606943531996
 21
6.541356927142066
 31
0.0
  0
LINE
  5
4D6
330
18
100
AcDbEntity
  8
1
 62
     1
100
AcDbLine
 10
43.68606943531996
 20
6.541356927142066
 30
0.0
 11
43.96204156399013
 21
6.888092450433689
 31
0.0
  0
LINE
  5
4D7
330
18
100
AcDbEntity
  8
1
 62
     1
100
AcDbLine
 10
43.96204156399012
 20
7.9375
 30
0.0
 11
43.96204156399012
 21
7.937276733362574
 31
0.0
  0
LINE
  5
4D8
330
18
100
AcDbEntity
  8
1
 62
     1
100
AcDbLine
 10
43.96204156399012
 20
7.937276733362574
 30
0.0
 11
43.96204156399012
 21
7.869932723386548
 31
0.0
  0
LINE
  5
4D9
330
18
100
AcDbEntity
  8
1
 62
     1
100
AcDbLine
 10
43.96204156399012
 20
7.869932723386548
 30
0.0
 11
43.96204156399011
 21
6.888092450433683
 31
0.0
  0
LINE
  5
4DA
330
18
100
AcDbEntity
  8
1
 62
     1
100
AcDbLine
 10
33.59999999999999
 20
5.31592012916828
 30
0.0
 11
33.59999999999999
 21
5.987769545454546
 31
0.0
  0
LINE
  5
4DB
330
18
100
AcDbEntity
  8
1
 62
     1
100
AcDbLine
 10
33.59999999999999
 20
5.315920129168324
 30
0.0
 11
34.16900441224408
 21
6.161167261897284
 31
0.0
  0
LINE
  5
4DC
330
18
100
AcDbEntity
  8
1
 62
     1
100
AcDbLine
 10
34.16900441224408
 20
6.161167261897284
 30
0.0
 11
34.44970579895633
 21
6.541356927142066
 31
0.0
  0
LINE
  5
4DD
330
18
100
AcDbEntity
  8
1
 62
     1
100
AcDbLine
 10
34.44970579895633
 20
6.541356927142066
 30
0.0
 11
34.72567792762649
 21
6.888092450433687
 31
0.0
  0
LINE
  5
4DE
330
18
100
AcDbEntity
  8
1
 62
     1
100
AcDbLine
 10
34.72567792762649
 20
7.9375
 30
0.0
 11
34.72567792762649
 21
7.937276733362574
 31
0.0
  0
LINE
  5
4DF
330
18
100
AcDbEntity
  8
1
 62
     1
100
AcDbLine
 10
34.72567792762649
 20
7.937276733362574
 30
0.0
 11
34.72567792762649
 21
7.869932723386548
 31
0.0
  0
LINE
  5
4E0
330
18
100
AcDbEntity
  8
1
 62
     1
100
AcDbLine
 10
34.72567792762649
 20
7.869932723386548
 30
0.0
 11
34.72567792762649
 21
6.888092450433684
 31
0.0
  0
LINE
  5
4E1
330
18
100
AcDbEntity
  8
1
 62
     1
100
AcDbLine
 10
34.78341298146442
 20
7.9375
 30
0.0
 11
34.78341298146442
 21
7.937276733362574
 31
0.0
  0
LINE
  5
4E2
330
18
100
AcDbEntity
  8
1
 62
     1
100
AcDbLine
 10
34.78341298146442
 20
7.937276733362574
 30
0.0
 11
34.78341298146442
 21
7.869932723386548
 31
0.0
  0
LINE
  5
4E3
330
18
100
AcDbEntity
  8
1
 62
     1
100
AcDbLine
 10
34.78341298146442
 20
7.869932723386548
 30
0.0
 11
34.78341298146442
 21
6.888092450433683
 31
0.0
  0
LINE
  5
4E4
330
18
100
AcDbEntity
  8
1
 62
     1
100
AcDbLine
 10
34.78341298146442
 20
6.888092450433689
 30
0.0
 11
35.05940084940064
 21
6.541336257856591
 31
0.0
  0
LINE
  5
4E5
330
18
100
AcDbEntity
  8
1
 62
     1
100
AcDbLine
 10
35.05940084940064
 20
6.541336257856591
 30
0.0
 11
35.34012091157868
 21
6.161119124715356
 31
0.0
  0
LINE
  5
4E6
330
18
100
AcDbEntity
  8
1
 62
     1
100
AcDbLine
 10
35.34012091157868
 20
6.161119124715356
 30
0.0
 11
35.90909090909091
 21
5.315920129168324
 31
0.0
  0
LINE
  5
4E7
330
18
100
AcDbEntity
  8
1
 62
     1
100
AcDbLine
 10
35.90909090909091
 20
5.315920129168281
 30
0.0
 11
35.90909090909091
 21
5.987769545454546
 31
0.0
  0
LINE
  5
4E8
330
18
100
AcDbEntity
  8
1
 62
     1
100
AcDbLine
 10
35.90909090909091
 20
5.315920129168324
 30
0.0
 11
36.47809532133497
 21
6.161167261897284
 31
0.0
  0
LINE
  5
4E9
330
18
100
AcDbEntity
  8
1
 62
     1
100
AcDbLine
 10
36.47809532133497
 20
6.161167261897284
 30
0.0
 11
36.75879670804725
 21
6.541356927142063
 31
0.0
  0
LINE
  5
4EA
330
18
100
AcDbEntity
  8
1
 62
     1
100
AcDbLine
 10
36.75879670804725
 20
6.541356927142063
 30
0.0
 11
37.0347688367174
 21
6.888092450433684
 31
0.0
  0
LINE
  5
4EB
330
18
100
AcDbEntity
  8
1
 62
     1
100
AcDbLine
 10
37.03476883671739
 20
7.9375
 30
0.0
 11
37.0347688367174
 21
7.937276733362574
 31
0.0
  0
LINE
  5
4EC
330
18
100
AcDbEntity
  8
1
 62
     1
100
AcDbLine
 10
37.0347688367174
 20
7.937276733362574
 30
0.0
 11
37.03476883671739
 21
7.869932723386548
 31
0.0
  0
LINE
  5
4ED
330
18
100
AcDbEntity
  8
1
 62
     1
100
AcDbLine
 10
37.03476883671739
 20
7.869932723386548
 30
0.0
 11
37.03476883671739
 21
6.888092450433684
 31
0.0
  0
LINE
  5
4EE
330
18
100
AcDbEntity
  8
1
 62
     1
100
AcDbLine
 10
37.09250389055533
 20
7.9375
 30
0.0
 11
37.09250389055534
 21
7.937276733362574
 31
0.0
  0
LINE
  5
4EF
330
18
100
AcDbEntity
  8
1
 62
     1
100
AcDbLine
 10
37.09250389055534
 20
7.937276733362574
 30
0.0
 11
37.09250389055533
 21
7.869932723386548
 31
0.0
  0
LINE
  5
4F0
330
18
100
AcDbEntity
  8
1
 62
     1
100
AcDbLine
 10
37.09250389055533
 20
7.869932723386548
 30
0.0
 11
37.09250389055533
 21
6.888092450433684
 31
0.0
  0
LINE
  5
4F1
330
18
100
AcDbEntity
  8
1
 62
     1
100
AcDbLine
 10
37.09250389055534
 20
6.888092450433689
 30
0.0
 11
37.36849175849154
 21
6.54133625785659
 31
0.0
  0
LINE
  5
4F2
330
18
100
AcDbEntity
  8
1
 62
     1
100
AcDbLine
 10
37.36849175849154
 20
6.54133625785659
 30
0.0
 11
37.64921182066958
 21
6.161119124715356
 31
0.0
  0
LINE
  5
4F3
330
18
100
AcDbEntity
  8
1
 62
     1
100
AcDbLine
 10
37.64921182066958
 20
6.161119124715356
 30
0.0
 11
38.21818181818182
 21
5.315920129168323
 31
0.0
  0
LINE
  5
4F4
330
18
100
AcDbEntity
  8
1
 62
     1
100
AcDbLine
 10
38.21818181818182
 20
5.315920129168281
 30
0.0
 11
38.21818181818182
 21
5.987769545454546
 31
0.0
  0
LINE
  5
4F5
330
18
100
AcDbEntity
  8
1
 62
     1
100
AcDbLine
 10
38.21818181818182
 20
5.315920129168323
 30
0.0
 11
38.78718623042589
 21
6.161167261897283
 31
0.0
  0
LINE
  5
4F6
330
18
100
AcDbEntity
  8
1
 62
     1
100
AcDbLine
 10
38.78718623042589
 20
6.161167261897283
 30
0.0
 11
39.06788761713816
 21
6.541356927142062
 31
0.0
  0
LINE
  5
4F7
330
18
100
AcDbEntity
  8
1
 62
     1
100
AcDbLine
 10
39.06788761713816
 20
6.541356927142062
 30
0.0
 11
39.3438597458083
 21
6.888092450433688
 31
0.0
  0
LINE
  5
4F8
330
18
100
AcDbEntity
  8
1
 62
     1
100
AcDbLine
 10
39.3438597458083
 20
7.9375
 30
0.0
 11
39.3438597458083
 21
7.937276733362574
 31
0.0
  0
LINE
  5
4F9
330
18
100
AcDbEntity
  8
1
 62
     1
100
AcDbLine
 10
39.3438597458083
 20
7.937276733362574
 30
0.0
 11
39.3438597458083
 21
7.869932723386548
 31
0.0
  0
LINE
  5
4FA
330
18
100
AcDbEntity
  8
1
 62
     1
100
AcDbLine
 10
39.3438597458083
 20
7.869932723386548
 30
0.0
 11
39.3438597458083
 21
6.888092450433684
 31
0.0
  0
LINE
  5
4FB
330
18
100
AcDbEntity
  8
1
 62
     1
100
AcDbLine
 10
39.40159479964627
 20
7.9375
 30
0.0
 11
39.40159479964626
 21
7.937276733362574
 31
0.0
  0
LINE
  5
4FC
330
18
100
AcDbEntity
  8
1
 62
     1
100
AcDbLine
 10
39.40159479964626
 20
7.937276733362574
 30
0.0
 11
39.40159479964626
 21
7.869932723386548
 31
0.0
  0
LINE
  5
4FD
330
18
100
AcDbEntity
  8
1
 62
     1
100
AcDbLine
 10
39.40159479964626
 20
7.869932723386548
 30
0.0
 11
39.40159479964627
 21
6.888092450433684
 31
0.0
  0
LINE
  5
4FE
330
18
100
AcDbEntity
  8
1
 62
     1
100
AcDbLine
 10
39.40159479964625
 20
6.888092450433676
 30
0.0
 11
39.67758266758246
 21
6.541336257856577
 31
0.0
  0
LINE
  5
4FF
330
18
100
AcDbEntity
  8
1
 62
     1
100
AcDbLine
 10
39.67758266758246
 20
6.541336257856577
 30
0.0
 11
39.95830272976048
 21
6.161119124715345
 31
0.0
  0
LINE
  5
500
330
18
100
AcDbEntity
  8
1
 62
     1
100
AcDbLine
 10
39.95830272976048
 20
6.161119124715345
 30
0.0
 11
40.52727272727273
 21
5.315920129168325
 31
0.0
  0
LINE
  5
501
330
18
100
AcDbEntity
  8
1
 62
     1
100
AcDbLine
 10
40.52727272727271
 20
5.31592012916828
 30
0.0
 11
40.52727272727272
 21
5.987769545454546
 31
0.0
  0
LINE
  5
502
330
18
100
AcDbEntity
  8
1
 62
     1
100
AcDbLine
 10
33.48716127374343
 20
6.18321186126725
 30
0.0
 11
33.48716127374344
 21
6.183063736221196
 31
0.0
  0
LINE
  5
503
330
18
100
AcDbEntity
  8
1
 62
     1
100
AcDbLine
 10
33.48716127374344
 20
6.183063736221196
 30
0.0
 11
33.48716127374343
 21
6.138531716887468
 31
0.0
  0
LINE
  5
504
330
18
100
AcDbEntity
  8
1
 62
     1
100
AcDbLine
 10
33.48716127374343
 20
6.138531716887468
 30
0.0
 11
33.48716127374343
 21
5.491066284033971
 31
0.0
  0
LINE
  5
505
330
18
100
AcDbEntity
  8
1
 62
     1
100
AcDbLine
 10
33.41025136999999
 20
-1.528270787126689
 30
0.0
 11
33.41025137
 21
-5.095894672135152
 31
0.0
  0
LINE
  5
506
330
18
100
AcDbEntity
  8
1
 62
     1
100
AcDbLine
 10
33.41025137
 20
5.372087580084648
 30
0.0
 11
33.41025137
 21
-0.8568270413610823
 31
0.0
  0
LINE
  5
507
330
18
100
AcDbEntity
  8
1
 62
     1
100
AcDbLine
 10
33.41025137
 20
6.05
 30
0.0
 11
33.41025137
 21
6.049997738874906
 31
0.0
  0
LINE
  5
508
330
18
100
AcDbEntity
  8
1
 62
     1
100
AcDbLine
 10
33.41025137
 20
6.049997738874906
 30
0.0
 11
33.41025137
 21
6.049342810005359
 31
0.0
  0
LINE
  5
509
330
18
100
AcDbEntity
  8
1
 62
     1
100
AcDbLine
 10
33.41025137
 20
6.049342810005359
 30
0.0
 11
33.41025137
 21
6.04053329927652
 31
0.0
  0
LINE
  5
50A
330
18
100
AcDbEntity
  8
1
 62
     1
100
AcDbLine
 10
33.41025137
 20
6.04053329927652
 30
0.0
 11
33.41025137
 21
5.96129313948413
 31
0.0
  0
LINE
  5
50B
330
18
100
AcDbEntity
  8
1
 62
     1
100
AcDbLine
 10
33.41025136999999
 20
5.961293139484128
 30
0.0
 11
33.41025137
 21
5.372087580084639
 31
0.0
  0
LINE
  5
50C
330
18
100
AcDbEntity
  8
1
 62
     1
100
AcDbLine
 10
58.99999999999999
 20
5.987769545454545
 30
0.0
 11
58.63730674141025
 21
6.61597240399492
 31
0.0
  0
LINE
  5
50D
330
18
100
AcDbEntity
  8
1
 62
     1
100
AcDbLine
 10
57.17246006491636
 20
6.821839909983851
 30
0.0
 11
56.69090909090909
 21
5.987769545454546
 31
0.0
  0
LINE
  5
50E
330
18
100
AcDbEntity
  8
1
 62
     1
100
AcDbLine
 10
56.69090909090909
 20
5.987769545454546
 30
0.0
 11
56.12431128474679
 21
6.969145275617957
 31
0.0
  0
LINE
  5
50F
330
18
100
AcDbEntity
  8
1
 62
     1
100
AcDbLine
 10
49.76363636363636
 20
5.987769545454546
 30
0.0
 11
48.63795843600987
 21
7.937499999999998
 31
0.0
  0
LINE
  5
510
330
18
100
AcDbEntity
  8
1
 62
     1
100
AcDbLine
 10
47.45454545454545
 20
5.987769545454546
 30
0.0
 11
46.32886752691896
 21
7.937500000000006
 31
0.0
  0
LINE
  5
511
330
18
100
AcDbEntity
  8
1
 62
     1
100
AcDbLine
 10
48.58022338217194
 20
7.937500000000006
 30
0.0
 11
47.45454545454545
 21
5.987769545454546
 31
0.0
  0
LINE
  5
512
330
18
100
AcDbEntity
  8
1
 62
     1
100
AcDbLine
 10
52.07272727272727
 20
5.987769545454545
 30
0.0
 11
51.09832037141986
 21
7.675491018864031
 31
0.0
  0
LINE
  5
513
330
18
100
AcDbEntity
  8
1
 62
     1
100
AcDbLine
 10
55.03666745034788
 20
7.122001221011427
 30
0.0
 11
54.38181818181818
 21
5.987769545454546
 31
0.0
  0
LINE
  5
514
330
18
100
AcDbEntity
  8
1
 62
     1
100
AcDbLine
 10
50.76508222121092
 20
7.72232384306656
 30
0.0
 11
49.76363636363636
 21
5.987769545454546
 31
0.0
  0
LINE
  5
515
330
18
100
AcDbEntity
  8
1
 62
     1
100
AcDbLine
 10
54.38181818181818
 20
5.987769545454546
 30
0.0
 11
53.61131582808334
 21
7.322318147240998
 31
0.0
  0
LINE
  5
516
330
18
100
AcDbEntity
  8
1
 62
     1
100
AcDbLine
 10
52.9008748357794
 20
7.422162532038993
 30
0.0
 11
52.07272727272727
 21
5.987769545454546
 31
0.0
  0
LINE
  5
517
330
18
100
AcDbEntity
  8
1
 62
     1
100
AcDbLine
 10
41.65295065489921
 20
7.937500000000006
 30
0.0
 11
40.52727272727272
 21
5.987769545454546
 31
0.0
  0
LINE
  5
518
330
18
100
AcDbEntity
  8
1
 62
     1
100
AcDbLine
 10
46.27113247308102
 20
7.937499999999999
 30
0.0
 11
45.14545454545453
 21
5.987769545454546
 31
0.0
  0
LINE
  5
519
330
18
100
AcDbEntity
  8
1
 62
     1
100
AcDbLine
 10
42.83636363636364
 20
5.987769545454546
 30
0.0
 11
41.71068570873715
 21
7.937499999999991
 31
0.0
  0
LINE
  5
51A
330
18
100
AcDbEntity
  8
1
 62
     1
100
AcDbLine
 10
45.14545454545454
 20
5.987769545454546
 30
0.0
 11
44.01977661782806
 21
7.937499999999991
 31
0.0
  0
LINE
  5
51B
330
18
100
AcDbEntity
  8
1
 62
     1
100
AcDbLine
 10
43.96204156399012
 20
7.937500000000006
 30
0.0
 11
42.83636363636363
 21
5.987769545454546
 31
0.0
  0
LINE
  5
51C
330
18
100
AcDbEntity
  8
1
 62
     1
100
AcDbLine
 10
34.72567792762648
 20
7.937500000000004
 30
0.0
 11
33.59999999999999
 21
5.987769545454546
 31
0.0
  0
LINE
  5
51D
330
18
100
AcDbEntity
  8
1
 62
     1
100
AcDbLine
 10
35.90909090909091
 20
5.987769545454545
 30
0.0
 11
34.78341298146442
 21
7.937500000000006
 31
0.0
  0
LINE
  5
51E
330
18
100
AcDbEntity
  8
1
 62
     1
100
AcDbLine
 10
37.03476883671739
 20
7.937499999999999
 30
0.0
 11
35.90909090909091
 21
5.987769545454546
 31
0.0
  0
LINE
  5
51F
330
18
100
AcDbEntity
  8
1
 62
     1
100
AcDbLine
 10
38.21818181818182
 20
5.987769545454546
 30
0.0
 11
37.09250389055533
 21
7.937500000000006
 31
0.0
  0
LINE
  5
520
330
18
100
AcDbEntity
  8
1
 62
     1
100
AcDbLine
 10
39.3438597458083
 20
7.937500000000006
 30
0.0
 11
38.21818181818182
 21
5.987769545454546
 31
0.0
  0
LINE
  5
521
330
18
100
AcDbEntity
  8
1
 62
     1
100
AcDbLine
 10
40.52727272727272
 20
5.987769545454546
 30
0.0
 11
39.40159479964624
 21
7.937499999999988
 31
0.0
  0
LINE
  5
522
330
18
100
AcDbEntity
  8
1
 62
     1
100
AcDbLine
 10
33.59999999999999
 20
5.987769545454546
 30
0.0
 11
33.48716127374342
 21
6.183211861267247
 31
0.0
  0
LINE
  5
523
330
18
100
AcDbEntity
  8
SK1
100
AcDbLine
 10
0.0000000000000053
 20
6.25
 30
0.0
 11
-30.0
 21
6.25
 31
0.0
  0
LINE
  5
524
330
18
100
AcDbEntity
  8
SK1
100
AcDbLine
 10
-30.0
 20
-5.000000000000001
 30
0.0
 11
-30.0
 21
-6.25
 31
0.0
  0
LINE
  5
525
330
18
100
AcDbEntity
  8
SK1
100
AcDbLine
 10
-42.375
 20
3.750000000000001
 30
0.0
 11
-30.0
 21
3.750000000000001
 31
0.0
  0
ARC
  5
526
330
18
100
AcDbEntity
  8
SK1
100
AcDbCircle
 10
-32.31146778100482
 20
-2.371191160622498
 30
0.0
 40
11.77842043924143
100
AcDbArc
 50
148.68974364049
 51
155.1587690932253
  0
LINE
  5
527
330
18
100
AcDbEntity
  8
SK1
100
AcDbLine
 10
-42.375
 20
4.999999999999999
 30
0.0
 11
-42.375
 21
3.750000000000013
 31
0.0
  0
LINE
  5
528
330
18
100
AcDbEntity
  8
SK1
100
AcDbLine
 10
-43.0
 20
5.0
 30
0.0
 11
-42.375
 21
5.000000000000001
 31
0.0
  0
LINE
  5
529
330
18
100
AcDbEntity
  8
SK1
100
AcDbLine
 10
-30.0
 20
6.25
 30
0.0
 11
-30.0
 21
6.249737210714223
 31
0.0
  0
LINE
  5
52A
330
18
100
AcDbEntity
  8
SK1
100
AcDbLine
 10
-30.0
 20
6.249737210714223
 30
0.0
 11
-30.0
 21
6.169736011317108
 31
0.0
  0
LINE
  5
52B
330
18
100
AcDbEntity
  8
SK1
100
AcDbLine
 10
-30.0
 20
6.169736011317108
 30
0.0
 11
-30.0
 21
4.999999999999999
 31
0.0
  0
LINE
  5
52C
330
18
100
AcDbEntity
  8
SK1
100
AcDbLine
 10
-42.375
 20
5.0
 30
0.0
 11
-30.0
 21
5.0
 31
0.0
  0
LINE
  5
52D
330
18
100
AcDbEntity
  8
SK1
100
AcDbLine
 10
-42.375
 20
-3.75
 30
0.0
 11
-30.0
 21
-3.75
 31
0.0
  0
LINE
  5
52E
330
18
100
AcDbEntity
  8
SK1
100
AcDbLine
 10
-42.37499999999999
 20
-3.749999999999999
 30
0.0
 11
-42.375
 21
-5.000000000000001
 31
0.0
  0
LINE
  5
52F
330
18
100
AcDbEntity
  8
SK1
100
AcDbLine
 10
-42.375
 20
-5.0
 30
0.0
 11
-30.0
 21
-5.0
 31
0.0
  0
LINE
  5
530
330
18
100
AcDbEntity
  8
SK1
100
AcDbLine
 10
-43.0
 20
2.576941016011041
 30
0.0
 11
-42.99999999999999
 21
-2.576941016011039
 31
0.0
  0
LINE
  5
531
330
18
100
AcDbEntity
  8
SK1
100
AcDbLine
 10
-42.99999999999999
 20
4.999999999999902
 30
0.0
 11
-42.99999999999999
 21
2.576941016011041
 31
0.0
  0
LINE
  5
532
330
18
100
AcDbEntity
  8
SK1
100
AcDbLine
 10
-43.0
 20
-2.57694101601104
 30
0.0
 11
-43.0
 21
-5.0
 31
0.0
  0
ARC
  5
533
330
18
100
AcDbEntity
  8
SK1
100
AcDbCircle
 10
-32.31146778101858
 20
2.371191160615147
 30
0.0
 40
11.77842043922583
100
AcDbArc
 50
204.8412309067701
 51
211.3102563595143
  0
LINE
  5
534
330
18
100
AcDbEntity
  8
SK1
100
AcDbLine
 10
-43.0
 20
-5.0
 30
0.0
 11
-42.375
 21
-5.0
 31
0.0
  0
LINE
  5
535
330
18
100
AcDbEntity
  8
SK1
100
AcDbLine
 10
-30.0
 20
3.749999999999901
 30
0.0
 11
-30.0
 21
-3.749999999999901
 31
0.0
  0
LINE
  5
536
330
18
100
AcDbEntity
  8
SK1
100
AcDbLine
 10
-30.0
 20
-6.25
 30
0.0
 11
0.0000000000000053
 21
-6.25
 31
0.0
  0
DIMENSION
  5
537
330
18
100
AcDbEntity
  8
2
100
AcDbDimension
  2
*D0
 10
74.00000000000006
 20
-7.937499999999948
 30
0.0
 11
70.80075000000011
 21
-25.69949999999996
 31
0.0
 70
    32
  1
UNC5/8-11
 71
     5
 42
15.875
  3
STANDARD
100
AcDbAlignedDimension
 13
59.0
 23
7.9375
 33
0.0
 14
59.0
 24
-7.9375
 34
0.0
 50
90.0000000000002
100
AcDbRotatedDimension
  0
DIMENSION
  5
545
330
18
100
AcDbEntity
  8
2
100
AcDbDimension
  2
*D1
 10
59.0
 20
75.0
 30
0.0
 11
29.5
 21
77.39075
 31
0.0
 70
    32
  1
<>
 71
     5
 42
59.0
  3
STANDARD
100
AcDbAlignedDimension
 13
0.0
 23
0.0
 33
0.0
 14
59.0
 24
0.0
 34
0.0
100
AcDbRotatedDimension
  0
DIMENSION
  5
552
330
18
100
AcDbEntity
  8
SK2
100
AcDbDimension
  2
*D2
 10
-57.9999999999681
 20
-6.250000000142895
 30
0.0
 11
-60.39774999991766
 21
-16.13525000015513
 31
0.0
 70
    32
  1
%%c<>
 71
     5
 42
12.5
  3
STANDARD
100
AcDbAlignedDimension
 13
-30.0
 23
6.25
 33
0.0
 14
-30.0
 24
-6.25
 34
0.0
 50
90.0000000002924
100
AcDbRotatedDimension
  0
DIMENSION
  5
560
330
18
100
AcDbEntity
  8
2
100
AcDbDimension
  2
*D3
 10
59.0
 20
60.0
 30
0.0
 11
46.205125685
 21
62.39775
 31
0.0
 70
    32
  1
<>
 71
     5
 42
25.58974863
  3
STANDARD
100
AcDbAlignedDimension
 13
33.41025137
 23
6.05
 33
0.0
 14
59.0
 24
7.9375
 34
0.0
100
AcDbRotatedDimension
  0
DIMENSION
  5
56D
330
18
100
AcDbEntity
  8
SK2
100
AcDbDimension
  2
*D4
 10
59.0
 20
90.0
 30
0.0
 11
8.0
 21
92.39075
 31
0.0
 70
    32
  1
<>
 71
     5
 42
102.0
  3
STANDARD
100
AcDbAlignedDimension
 13
-43.0
 23
7.9375
 33
0.0
 14
59.0
 24
7.9375
 34
0.0
100
AcDbRotatedDimension
  0
ENDSEC
  0
SECTION
  2
OBJECTS
  0
DICTIONARY
  5
C
330
0
100
AcDbDictionary
281
     1
  3
ACAD_COLOR
350
387
  3
ACAD_GROUP
350
D
  3
ACAD_LAYOUT
350
301
  3
ACAD_MATERIAL
350
386
  3
ACAD_MLEADERSTYLE
350
57A
  3
ACAD_MLINESTYLE
350
E
  3
ACAD_PLOTSETTINGS
350
302
  3
ACAD_PLOTSTYLENAME
350
2FF
  3
ACAD_SCALELIST
350
3A0
  3
ACAD_TABLESTYLE
350
388
  3
ACAD_VISUALSTYLE
350
3C5
  3
ACDBHEADERROUNDTRIPXREC
350
57B
  3
AcDbVariableDictionary
350
357
  0
DICTIONARY
  5
387
102
{ACAD_REACTORS
330
C
102
}
330
C
100
AcDbDictionary
281
     1
  0
DICTIONARY
  5
D
102
{ACAD_REACTORS
330
C
102
}
330
C
100
AcDbDictionary
281
     1
  0
DICTIONARY
  5
301
102
{ACAD_REACTORS
330
C
102
}
330
C
100
AcDbDictionary
281
     1
  3
Layout1
350
33B
  3
Model
350
303
  0
DICTIONARY
  5
386
102
{ACAD_REACTORS
330
C
102
}
330
C
100
AcDbDictionary
281
     1
  3
ByBlock
350
3C3
  3
ByLayer
350
3C2
  3
Global
350
3C4
  0
DICTIONARY
  5
57A
102
{ACAD_REACTORS
330
C
102
}
330
C
100
AcDbDictionary
281
     1
  0
DICTIONARY
  5
E
102
{ACAD_REACTORS
330
C
102
}
330
C
100
AcDbDictionary
281
     1
  3
STANDARD
350
1B
  0
DICTIONARY
  5
302
102
{ACAD_REACTORS
330
C
102
}
330
C
100
AcDbDictionary
281
     1
  0
ACDBDICTIONARYWDFLT
  5
2FF
102
{ACAD_REACTORS
330
C
102
}
330
C
100
AcDbDictionary
281
     1
  3
Normal
350
300
100
AcDbDictionaryWithDefault
340
300
  0
DICTIONARY
  5
3A0
102
{ACAD_REACTORS
330
C
102
}
330
C
100
AcDbDictionary
281
     1
  3
A0
350
3A1
  3
A1
350
3A2
  3
A2
350
3A3
  3
A3
350
3A4
  3
A4
350
3A5
  3
A5
350
3A6
  3
A6
350
3A7
  3
A7
350
3A8
  3
A8
350
3A9
  3
A9
350
3AA
  3
B0
350
3AB
  3
B1
350
3AC
  3
B2
350
3AD
  3
B3
350
3AE
  3
B4
350
3AF
  3
B5
350
3B0
  3
B6
350
3B1
  3
B7
350
3B2
  3
B8
350
3B3
  3
B9
350
3B4
  3
C0
350
3B5
  3
C1
350
3B6
  3
C2
350
3B7
  3
C3
350
3B8
  3
C4
350
3B9
  3
C5
350
3BA
  3
C6
350
3BB
  3
C7
350
3BC
  3
C8
350
3BD
  3
C9
350
3BE
  3
D0
350
3BF
  3
D1
350
3C0
  3
D2
350
3C1
  0
DICTIONARY
  5
388
102
{ACAD_REACTORS
330
C
102
}
330
C
100
AcDbDictionary
281
     1
  3
Standard
350
389
  0
DICTIONARY
  5
3C5
102
{ACAD_REACTORS
330
C
102
}
330
C
100
AcDbDictionary
281
     1
  3
2dWireframe
350
3CA
  3
3D Hidden
350
3CC
  3
3dWireframe
350
3CB
  3
Basic
350
3CD
  3
Brighten
350
3D1
  3
ColorChange
350
3D5
  3
Conceptual
350
3CF
  3
Dim
350
3D0
  3
Facepattern
350
3D4
  3
Flat
350
3C6
  3
FlatWithEdges
350
3C7
  3
Gouraud
350
3C8
  3
GouraudWithEdges
350
3C9
  3
Linepattern
350
3D3
  3
Realistic
350
3CE
  3
Thicken
350
3D2
  0
DICTIONARY
  5
57B
102
{ACAD_REACTORS
330
C
102
}
330
C
100
AcDbDictionary
281
     1
  3
COLORDICT
350
57C
  3
MATERIALDICT
350
57D
  0
DICTIONARY
  5
357
102
{ACAD_REACTORS
330
C
102
}
330
C
100
AcDbDictionary
281
     1
  3
CANNOSCALE
350
57E
  3
CTABLESTYLE
350
38D
  3
DIMASSOC
350
359
  3
HIDETEXT
350
358
  3
PROJECTNAME
350
38E
  0
LAYOUT
  5
33B
102
{ACAD_REACTORS
330
301
102
}
330
301
100
AcDbPlotSettings
  1

  2
Lexmark Optra PS2
  4

  6

 40
0.0
 41
0.0
 42
0.0
 43
0.0
 44
0.0
 45
0.0
 46
0.0
 47
0.0
 48
0.0
 49
0.0
140
0.0
141
0.0
142
1.0
143
1.0
 70
   688
 72
     0
 73
     0
 74
     5
  7
monochrome.ctb
 75
    16
147
1.0
148
0.0
149
0.0
100
AcDbLayout
  1
Layout1
 70
     1
 71
     1
 10
0.0
 20
0.0
 11
12.0
 21
9.0
 12
0.0
 22
0.0
 32
0.0
 14
0.0
 24
0.0
 34
0.0
 15
0.0
 25
0.0
 35
0.0
146
0.0
 13
0.0
 23
0.0
 33
0.0
 16
1.0
 26
0.0
 36
0.0
 17
0.0
 27
1.0
 37
0.0
 76
     0
330
338
  0
LAYOUT
  5
303
102
{ACAD_REACTORS
330
301
102
}
330
301
100
AcDbPlotSettings
  1

  2
Lexmark Optra Rx
  4
A4
  6

 40
6.805083274841307
 41
5.535083293914794
 42
6.974411010742187
 43
7.14373779296875
 44
209.9733276367186
 45
296.9259948730469
 46
0.0
 47
0.0
 48
0.0
 49
0.0
140
0.0
141
0.0
142
1.0
143
2.976565420630886
 70
 11952
 72
     1
 73
     1
 74
     0
  7
monochrome.ctb
 75
     0
147
0.335957675604539
148
204.1199660668592
149
172.3933209647495
100
AcDbLayout
  1
Model
 70
     1
 71
     0
 10
0.0
 20
0.0
 11
12.0
 21
9.0
 12
0.0
 22
0.0
 32
0.0
 14
0.0
 24
0.0
 34
0.0
 15
0.0
 25
0.0
 35
0.0
146
0.0
 13
0.0
 23
0.0
 33
0.0
 16
1.0
 26
0.0
 36
0.0
 17
0.0
 27
1.0
 37
0.0
 76
     0
330
18
331
39A
  0
MATERIAL
  5
3C3
102
{ACAD_REACTORS
330
386
102
}
102
{ACAD_XDICTIONARY
360
581
102
}
330
386
100
AcDbMaterial
  1
ByBlock
  0
MATERIAL
  5
3C2
102
{ACAD_REACTORS
330
386
102
}
102
{ACAD_XDICTIONARY
360
57F
102
}
330
386
100
AcDbMaterial
  1
ByLayer
  0
MATERIAL
  5
3C4
102
{ACAD_REACTORS
330
386
102
}
102
{ACAD_XDICTIONARY
360
583
102
}
330
386
100
AcDbMaterial
  1
Global
  0
MLINESTYLE
  5
1B
102
{ACAD_REACTORS
330
E
102
}
330
E
100
AcDbMlineStyle
  2
STANDARD
 70
     0
  3

 62
     0
 51
90.0
 52
90.0
 71
     2
 49
0.5
 62
   256
  6
BYLAYER
 49
-0.5
 62
   256
  6
BYLAYER
  0
ACDBPLACEHOLDER
  5
300
102
{ACAD_REACTORS
330
2FF
102
}
330
2FF
  0
SCALE
  5
3A1
102
{ACAD_REACTORS
330
3A0
102
}
330
3A0
100
AcDbScale
 70
     0
300
1:1
140
1.0
141
1.0
290
     1
  0
SCALE
  5
3A2
102
{ACAD_REACTORS
330
3A0
102
}
330
3A0
100
AcDbScale
 70
     0
300
1:2
140
1.0
141
2.0
290
     0
  0
SCALE
  5
3A3
102
{ACAD_REACTORS
330
3A0
102
}
330
3A0
100
AcDbScale
 70
     0
300
1:4
140
1.0
141
4.0
290
     0
  0
SCALE
  5
3A4
102
{ACAD_REACTORS
330
3A0
102
}
330
3A0
100
AcDbScale
 70
     0
300
1:5
140
1.0
141
5.0
290
     0
  0
SCALE
  5
3A5
102
{ACAD_REACTORS
330
3A0
102
}
330
3A0
100
AcDbScale
 70
     0
300
1:8
140
1.0
141
8.0
290
     0
  0
SCALE
  5
3A6
102
{ACAD_REACTORS
330
3A0
102
}
330
3A0
100
AcDbScale
 70
     0
300
1:10
140
1.0
141
10.0
290
     0
  0
SCALE
  5
3A7
102
{ACAD_REACTORS
330
3A0
102
}
330
3A0
100
AcDbScale
 70
     0
300
1:16
140
1.0
141
16.0
290
     0
  0
SCALE
  5
3A8
102
{ACAD_REACTORS
330
3A0
102
}
330
3A0
100
AcDbScale
 70
     0
300
1:20
140
1.0
141
20.0
290
     0
  0
SCALE
  5
3A9
102
{ACAD_REACTORS
330
3A0
102
}
330
3A0
100
AcDbScale
 70
     0
300
1:30
140
1.0
141
30.0
290
     0
  0
SCALE
  5
3AA
102
{ACAD_REACTORS
330
3A0
102
}
330
3A0
100
AcDbScale
 70
     0
300
1:40
140
1.0
141
40.0
290
     0
  0
SCALE
  5
3AB
102
{ACAD_REACTORS
330
3A0
102
}
330
3A0
100
AcDbScale
 70
     0
300
1:50
140
1.0
141
50.0
290
     0
  0
SCALE
  5
3AC
102
{ACAD_REACTORS
330
3A0
102
}
330
3A0
100
AcDbScale
 70
     0
300
1:100
140
1.0
141
100.0
290
     0
  0
SCALE
  5
3AD
102
{ACAD_REACTORS
330
3A0
102
}
330
3A0
100
AcDbScale
 70
     0
300
2:1
140
2.0
141
1.0
290
     0
  0
SCALE
  5
3AE
102
{ACAD_REACTORS
330
3A0
102
}
330
3A0
100
AcDbScale
 70
     0
300
4:1
140
4.0
141
1.0
290
     0
  0
SCALE
  5
3AF
102
{ACAD_REACTORS
330
3A0
102
}
330
3A0
100
AcDbScale
 70
     0
300
8:1
140
8.0
141
1.0
290
     0
  0
SCALE
  5
3B0
102
{ACAD_REACTORS
330
3A0
102
}
330
3A0
100
AcDbScale
 70
     0
300
10:1
140
10.0
141
1.0
290
     0
  0
SCALE
  5
3B1
102
{ACAD_REACTORS
330
3A0
102
}
330
3A0
100
AcDbScale
 70
     0
300
100:1
140
100.0
141
1.0
290
     0
  0
SCALE
  5
3B2
102
{ACAD_REACTORS
330
3A0
102
}
330
3A0
100
AcDbScale
 70
     0
300
1/128" = 1'-0"
140
0.0078125
141
12.0
290
     0
  0
SCALE
  5
3B3
102
{ACAD_REACTORS
330
3A0
102
}
330
3A0
100
AcDbScale
 70
     0
300
1/64" = 1'-0"
140
0.015625
141
12.0
290
     0
  0
SCALE
  5
3B4
102
{ACAD_REACTORS
330
3A0
102
}
330
3A0
100
AcDbScale
 70
     0
300
1/32" = 1'-0"
140
0.03125
141
12.0
290
     0
  0
SCALE
  5
3B5
102
{ACAD_REACTORS
330
3A0
102
}
330
3A0
100
AcDbScale
 70
     0
300
1/16" = 1'-0"
140
0.0625
141
12.0
290
     0
  0
SCALE
  5
3B6
102
{ACAD_REACTORS
330
3A0
102
}
330
3A0
100
AcDbScale
 70
     0
300
3/32" = 1'-0"
140
0.09375
141
12.0
290
     0
  0
SCALE
  5
3B7
102
{ACAD_REACTORS
330
3A0
102
}
330
3A0
100
AcDbScale
 70
     0
300
1/8" = 1'-0"
140
0.125
141
12.0
290
     0
  0
SCALE
  5
3B8
102
{ACAD_REACTORS
330
3A0
102
}
330
3A0
100
AcDbScale
 70
     0
300
3/16" = 1'-0"
140
0.1875
141
12.0
290
     0
  0
SCALE
  5
3B9
102
{ACAD_REACTORS
330
3A0
102
}
330
3A0
100
AcDbScale
 70
     0
300
1/4" = 1'-0"
140
0.25
141
12.0
290
     0
  0
SCALE
  5
3BA
102
{ACAD_REACTORS
330
3A0
102
}
330
3A0
100
AcDbScale
 70
     0
300
3/8" = 1'-0"
140
0.375
141
12.0
290
     0
  0
SCALE
  5
3BB
102
{ACAD_REACTORS
330
3A0
102
}
330
3A0
100
AcDbScale
 70
     0
300
1/2" = 1'-0"
140
0.5
141
12.0
290
     0
  0
SCALE
  5
3BC
102
{ACAD_REACTORS
330
3A0
102
}
330
3A0
100
AcDbScale
 70
     0
300
3/4" = 1'-0"
140
0.75
141
12.0
290
     0
  0
SCALE
  5
3BD
102
{ACAD_REACTORS
330
3A0
102
}
330
3A0
100
AcDbScale
 70
     0
300
1" = 1'-0"
140
1.0
141
12.0
290
     0
  0
SCALE
  5
3BE
102
{ACAD_REACTORS
330
3A0
102
}
330
3A0
100
AcDbScale
 70
     0
300
1-1/2" = 1'-0"
140
1.5
141
12.0
290
     0
  0
SCALE
  5
3BF
102
{ACAD_REACTORS
330
3A0
102
}
330
3A0
100
AcDbScale
 70
     0
300
3" = 1'-0"
140
3.0
141
12.0
290
     0
  0
SCALE
  5
3C0
102
{ACAD_REACTORS
330
3A0
102
}
330
3A0
100
AcDbScale
 70
     0
300
6" = 1'-0"
140
6.0
141
12.0
290
     0
  0
SCALE
  5
3C1
102
{ACAD_REACTORS
330
3A0
102
}
330
3A0
100
AcDbScale
 70
     0
300
1'-0" = 1'-0"
140
12.0
141
12.0
290
     0
  0
TABLESTYLE
  5
389
102
{ACAD_REACTORS
330
388
102
}
330
388
100
AcDbTableStyle
  3
Standard
 70
     0
 71
     0
 40
1.5
 41
1.5
280
     0
281
     0
  7
STANDARD
140
4.5
170
     2
 62
     0
 63
   257
283
     0
274
    -2
284
     1
 64
     0
275
    -2
285
     1
 65
     0
276
    -2
286
     1
 66
     0
277
    -2
287
     1
 67
     0
278
    -2
288
     1
 68
     0
279
    -2
289
     1
 69
     0
  7
STANDARD
140
6.0
170
     5
 62
     0
 63
   257
283
     0
274
    -2
284
     1
 64
     0
275
    -2
285
     1
 65
     0
276
    -2
286
     1
 66
     0
277
    -2
287
     1
 67
     0
278
    -2
288
     1
 68
     0
279
    -2
289
     1
 69
     0
  7
STANDARD
140
4.5
170
     5
 62
     0
 63
   257
283
     0
274
    -2
284
     1
 64
     0
275
    -2
285
     1
 65
     0
276
    -2
286
     1
 66
     0
277
    -2
287
     1
 67
     0
278
    -2
288
     1
 68
     0
279
    -2
289
     1
 69
     0
  0
VISUALSTYLE
  5
3CA
102
{ACAD_REACTORS
330
3C5
102
}
102
{ACAD_XDICTIONARY
360
58D
102
}
330
3C5
100
AcDbVisualStyle
  2
2dWireframe
 70
     4
 71
     0
 72
     2
 73
     0
 90
        0
 40
-0.6
 41
-30.0
 62
     5
 63
     7
 74
     1
 91
        4
 64
     7
 65
   257
 75
     1
175
     1
 42
1.0
 92
        0
 66
   257
 43
1.0
 76
     1
 77
     6
 78
     2
 67
     7
 79
     5
170
     0
171
     0
290
     0
174
     0
 93
        1
 44
0.0
173
     0
291
     0
 45
0.0
1001
ACAD
1000
AcDbSavedByObjectVersion
1070
     0
  0
VISUALSTYLE
  5
3CC
102
{ACAD_REACTORS
330
3C5
102
}
102
{ACAD_XDICTIONARY
360
591
102
}
330
3C5
100
AcDbVisualStyle
  2
3D Hidden
 70
     6
 71
     1
 72
     2
 73
     2
 90
        0
 40
-0.6
 41
-30.0
 62
     5
 63
     7
 74
     2
 91
        2
 64
     7
 65
   257
 75
     2
175
     1
 42
40.0
 92
        0
 66
   257
 43
1.0
 76
     1
 77
     6
 78
     2
 67
     7
 79
     3
170
     0
171
     0
290
     0
174
     0
 93
        1
 44
0.0
173
     0
291
     0
 45
0.0
1001
ACAD
1000
AcDbSavedByObjectVersion
1070
     0
  0
VISUALSTYLE
  5
3CB
102
{ACAD_REACTORS
330
3C5
102
}
102
{ACAD_XDICTIONARY
360
58F
102
}
330
3C5
100
AcDbVisualStyle
  2
3dWireframe
 70
     5
 71
     0
 72
     2
 73
     0
 90
        0
 40
-0.6
 41
-30.0
 62
     5
 63
     7
 74
     1
 91
        4
 64
     7
 65
   257
 75
     1
175
     1
 42
1.0
 92
        0
 66
   257
 43
1.0
 76
     1
 77
     6
 78
     2
 67
     7
 79
     5
170
     0
171
     0
290
     0
174
     0
 93
        1
 44
0.0
173
     0
291
     0
 45
0.0
1001
ACAD
1000
AcDbSavedByObjectVersion
1070
     0
  0
VISUALSTYLE
  5
3CD
102
{ACAD_REACTORS
330
3C5
102
}
102
{ACAD_XDICTIONARY
360
593
102
}
330
3C5
100
AcDbVisualStyle
  2
Basic
 70
     7
 71
     1
 72
     0
 73
     1
 90
        0
 40
-0.6
 41
-30.0
 62
     5
 63
     7
 74
     0
 91
        4
 64
     7
 65
   257
 75
     1
175
     1
 42
1.0
 92
        8
 66
     7
 43
1.0
 76
     1
 77
     6
 78
     2
 67
     7
 79
     5
170
     0
171
     0
290
     0
174
     0
 93
        1
 44
0.0
173
     0
291
     1
 45
0.0
1001
ACAD
1000
AcDbSavedByObjectVersion
1070
     0
  0
VISUALSTYLE
  5
3D1
102
{ACAD_REACTORS
330
3C5
102
}
102
{ACAD_XDICTIONARY
360
59B
102
}
330
3C5
100
AcDbVisualStyle
  2
Brighten
 70
    12
 71
     2
 72
     2
 73
     0
 90
        0
 40
-0.6
 41
-30.0
 62
     5
 63
     7
 74
     1
 91
        4
 64
     7
 65
   257
 75
     1
175
     1
 42
1.0
 92
        8
 66
     7
 43
1.0
 76
     1
 77
     6
 78
     2
 67
     7
 79
     5
170
     0
171
     0
290
     0
174
     0
 93
        1
 44
50.0
173
     0
291
     1
 45
0.0
1001
ACAD
1000
AcDbSavedByObjectVersion
1070
     0
  0
VISUALSTYLE
  5
3D5
102
{ACAD_REACTORS
330
3C5
102
}
102
{ACAD_XDICTIONARY
360
5A3
102
}
330
3C5
100
AcDbVisualStyle
  2
ColorChange
 70
    16
 71
     2
 72
     2
 73
     3
 90
        0
 40
-0.6
 41
-30.0
 62
     5
 63
     8
 74
     1
 91
        4
 64
     7
 65
   257
 75
     1
175
     1
 42
1.0
 92
        8
 66
     8
 43
1.0
 76
     1
 77
     6
 78
     2
 67
     7
 79
     5
170
     0
171
     0
290
     0
174
     0
 93
        1
 44
0.0
173
     0
291
     1
 45
0.0
1001
ACAD
1000
AcDbSavedByObjectVersion
1070
     0
  0
VISUALSTYLE
  5
3CF
102
{ACAD_REACTORS
330
3C5
102
}
102
{ACAD_XDICTIONARY
360
597
102
}
330
3C5
100
AcDbVisualStyle
  2
Conceptual
 70
     9
 71
     3
 72
     2
 73
     0
 90
        0
 40
-0.6
 41
-30.0
 62
     5
 63
     7
 74
     2
 91
        2
 64
     7
 65
   257
 75
     1
175
     1
 42
40.0
 92
        8
 66
     7
 43
1.0
 76
     1
 77
     6
 78
     2
 67
     7
 79
     3
170
     0
171
     0
290
     0
174
     0
 93
        1
 44
0.0
173
     0
291
     0
 45
0.0
1001
ACAD
1000
AcDbSavedByObjectVersion
1070
     0
  0
VISUALSTYLE
  5
3D0
102
{ACAD_REACTORS
330
3C5
102
}
102
{ACAD_XDICTIONARY
360
599
102
}
330
3C5
100
AcDbVisualStyle
  2
Dim
 70
    11
 71
     2
 72
     2
 73
     0
 90
        0
 40
-0.6
 41
-30.0
 62
     5
 63
     7
 74
     1
 91
        4
 64
     7
 65
   257
 75
     1
175
     1
 42
1.0
 92
        8
 66
     7
 43
1.0
 76
     1
 77
     6
 78
     2
 67
     7
 79
     5
170
     0
171
     0
290
     0
174
     0
 93
        1
 44
-50.0
173
     0
291
     1
 45
0.0
1001
ACAD
1000
AcDbSavedByObjectVersion
1070
     0
  0
VISUALSTYLE
  5
3D4
102
{ACAD_REACTORS
330
3C5
102
}
102
{ACAD_XDICTIONARY
360
5A1
102
}
330
3C5
100
AcDbVisualStyle
  2
Facepattern
 70
    15
 71
     2
 72
     2
 73
     0
 90
        0
 40
-0.6
 41
-30.0
 62
     5
 63
     7
 74
     1
 91
        4
 64
     7
 65
   257
 75
     1
175
     1
 42
1.0
 92
        8
 66
     7
 43
1.0
 76
     1
 77
     6
 78
     2
 67
     7
 79
     5
170
     0
171
     0
290
     0
174
     0
 93
        1
 44
0.0
173
     0
291
     1
 45
0.0
1001
ACAD
1000
AcDbSavedByObjectVersion
1070
     0
  0
VISUALSTYLE
  5
3C6
102
{ACAD_REACTORS
330
3C5
102
}
102
{ACAD_XDICTIONARY
360
585
102
}
330
3C5
100
AcDbVisualStyle
  2
Flat
 70
     0
 71
     2
 72
     1
 73
     1
 90
        2
 40
-0.6
 41
30.0
 62
     5
 63
     7
 74
     0
 91
        4
 64
     7
 65
   257
 75
     1
175
     1
 42
1.0
 92
        8
 66
     7
 43
1.0
 76
     1
 77
     6
 78
     2
 67
     7
 79
     5
170
     0
171
     0
290
     0
174
     0
 93
       13
 44
0.0
173
     0
291
     1
 45
0.0
1001
ACAD
1000
AcDbSavedByObjectVersion
1070
     0
  0
VISUALSTYLE
  5
3C7
102
{ACAD_REACTORS
330
3C5
102
}
102
{ACAD_XDICTIONARY
360
587
102
}
330
3C5
100
AcDbVisualStyle
  2
FlatWithEdges
 70
     1
 71
     2
 72
     1
 73
     1
 90
        2
 40
-0.6
 41
30.0
 62
     5
 63
     7
 74
     1
 91
        4
 64
     7
 65
   257
 75
     1
175
     1
 42
1.0
 92
        0
 66
   257
 43
1.0
 76
     1
 77
     6
 78
     2
 67
     7
 79
     5
170
     0
171
     0
290
     0
174
     0
 93
       13
 44
0.0
173
     0
291
     1
 45
0.0
1001
ACAD
1000
AcDbSavedByObjectVersion
1070
     0
  0
VISUALSTYLE
  5
3C8
102
{ACAD_REACTORS
330
3C5
102
}
102
{ACAD_XDICTIONARY
360
589
102
}
330
3C5
100
AcDbVisualStyle
  2
Gouraud
 70
     2
 71
     2
 72
     2
 73
     1
 90
        2
 40
-0.6
 41
30.0
 62
     5
 63
     7
 74
     0
 91
        4
 64
     7
 65
   257
 75
     1
175
     1
 42
1.0
 92
        0
 66
     7
 43
1.0
 76
     1
 77
     6
 78
     2
 67
     7
 79
     5
170
     0
171
     0
290
     0
174
     0
 93
       13
 44
0.0
173
     0
291
     1
 45
0.0
1001
ACAD
1000
AcDbSavedByObjectVersion
1070
     0
  0
VISUALSTYLE
  5
3C9
102
{ACAD_REACTORS
330
3C5
102
}
102
{ACAD_XDICTIONARY
360
58B
102
}
330
3C5
100
AcDbVisualStyle
  2
GouraudWithEdges
 70
     3
 71
     2
 72
     2
 73
     1
 90
        2
 40
-0.6
 41
30.0
 62
     5
 63
     7
 74
     1
 91
        4
 64
     7
 65
   257
 75
     1
175
     1
 42
1.0
 92
        0
 66
   257
 43
1.0
 76
     1
 77
     6
 78
     2
 67
     7
 79
     5
170
     0
171
     0
290
     0
174
     0
 93
       13
 44
0.0
173
     0
291
     1
 45
0.0
1001
ACAD
1000
AcDbSavedByObjectVersion
1070
     0
  0
VISUALSTYLE
  5
3D3
102
{ACAD_REACTORS
330
3C5
102
}
102
{ACAD_XDICTIONARY
360
59F
102
}
330
3C5
100
AcDbVisualStyle
  2
Linepattern
 70
    14
 71
     2
 72
     2
 73
     0
 90
        0
 40
-0.6
 41
-30.0
 62
     5
 63
     7
 74
     1
 91
        4
 64
     7
 65
   257
 75
     7
175
     7
 42
1.0
 92
        8
 66
     7
 43
1.0
 76
     1
 77
     6
 78
     2
 67
     7
 79
     5
170
     0
171
     0
290
     0
174
     0
 93
        1
 44
0.0
173
     0
291
     1
 45
0.0
1001
ACAD
1000
AcDbSavedByObjectVersion
1070
     0
  0
VISUALSTYLE
  5
3CE
102
{ACAD_REACTORS
330
3C5
102
}
102
{ACAD_XDICTIONARY
360
595
102
}
330
3C5
100
AcDbVisualStyle
  2
Realistic
 70
     8
 71
     2
 72
     2
 73
     0
 90
        0
 40
-0.6
 41
-30.0
 62
     5
 63
     7
 74
     1
 91
        0
 64
     7
 65
   257
 75
     1
175
     1
 42
1.0
 92
        8
 66
     8
 43
1.0
 76
     1
 77
     6
 78
     2
 67
     7
 79
     5
170
     0
171
     0
290
     0
174
     0
 93
       13
 44
0.0
173
     0
291
     0
 45
0.0
1001
ACAD
1000
AcDbSavedByObjectVersion
1070
     0
  0
VISUALSTYLE
  5
3D2
102
{ACAD_REACTORS
330
3C5
102
}
102
{ACAD_XDICTIONARY
360
59D
102
}
330
3C5
100
AcDbVisualStyle
  2
Thicken
 70
    13
 71
     2
 72
     2
 73
     0
 90
        0
 40
-0.6
 41
-30.0
 62
     5
 63
     7
 74
     1
 91
        4
 64
     7
 65
   257
 75
     1
175
     1
 42
1.0
 92
       12
 66
     7
 43
1.0
 76
     1
 77
     6
 78
     2
 67
     7
 79
     5
170
     0
171
     0
290
     0
174
     0
 93
        1
 44
0.0
173
     0
291
     1
 45
0.0
1001
ACAD
1000
AcDbSavedByObjectVersion
1070
     0
  0
XRECORD
  5
57C
102
{ACAD_REACTORS
330
57B
102
}
330
57B
100
AcDbXrecord
280
     1
340
387
  0
XRECORD
  5
57D
102
{ACAD_REACTORS
330
57B
102
}
330
57B
100
AcDbXrecord
280
     1
340
386
  0
DICTIONARYVAR
  5
57E
102
{ACAD_REACTORS
330
357
102
}
330
357
100
DictionaryVariables
280
     0
  1
1:1
  0
DICTIONARYVAR
  5
38D
102
{ACAD_REACTORS
330
357
102
}
330
357
100
DictionaryVariables
280
     0
  1
Standard
  0
DICTIONARYVAR
  5
359
102
{ACAD_REACTORS
330
357
102
}
330
357
100
DictionaryVariables
280
     0
  1
2
  0
DICTIONARYVAR
  5
358
102
{ACAD_REACTORS
330
357
102
}
330
357
100
DictionaryVariables
280
     0
  1
1
  0
DICTIONARYVAR
  5
38E
102
{ACAD_REACTORS
330
357
102
}
330
357
100
DictionaryVariables
280
     0
  1

  0
DICTIONARY
  5
581
330
3C3
100
AcDbDictionary
280
     1
281
     1
  3
ACAD_XREC_ROUNDTRIP
360
582
  0
DICTIONARY
  5
57F
330
3C2
100
AcDbDictionary
280
     1
281
     1
  3
ACAD_XREC_ROUNDTRIP
360
580
  0
DICTIONARY
  5
583
330
3C4
100
AcDbDictionary
280
     1
281
     1
  3
ACAD_XREC_ROUNDTRIP
360
584
  0
DICTIONARY
  5
58D
330
3CA
100
AcDbDictionary
280
     1
281
     1
  3
ACAD_XREC_ROUNDTRIP
360
58E
  0
DICTIONARY
  5
591
330
3CC
100
AcDbDictionary
280
     1
281
     1
  3
ACAD_XREC_ROUNDTRIP
360
592
  0
DICTIONARY
  5
58F
330
3CB
100
AcDbDictionary
280
     1
281
     1
  3
ACAD_XREC_ROUNDTRIP
360
590
  0
DICTIONARY
  5
593
330
3CD
100
AcDbDictionary
280
     1
281
     1
  3
ACAD_XREC_ROUNDTRIP
360
594
  0
DICTIONARY
  5
59B
330
3D1
100
AcDbDictionary
280
     1
281
     1
  3
ACAD_XREC_ROUNDTRIP
360
59C
  0
DICTIONARY
  5
5A3
330
3D5
100
AcDbDictionary
280
     1
281
     1
  3
ACAD_XREC_ROUNDTRIP
360
5A4
  0
DICTIONARY
  5
597
330
3CF
100
AcDbDictionary
280
     1
281
     1
  3
ACAD_XREC_ROUNDTRIP
360
598
  0
DICTIONARY
  5
599
330
3D0
100
AcDbDictionary
280
     1
281
     1
  3
ACAD_XREC_ROUNDTRIP
360
59A
  0
DICTIONARY
  5
5A1
330
3D4
100
AcDbDictionary
280
     1
281
     1
  3
ACAD_XREC_ROUNDTRIP
360
5A2
  0
DICTIONARY
  5
585
330
3C6
100
AcDbDictionary
280
     1
281
     1
  3
ACAD_XREC_ROUNDTRIP
360
586
  0
DICTIONARY
  5
587
330
3C7
100
AcDbDictionary
280
     1
281
     1
  3
ACAD_XREC_ROUNDTRIP
360
588
  0
DICTIONARY
  5
589
330
3C8
100
AcDbDictionary
280
     1
281
     1
  3
ACAD_XREC_ROUNDTRIP
360
58A
  0
DICTIONARY
  5
58B
330
3C9
100
AcDbDictionary
280
     1
281
     1
  3
ACAD_XREC_ROUNDTRIP
360
58C
  0
DICTIONARY
  5
59F
330
3D3
100
AcDbDictionary
280
     1
281
     1
  3
ACAD_XREC_ROUNDTRIP
360
5A0
  0
DICTIONARY
  5
595
330
3CE
100
AcDbDictionary
280
     1
281
     1
  3
ACAD_XREC_ROUNDTRIP
360
596
  0
DICTIONARY
  5
59D
330
3D2
100
AcDbDictionary
280
     1
281
     1
  3
ACAD_XREC_ROUNDTRIP
360
59E
  0
XRECORD
  5
582
102
{ACAD_REACTORS
330
581
102
}
330
581
100
AcDbXrecord
280
     1
102
MATERIAL
148
0.0
149
0.0
149
0.0
 93
        0
 94
      127
282
     0
 72
     1
 77
     1
171
     1
175
     1
179
     1
273
     0
  0
XRECORD
  5
580
102
{ACAD_REACTORS
330
57F
102
}
330
57F
100
AcDbXrecord
280
     1
102
MATERIAL
148
0.0
149
0.0
149
0.0
 93
        0
 94
      127
282
     0
 72
     1
 77
     1
171
     1
175
     1
179
     1
273
     0
  0
XRECORD
  5
584
102
{ACAD_REACTORS
330
583
102
}
330
583
100
AcDbXrecord
280
     1
102
MATERIAL
148
0.0
149
0.0
149
0.0
 93
        0
 94
      127
282
     0
 72
     1
 77
     1
171
     1
175
     1
179
     1
273
     0
  0
XRECORD
  5
58E
102
{ACAD_REACTORS
330
58D
102
}
330
58D
100
AcDbXrecord
280
     1
102
RTVSPropertyOp0
 70
     1
102
RTVSPropertyOp1
 70
     1
102
RTVSPropertyOp2
 70
     1
102
RTVSPropertyOp3
 70
     1
102
RTVSPropertyOp4
 70
     1
102
RTVSPropertyOp5
 70
     1
102
RTVSPropertyOp6
 70
     1
102
RTVSPropertyOp7
 70
     1
102
RTVSPropertyOp8
 70
     1
102
RTVSPropertyOp9
 70
     1
102
RTVSPropertyOp10
 70
     1
102
RTVSPropertyOp11
 70
     1
102
RTVSPropertyOp12
 70
     1
102
RTVSPropertyOp13
 70
     1
102
RTVSPropertyOp14
 70
     1
102
RTVSPropertyOp15
 70
     1
102
RTVSPropertyOp16
 70
     1
102
RTVSPropertyOp17
 70
     1
102
RTVSPropertyOp18
 70
     1
102
RTVSPropertyOp19
 70
     1
102
RTVSPropertyOp20
 70
     1
102
RTVSPropertyOp21
 70
     1
102
RTVSPropertyOp22
 70
     1
102
RTVSPropertyOp23
 70
     1
102
RTVSPropertyOp24
 70
     1
102
RTVSPropertyOp25
 70
     1
102
RTVSPropertyOp26
 70
     1
102
RTVSPropertyOp27
 70
     1
102
RTVSPropertyOp28
 70
     1
102
RTVSPropertyOp29
 70
     1
102
RTVSPropertyOp30
 70
     1
102
RTVSPropertyOp31
 70
     1
102
RTVSPropertyOp32
 70
     1
  0
XRECORD
  5
592
102
{ACAD_REACTORS
330
591
102
}
330
591
100
AcDbXrecord
280
     1
102
RTVSPropertyOp0
 70
     1
102
RTVSPropertyOp1
 70
     1
102
RTVSPropertyOp2
 70
     1
102
RTVSPropertyOp3
 70
     1
102
RTVSPropertyOp4
 70
     1
102
RTVSPropertyOp5
 70
     1
102
RTVSPropertyOp6
 70
     1
102
RTVSPropertyOp7
 70
     1
102
RTVSPropertyOp8
 70
     1
102
RTVSPropertyOp9
 70
     1
102
RTVSPropertyOp10
 70
     1
102
RTVSPropertyOp11
 70
     1
102
RTVSPropertyOp12
 70
     1
102
RTVSPropertyOp13
 70
     1
102
RTVSPropertyOp14
 70
     1
102
RTVSPropertyOp15
 70
     1
102
RTVSPropertyOp16
 70
     1
102
RTVSPropertyOp17
 70
     1
102
RTVSPropertyOp18
 70
     1
102
RTVSPropertyOp19
 70
     1
102
RTVSPropertyOp20
 70
     1
102
RTVSPropertyOp21
 70
     1
102
RTVSPropertyOp22
 70
     1
102
RTVSPropertyOp23
 70
     1
102
RTVSPropertyOp24
 70
     1
102
RTVSPropertyOp25
 70
     1
102
RTVSPropertyOp26
 70
     1
102
RTVSPropertyOp27
 70
     1
102
RTVSPropertyOp28
 70
     1
102
RTVSPropertyOp29
 70
     1
102
RTVSPropertyOp30
 70
     1
102
RTVSPropertyOp31
 70
     1
102
RTVSPropertyOp32
 70
     1
  0
XRECORD
  5
590
102
{ACAD_REACTORS
330
58F
102
}
330
58F
100
AcDbXrecord
280
     1
102
RTVSPropertyOp0
 70
     1
102
RTVSPropertyOp1
 70
     1
102
RTVSPropertyOp2
 70
     1
102
RTVSPropertyOp3
 70
     1
102
RTVSPropertyOp4
 70
     1
102
RTVSPropertyOp5
 70
     1
102
RTVSPropertyOp6
 70
     1
102
RTVSPropertyOp7
 70
     1
102
RTVSPropertyOp8
 70
     1
102
RTVSPropertyOp9
 70
     1
102
RTVSPropertyOp10
 70
     1
102
RTVSPropertyOp11
 70
     1
102
RTVSPropertyOp12
 70
     1
102
RTVSPropertyOp13
 70
     1
102
RTVSPropertyOp14
 70
     1
102
RTVSPropertyOp15
 70
     1
102
RTVSPropertyOp16
 70
     1
102
RTVSPropertyOp17
 70
     1
102
RTVSPropertyOp18
 70
     1
102
RTVSPropertyOp19
 70
     1
102
RTVSPropertyOp20
 70
     1
102
RTVSPropertyOp21
 70
     1
102
RTVSPropertyOp22
 70
     1
102
RTVSPropertyOp23
 70
     1
102
RTVSPropertyOp24
 70
     1
102
RTVSPropertyOp25
 70
     1
102
RTVSPropertyOp26
 70
     1
102
RTVSPropertyOp27
 70
     1
102
RTVSPropertyOp28
 70
     1
102
RTVSPropertyOp29
 70
     1
102
RTVSPropertyOp30
 70
     1
102
RTVSPropertyOp31
 70
     1
102
RTVSPropertyOp32
 70
     1
  0
XRECORD
  5
594
102
{ACAD_REACTORS
330
593
102
}
330
593
100
AcDbXrecord
280
     1
102
RTVSPropertyOp0
 70
     1
102
RTVSPropertyOp1
 70
     1
102
RTVSPropertyOp2
 70
     1
102
RTVSPropertyOp3
 70
     1
102
RTVSPropertyOp4
 70
     1
102
RTVSPropertyOp5
 70
     1
102
RTVSPropertyOp6
 70
     1
102
RTVSPropertyOp7
 70
     1
102
RTVSPropertyOp8
 70
     1
102
RTVSPropertyOp9
 70
     1
102
RTVSPropertyOp10
 70
     1
102
RTVSPropertyOp11
 70
     1
102
RTVSPropertyOp12
 70
     1
102
RTVSPropertyOp13
 70
     1
102
RTVSPropertyOp14
 70
     1
102
RTVSPropertyOp15
 70
     1
102
RTVSPropertyOp16
 70
     1
102
RTVSPropertyOp17
 70
     1
102
RTVSPropertyOp18
 70
     1
102
RTVSPropertyOp19
 70
     1
102
RTVSPropertyOp20
 70
     1
102
RTVSPropertyOp21
 70
     1
102
RTVSPropertyOp22
 70
     1
102
RTVSPropertyOp23
 70
     1
102
RTVSPropertyOp24
 70
     1
102
RTVSPropertyOp25
 70
     1
102
RTVSPropertyOp26
 70
     1
102
RTVSPropertyOp27
 70
     1
102
RTVSPropertyOp28
 70
     1
102
RTVSPropertyOp29
 70
     1
102
RTVSPropertyOp30
 70
     1
102
RTVSPropertyOp31
 70
     1
102
RTVSPropertyOp32
 70
     1
  0
XRECORD
  5
59C
102
{ACAD_REACTORS
330
59B
102
}
330
59B
100
AcDbXrecord
280
     1
102
RTVSPropertyOp0
 70
     1
102
RTVSPropertyOp1
 70
     1
102
RTVSPropertyOp2
 70
     1
102
RTVSPropertyOp3
 70
     1
102
RTVSPropertyOp4
 70
     1
102
RTVSPropertyOp5
 70
     1
102
RTVSPropertyOp6
 70
     1
102
RTVSPropertyOp7
 70
     1
102
RTVSPropertyOp8
 70
     1
102
RTVSPropertyOp9
 70
     1
102
RTVSPropertyOp10
 70
     1
102
RTVSPropertyOp11
 70
     1
102
RTVSPropertyOp12
 70
     1
102
RTVSPropertyOp13
 70
     1
102
RTVSPropertyOp14
 70
     1
102
RTVSPropertyOp15
 70
     1
102
RTVSPropertyOp16
 70
     1
102
RTVSPropertyOp17
 70
     1
102
RTVSPropertyOp18
 70
     1
102
RTVSPropertyOp19
 70
     1
102
RTVSPropertyOp20
 70
     1
102
RTVSPropertyOp21
 70
     1
102
RTVSPropertyOp22
 70
     1
102
RTVSPropertyOp23
 70
     1
102
RTVSPropertyOp24
 70
     1
102
RTVSPropertyOp25
 70
     1
102
RTVSPropertyOp26
 70
     1
102
RTVSPropertyOp27
 70
     1
102
RTVSPropertyOp28
 70
     1
102
RTVSPropertyOp29
 70
     1
102
RTVSPropertyOp30
 70
     1
102
RTVSPropertyOp31
 70
     1
102
RTVSPropertyOp32
 70
     1
  0
XRECORD
  5
5A4
102
{ACAD_REACTORS
330
5A3
102
}
330
5A3
100
AcDbXrecord
280
     1
102
RTVSPropertyOp0
 70
     1
102
RTVSPropertyOp1
 70
     1
102
RTVSPropertyOp2
 70
     1
102
RTVSPropertyOp3
 70
     1
102
RTVSPropertyOp4
 70
     1
102
RTVSPropertyOp5
 70
     1
102
RTVSPropertyOp6
 70
     1
102
RTVSPropertyOp7
 70
     1
102
RTVSPropertyOp8
 70
     1
102
RTVSPropertyOp9
 70
     1
102
RTVSPropertyOp10
 70
     1
102
RTVSPropertyOp11
 70
     1
102
RTVSPropertyOp12
 70
     1
102
RTVSPropertyOp13
 70
     1
102
RTVSPropertyOp14
 70
     1
102
RTVSPropertyOp15
 70
     1
102
RTVSPropertyOp16
 70
     1
102
RTVSPropertyOp17
 70
     1
102
RTVSPropertyOp18
 70
     1
102
RTVSPropertyOp19
 70
     1
102
RTVSPropertyOp20
 70
     1
102
RTVSPropertyOp21
 70
     1
102
RTVSPropertyOp22
 70
     1
102
RTVSPropertyOp23
 70
     1
102
RTVSPropertyOp24
 70
     1
102
RTVSPropertyOp25
 70
     1
102
RTVSPropertyOp26
 70
     1
102
RTVSPropertyOp27
 70
     1
102
RTVSPropertyOp28
 70
     1
102
RTVSPropertyOp29
 70
     1
102
RTVSPropertyOp30
 70
     1
102
RTVSPropertyOp31
 70
     1
102
RTVSPropertyOp32
 70
     1
  0
XRECORD
  5
598
102
{ACAD_REACTORS
330
597
102
}
330
597
100
AcDbXrecord
280
     1
102
RTVSPropertyOp0
 70
     1
102
RTVSPropertyOp1
 70
     1
102
RTVSPropertyOp2
 70
     1
102
RTVSPropertyOp3
 70
     1
102
RTVSPropertyOp4
 70
     1
102
RTVSPropertyOp5
 70
     1
102
RTVSPropertyOp6
 70
     1
102
RTVSPropertyOp7
 70
     1
102
RTVSPropertyOp8
 70
     1
102
RTVSPropertyOp9
 70
     1
102
RTVSPropertyOp10
 70
     1
102
RTVSPropertyOp11
 70
     1
102
RTVSPropertyOp12
 70
     1
102
RTVSPropertyOp13
 70
     1
102
RTVSPropertyOp14
 70
     1
102
RTVSPropertyOp15
 70
     1
102
RTVSPropertyOp16
 70
     1
102
RTVSPropertyOp17
 70
     1
102
RTVSPropertyOp18
 70
     1
102
RTVSPropertyOp19
 70
     1
102
RTVSPropertyOp20
 70
     1
102
RTVSPropertyOp21
 70
     1
102
RTVSPropertyOp22
 70
     1
102
RTVSPropertyOp23
 70
     1
102
RTVSPropertyOp24
 70
     1
102
RTVSPropertyOp25
 70
     1
102
RTVSPropertyOp26
 70
     1
102
RTVSPropertyOp27
 70
     1
102
RTVSPropertyOp28
 70
     1
102
RTVSPropertyOp29
 70
     1
102
RTVSPropertyOp30
 70
     1
102
RTVSPropertyOp31
 70
     1
102
RTVSPropertyOp32
 70
     1
  0
XRECORD
  5
59A
102
{ACAD_REACTORS
330
599
102
}
330
599
100
AcDbXrecord
280
     1
102
RTVSPropertyOp0
 70
     1
102
RTVSPropertyOp1
 70
     1
102
RTVSPropertyOp2
 70
     1
102
RTVSPropertyOp3
 70
     1
102
RTVSPropertyOp4
 70
     1
102
RTVSPropertyOp5
 70
     1
102
RTVSPropertyOp6
 70
     1
102
RTVSPropertyOp7
 70
     1
102
RTVSPropertyOp8
 70
     1
102
RTVSPropertyOp9
 70
     1
102
RTVSPropertyOp10
 70
     1
102
RTVSPropertyOp11
 70
     1
102
RTVSPropertyOp12
 70
     1
102
RTVSPropertyOp13
 70
     1
102
RTVSPropertyOp14
 70
     1
102
RTVSPropertyOp15
 70
     1
102
RTVSPropertyOp16
 70
     1
102
RTVSPropertyOp17
 70
     1
102
RTVSPropertyOp18
 70
     1
102
RTVSPropertyOp19
 70
     1
102
RTVSPropertyOp20
 70
     1
102
RTVSPropertyOp21
 70
     1
102
RTVSPropertyOp22
 70
     1
102
RTVSPropertyOp23
 70
     1
102
RTVSPropertyOp24
 70
     1
102
RTVSPropertyOp25
 70
     1
102
RTVSPropertyOp26
 70
     1
102
RTVSPropertyOp27
 70
     1
102
RTVSPropertyOp28
 70
     1
102
RTVSPropertyOp29
 70
     1
102
RTVSPropertyOp30
 70
     1
102
RTVSPropertyOp31
 70
     1
102
RTVSPropertyOp32
 70
     1
  0
XRECORD
  5
5A2
102
{ACAD_REACTORS
330
5A1
102
}
330
5A1
100
AcDbXrecord
280
     1
102
RTVSPropertyOp0
 70
     1
102
RTVSPropertyOp1
 70
     1
102
RTVSPropertyOp2
 70
     1
102
RTVSPropertyOp3
 70
     1
102
RTVSPropertyOp4
 70
     1
102
RTVSPropertyOp5
 70
     1
102
RTVSPropertyOp6
 70
     1
102
RTVSPropertyOp7
 70
     1
102
RTVSPropertyOp8
 70
     1
102
RTVSPropertyOp9
 70
     1
102
RTVSPropertyOp10
 70
     1
102
RTVSPropertyOp11
 70
     1
102
RTVSPropertyOp12
 70
     1
102
RTVSPropertyOp13
 70
     1
102
RTVSPropertyOp14
 70
     1
102
RTVSPropertyOp15
 70
     1
102
RTVSPropertyOp16
 70
     1
102
RTVSPropertyOp17
 70
     1
102
RTVSPropertyOp18
 70
     1
102
RTVSPropertyOp19
 70
     1
102
RTVSPropertyOp20
 70
     1
102
RTVSPropertyOp21
 70
     1
102
RTVSPropertyOp22
 70
     1
102
RTVSPropertyOp23
 70
     1
102
RTVSPropertyOp24
 70
     1
102
RTVSPropertyOp25
 70
     1
102
RTVSPropertyOp26
 70
     1
102
RTVSPropertyOp27
 70
     1
102
RTVSPropertyOp28
 70
     1
102
RTVSPropertyOp29
 70
     1
102
RTVSPropertyOp30
 70
     1
102
RTVSPropertyOp31
 70
     1
102
RTVSPropertyOp32
 70
     1
  0
XRECORD
  5
586
102
{ACAD_REACTORS
330
585
102
}
330
585
100
AcDbXrecord
280
     1
102
RTVSPropertyOp0
 70
     1
102
RTVSPropertyOp1
 70
     1
102
RTVSPropertyOp2
 70
     1
102
RTVSPropertyOp3
 70
     1
102
RTVSPropertyOp4
 70
     1
102
RTVSPropertyOp5
 70
     1
102
RTVSPropertyOp6
 70
     1
102
RTVSPropertyOp7
 70
     1
102
RTVSPropertyOp8
 70
     1
102
RTVSPropertyOp9
 70
     1
102
RTVSPropertyOp10
 70
     1
102
RTVSPropertyOp11
 70
     1
102
RTVSPropertyOp12
 70
     1
102
RTVSPropertyOp13
 70
     1
102
RTVSPropertyOp14
 70
     1
102
RTVSPropertyOp15
 70
     1
102
RTVSPropertyOp16
 70
     1
102
RTVSPropertyOp17
 70
     1
102
RTVSPropertyOp18
 70
     1
102
RTVSPropertyOp19
 70
     1
102
RTVSPropertyOp20
 70
     1
102
RTVSPropertyOp21
 70
     1
102
RTVSPropertyOp22
 70
     1
102
RTVSPropertyOp23
 70
     1
102
RTVSPropertyOp24
 70
     1
102
RTVSPropertyOp25
 70
     1
102
RTVSPropertyOp26
 70
     1
102
RTVSPropertyOp27
 70
     1
102
RTVSPropertyOp28
 70
     1
102
RTVSPropertyOp29
 70
     1
102
RTVSPropertyOp30
 70
     1
102
RTVSPropertyOp31
 70
     1
102
RTVSPropertyOp32
 70
     1
  0
XRECORD
  5
588
102
{ACAD_REACTORS
330
587
102
}
330
587
100
AcDbXrecord
280
     1
102
RTVSPropertyOp0
 70
     1
102
RTVSPropertyOp1
 70
     1
102
RTVSPropertyOp2
 70
     1
102
RTVSPropertyOp3
 70
     1
102
RTVSPropertyOp4
 70
     1
102
RTVSPropertyOp5
 70
     1
102
RTVSPropertyOp6
 70
     1
102
RTVSPropertyOp7
 70
     1
102
RTVSPropertyOp8
 70
     1
102
RTVSPropertyOp9
 70
     1
102
RTVSPropertyOp10
 70
     1
102
RTVSPropertyOp11
 70
     1
102
RTVSPropertyOp12
 70
     1
102
RTVSPropertyOp13
 70
     1
102
RTVSPropertyOp14
 70
     1
102
RTVSPropertyOp15
 70
     1
102
RTVSPropertyOp16
 70
     1
102
RTVSPropertyOp17
 70
     1
102
RTVSPropertyOp18
 70
     1
102
RTVSPropertyOp19
 70
     1
102
RTVSPropertyOp20
 70
     1
102
RTVSPropertyOp21
 70
     1
102
RTVSPropertyOp22
 70
     1
102
RTVSPropertyOp23
 70
     1
102
RTVSPropertyOp24
 70
     1
102
RTVSPropertyOp25
 70
     1
102
RTVSPropertyOp26
 70
     1
102
RTVSPropertyOp27
 70
     1
102
RTVSPropertyOp28
 70
     1
102
RTVSPropertyOp29
 70
     1
102
RTVSPropertyOp30
 70
     1
102
RTVSPropertyOp31
 70
     1
102
RTVSPropertyOp32
 70
     1
  0
XRECORD
  5
58A
102
{ACAD_REACTORS
330
589
102
}
330
589
100
AcDbXrecord
280
     1
102
RTVSPropertyOp0
 70
     1
102
RTVSPropertyOp1
 70
     1
102
RTVSPropertyOp2
 70
     1
102
RTVSPropertyOp3
 70
     1
102
RTVSPropertyOp4
 70
     1
102
RTVSPropertyOp5
 70
     1
102
RTVSPropertyOp6
 70
     1
102
RTVSPropertyOp7
 70
     1
102
RTVSPropertyOp8
 70
     1
102
RTVSPropertyOp9
 70
     1
102
RTVSPropertyOp10
 70
     1
102
RTVSPropertyOp11
 70
     1
102
RTVSPropertyOp12
 70
     1
102
RTVSPropertyOp13
 70
     1
102
RTVSPropertyOp14
 70
     1
102
RTVSPropertyOp15
 70
     1
102
RTVSPropertyOp16
 70
     1
102
RTVSPropertyOp17
 70
     1
102
RTVSPropertyOp18
 70
     1
102
RTVSPropertyOp19
 70
     1
102
RTVSPropertyOp20
 70
     1
102
RTVSPropertyOp21
 70
     1
102
RTVSPropertyOp22
 70
     1
102
RTVSPropertyOp23
 70
     1
102
RTVSPropertyOp24
 70
     1
102
RTVSPropertyOp25
 70
     1
102
RTVSPropertyOp26
 70
     1
102
RTVSPropertyOp27
 70
     1
102
RTVSPropertyOp28
 70
     1
102
RTVSPropertyOp29
 70
     1
102
RTVSPropertyOp30
 70
     1
102
RTVSPropertyOp31
 70
     1
102
RTVSPropertyOp32
 70
     1
  0
XRECORD
  5
58C
102
{ACAD_REACTORS
330
58B
102
}
330
58B
100
AcDbXrecord
280
     1
102
RTVSPropertyOp0
 70
     1
102
RTVSPropertyOp1
 70
     1
102
RTVSPropertyOp2
 70
     1
102
RTVSPropertyOp3
 70
     1
102
RTVSPropertyOp4
 70
     1
102
RTVSPropertyOp5
 70
     1
102
RTVSPropertyOp6
 70
     1
102
RTVSPropertyOp7
 70
     1
102
RTVSPropertyOp8
 70
     1
102
RTVSPropertyOp9
 70
     1
102
RTVSPropertyOp10
 70
     1
102
RTVSPropertyOp11
 70
     1
102
RTVSPropertyOp12
 70
     1
102
RTVSPropertyOp13
 70
     1
102
RTVSPropertyOp14
 70
     1
102
RTVSPropertyOp15
 70
     1
102
RTVSPropertyOp16
 70
     1
102
RTVSPropertyOp17
 70
     1
102
RTVSPropertyOp18
 70
     1
102
RTVSPropertyOp19
 70
     1
102
RTVSPropertyOp20
 70
     1
102
RTVSPropertyOp21
 70
     1
102
RTVSPropertyOp22
 70
     1
102
RTVSPropertyOp23
 70
     1
102
RTVSPropertyOp24
 70
     1
102
RTVSPropertyOp25
 70
     1
102
RTVSPropertyOp26
 70
     1
102
RTVSPropertyOp27
 70
     1
102
RTVSPropertyOp28
 70
     1
102
RTVSPropertyOp29
 70
     1
102
RTVSPropertyOp30
 70
     1
102
RTVSPropertyOp31
 70
     1
102
RTVSPropertyOp32
 70
     1
  0
XRECORD
  5
5A0
102
{ACAD_REACTORS
330
59F
102
}
330
59F
100
AcDbXrecord
280
     1
102
RTVSPropertyOp0
 70
     1
102
RTVSPropertyOp1
 70
     1
102
RTVSPropertyOp2
 70
     1
102
RTVSPropertyOp3
 70
     1
102
RTVSPropertyOp4
 70
     1
102
RTVSPropertyOp5
 70
     1
102
RTVSPropertyOp6
 70
     1
102
RTVSPropertyOp7
 70
     1
102
RTVSPropertyOp8
 70
     1
102
RTVSPropertyOp9
 70
     1
102
RTVSPropertyOp10
 70
     1
102
RTVSPropertyOp11
 70
     1
102
RTVSPropertyOp12
 70
     1
102
RTVSPropertyOp13
 70
     1
102
RTVSPropertyOp14
 70
     1
102
RTVSPropertyOp15
 70
     1
102
RTVSPropertyOp16
 70
     1
102
RTVSPropertyOp17
 70
     1
102
RTVSPropertyOp18
 70
     1
102
RTVSPropertyOp19
 70
     1
102
RTVSPropertyOp20
 70
     1
102
RTVSPropertyOp21
 70
     1
102
RTVSPropertyOp22
 70
     1
102
RTVSPropertyOp23
 70
     1
102
RTVSPropertyOp24
 70
     1
102
RTVSPropertyOp25
 70
     1
102
RTVSPropertyOp26
 70
     1
102
RTVSPropertyOp27
 70
     1
102
RTVSPropertyOp28
 70
     1
102
RTVSPropertyOp29
 70
     1
102
RTVSPropertyOp30
 70
     1
102
RTVSPropertyOp31
 70
     1
102
RTVSPropertyOp32
 70
     1
  0
XRECORD
  5
596
102
{ACAD_REACTORS
330
595
102
}
330
595
100
AcDbXrecord
280
     1
102
RTVSPropertyOp0
 70
     1
102
RTVSPropertyOp1
 70
     1
102
RTVSPropertyOp2
 70
     1
102
RTVSPropertyOp3
 70
     1
102
RTVSPropertyOp4
 70
     1
102
RTVSPropertyOp5
 70
     1
102
RTVSPropertyOp6
 70
     1
102
RTVSPropertyOp7
 70
     1
102
RTVSPropertyOp8
 70
     1
102
RTVSPropertyOp9
 70
     1
102
RTVSPropertyOp10
 70
     1
102
RTVSPropertyOp11
 70
     1
102
RTVSPropertyOp12
 70
     1
102
RTVSPropertyOp13
 70
     1
102
RTVSPropertyOp14
 70
     1
102
RTVSPropertyOp15
 70
     1
102
RTVSPropertyOp16
 70
     1
102
RTVSPropertyOp17
 70
     1
102
RTVSPropertyOp18
 70
     1
102
RTVSPropertyOp19
 70
     1
102
RTVSPropertyOp20
 70
     1
102
RTVSPropertyOp21
 70
     1
102
RTVSPropertyOp22
 70
     1
102
RTVSPropertyOp23
 70
     1
102
RTVSPropertyOp24
 70
     1
102
RTVSPropertyOp25
 70
     1
102
RTVSPropertyOp26
 70
     1
102
RTVSPropertyOp27
 70
     1
102
RTVSPropertyOp28
 70
     1
102
RTVSPropertyOp29
 70
     1
102
RTVSPropertyOp30
 70
     1
102
RTVSPropertyOp31
 70
     1
102
RTVSPropertyOp32
 70
     1
  0
XRECORD
  5
59E
102
{ACAD_REACTORS
330
59D
102
}
330
59D
100
AcDbXrecord
280
     1
102
RTVSPropertyOp0
 70
     1
102
RTVSPropertyOp1
 70
     1
102
RTVSPropertyOp2
 70
     1
102
RTVSPropertyOp3
 70
     1
102
RTVSPropertyOp4
 70
     1
102
RTVSPropertyOp5
 70
     1
102
RTVSPropertyOp6
 70
     1
102
RTVSPropertyOp7
 70
     1
102
RTVSPropertyOp8
 70
     1
102
RTVSPropertyOp9
 70
     1
102
RTVSPropertyOp10
 70
     1
102
RTVSPropertyOp11
 70
     1
102
RTVSPropertyOp12
 70
     1
102
RTVSPropertyOp13
 70
     1
102
RTVSPropertyOp14
 70
     1
102
RTVSPropertyOp15
 70
     1
102
RTVSPropertyOp16
 70
     1
102
RTVSPropertyOp17
 70
     1
102
RTVSPropertyOp18
 70
     1
102
RTVSPropertyOp19
 70
     1
102
RTVSPropertyOp20
 70
     1
102
RTVSPropertyOp21
 70
     1
102
RTVSPropertyOp22
 70
     1
102
RTVSPropertyOp23
 70
     1
102
RTVSPropertyOp24
 70
     1
102
RTVSPropertyOp25
 70
     1
102
RTVSPropertyOp26
 70
     1
102
RTVSPropertyOp27
 70
     1
102
RTVSPropertyOp28
 70
     1
102
RTVSPropertyOp29
 70
     1
102
RTVSPropertyOp30
 70
     1
102
RTVSPropertyOp31
 70
     1
102
RTVSPropertyOp32
 70
     1
  0
ENDSEC
  0
EOF
