0
SECTION
2
HEADER
9
$ACADVER
1
AC1015
9
$DWGCODEPAGE
3
ANSI_1252
9
$HANDSEED
5
208
9
$ANGBASE
50
0
9
$ANGDIR
70
0
9
$ATTMODE
70
1
9
$AUNITS
70
0
9
$AUPREC
70
0
9
$CECOLOR
62
256
9
$CELTSCALE
40
1
9
$CELTYPE
6
ByLayer
9
$CELWEIGHT
370
18
9
$CLAYER
8
0
9
$CMLJUST
70
0
9
$CMLSCALE
40
1
9
$CMLSTYLE
2
Standard
9
$DIMSTYLE
2
Standard
9
$TEXTSIZE
40
0.2
9
$TEXTSTYLE
7
Standard
9
$LUNITS
70
2
9
$LUPREC
70
4
9
$EXTNAMES
290
1
9
$INSUNITS
70
4
9
$LTSCALE
40
1
9
$LWDISPLAY
290
1
9
$PDMODE
70
0
9
$PDSIZE
40
0
9
$PLINEGEN
70
0
0
ENDSEC
0
SECTION
2
CLASSES
0
CLASS
1
RASTERVARIABLES
2
AcDbRasterVariables
3
ISM
90
0
280
0
281
0
0
ENDSEC
0
SECTION
2
TABLES
0
TABLE
2
VPORT
5
1fe
100
AcDbSymbolTable
0
VPORT
5
1
100
AcDbSymbolTableRecord
100
AcDbViewportTableRecord
2
*Active
70
0
10
0
20
0
11
1
21
1
12
-1
22
1
13
0
23
0
14
0.5
24
0.5
15
10
25
10
16
0
26
0
36
1
17
0
27
0
37
0
0
ENDTAB
0
TABLE
2
LTYPE
5
1ff
100
AcDbSymbolTable
0
LTYPE
5
14
100
AcDbSymbolTableRecord
100
AcDbLinetypeTableRecord
70
0
2
ByBlock
3

72
65
73
0
40
0
0
LTYPE
5
15
100
AcDbSymbolTableRecord
100
AcDbLinetypeTableRecord
70
0
2
ByLayer
3

72
65
73
0
40
0
0
LTYPE
5
16
100
AcDbSymbolTableRecord
100
AcDbLinetypeTableRecord
70
0
2
CONTINUOUS
3
Solid line
72
65
73
0
40
0
0
LTYPE
5
6A
100
AcDbSymbolTableRecord
100
AcDbLinetypeTableRecord
70
0
2
CENTER
3
____ _ ____ _ ____ _ ____
72
65
73
4
40
47.5
49
22
74
0
49
-8.5
74
0
49
8.5
74
0
49
-8.5
74
0
0
LTYPE
5
6B
100
AcDbSymbolTableRecord
100
AcDbLinetypeTableRecord
70
0
2
DASHED
3
__ __ __ __ __ __ __ __ __
72
65
73
2
40
25.72
49
12.86
74
0
49
-12.86
74
0
0
ENDTAB
0
TABLE
2
LAYER
5
200
100
AcDbSymbolTable
0
LAYER
5
10
100
AcDbSymbolTableRecord
100
AcDbLayerTableRecord
2
0
70
0
62
7
6
CONTINUOUS
290
1
370
-3
390
0
0
LAYER
5
6D
100
AcDbSymbolTableRecord
100
AcDbLayerTableRecord
2
2
70
0
62
7
6
CONTINUOUS
290
1
370
-3
390
0
0
LAYER
5
6F
100
AcDbSymbolTableRecord
100
AcDbLayerTableRecord
2
80
70
0
62
-6
6
CONTINUOUS
290
1
370
-3
390
0
0
LAYER
5
71
100
AcDbSymbolTableRecord
100
AcDbLayerTableRecord
2
81
70
0
62
-3
6
CONTINUOUS
290
1
370
-3
390
0
0
LAYER
5
73
100
AcDbSymbolTableRecord
100
AcDbLayerTableRecord
2
1
70
0
62
4
6
CONTINUOUS
290
1
370
-3
390
0
0
LAYER
5
1eb
100
AcDbSymbolTableRecord
100
AcDbLayerTableRecord
2
SK1
70
0
62
4
6
CONTINUOUS
290
1
370
-3
390
0
0
LAYER
5
1ec
100
AcDbSymbolTableRecord
100
AcDbLayerTableRecord
2
SK6
70
0
62
5
6
CONTINUOUS
290
1
370
-3
390
0
0
LAYER
5
1ed
100
AcDbSymbolTableRecord
100
AcDbLayerTableRecord
2
SK2
70
0
62
7
6
CONTINUOUS
290
1
370
-3
390
0
0
ENDTAB
0
TABLE
2
STYLE
5
201
100
AcDbSymbolTable
0
STYLE
5
11
100
AcDbSymbolTableRecord
100
AcDbTextStyleTableRecord
2
Standard
3
txt
70
0
71
0
40
0
41
1
42
0
50
0
0
STYLE
5
141
100
AcDbSymbolTableRecord
100
AcDbTextStyleTableRecord
2
iso_b_vert
3
simplex.shx
70
0
71
0
40
0
41
1
42
0
50
0
0
STYLE
5
142
100
AcDbSymbolTableRecord
100
AcDbTextStyleTableRecord
2
DWGDirectTextStyle
3
simplex
70
0
71
0
40
0
41
1
42
0
50
0
0
ENDTAB
0
TABLE
2
DIMSTYLE
5
202
100
AcDbSymbolTable
100
AcDbDimStyleTable
0
DIMSTYLE
105
27
100
AcDbSymbolTableRecord
100
AcDbDimStyleTableRecord
2
Standard
70
0
3
<>
41
0.18
42
0.0625
44
0.18
140
0.18
147
0.09
73
0
74
0
77
1
271
2
275
0
278
52
280
0
340
11
0
ENDTAB
0
TABLE
2
VIEW
5
203
100
AcDbSymbolTable
0
ENDTAB
0
TABLE
2
UCS
5
204
100
AcDbSymbolTable
0
ENDTAB
0
TABLE
2
APPID
5
205
100
AcDbSymbolTable
0
APPID
5
12
100
AcDbSymbolTableRecord
100
AcDbRegAppTableRecord
2
ACAD
70
0
0
ENDTAB
0
TABLE
2
BLOCK_RECORD
5
206
100
AcDbSymbolTable
0
BLOCK_RECORD
5
1F
100
AcDbSymbolTableRecord
100
AcDbBlockTableRecord
2
*Model_Space
340
0
70
0
0
BLOCK_RECORD
5
1B
100
AcDbSymbolTableRecord
100
AcDbBlockTableRecord
2
*Paper_Space
340
0
70
0
0
BLOCK_RECORD
5
23
100
AcDbSymbolTableRecord
100
AcDbBlockTableRecord
2
*Paper_Space0
340
0
70
0
0
BLOCK_RECORD
5
144
100
AcDbSymbolTableRecord
100
AcDbBlockTableRecord
2
DimnDraft3D1
340
0
70
0
0
BLOCK_RECORD
5
152
100
AcDbSymbolTableRecord
100
AcDbBlockTableRecord
2
_CLOSED
340
0
70
0
0
BLOCK_RECORD
5
159
100
AcDbSymbolTableRecord
100
AcDbBlockTableRecord
2
DimnDraft3D2
340
0
70
0
0
BLOCK_RECORD
5
168
100
AcDbSymbolTableRecord
100
AcDbBlockTableRecord
2
DimnDraft3D3
340
0
70
0
0
BLOCK_RECORD
5
176
100
AcDbSymbolTableRecord
100
AcDbBlockTableRecord
2
DimnDraft3D4
340
0
70
0
0
BLOCK_RECORD
5
184
100
AcDbSymbolTableRecord
100
AcDbBlockTableRecord
2
DimnDraft3D5
340
0
70
0
0
ENDTAB
0
ENDSEC
0
SECTION
2
BLOCKS
0
BLOCK
5
20
100
AcDbEntity
8
0
100
AcDbBlockBegin
2
*Model_Space
70
0
10
0
20
0
30
0
3
*Model_Space
0
ENDBLK
5
21
100
AcDbEntity
8
0
100
AcDbBlockEnd
0
BLOCK
5
1C
100
AcDbEntity
8
0
100
AcDbBlockBegin
2
*Paper_Space
70
0
10
0
20
0
30
0
3
*Paper_Space
0
ENDBLK
5
1D
100
AcDbEntity
8
0
100
AcDbBlockEnd
0
BLOCK
5
24
100
AcDbEntity
8
0
100
AcDbBlockBegin
2
*Paper_Space0
70
0
10
0
20
0
30
0
3
*Paper_Space0
0
ENDBLK
5
25
100
AcDbEntity
8
0
100
AcDbBlockEnd
0
BLOCK
5
14F
100
AcDbEntity
8
0
100
AcDbBlockBegin
2
DimnDraft3D1
70
0
10
0
20
0
30
0
3
DimnDraft3D1
0
MTEXT
5
145
100
AcDbEntity
8
2
62
256
6
ByLayer
370
18
48
1
60
0
100
AcDbMText
10
16.160212
20
32.762381
30
0
210
0
220
0
230
1
1
\W0.7399;95%%d
40
4.5
41
0
44
1.084337
50
47.3457231599999
71
7
72
5
7
iso_b_vert
0
LINE
5
146
100
AcDbEntity
8
2
62
256
6
ByLayer
370
13
48
1
60
0
100
AcDbLine
10
34.34235
20
21.9125
30
0
11
34.34235
21
42.88825
31
0
39
0
210
0
220
0
230
1
0
LINE
5
147
100
AcDbEntity
8
2
62
256
6
ByLayer
370
13
48
1
60
0
100
AcDbLine
10
30.493731
20
19.664471
30
0
11
11.511158
21
18.106673
31
0
39
0
210
0
220
0
230
1
0
ARC
5
148
100
AcDbEntity
8
2
62
256
6
ByLayer
370
13
48
1
60
0
100
AcDbCircle
39
0
10
34.34235
20
19.980307
30
0
40
20.9079424705682
210
0
220
0
230
1
100
AcDbArc
50
90
51
184.691446
0
LINE
5
149
100
AcDbEntity
8
2
62
256
6
ByLayer
370
13
48
1
60
0
100
AcDbLine
10
34.34235
20
40.88825
30
0
11
31.185465
21
40.350277
31
0
39
0
210
0
220
0
230
1
0
LINE
5
14A
100
AcDbEntity
8
2
62
256
6
ByLayer
370
13
48
1
60
0
100
AcDbLine
10
34.34235
20
40.88825
30
0
11
31.153793
21
41.18567
31
0
39
0
210
0
220
0
230
1
0
LINE
5
14B
100
AcDbEntity
8
2
62
256
6
ByLayer
370
13
48
1
60
0
100
AcDbLine
10
31.185465
20
40.350277
30
0
11
31.153793
21
41.18567
31
0
39
0
210
0
220
0
230
1
0
LINE
5
14C
100
AcDbEntity
8
2
62
256
6
ByLayer
370
13
48
1
60
0
100
AcDbLine
10
13.504458
20
18.270252
30
0
11
12.947243
21
21.423798
31
0
39
0
210
0
220
0
230
1
0
LINE
5
14D
100
AcDbEntity
8
2
62
256
6
ByLayer
370
13
48
1
60
0
100
AcDbLine
10
13.504458
20
18.270252
30
0
11
13.782427
21
21.460564
31
0
39
0
210
0
220
0
230
1
0
LINE
5
14E
100
AcDbEntity
8
2
62
256
6
ByLayer
370
13
48
1
60
0
100
AcDbLine
10
12.947243
20
21.423798
30
0
11
13.782427
21
21.460564
31
0
39
0
210
0
220
0
230
1
0
ENDBLK
5
150
100
AcDbEntity
8
0
100
AcDbBlockEnd
0
BLOCK
5
153
100
AcDbEntity
8
0
100
AcDbBlockBegin
2
_CLOSED
70
0
10
0
20
0
30
0
3
_CLOSED
0
LINE
5
155
100
AcDbEntity
8
0
62
256
6
ByLayer
370
-2
48
1
60
0
100
AcDbLine
10
-1
20
0.166667
30
0
11
0
21
0
31
0
39
0
210
0
220
0
230
1
0
LINE
5
156
100
AcDbEntity
8
0
62
256
6
ByLayer
370
-2
48
1
60
0
100
AcDbLine
10
0
20
0
30
0
11
-1
21
-0.166667
31
0
39
0
210
0
220
0
230
1
0
LINE
5
157
100
AcDbEntity
8
0
62
256
6
ByLayer
370
-2
48
1
60
0
100
AcDbLine
10
-1
20
0.166667
30
0
11
-1
21
-0.166667
31
0
39
0
210
0
220
0
230
1
0
LINE
5
158
100
AcDbEntity
8
0
62
256
6
ByLayer
370
-2
48
1
60
0
100
AcDbLine
10
0
20
0
30
0
11
-1
21
0
31
0
39
0
210
0
220
0
230
1
0
ENDBLK
5
154
100
AcDbEntity
8
0
100
AcDbBlockEnd
0
BLOCK
5
165
100
AcDbEntity
8
0
100
AcDbBlockBegin
2
DimnDraft3D2
70
0
10
0
20
0
30
0
3
DimnDraft3D2
0
MTEXT
5
15A
100
AcDbEntity
8
SK2
62
256
6
ByLayer
370
18
48
1
60
0
100
AcDbMText
10
-145.88265
20
-4.156579
30
0
210
0
220
0
230
1
1
\W0.7346;25.0
40
4.5
41
0
44
1.084337
50
90
71
7
72
5
7
iso_b_vert
0
LINE
5
15C
100
AcDbEntity
8
SK2
62
256
6
ByLayer
370
13
48
1
60
0
100
AcDbLine
10
-139.00765
20
-12.4375
30
0
11
-146.75765
21
-12.4375
31
0
39
0
210
0
220
0
230
1
0
LINE
5
15D
100
AcDbEntity
8
SK2
62
256
6
ByLayer
370
13
48
1
60
0
100
AcDbLine
10
-139.00765
20
12.4375
30
0
11
-146.75765
21
12.4375
31
0
39
0
210
0
220
0
230
1
0
LINE
5
15E
100
AcDbEntity
8
SK2
62
256
6
ByLayer
370
13
48
1
60
0
100
AcDbLine
10
-144.75765
20
-12.4375
30
0
11
-144.75765
21
12.4375
31
0
39
0
210
0
220
0
230
1
0
LINE
5
15F
100
AcDbEntity
8
SK2
62
256
6
ByLayer
370
13
48
1
60
0
100
AcDbLine
10
-144.75765
20
-12.4375
30
0
11
-145.175646
21
-9.262502
31
0
39
0
210
0
220
0
230
1
0
LINE
5
160
100
AcDbEntity
8
SK2
62
256
6
ByLayer
370
13
48
1
60
0
100
AcDbLine
10
-144.75765
20
-12.4375
30
0
11
-144.339653
21
-9.262498
31
0
39
0
210
0
220
0
230
1
0
LINE
5
161
100
AcDbEntity
8
SK2
62
256
6
ByLayer
370
13
48
1
60
0
100
AcDbLine
10
-145.175646
20
-9.262502
30
0
11
-144.339653
21
-9.262498
31
0
39
0
210
0
220
0
230
1
0
LINE
5
162
100
AcDbEntity
8
SK2
62
256
6
ByLayer
370
13
48
1
60
0
100
AcDbLine
10
-144.75765
20
12.4375
30
0
11
-144.339653
21
9.262502
31
0
39
0
210
0
220
0
230
1
0
LINE
5
163
100
AcDbEntity
8
SK2
62
256
6
ByLayer
370
13
48
1
60
0
100
AcDbLine
10
-144.75765
20
12.4375
30
0
11
-145.175646
21
9.262498
31
0
39
0
210
0
220
0
230
1
0
LINE
5
164
100
AcDbEntity
8
SK2
62
256
6
ByLayer
370
13
48
1
60
0
100
AcDbLine
10
-144.339653
20
9.262502
30
0
11
-145.175646
21
9.262498
31
0
39
0
210
0
220
0
230
1
0
ENDBLK
5
166
100
AcDbEntity
8
0
100
AcDbBlockEnd
0
BLOCK
5
173
100
AcDbEntity
8
0
100
AcDbBlockBegin
2
DimnDraft3D3
70
0
10
0
20
0
30
0
3
DimnDraft3D3
0
MTEXT
5
169
100
AcDbEntity
8
2
62
256
6
ByLayer
370
18
48
1
60
0
100
AcDbMText
10
55.46735
20
-0.419079
30
0
210
0
220
0
230
1
1
\W0.7346;32.0
40
4.5
41
0
44
1.084337
50
90
71
7
72
5
7
iso_b_vert
0
LINE
5
16A
100
AcDbEntity
8
2
62
256
6
ByLayer
370
13
48
1
60
0
100
AcDbLine
10
2
20
-12.4375
30
0
11
58.59235
21
-12.4375
31
0
39
0
210
0
220
0
230
1
0
LINE
5
16B
100
AcDbEntity
8
2
62
256
6
ByLayer
370
13
48
1
60
0
100
AcDbLine
10
36.34235
20
19.9125
30
0
11
58.59235
21
19.9125
31
0
39
0
210
0
220
0
230
1
0
LINE
5
16C
100
AcDbEntity
8
2
62
256
6
ByLayer
370
13
48
1
60
0
100
AcDbLine
10
56.59235
20
-12.4375
30
0
11
56.59235
21
19.9125
31
0
39
0
210
0
220
0
230
1
0
LINE
5
16D
100
AcDbEntity
8
2
62
256
6
ByLayer
370
13
48
1
60
0
100
AcDbLine
10
56.59235
20
-12.4375
30
0
11
56.174354
21
-9.262502
31
0
39
0
210
0
220
0
230
1
0
LINE
5
16E
100
AcDbEntity
8
2
62
256
6
ByLayer
370
13
48
1
60
0
100
AcDbLine
10
56.59235
20
-12.4375
30
0
11
57.010347
21
-9.262498
31
0
39
0
210
0
220
0
230
1
0
LINE
5
16F
100
AcDbEntity
8
2
62
256
6
ByLayer
370
13
48
1
60
0
100
AcDbLine
10
56.174354
20
-9.262502
30
0
11
57.010347
21
-9.262498
31
0
39
0
210
0
220
0
230
1
0
LINE
5
170
100
AcDbEntity
8
2
62
256
6
ByLayer
370
13
48
1
60
0
100
AcDbLine
10
56.59235
20
19.9125
30
0
11
57.010347
21
16.737502
31
0
39
0
210
0
220
0
230
1
0
LINE
5
171
100
AcDbEntity
8
2
62
256
6
ByLayer
370
13
48
1
60
0
100
AcDbLine
10
56.59235
20
19.9125
30
0
11
56.174354
21
16.737498
31
0
39
0
210
0
220
0
230
1
0
LINE
5
172
100
AcDbEntity
8
2
62
256
6
ByLayer
370
13
48
1
60
0
100
AcDbLine
10
57.010347
20
16.737502
30
0
11
56.174354
21
16.737498
31
0
39
0
210
0
220
0
230
1
0
ENDBLK
5
174
100
AcDbEntity
8
0
100
AcDbBlockEnd
0
BLOCK
5
181
100
AcDbEntity
8
0
100
AcDbBlockBegin
2
DimnDraft3D4
70
0
10
0
20
0
30
0
3
DimnDraft3D4
0
MTEXT
5
177
100
AcDbEntity
8
2
62
256
6
ByLayer
370
18
48
1
60
0
100
AcDbMText
10
12.777754
20
50.7875
30
0
210
0
220
0
230
1
1
\W0.7640;34.3
40
4.5
41
0
44
1.084337
50
0
71
7
72
5
7
iso_b_vert
0
LINE
5
178
100
AcDbEntity
8
2
62
256
6
ByLayer
370
13
48
1
60
0
100
AcDbLine
10
0
20
14.4375
30
0
11
0
21
51.6625
31
0
39
0
210
0
220
0
230
1
0
LINE
5
179
100
AcDbEntity
8
2
62
256
6
ByLayer
370
13
48
1
60
0
100
AcDbLine
10
34.34235
20
21.9125
30
0
11
34.34235
21
51.6625
31
0
39
0
210
0
220
0
230
1
0
LINE
5
17A
100
AcDbEntity
8
2
62
256
6
ByLayer
370
13
48
1
60
0
100
AcDbLine
10
0
20
49.6625
30
0
11
34.34235
21
49.6625
31
0
39
0
210
0
220
0
230
1
0
LINE
5
17B
100
AcDbEntity
8
2
62
256
6
ByLayer
370
13
48
1
60
0
100
AcDbLine
10
0
20
49.6625
30
0
11
3.174998
21
50.080497
31
0
39
0
210
0
220
0
230
1
0
LINE
5
17C
100
AcDbEntity
8
2
62
256
6
ByLayer
370
13
48
1
60
0
100
AcDbLine
10
0
20
49.6625
30
0
11
3.175002
21
49.244503
31
0
39
0
210
0
220
0
230
1
0
LINE
5
17D
100
AcDbEntity
8
2
62
256
6
ByLayer
370
13
48
1
60
0
100
AcDbLine
10
3.174998
20
50.080497
30
0
11
3.175002
21
49.244503
31
0
39
0
210
0
220
0
230
1
0
LINE
5
17E
100
AcDbEntity
8
2
62
256
6
ByLayer
370
13
48
1
60
0
100
AcDbLine
10
34.34235
20
49.6625
30
0
11
31.167352
21
49.244503
31
0
39
0
210
0
220
0
230
1
0
LINE
5
17F
100
AcDbEntity
8
2
62
256
6
ByLayer
370
13
48
1
60
0
100
AcDbLine
10
34.34235
20
49.6625
30
0
11
31.167349
21
50.080497
31
0
39
0
210
0
220
0
230
1
0
LINE
5
180
100
AcDbEntity
8
2
62
256
6
ByLayer
370
13
48
1
60
0
100
AcDbLine
10
31.167352
20
49.244503
30
0
11
31.167349
21
50.080497
31
0
39
0
210
0
220
0
230
1
0
ENDBLK
5
182
100
AcDbEntity
8
0
100
AcDbBlockEnd
0
BLOCK
5
18F
100
AcDbEntity
8
0
100
AcDbBlockBegin
2
DimnDraft3D5
70
0
10
0
20
0
30
0
3
DimnDraft3D5
0
MTEXT
5
185
100
AcDbEntity
8
SK2
62
256
6
ByLayer
370
18
48
1
60
0
100
AcDbMText
10
-56.608308
20
60.7875
30
0
210
0
220
0
230
1
1
\W0.6864;170.0
40
4.5
41
0
44
1.084337
50
0
71
7
72
5
7
iso_b_vert
0
LINE
5
186
100
AcDbEntity
8
SK2
62
256
6
ByLayer
370
13
48
1
60
0
100
AcDbLine
10
34.34235
20
21.9125
30
0
11
34.34235
21
61.6625
31
0
39
0
210
0
220
0
230
1
0
LINE
5
187
100
AcDbEntity
8
SK2
62
256
6
ByLayer
370
13
48
1
60
0
100
AcDbLine
10
-137.00765
20
14.4375
30
0
11
-137.00765
21
61.6625
31
0
39
0
210
0
220
0
230
1
0
LINE
5
188
100
AcDbEntity
8
SK2
62
256
6
ByLayer
370
13
48
1
60
0
100
AcDbLine
10
34.34235
20
59.6625
30
0
11
-137.00765
21
59.6625
31
0
39
0
210
0
220
0
230
1
0
LINE
5
189
100
AcDbEntity
8
SK2
62
256
6
ByLayer
370
13
48
1
60
0
100
AcDbLine
10
34.34235
20
59.6625
30
0
11
31.167352
21
59.244503
31
0
39
0
210
0
220
0
230
1
0
LINE
5
18A
100
AcDbEntity
8
SK2
62
256
6
ByLayer
370
13
48
1
60
0
100
AcDbLine
10
34.34235
20
59.6625
30
0
11
31.167349
21
60.080497
31
0
39
0
210
0
220
0
230
1
0
LINE
5
18B
100
AcDbEntity
8
SK2
62
256
6
ByLayer
370
13
48
1
60
0
100
AcDbLine
10
31.167352
20
59.244503
30
0
11
31.167349
21
60.080497
31
0
39
0
210
0
220
0
230
1
0
LINE
5
18C
100
AcDbEntity
8
SK2
62
256
6
ByLayer
370
13
48
1
60
0
100
AcDbLine
10
-137.00765
20
59.6625
30
0
11
-133.832651
21
60.080497
31
0
39
0
210
0
220
0
230
1
0
LINE
5
18D
100
AcDbEntity
8
SK2
62
256
6
ByLayer
370
13
48
1
60
0
100
AcDbLine
10
-137.00765
20
59.6625
30
0
11
-133.832648
21
59.244503
31
0
39
0
210
0
220
0
230
1
0
LINE
5
18E
100
AcDbEntity
8
SK2
62
256
6
ByLayer
370
13
48
1
60
0
100
AcDbLine
10
-133.832651
20
60.080497
30
0
11
-133.832648
21
59.244503
31
0
39
0
210
0
220
0
230
1
0
ENDBLK
5
190
100
AcDbEntity
8
0
100
AcDbBlockEnd
0
ENDSEC
0
SECTION
2
ENTITIES
0
ELLIPSE
5
D1
100
AcDbEntity
8
1
62
256
6
ByLayer
370
18
48
1
60
0
100
AcDbEllipse
10
28.499862
20
4.995712
30
0
11
-1.12253201513623
21
1.12253201513108
31
0
210
0
220
0
230
1
40
0.989133
41
2.49947504747
42
2.71109602210424
0
ELLIPSE
5
D2
100
AcDbEntity
8
1
62
256
6
ByLayer
370
18
48
1
60
0
100
AcDbEllipse
10
6.985234
20
13.809344
30
0
11
2.00411319484463
21
-2.23238220344314
31
0
210
0
220
0
230
1
40
0.98676
41
-0.470414656504756
42
-0.182430741910917
0
ELLIPSE
5
D3
100
AcDbEntity
8
1
62
256
6
ByLayer
370
18
48
1
60
0
100
AcDbEllipse
10
12.711865
20
9.534436
30
0
11
2.77235658620174
21
-3.08812871476301
31
0
210
0
220
0
230
1
40
0.98676
41
2.67117799708504
42
2.94656018809034
0
ELLIPSE
5
D4
100
AcDbEntity
8
1
62
256
6
ByLayer
370
18
48
1
60
0
100
AcDbEllipse
10
14.674351
20
10.047574
30
0
11
-2.77235658620172
21
3.08812871476303
31
0
210
0
220
0
230
1
40
0.98676
41
3.03746818403644
42
-0.470414656504752
0
ELLIPSE
5
D5
100
AcDbEntity
8
1
62
256
6
ByLayer
370
18
48
1
60
0
100
AcDbEllipse
10
12.63528
20
9.514411
30
0
11
-1.73689810219867
21
1.93473124298407
31
0
210
0
220
0
230
1
40
0.98676
41
1.01590209257835
42
1.19369658223932
0
ELLIPSE
5
D6
100
AcDbEntity
8
1
62
256
6
ByLayer
370
18
48
1
60
0
100
AcDbEllipse
10
27.507099
20
13.077249
30
0
11
1.82433549546546
21
-1.82433549545712
31
0
210
0
220
0
230
1
40
0.989133
41
-0.296746001436432
42
0
0
ELLIPSE
5
D7
100
AcDbEntity
8
1
62
256
6
ByLayer
370
18
48
1
60
0
100
AcDbEllipse
10
27.507099
20
13.077249
30
0
11
1.82433549546546
21
-1.82433549545712
31
0
210
0
220
0
230
1
40
0.989133
41
0
42
2.37341157926565
0
ELLIPSE
5
D8
100
AcDbEntity
8
1
62
256
6
ByLayer
370
18
48
1
60
0
100
AcDbEllipse
10
27.507099
20
13.077249
30
0
11
1.82433549546546
21
-1.82433549545712
31
0
210
0
220
0
230
1
40
0.989133
41
-0.790861342930617
42
-0.534524943127305
0
ELLIPSE
5
D9
100
AcDbEntity
8
1
62
256
6
ByLayer
370
18
48
1
60
0
100
AcDbEllipse
10
29.282702
20
4.266074
30
0
11
0.561230652229045
21
-0.56123065222648
31
0
210
0
220
0
230
1
40
0.989133
41
-1.39626340159547
42
-5.28576560576504E-07
0
ELLIPSE
5
DA
100
AcDbEntity
8
1
62
256
6
ByLayer
370
18
48
1
60
0
100
AcDbEllipse
10
27.012242
20
12.582391
30
0
11
-1.82433549546548
21
1.8243354954571
31
0
210
0
220
0
230
1
40
0.989133
41
-3.00411323065732
42
-2.57224229648303
0
ELLIPSE
5
DB
100
AcDbEntity
8
1
62
256
6
ByLayer
370
18
48
1
60
0
100
AcDbEllipse
10
13.751865
20
8.758355
30
0
11
-0.268700576851505
21
0.268700576850271
31
0
210
0
220
0
230
1
40
0.989133
41
-2.82332222516262
42
-2.7713192601939
0
ELLIPSE
5
DC
100
AcDbEntity
8
1
62
256
6
ByLayer
370
18
48
1
60
0
100
AcDbEllipse
10
12.864446
20
9.645774
30
0
11
-0.268700576851505
21
0.268700576850271
31
0
210
0
220
0
230
1
40
0.989133
41
-0.370273393395957
42
-0.318270428427234
0
ELLIPSE
5
DD
100
AcDbEntity
8
1
62
256
6
ByLayer
370
18
48
1
60
0
100
AcDbEllipse
10
14.486255
20
8.431457
30
0
11
0.300520382004969
21
-0.300520382003596
31
0
210
0
220
0
230
1
40
0.989133
41
3.14157958277295
42
-2.77131926019395
0
ELLIPSE
5
DE
100
AcDbEntity
8
1
62
256
6
ByLayer
370
18
48
1
60
0
100
AcDbEllipse
10
12.537548
20
10.380164
30
0
11
0.300520382004969
21
-0.300520382003596
31
0
210
0
220
0
230
1
40
0.989133
41
-0.370273393395921
42
1.30708167711377E-05
0
ELLIPSE
5
DF
100
AcDbEntity
8
1
62
256
6
ByLayer
370
18
48
1
60
0
100
AcDbEllipse
10
14.95575
20
9.074821
30
0
11
-0.268700576851505
21
0.268700576850271
31
0
210
0
220
0
230
1
40
0.989133
41
-2.82332533916038
42
-1.72412170899734
0
ELLIPSE
5
E0
100
AcDbEntity
8
1
62
256
6
ByLayer
370
18
48
1
60
0
100
AcDbEllipse
10
13.180912
20
10.849659
30
0
11
-0.268700576851505
21
0.268700576850271
31
0
210
0
220
0
230
1
40
0.989133
41
-1.41747094459249
42
-0.318267314429465
0
ELLIPSE
5
E1
100
AcDbEntity
8
1
62
256
6
ByLayer
370
18
48
1
60
0
100
AcDbEllipse
10
15.599115
20
9.544317
30
0
11
0.300520382004969
21
-0.300520382003596
31
0
210
0
220
0
230
1
40
0.989133
41
-3.14158020237115
42
-1.72412170899725
0
ELLIPSE
5
E2
100
AcDbEntity
8
1
62
256
6
ByLayer
370
18
48
1
60
0
100
AcDbEllipse
10
13.650408
20
11.493024
30
0
11
0.300520382004969
21
-0.300520382003596
31
0
210
0
220
0
230
1
40
0.989133
41
-1.41747094459248
42
-1.24512185865883E-05
0
ELLIPSE
5
E3
100
AcDbEntity
8
1
62
256
6
ByLayer
370
18
48
1
60
0
100
AcDbEllipse
10
13.985162
20
9.879071
30
0
11
2.82842712475265
21
-2.82842712473973
31
0
210
0
220
0
230
1
40
0.989133
41
3.14149839445548
42
-0.790861103274131
0
ELLIPSE
5
E4
100
AcDbEntity
8
1
62
256
6
ByLayer
370
18
48
1
60
0
100
AcDbEllipse
10
13.985162
20
9.879071
30
0
11
2.82842712475265
21
-2.82842712473973
31
0
210
0
220
0
230
1
40
0.989133
41
-0.790861354621169
42
-4.48968146700254E-16
0
ELLIPSE
5
E5
100
AcDbEntity
8
1
62
256
6
ByLayer
370
18
48
1
60
0
100
AcDbEllipse
10
15.272217
20
10.278706
30
0
11
-0.268700576851505
21
0.268700576850271
31
0
210
0
220
0
230
1
40
0.989133
41
-2.82328407900601
42
-0.676924157800718
0
ELLIPSE
5
E6
100
AcDbEntity
8
1
62
256
6
ByLayer
370
18
48
1
60
0
100
AcDbEllipse
10
14.384798
20
11.166125
30
0
11
-0.268700576851505
21
0.268700576850271
31
0
210
0
220
0
230
1
40
0.989133
41
-2.46466849578902
42
-0.318308574583736
0
ELLIPSE
5
E7
100
AcDbEntity
8
1
62
256
6
ByLayer
370
18
48
1
60
0
100
AcDbEllipse
10
14.068331
20
9.96224
30
0
11
0.813172798366388
21
-0.813172798362671
31
0
210
0
220
0
230
1
40
0.989133
41
-1.27008360288776
42
-0.79086176989022
0
ELLIPSE
5
E8
100
AcDbEntity
8
1
62
256
6
ByLayer
370
18
48
1
60
0
100
AcDbEllipse
10
14.068331
20
9.96224
30
0
11
0.813172798366388
21
-0.813172798362671
31
0
210
0
220
0
230
1
40
0.989133
41
-2.54753297383593
42
-1.87159964322448
0
ELLIPSE
5
E9
100
AcDbEntity
8
1
62
256
6
ByLayer
370
18
48
1
60
0
100
AcDbEllipse
10
14.068331
20
9.96224
30
0
11
0.813172798366388
21
-0.813172798362671
31
0
210
0
220
0
230
1
40
0.989133
41
-0.185743132322882
42
0
0
ELLIPSE
5
EA
100
AcDbEntity
8
1
62
256
6
ByLayer
370
18
48
1
60
0
100
AcDbEllipse
10
14.068331
20
9.96224
30
0
11
0.813172798366388
21
-0.813172798362671
31
0
210
0
220
0
230
1
40
0.989133
41
0
42
-2.95584241843447
0
ELLIPSE
5
EB
100
AcDbEntity
8
1
62
256
6
ByLayer
370
18
48
1
60
0
100
AcDbEllipse
10
14.068331
20
9.96224
30
0
11
0.813172798366388
21
-0.813172798362671
31
0
210
0
220
0
230
1
40
0.989133
41
-0.790860895639592
42
-0.594050991144521
0
ELLIPSE
5
EC
100
AcDbEntity
8
1
62
256
6
ByLayer
370
18
48
1
60
0
100
AcDbEllipse
10
14.016351
20
9.910259
30
0
11
0.813172798366388
21
-0.813172798362671
31
0
210
0
220
0
230
1
40
0.989133
41
0.0324014061345279
42
3.10919894175766
0
ELLIPSE
5
ED
100
AcDbEntity
8
1
62
256
6
ByLayer
370
18
48
1
60
0
100
AcDbEllipse
10
13.347251
20
11.015998
30
0
11
-0.268700576851505
21
0.268700576850271
31
0
210
0
220
0
230
1
40
0.989133
41
-1.41747094459251
42
1.41747094459256
0
ELLIPSE
5
EE
100
AcDbEntity
8
1
62
256
6
ByLayer
370
18
48
1
60
0
100
AcDbEllipse
10
14.551136
20
11.332464
30
0
11
-0.268700576851505
21
0.268700576850271
31
0
210
0
220
0
230
1
40
0.989133
41
-2.46466849578902
42
0.370273393395961
0
ELLIPSE
5
EF
100
AcDbEntity
8
1
62
256
6
ByLayer
370
18
48
1
60
0
100
AcDbEllipse
10
15.181191
20
11.0751
30
0
11
0.300520382004969
21
-0.300520382003596
31
0
210
0
220
0
230
1
40
0.989133
41
-2.46466849578906
42
-0.676924157800711
0
ELLIPSE
5
F0
100
AcDbEntity
8
1
62
256
6
ByLayer
370
18
48
1
60
0
100
AcDbEllipse
10
13.12181
20
9.015719
30
0
11
0.300520382004969
21
-0.300520382003596
31
0
210
0
220
0
230
1
40
0.989133
41
0.67692415780069
42
2.46466849578911
0
ELLIPSE
5
F1
100
AcDbEntity
8
1
62
256
6
ByLayer
370
18
48
1
60
0
100
AcDbEllipse
10
15.438555
20
10.445045
30
0
11
-0.268700576851505
21
0.268700576850271
31
0
210
0
220
0
230
1
40
0.989133
41
2.77131926019398
42
-0.676924157800718
0
ELLIPSE
5
F2
100
AcDbEntity
8
1
62
256
6
ByLayer
370
18
48
1
60
0
100
AcDbEllipse
10
15.765454
20
9.710655
30
0
11
0.300520382004969
21
-0.300520382003596
31
0
210
0
220
0
230
1
40
0.989133
41
2.77131926019385
42
-1.72412170899727
0
ELLIPSE
5
F3
100
AcDbEntity
8
1
62
256
6
ByLayer
370
18
48
1
60
0
100
AcDbEllipse
10
15.122089
20
9.24116
30
0
11
-0.268700576851505
21
0.268700576850271
31
0
210
0
220
0
230
1
40
0.989133
41
1.7241217089973
42
-1.72412170899731
0
ELLIPSE
5
F4
100
AcDbEntity
8
1
62
256
6
ByLayer
370
18
48
1
60
0
100
AcDbEllipse
10
13.030785
20
9.812113
30
0
11
-0.268700576851505
21
0.268700576850271
31
0
210
0
220
0
230
1
40
0.989133
41
-0.3702733933958
42
2.46466849578902
0
ELLIPSE
5
F5
100
AcDbEntity
8
1
62
256
6
ByLayer
370
18
48
1
60
0
100
AcDbEllipse
10
13.918204
20
8.924694
30
0
11
-0.268700576851505
21
0.268700576850271
31
0
210
0
220
0
230
1
40
0.989133
41
0.676924157800755
42
-2.77131926019388
0
ELLIPSE
5
F6
100
AcDbEntity
8
1
62
256
6
ByLayer
370
18
48
1
60
0
100
AcDbEllipse
10
15.34753
20
11.241439
30
0
11
0.300520382004969
21
-0.300520382003596
31
0
210
0
220
0
230
1
40
0.989133
41
-2.46466849578908
42
-0.676924157800681
0
ELLIPSE
5
F7
100
AcDbEntity
8
1
62
256
6
ByLayer
370
18
48
1
60
0
100
AcDbEllipse
10
14.23467
20
10.128579
30
0
11
-1.62634559673279
21
1.62634559672533
31
0
210
0
220
0
230
1
40
0.989133
41
0
42
6.28318530717959
0
ELLIPSE
5
F8
100
AcDbEntity
8
1
62
256
6
ByLayer
370
18
48
1
60
0
100
AcDbEllipse
10
14.158358
20
10.052267
30
0
11
-2.82842712475268
21
2.8284271247397
31
0
210
0
220
0
230
1
40
0.989133
41
0
42
6.28318530717959
0
ELLIPSE
5
F9
100
AcDbEntity
8
1
62
256
6
ByLayer
370
18
48
1
60
0
100
AcDbEllipse
10
14.652593
20
8.597795
30
0
11
0.300520382004969
21
-0.300520382003596
31
0
210
0
220
0
230
1
40
0.989133
41
1.72412170899731
42
-2.77131926019394
0
ELLIPSE
5
FA
100
AcDbEntity
8
1
62
256
6
ByLayer
370
18
48
1
60
0
100
AcDbEllipse
10
13.816747
20
11.659362
30
0
11
0.300520382004969
21
-0.300520382003596
31
0
210
0
220
0
230
1
40
0.989133
41
-1.41747094459252
42
0.370273393395898
0
ELLIPSE
5
FB
100
AcDbEntity
8
1
62
256
6
ByLayer
370
18
48
1
60
0
100
AcDbEllipse
10
12.703887
20
10.546502
30
0
11
0.300520382004969
21
-0.300520382003596
31
0
210
0
220
0
230
1
40
0.989133
41
-0.370273393395908
42
1.41747094459243
0
ELLIPSE
5
FC
100
AcDbEntity
8
1
62
256
6
ByLayer
370
18
48
1
60
0
100
AcDbEllipse
10
6.808893
20
11.752467
30
0
11
-2.7496212369441
21
1.22304369778389
31
0
210
0
220
0
230
1
40
0.990371
41
-0.371382481447714
42
0.680306581616373
0
ELLIPSE
5
FD
100
AcDbEntity
8
1
62
256
6
ByLayer
370
18
48
1
60
0
100
AcDbEllipse
10
10.404721
20
11.385083
30
0
11
5.30581632071872
21
1.44855554632705
31
0
210
0
220
0
230
1
40
0.073512
41
1.98949778340677
42
2.43126552269282
0
ELLIPSE
5
FE
100
AcDbEntity
8
1
62
256
6
ByLayer
370
18
48
1
60
0
100
AcDbEllipse
10
27.921069
20
13.413437
30
0
11
-0.31665046424653
21
2.33348351425738
31
0
210
0
220
0
230
1
40
0.808181
41
-2.39819383154437
42
-1.54298249806598
0
ELLIPSE
5
FF
100
AcDbEntity
8
1
62
256
6
ByLayer
370
18
48
1
60
0
100
AcDbEllipse
10
9.828011
20
13.497472
30
0
11
-5.35129707858659
21
-1.28168501143139
31
0
210
0
220
0
230
1
40
0.164046
41
0.542130514090282
42
0.595122825156403
0
ELLIPSE
5
100
100
AcDbEntity
8
1
62
256
6
ByLayer
370
18
48
1
60
0
100
AcDbEllipse
10
11.595932
20
5.241212
30
0
11
-2.23637238441736
21
-3.84361102761208
31
0
210
0
220
0
230
1
40
0.542818
41
0.136538800041309
42
0.496154533398594
0
ELLIPSE
5
101
100
AcDbEntity
8
1
62
256
6
ByLayer
370
18
48
1
60
0
100
AcDbEllipse
10
11.770559
20
6.382248
30
0
11
5.30581632071872
21
1.44855554632705
31
0
210
0
220
0
230
1
40
0.073512
41
1.98949778340677
42
2.43126552269283
0
ELLIPSE
5
102
100
AcDbEntity
8
1
62
256
6
ByLayer
370
18
48
1
60
0
100
AcDbEllipse
10
12.347266
20
4.269859
30
0
11
-5.25644869362717
21
-1.62821690717045
31
0
210
0
220
0
230
1
40
0.310906
41
-0.600496664814652
42
-0.547504351650597
0
ELLIPSE
5
103
100
AcDbEntity
8
1
62
256
6
ByLayer
370
18
48
1
60
0
100
AcDbEllipse
10
9.389579
20
13.322715
30
0
11
-3.84252419169947
21
0.804537860708804
31
0
210
0
220
0
230
1
40
0.467421
41
-0.751980271377228
42
-0.392364538016233
0
ELLIPSE
5
104
100
AcDbEntity
8
1
62
256
6
ByLayer
370
18
48
1
60
0
100
AcDbEllipse
10
9.410028
20
15.371008
30
0
11
-3.42469952282867
21
-0.743338903010627
31
0
210
0
220
0
230
1
40
0.299282
41
-0.117444394090435
42
0.605773712309076
0
ELLIPSE
5
105
100
AcDbEntity
8
1
62
256
6
ByLayer
370
18
48
1
60
0
100
AcDbEllipse
10
7.13937
20
12.302797
30
0
11
-0.385804401243365
21
-1.96243597704008
31
0
210
0
220
0
230
1
40
0.808605
41
-2.64426076054184
42
-1.23158526628227
0
ELLIPSE
5
106
100
AcDbEntity
8
1
62
256
6
ByLayer
370
18
48
1
60
0
100
AcDbEllipse
10
27.921069
20
13.413437
30
0
11
-1.71913634001932
21
1.38067622288211
31
0
210
0
220
0
230
1
40
0.788164
41
-2.18024112508812
42
-1.32502979161295
0
ELLIPSE
5
107
100
AcDbEntity
8
1
62
256
6
ByLayer
370
18
48
1
60
0
100
AcDbEllipse
10
9.349152
20
4.208734
30
0
11
1.55136786733261
21
-1.26224313830889
31
0
210
0
220
0
230
1
40
0.761518
41
-2.11406592226322
42
-0.701390428003594
0
ELLIPSE
5
108
100
AcDbEntity
8
1
62
256
6
ByLayer
370
18
48
1
60
0
100
AcDbEllipse
10
12.912171
20
2.543243
30
0
11
-3.31988062661785
21
-1.12417423859035
31
0
210
0
220
0
230
1
40
0.445779
41
-0.616728534677248
42
0.106489571724506
0
ELLIPSE
5
109
100
AcDbEntity
8
1
62
256
6
ByLayer
370
18
48
1
60
0
100
AcDbEllipse
10
5.364646
20
0.070074
30
0
11
6.75285713546019
21
1.8436161498708
31
0
210
0
220
0
230
1
40
0.073512
41
-0.806027490339067
42
-0.791246453599087
0
ELLIPSE
5
10A
100
AcDbEntity
8
1
62
256
6
ByLayer
370
18
48
1
60
0
100
AcDbEllipse
10
9.015247
20
3.670964
30
0
11
-2.74962123696544
21
1.22304369773817
31
0
210
0
220
0
230
1
40
0.990371
41
0.680306581599933
42
1.73199564466359
0
ELLIPSE
5
10B
100
AcDbEntity
8
1
62
256
6
ByLayer
370
18
48
1
60
0
100
AcDbEllipse
10
27.507099
20
13.077249
30
0
11
-4.49012806054489
21
4.49012806052427
31
0
210
0
220
0
230
1
40
0.989133
41
-2.79252680319096
42
-2.44346095279206
0
ELLIPSE
5
10C
100
AcDbEntity
8
1
62
256
6
ByLayer
370
18
48
1
60
0
100
AcDbEllipse
10
27.507099
20
13.077249
30
0
11
-4.49012806054489
21
4.49012806052427
31
0
210
0
220
0
230
1
40
0.989133
41
-0.69813170079773
42
-0.349065850398874
0
ELLIPSE
5
10D
100
AcDbEntity
8
1
62
256
6
ByLayer
370
18
48
1
60
0
100
AcDbEllipse
10
33.552956
20
19.123105
30
0
11
-0.561230652229051
21
0.561230652226474
31
0
210
0
220
0
230
1
40
0.989133
41
-2.44346095279204
42
-0.698131700797714
0
ELLIPSE
5
10E
100
AcDbEntity
8
1
62
256
6
ByLayer
370
18
48
1
60
0
100
AcDbEllipse
10
29.77756
20
4.760931
30
0
11
-0.561230652229051
21
0.561230652226474
31
0
210
0
220
0
230
1
40
0.989133
41
1.74532925199434
42
-2.79252680319093
0
POINT
5
6C
100
AcDbEntity
8
2
62
256
6
ByLayer
370
18
48
1
60
0
100
AcDbPoint
10
34.34235
20
19.9125
30
0
39
0
210
0
220
0
230
1
50
360
0
POINT
5
6E
100
AcDbEntity
8
80
62
256
6
ByLayer
370
18
48
1
60
0
100
AcDbPoint
10
0
20
0
30
0
39
0
210
0
220
0
230
1
50
360
0
POINT
5
70
100
AcDbEntity
8
81
62
256
6
ByLayer
370
18
48
1
60
0
100
AcDbPoint
10
34.34235
20
19.9125
30
0
39
0
210
0
220
0
230
1
50
360
0
SPLINE
5
10F
100
AcDbEntity
8
1
62
256
6
ByLayer
370
18
48
1
60
0
100
AcDbSpline
70
4
71
3
72
10
73
6
40
0
40
0
40
0
40
0
40
0.130194232554583
40
0.130194232554583
40
1
40
1
40
1
40
1
41
1
10
5.34679620437669
20
14.3745312744255
30
0
41
1
10
5.31765925773539
20
14.3568749798443
30
0
41
1
10
5.28855519292023
20
14.3387902629753
30
0
41
1
10
5.0638461246719
20
14.195481861593
30
0
41
1
10
4.86883152074716
20
14.0491435637993
30
0
41
1
10
4.68629676859172
20
13.8803718551732
30
0
0
SPLINE
5
110
100
AcDbEntity
8
1
62
256
6
ByLayer
370
18
48
1
60
0
100
AcDbSpline
70
4
71
3
72
8
73
4
40
0
40
0
40
0
40
0
40
1
40
1
40
1
40
1
41
1
10
28.3532565714415
20
15.1707330815173
30
0
41
1
10
28.2742975321315
20
15.2067171868344
30
0
41
1
10
28.1954001175363
20
15.2386992396096
30
0
41
1
10
28.117996458362
20
15.2662584306172
30
0
0
SPLINE
5
111
100
AcDbEntity
8
1
62
256
6
ByLayer
370
18
48
1
60
0
100
AcDbSpline
70
4
71
3
72
8
73
4
40
0
40
0
40
0
40
0
40
1
40
1
40
1
40
1
41
1
10
8.83481321184718
20
11.433140031636
30
0
41
1
10
7.51844012941291
20
11.7333361780859
30
0
41
1
10
6.30844250257991
20
11.941892260774
30
0
41
1
10
5.5145820903308
20
11.9439964070565
30
0
0
SPLINE
5
112
100
AcDbEntity
8
1
62
256
6
ByLayer
370
18
48
1
60
0
100
AcDbSpline
70
4
71
3
72
11
73
7
40
0
40
0
40
0
40
0
40
0.423407924939464
40
0.740963868644061
40
0.89974184049636
40
1
40
1
40
1
40
1
41
1.02805999725225
10
17.2363252426767
20
4.40692821103755
30
0
41
1.02767136955277
10
18.0348832114021
20
4.73521060391179
30
0
41
1.02349884684923
10
20.6189884014509
20
6.74450306294016
30
0
41
1.01876555595691
10
23.7352902763133
20
9.55777069424751
30
0
41
1.01635405201137
10
24.9187234806025
20
10.5948743525688
30
0
41
1.01722454828226
10
25.3831853056262
20
10.7492967395628
30
0
41
1.01774327987904
10
25.5786500599242
20
10.8041205091243
30
0
0
SPLINE
5
113
100
AcDbEntity
8
1
62
256
6
ByLayer
370
18
48
1
60
0
100
AcDbSpline
70
4
71
3
72
10
73
6
40
0
40
0
40
0
40
0
40
0.5
40
0.5
40
1
40
1
40
1
40
1
41
1
10
5.35251285068028
20
11.9466227374597
30
0
41
1
10
5.19060124574958
20
12.6559273420292
30
0
41
1
10
5.22431729741658
20
13.31740987297
30
0
41
1
10
5.47566313108717
20
14.2206805537198
30
0
41
1
10
5.64674970320158
20
14.5027754740505
30
0
41
1
10
5.9828523130235
20
14.7528881312296
30
0
0
SPLINE
5
114
100
AcDbEntity
8
1
62
256
6
ByLayer
370
18
48
1
60
0
100
AcDbSpline
70
4
71
3
72
10
73
6
40
0
40
0
40
0
40
0
40
0.5
40
0.5
40
1
40
1
40
1
40
1
41
1
10
9.66436139472097
20
1.26813704931681
30
0
41
1
10
9.22372456198508
20
1.39439362045505
30
0
41
1
10
8.90782827050617
20
1.64266822738887
30
0
41
1
10
8.19836834677068
20
2.43240330254184
30
0
41
1
10
7.81412277967064
20
3.04612949523161
30
0
41
1
10
7.59565401206265
20
3.7303724086986
30
0
0
SPLINE
5
115
100
AcDbEntity
8
1
62
256
6
ByLayer
370
18
48
1
60
0
100
AcDbSpline
70
4
71
3
72
10
73
6
40
0
40
0
40
0
40
0
40
0.5
40
0.5
40
1
40
1
40
1
40
1
41
1
10
26.9517385236186
20
15.9029772492294
30
0
41
1
10
26.2168069787149
20
16.0874085746556
30
0
41
1
10
25.6482753264488
20
15.9754179347067
30
0
41
1
10
24.897948181015
20
15.4854969238805
30
0
41
1
10
24.6741965400825
20
15.1180956355994
30
0
41
1
10
24.5098332212274
20
14.719017553249
30
0
0
SPLINE
5
116
100
AcDbEntity
8
1
62
256
6
ByLayer
370
18
48
1
60
0
100
AcDbSpline
70
4
71
3
72
8
73
4
40
0
40
0
40
0
40
0
40
1
40
1
40
1
40
1
41
1
10
8.83481321184718
20
11.433140031636
30
0
41
1
10
8.60873067188891
20
11.3143971144245
30
0
41
1
10
8.37960175361007
20
11.2232451419255
30
0
41
1
10
8.15022391494955
20
11.1524862262429
30
0
0
SPLINE
5
117
100
AcDbEntity
8
1
62
256
6
ByLayer
370
18
48
1
60
0
100
AcDbSpline
70
4
71
3
72
8
73
4
40
0
40
0
40
0
40
0
40
1
40
1
40
1
40
1
41
1
10
9.87130302696215
20
12.3097374497539
30
0
41
1
10
9.83088708976265
20
12.2520790384329
30
0
41
1
10
9.7874928852371
20
12.1954559754623
30
0
41
1
10
9.74104799481296
20
12.1399997519
30
0
0
SPLINE
5
118
100
AcDbEntity
8
1
62
256
6
ByLayer
370
18
48
1
60
0
100
AcDbSpline
70
4
71
2
72
6
73
3
40
0
40
0
40
0
40
1
40
1
40
1
41
1.02805999725224
10
17.2363252426767
20
4.40692821103758
30
0
41
1.02805999725224
10
17.2292567674391
20
3.71380169914478
30
0
41
1.02805999725224
10
17.2221882922013
20
3.02067518725202
30
0
0
SPLINE
5
119
100
AcDbEntity
8
1
62
256
6
ByLayer
370
18
48
1
60
0
100
AcDbSpline
70
4
71
3
72
20
73
16
40
0
40
0
40
0
40
0
40
0.110576036200127
40
0.110576036200127
40
0.197179369122807
40
0.197179369122807
40
0.28429111738736
40
0.28429111738736
40
0.365904217918071
40
0.365904217918071
40
0.497270233392063
40
0.497270233392063
40
0.733496364826691
40
0.733496364826691
40
1
40
1
40
1
40
1
41
1
10
24.5098332212287
20
14.7190175532492
30
0
41
1
10
24.4951995626604
20
14.6834965019815
30
0
41
1
10
24.4885890160916
20
14.6423356408703
30
0
41
1
10
24.4997130014353
20
14.5595505449089
30
0
41
1
10
24.5128688343365
20
14.5190927902289
30
0
41
1
10
24.5573740491126
20
14.4349466422832
30
0
41
1
10
24.5894947263256
20
14.3901747950473
30
0
41
1
10
24.6643631125211
20
14.3062830749687
30
0
41
1
10
24.70700665278
20
14.2660362552861
30
0
41
1
10
24.8249468140219
20
14.1678537600296
30
0
41
1
10
24.9061271331526
20
14.1121623757256
30
0
41
1
10
25.1341802928976
20
13.9737025617549
30
0
41
1
10
25.2866778829061
20
13.9005960876839
30
0
41
1
10
25.6035680171478
20
13.7654492662952
30
0
41
1
10
25.7704575634173
20
13.7049724964303
30
0
41
1
10
25.934315649278
20
13.6513648162715
30
0
0
SPLINE
5
11A
100
AcDbEntity
8
1
62
256
6
ByLayer
370
18
48
1
60
0
100
AcDbSpline
70
4
71
3
72
12
73
8
40
0
40
0
40
0
40
0
40
0.471343086678516
40
0.471343086678516
40
0.892619726108223
40
0.892619726108223
40
1
40
1
40
1
40
1
41
1
10
10.2379877575587
20
6.29354671446518
30
0
41
1
10
10.4136599081945
20
6.3093191610848
30
0
41
1
10
10.59814151423
20
6.3101015063296
30
0
41
1
10
10.9434275206762
20
6.27319902145538
30
0
41
1
10
11.1082471869522
20
6.23883532874896
30
0
41
1
10
11.300602706106
20
6.17527565965526
30
0
41
1
10
11.3394782624559
20
6.16113828861455
30
0
41
1
10
11.3774828457658
20
6.14601300962454
30
0
0
SPLINE
5
11B
100
AcDbEntity
8
1
62
256
6
ByLayer
370
18
48
1
60
0
100
AcDbSpline
70
4
71
3
72
12
73
8
40
0
40
0
40
0
40
0
40
0.466938972358617
40
0.466938972358617
40
0.928803236876559
40
0.928803236876559
40
1
40
1
40
1
40
1
41
1
10
9.74104799481296
20
12.1399997519
30
0
41
1
10
9.63168113189619
20
12.0094133053642
30
0
41
1
10
9.49821047237322
20
11.8813974046107
30
0
41
1
10
9.21442398790367
20
11.6571546006282
30
0
41
1
10
9.06075532584003
20
11.5571863871872
30
0
41
1
10
8.88289536906228
20
11.4587246968717
30
0
41
1
10
8.85886863596539
20
11.4457744050603
30
0
41
1
10
8.83481321184718
20
11.433140031636
30
0
0
SPLINE
5
11C
100
AcDbEntity
8
1
62
256
6
ByLayer
370
18
48
1
60
0
100
AcDbSpline
70
4
71
2
72
6
73
3
40
0
40
0
40
0
40
1
40
1
40
1
41
1.02805999725224
10
14.0436553263562
20
16.1011433149276
30
0
41
0.93055444607248
10
14.3628032453991
20
15.6936783035238
30
0
41
0.937301687719828
10
14.8290878236027
20
14.4193060582921
30
0
0
SPLINE
5
11D
100
AcDbEntity
8
1
62
256
6
ByLayer
370
18
48
1
60
0
100
AcDbSpline
70
4
71
3
72
8
73
4
40
0
40
0
40
0
40
0
40
1
40
1
40
1
40
1
41
1
10
6.72138598949067
20
14.1763326590458
30
0
41
1
10
7.42840080827222
20
13.9106138412278
30
0
41
1
10
8.555111691837
20
13.1120962682455
30
0
41
1
10
9.74104799480659
20
12.139999751894
30
0
0
SPLINE
5
11E
100
AcDbEntity
8
1
62
256
6
ByLayer
370
18
48
1
60
0
100
AcDbSpline
70
4
71
3
72
10
73
6
40
0
40
0
40
0
40
0
40
0.26471563914558
40
0.26471563914558
40
1
40
1
40
1
40
1
41
1
10
27.1584968680136
20
13.2830975997644
30
0
41
1
10
27.07856806422
20
13.2145567462654
30
0
41
1
10
26.9988330773815
20
13.1445616474012
30
0
41
1
10
26.6984209442804
20
12.8755286151249
30
0
41
1
10
26.478971080605
20
12.66830558158
30
0
41
1
10
26.2611382637671
20
12.454268324987
30
0
0
SPLINE
5
11F
100
AcDbEntity
8
1
62
256
6
ByLayer
370
18
48
1
60
0
100
AcDbSpline
70
4
71
3
72
10
73
6
40
0
40
0
40
0
40
0
40
0.5
40
0.5
40
1
40
1
40
1
40
1
41
1
10
24.1926558135578
20
6.66876002910763
30
0
41
1
10
23.1519660062718
20
5.86495223929913
30
0
41
1
10
22.0531490494795
20
5.14763712338697
30
0
41
1
10
19.7169757448921
20
3.91915225512273
30
0
41
1
10
18.506103257405
20
3.37116282135923
30
0
41
1
10
17.2221882922014
20
3.02067518725201
30
0
0
SPLINE
5
120
100
AcDbEntity
8
1
62
256
6
ByLayer
370
18
48
1
60
0
100
AcDbSpline
70
4
71
3
72
10
73
6
40
0
40
0
40
0
40
0
40
0.967465556419477
40
0.967465556419477
40
1
40
1
40
1
40
1
41
1
10
25.934315649278
20
13.6513648162715
30
0
41
1
10
26.3334321213715
20
13.5207131303741
30
0
41
1
10
26.7296545362981
20
13.3997442388719
30
0
41
1
10
27.1322975458366
20
13.2901800544788
30
0
41
1
10
27.1454011480587
20
13.2866298710482
30
0
41
1
10
27.1584968680295
20
13.28309759976
30
0
0
SPLINE
5
121
100
AcDbEntity
8
1
62
256
6
ByLayer
370
18
48
1
60
0
100
AcDbSpline
70
4
71
3
72
20
73
16
40
0
40
0
40
0
40
0
40
0.332873226652388
40
0.332873226652388
40
0.501657261698207
40
0.501657261698207
40
0.631212321676505
40
0.631212321676505
40
0.722542323637667
40
0.722542323637667
40
0.814765347404198
40
0.814765347404198
40
0.896421359038821
40
0.896421359038821
40
1
40
1
40
1
40
1
41
1
10
26.2611382637671
20
12.454268324987
30
0
41
1
10
26.1144071191544
20
12.310158114064
30
0
41
1
10
25.9687337261146
20
12.1529409965521
30
0
41
1
10
25.7649916916632
20
11.8825883023842
30
0
41
1
10
25.6984564613856
20
11.7846005970226
30
0
41
1
10
25.5944956154289
20
11.598103925204
30
0
41
1
10
25.5531854505367
20
11.5110583431434
30
0
41
1
10
25.4997410031309
20
11.3589098372507
30
0
41
1
10
25.4823232133676
20
11.2935741042521
30
0
41
1
10
25.4626765169575
20
11.1677532046416
30
0
41
1
10
25.4605238003982
20
11.1056818357348
30
0
41
1
10
25.4717511109912
20
11.0025825749367
30
0
41
1
10
25.4833848486688
20
10.9586975529858
30
0
41
1
10
25.519748845439
20
10.8736379563957
30
0
41
1
10
25.547398304683
20
10.8350014442325
30
0
41
1
10
25.5786500599237
20
10.8041205091242
30
0
0
SPLINE
5
122
100
AcDbEntity
8
1
62
256
6
ByLayer
370
18
48
1
60
0
100
AcDbSpline
70
4
71
3
72
10
73
6
40
0
40
0
40
0
40
0
40
0.5
40
0.5
40
1
40
1
40
1
40
1
41
1
10
13.4409850859406
20
16.8705891478194
30
0
41
1
10
14.7353613373996
20
17.1978202392856
30
0
41
1
10
16.0473478433764
20
17.3146484442778
30
0
41
1
10
18.6838455975372
20
17.3986623882703
30
0
41
1
10
20.0194621128219
20
17.3168833010954
30
0
41
1
10
21.336511114294
20
17.1303396337782
30
0
0
SPLINE
5
123
100
AcDbEntity
8
1
62
256
6
ByLayer
370
18
48
1
60
0
100
AcDbSpline
70
4
71
3
72
8
73
4
40
0
40
0
40
0
40
0
40
1
40
1
40
1
40
1
41
1
10
26.4142870803847
20
7.90226744498844
30
0
41
1
10
26.3174985765379
20
7.86111220599537
30
0
41
1
10
26.2198085728564
20
7.82211469591587
30
0
41
1
10
26.1212368561501
20
7.78551954568027
30
0
0
SPLINE
5
124
100
AcDbEntity
8
1
62
256
6
ByLayer
370
18
48
1
60
0
100
AcDbSpline
70
4
71
3
72
8
73
4
40
0
40
0
40
0
40
0
40
1
40
1
40
1
40
1
41
1
10
10.2379877575588
20
6.29354671446518
30
0
41
1
10
9.9856716632749
20
6.2708929124029
30
0
41
1
10
9.74543965213172
20
6.22040970920256
30
0
41
1
10
9.51606181347125
20
6.14965079351998
30
0
0
SPLINE
5
125
100
AcDbEntity
8
1
62
256
6
ByLayer
370
18
48
1
60
0
100
AcDbSpline
70
4
71
3
72
8
73
4
40
0
40
0
40
0
40
0
40
1
40
1
40
1
40
1
41
1
10
24.192655813558
20
6.66876002910777
30
0
41
1
10
24.8359345404536
20
7.16561552637179
30
0
41
1
10
25.5089125919279
20
7.55819167526414
30
0
41
1
10
26.1212368561502
20
7.78551954568033
30
0
0
SPLINE
5
126
100
AcDbEntity
8
1
62
256
6
ByLayer
370
18
48
1
60
0
100
AcDbSpline
70
4
71
3
72
11
73
7
40
0
40
0
40
0
40
0
40
0.564783939443784
40
0.564783939443784
40
0.564783939443784
40
1
40
1
40
1
40
1
41
1
10
23.5992961983243
20
17.0229657286073
30
0
41
1
10
23.2312402286231
20
16.9979623400087
30
0
41
1
10
22.8113488484153
20
16.9856900002975
30
0
41
1
10
22.3766100666228
20
17.0158523622099
30
0
41
1
10
22.0388416456506
20
17.0392868791719
30
0
41
1
10
21.6873491296177
20
17.0806477772568
30
0
41
1
10
21.3365111142944
20
17.1303396337781
30
0
0
SPLINE
5
127
100
AcDbEntity
8
1
62
256
6
ByLayer
370
18
48
1
60
0
100
AcDbSpline
70
4
71
2
72
6
73
3
40
0
40
0
40
0
40
1
40
1
40
1
41
0.937301687603847
10
16.9634869368147
20
6.60135962935423
30
0
41
0.930554446910518
10
17.2438115560542
20
5.14102744796378
30
0
41
1.02805999725225
10
17.2363252426767
20
4.40692821103755
30
0
0
SPLINE
5
128
100
AcDbEntity
8
1
62
256
6
ByLayer
370
18
48
1
60
0
100
AcDbSpline
70
4
71
3
72
8
73
4
40
0
40
0
40
0
40
0
40
1
40
1
40
1
40
1
41
1.01923193622652
10
26.414324161689
20
7.90230451219077
30
0
41
1.02059843499303
10
26.8170847838072
20
8.30491293536931
30
0
41
1.02233811057541
10
27.3029163424329
20
8.82219611816132
30
0
41
1.02417041321379
10
27.762056517998
20
9.37776077346592
30
0
0
SPLINE
5
129
100
AcDbEntity
8
1
62
256
6
ByLayer
370
18
48
1
60
0
100
AcDbSpline
70
4
71
3
72
12
73
8
40
0
40
0
40
0
40
0
40
0.286978363858295
40
0.286978363858295
40
0.569998995185616
40
0.569998995185616
40
1
40
1
40
1
40
1
41
1
10
18.7065921189059
20
12.5355110360437
30
0
41
1
10
18.8289543915916
20
12.335860364669
30
0
41
1
10
18.9353645956088
20
12.125442600489
30
0
41
1
10
19.1107577204157
20
11.6950621650011
30
0
41
1
10
19.1808394429099
20
11.4737939404474
30
0
41
1
10
19.3106070772959
20
10.9103233353583
30
0
41
1
10
19.3472171251392
20
10.5597848541913
30
0
41
1
10
19.3403426653197
20
10.2141889431853
30
0
0
SPLINE
5
12A
100
AcDbEntity
8
1
62
256
6
ByLayer
370
18
48
1
60
0
100
AcDbSpline
70
4
71
3
72
12
73
8
40
0
40
0
40
0
40
0
40
0.108853988607129
40
0.502629237162302
40
0.699516861439889
40
0.896404485717475
40
1
40
1
40
1
40
1
41
1.02441262532206
10
19.3403426653198
20
10.2141889431853
30
0
41
1.02394775682001
10
19.6622334644505
20
10.32372382263
30
0
41
1.02173322384668
10
21.1847649280961
20
10.8455766774862
30
0
41
1.01876555595691
10
23.3209423881817
20
11.594838766352
30
0
41
1.01610930227499
10
24.748747086082
20
12.1074019103779
30
0
41
1.01814069306376
10
25.4341632973318
20
12.2534219343549
30
0
41
1.02005196006971
10
26.0401309756495
20
12.3991511982726
30
0
41
1.02076673234773
10
26.2611382637569
20
12.4542683249844
30
0
0
SPLINE
5
12B
100
AcDbEntity
8
1
62
256
6
ByLayer
370
18
48
1
60
0
100
AcDbSpline
70
4
71
3
72
8
73
4
40
0
40
0
40
0
40
0
40
1
40
1
40
1
40
1
41
1
10
7.57588157989579
20
3.79718007424782
30
0
41
1
10
7.58205959640514
20
3.77455103464487
30
0
41
1
10
7.58865679487434
20
3.75228765236221
30
0
41
1
10
7.5956540120626
20
3.73037240869857
30
0
0
SPLINE
5
12C
100
AcDbEntity
8
1
62
256
6
ByLayer
370
18
48
1
60
0
100
AcDbSpline
70
4
71
3
72
8
73
4
40
0
40
0
40
0
40
0
40
1
40
1
40
1
40
1
41
1
10
14.1911384431319
20
5.77861984028232
30
0
41
1
10
13.2987874972753
20
5.54404685063233
30
0
41
1
10
12.3721958285804
20
5.65596012293503
30
0
41
1
10
11.5787840792291
20
6.05552037302007
30
0
0
SPLINE
5
12D
100
AcDbEntity
8
1
62
256
6
ByLayer
370
18
48
1
60
0
100
AcDbSpline
70
4
71
3
72
8
73
4
40
0
40
0
40
0
40
0
40
1
40
1
40
1
40
1
41
1
10
29.1474982507093
20
11.4953658156295
30
0
41
1
10
29.2018184928982
20
11.5523573143693
30
0
41
1
10
29.2549850126966
20
11.6146232190874
30
0
41
1
10
29.3059423511558
20
11.681204653462
30
0
0
SPLINE
5
12E
100
AcDbEntity
8
1
62
256
6
ByLayer
370
18
48
1
60
0
100
AcDbSpline
70
4
71
3
72
8
73
4
40
0
40
0
40
0
40
0
40
1
40
1
40
1
40
1
41
1
10
9.87130302696215
20
12.3097374497539
30
0
41
1
10
10.3656465902119
20
13.0149806404051
30
0
41
1
10
11.115968257444
20
13.5286237513084
30
0
41
1
10
12.0110510281839
20
13.7639148578978
30
0
0
SPLINE
5
12F
100
AcDbEntity
8
1
62
256
6
ByLayer
370
18
48
1
60
0
100
AcDbSpline
70
4
71
3
72
8
73
4
40
0
40
0
40
0
40
0
40
1
40
1
40
1
40
1
41
1
10
25.8393680904513
20
16.4206148853961
30
0
41
1
10
26.2092249192644
20
16.2511497180676
30
0
41
1
10
26.5806613513133
20
16.0783150799779
30
0
41
1
10
26.9517385236424
20
15.9029772492235
30
0
0
SPLINE
5
130
100
AcDbEntity
8
1
62
256
6
ByLayer
370
18
48
1
60
0
100
AcDbSpline
70
4
71
3
72
8
73
4
40
0
40
0
40
0
40
0
40
1
40
1
40
1
40
1
41
1
10
5.36952805151469
20
11.8786834655695
30
0
41
1
10
5.36335003500534
20
11.9013125051725
30
0
41
1
10
5.3576862310972
20
11.923959120775
30
0
41
1
10
5.35251285068023
20
11.9466227374597
30
0
0
SPLINE
5
131
100
AcDbEntity
8
1
62
256
6
ByLayer
370
18
48
1
60
0
100
AcDbSpline
70
4
71
3
72
8
73
4
40
0
40
0
40
0
40
0
40
1
40
1
40
1
40
1
41
1
10
23.5992961983243
20
17.0229657286073
30
0
41
1
10
23.7058820364398
20
17.0302064945475
30
0
41
1
10
23.8129228073186
20
17.0349537107104
30
0
41
1
10
23.9202746932115
20
17.0374170507186
30
0
0
SPLINE
5
132
100
AcDbEntity
8
1
62
256
6
ByLayer
370
18
48
1
60
0
100
AcDbSpline
70
4
71
3
72
12
73
8
40
0
40
0
40
0
40
0
40
0.108854002841682
40
0.502629245107338
40
0.699516866240166
40
0.896404487372994
40
1
40
1
40
1
40
1
41
1.0244126255267
10
18.7065919708805
20
12.5355110112104
30
0
41
1.02394775696077
10
19.0429802952789
20
12.5919440642713
30
0
41
1.02173322391444
10
20.6374309438227
20
12.8503691834988
30
0
41
1.01876555595691
10
22.8951741961577
20
13.1543563339009
30
0
41
1.01610930227499
10
24.41772170068
20
13.3198924475153
30
0
41
1.01814069306376
10
25.0982175285606
20
13.4839350115627
30
0
41
1.0200519600697
10
25.7099752672573
20
13.6084562541832
30
0
41
1.02076673234771
10
25.9343156492601
20
13.6513648162681
30
0
0
SPLINE
5
133
100
AcDbEntity
8
1
62
256
6
ByLayer
370
18
48
1
60
0
100
AcDbSpline
70
4
71
3
72
8
73
4
40
0
40
0
40
0
40
0
40
1
40
1
40
1
40
1
41
1
10
14.8290878083895
20
14.4193060572669
30
0
41
1
10
14.5400086170683
20
14.3998832788061
30
0
41
1
10
14.2573211590853
20
14.3543936405041
30
0
41
1
10
13.9814713394462
20
14.2818807831047
30
0
0
SPLINE
5
134
100
AcDbEntity
8
1
62
256
6
ByLayer
370
18
48
1
60
0
100
AcDbSpline
70
4
71
3
72
8
73
4
40
0
40
0
40
0
40
0
40
1
40
1
40
1
40
1
41
1
10
11.3774828457658
20
6.14601300962454
30
0
41
1
10
10.8633945285519
20
4.65415934273383
30
0
41
1
10
10.3352272173709
20
3.26660944123981
30
0
41
1
10
9.91405590581127
20
2.48211755515575
30
0
0
SPLINE
5
135
100
AcDbEntity
8
1
62
256
6
ByLayer
370
18
48
1
60
0
100
AcDbSpline
70
4
71
3
72
11
73
7
40
0
40
0
40
0
40
0
40
0.423407924946039
40
0.740963868655568
40
0.899741840510332
40
1
40
1
40
1
40
1
41
1.02805999725224
10
14.0436553263562
20
16.1011433149276
30
0
41
1.02767136955277
10
14.8989687185297
20
16.2215400986172
30
0
41
1.02349884684923
10
18.1326771350028
20
15.8514447532122
30
0
41
1.01876555595691
10
22.2597435547026
20
14.9624511686979
30
0
41
1.01635405201144
10
23.8204752354281
20
14.6175737084976
30
0
41
1.01722454828215
10
24.3090168260108
20
14.6837959477469
30
0
41
1.0177432798788
10
24.5098332211453
20
14.7190175532346
30
0
0
SPLINE
5
136
100
AcDbEntity
8
1
62
256
6
ByLayer
370
18
48
1
60
0
100
AcDbSpline
70
4
71
3
72
8
73
4
40
0
40
0
40
0
40
0
40
1
40
1
40
1
40
1
41
1
10
27.7621321350611
20
9.37785227158096
30
0
41
1
10
27.9929835234308
20
9.71754074777454
30
0
41
1
10
28.2241389352974
20
10.0585319881148
30
0
41
1
10
28.4543825078255
20
10.3990440423733
30
0
0
SPLINE
5
137
100
AcDbEntity
8
1
62
256
6
ByLayer
370
18
48
1
60
0
100
AcDbSpline
70
4
71
3
72
10
73
6
40
0
40
0
40
0
40
0
40
0.5
40
0.5
40
1
40
1
40
1
40
1
41
1
10
25.5786500599237
20
10.8041205091242
30
0
41
1
10
25.9525197206442
20
10.434630422161
30
0
41
1
10
26.3529225687482
20
10.1240870263319
30
0
41
1
10
27.3138030610824
20
9.85862579255411
30
0
41
1
10
27.885198299698
20
9.93283053569408
30
0
41
1
10
28.4543825078256
20
10.3990440423733
30
0
0
SPLINE
5
138
100
AcDbEntity
8
1
62
256
6
ByLayer
370
18
48
1
60
0
100
AcDbSpline
70
4
71
3
72
15
73
11
40
0
40
0
40
0
40
0
40
0.322163720426456
40
0.322163720426456
40
0.644833452600229
40
0.644833452600229
40
0.912233455904553
40
0.912233455904553
40
0.912233455904553
40
1
40
1
40
1
40
1
41
1
10
14.8290878236038
20
14.4193060582891
30
0
41
1
10
15.3125418406958
20
14.4509216544631
30
0
41
1
10
15.8080544397887
20
14.3992306115068
30
0
41
1
10
16.7420416841865
20
14.1510224019905
30
0
41
1
10
17.1939463557082
20
13.9507695341327
30
0
41
1
10
17.9254436681948
20
13.4594116096275
30
0
41
1
10
18.2295187858143
20
13.1828040994794
30
0
41
1
10
18.4774523110319
20
12.8655454068979
30
0
41
1
10
18.5598465286885
20
12.7601127843955
30
0
41
1
10
18.6365846850048
20
12.6497244416528
30
0
41
1
10
18.7065921189068
20
12.5355110360435
30
0
0
SPLINE
5
139
100
AcDbEntity
8
1
62
256
6
ByLayer
370
18
48
1
60
0
100
AcDbSpline
70
4
71
3
72
8
73
4
40
0
40
0
40
0
40
0
40
1
40
1
40
1
40
1
41
1
10
7.72436451057393
20
3.84993355921287
30
0
41
1
10
8.35682762962392
20
4.41199614472401
30
0
41
1
10
9.27075194438129
20
5.31902898365297
30
0
41
1
10
10.2379877575588
20
6.29354671446518
30
0
0
SPLINE
5
13A
100
AcDbEntity
8
1
62
256
6
ByLayer
370
18
48
1
60
0
100
AcDbSpline
70
4
71
3
72
10
73
6
40
0
40
0
40
0
40
0
40
0.655488757716278
40
0.655488757716278
40
1
40
1
40
1
40
1
41
1
10
10.1379125079931
20
0.988353829167067
30
0
41
1
10
9.79294134797829
20
0.867510853351632
30
0
41
1
10
9.39425464136156
20
0.771576863988145
30
0
41
1
10
8.73758065801695
20
0.739207647991321
30
0
41
1
10
8.49995333073451
20
0.748952617860482
30
0
41
1
10
8.26100304461374
20
0.786821560063402
30
0
0
SPLINE
5
13B
100
AcDbEntity
8
1
62
256
6
ByLayer
370
18
48
1
60
0
100
AcDbSpline
70
4
71
3
72
8
73
4
40
0
40
0
40
0
40
0
40
1
40
1
40
1
40
1
41
1
10
16.9634869244402
20
6.60135965046283
30
0
41
1
10
16.7097389199855
20
6.47376171403391
30
0
41
1
10
16.4390513392395
20
6.36953045786055
30
0
41
1
10
16.1615587543942
20
6.29658576548911
30
0
0
SPLINE
5
13C
100
AcDbEntity
8
1
62
256
6
ByLayer
370
18
48
1
60
0
100
AcDbSpline
70
4
71
3
72
15
73
11
40
0
40
0
40
0
40
0
40
0.227604479949748
40
0.227604479949748
40
0.479423709218441
40
0.479423709218441
40
0.78557427038284
40
0.78557427038284
40
0.78557427038284
40
1
40
1
40
1
40
1
41
1
10
19.3403426653197
20
10.2141889431853
30
0
41
1
10
19.333572671287
20
9.87459655032211
30
0
41
1
10
19.2758383044987
20
9.52895686581218
30
0
41
1
10
19.0643556865479
20
8.83744186587023
30
0
41
1
10
18.8994376658591
20
8.48711080474092
30
0
41
1
10
18.4466508378295
20
7.77938350992031
30
0
41
1
10
18.1337626291371
20
7.42630789988809
30
0
41
1
10
17.7785686300209
20
7.13319880314708
30
0
41
1
10
17.5282608831539
20
6.92664273020102
30
0
41
1
10
17.2533615313987
20
6.74701064869302
30
0
41
1
10
16.9634869320301
20
6.60135965427943
30
0
0
SPLINE
5
13D
100
AcDbEntity
8
1
62
256
6
ByLayer
370
18
48
1
60
0
100
AcDbSpline
70
4
71
1
72
4
73
2
40
0
40
0
40
1
40
1
41
1
10
14.0436553263561
20
16.1011433149276
30
0
41
1
10
13.4409850859406
20
16.8705891478194
30
0
0
SPLINE
5
13E
100
AcDbEntity
8
1
62
256
6
ByLayer
370
18
48
1
60
0
100
AcDbSpline
70
4
71
3
72
8
73
4
40
0
40
0
40
0
40
0
40
1
40
1
40
1
40
1
41
1
10
11.3774828457658
20
6.14601300962454
30
0
41
1
10
11.4461294469525
20
6.11869264707241
30
0
41
1
10
11.5133829949502
20
6.08845620187776
30
0
41
1
10
11.5787840792291
20
6.05552037302007
30
0
0
SPLINE
5
13F
100
AcDbEntity
8
1
62
256
6
ByLayer
370
18
48
1
60
0
100
AcDbSpline
70
4
71
3
72
8
73
4
40
0
40
0
40
0
40
0
40
1
40
1
40
1
40
1
41
1.02417048357497
10
25.8392820780447
20
16.420647226082
30
0
41
1.02233815524058
10
25.1585831743239
20
16.6765881753942
30
0
41
1.02059845272928
10
24.4742686595552
20
16.8862802852882
30
0
41
1.01923193651505
10
23.9203258099989
20
17.0374031054589
30
0
0
LINE
5
72
100
AcDbEntity
8
1
62
256
6
ByLayer
370
18
48
1
60
0
100
AcDbLine
10
6.118795
20
14.844268
30
0
11
5.341499
21
14.371313
31
0
39
0
210
0
220
0
230
1
0
LINE
5
74
100
AcDbEntity
8
1
62
256
6
ByLayer
370
18
48
1
60
0
100
AcDbLine
10
29.843933
20
3.704843
30
0
11
30.33879
21
4.199701
31
0
39
0
210
0
220
0
230
1
0
LINE
5
75
100
AcDbEntity
8
1
62
256
6
ByLayer
370
18
48
1
60
0
100
AcDbLine
10
13.950928
20
11.192503
30
0
11
14.117267
21
11.358842
31
0
39
0
210
0
220
0
230
1
0
LINE
5
76
100
AcDbEntity
8
1
62
256
6
ByLayer
370
18
48
1
60
0
100
AcDbLine
10
14.352073
20
8.898316
30
0
11
14.185734
21
8.731977
31
0
39
0
210
0
220
0
230
1
0
LINE
5
77
100
AcDbEntity
8
1
62
256
6
ByLayer
370
18
48
1
60
0
100
AcDbLine
10
12.838068
20
10.079643
30
0
11
13.004407
21
10.245982
31
0
39
0
210
0
220
0
230
1
0
LINE
5
78
100
AcDbEntity
8
1
62
256
6
ByLayer
370
18
48
1
60
0
100
AcDbLine
10
15.464933
20
10.011176
30
0
11
15.298595
21
9.844837
31
0
39
0
210
0
220
0
230
1
0
LINE
5
79
100
AcDbEntity
8
1
62
256
6
ByLayer
370
18
48
1
60
0
100
AcDbLine
10
16.813589
20
7.050644
30
0
11
16.986785
21
7.223839
31
0
39
0
210
0
220
0
230
1
0
LINE
5
7A
100
AcDbEntity
8
1
62
256
6
ByLayer
370
18
48
1
60
0
100
AcDbLine
10
11.329931
20
12.880694
30
0
11
11.156735
21
12.707498
31
0
39
0
210
0
220
0
230
1
0
LINE
5
7B
100
AcDbEntity
8
1
62
256
6
ByLayer
370
18
48
1
60
0
100
AcDbLine
10
8.555982
20
11.254947
30
0
11
9.030359
21
11.543587
31
0
39
0
210
0
220
0
230
1
0
LINE
5
7C
100
AcDbEntity
8
80
62
256
6
ByLayer
370
18
48
1
60
0
100
AcDbLine
10
0
20
0
30
0
11
-5
21
0
31
0
39
0
210
0
220
0
230
1
0
LINE
5
7D
100
AcDbEntity
8
81
62
256
6
ByLayer
370
18
48
1
60
0
100
AcDbLine
10
34.34235
20
19.9125
30
0
11
44.34235
21
19.9125
31
0
39
0
210
0
220
0
230
1
0
LINE
5
7E
100
AcDbEntity
8
1
62
256
6
ByLayer
370
13
48
0.05
60
0
100
AcDbLine
10
-137.00765
20
-12.884714
30
0
11
-137.00765
21
-8.815286
31
0
39
0
210
0
220
0
230
1
0
LINE
5
7F
100
AcDbEntity
8
1
62
256
6
ByLayer
370
18
48
1
60
0
100
AcDbLine
10
29.328318
20
4.116777
30
0
11
24.948125
21
7.195972
31
0
39
0
210
0
220
0
230
1
0
LINE
5
80
100
AcDbEntity
8
1
62
256
6
ByLayer
370
18
48
1
60
0
100
AcDbLine
10
21.191323
20
17.145194
30
0
11
24.806784
21
18.815614
31
0
39
0
210
0
220
0
230
1
0
LINE
5
81
100
AcDbEntity
8
1
62
256
6
ByLayer
370
18
48
1
60
0
100
AcDbLine
10
28.833461
20
3.621919
30
0
11
28.824492
21
3.628224
31
0
39
0
210
0
220
0
230
1
0
LINE
5
82
100
AcDbEntity
8
1
62
256
6
ByLayer
370
18
48
1
60
0
100
AcDbLine
10
24.809344
20
7.112002
30
0
11
29.055156
21
4.127274
31
0
39
0
210
0
220
0
230
1
0
LINE
5
83
100
AcDbEntity
8
1
62
256
6
ByLayer
370
18
48
1
60
0
100
AcDbLine
10
12.369138
20
-1.018154
30
0
11
11.673462
21
1.529991
31
0
39
0
210
0
220
0
230
1
0
LINE
5
84
100
AcDbEntity
8
1
62
256
6
ByLayer
370
18
48
1
60
0
100
AcDbLine
10
7.883658
20
15.411408
30
0
11
7.493616
21
16.840066
31
0
39
0
210
0
220
0
230
1
0
LINE
5
85
100
AcDbEntity
8
1
62
256
6
ByLayer
370
18
48
1
60
0
100
AcDbLine
10
24.459305
20
18.854352
30
0
11
20.803504
21
17.184772
31
0
39
0
210
0
220
0
230
1
0
LINE
5
86
100
AcDbEntity
8
1
62
256
6
ByLayer
370
18
48
1
60
0
100
AcDbLine
10
10.995521
20
-8.738535
30
0
11
8.396796
21
0.780159
31
0
39
0
210
0
220
0
230
1
0
LINE
5
87
100
AcDbEntity
8
1
62
256
6
ByLayer
370
18
48
1
60
0
100
AcDbLine
10
4.797142
20
13.965091
30
0
11
4.241749
21
15.9994
31
0
39
0
210
0
220
0
230
1
0
LINE
5
88
100
AcDbEntity
8
1
62
256
6
ByLayer
370
18
48
1
60
0
100
AcDbLine
10
10.178329
20
-9.242705
30
0
11
7.322749
21
1.216807
31
0
39
0
210
0
220
0
230
1
0
LINE
5
89
100
AcDbEntity
8
1
62
256
6
ByLayer
370
18
48
1
60
0
100
AcDbLine
10
4.092777
20
13.047654
30
0
11
3.349861
21
15.768831
31
0
39
0
210
0
220
0
230
1
0
LINE
5
8A
100
AcDbEntity
8
1
62
256
6
ByLayer
370
18
48
1
60
0
100
AcDbLine
10
10.972868
20
-8.752511
30
0
11
8.369968
21
0.781474
31
0
39
0
210
0
220
0
230
1
0
LINE
5
8B
100
AcDbEntity
8
1
62
256
6
ByLayer
370
18
48
1
60
0
100
AcDbLine
10
4.775227
20
13.94841
30
0
11
4.217025
21
15.993009
31
0
39
0
210
0
220
0
230
1
0
LINE
5
8C
100
AcDbEntity
8
1
62
256
6
ByLayer
370
18
48
1
60
0
100
AcDbLine
10
24.887214
20
7.159121
30
0
11
29.09068
21
4.204162
31
0
39
0
210
0
220
0
230
1
0
LINE
5
8D
100
AcDbEntity
8
1
62
256
6
ByLayer
370
18
48
1
60
0
100
AcDbLine
10
24.459305
20
18.854352
30
0
11
24.520504
21
18.683348
31
0
39
0
210
0
220
0
230
1
0
LINE
5
8E
100
AcDbEntity
8
1
62
256
6
ByLayer
370
18
48
1
60
0
100
AcDbLine
10
14.760735
20
11.123157
30
0
11
14.927074
21
11.289496
31
0
39
0
210
0
220
0
230
1
0
LINE
5
8F
100
AcDbEntity
8
1
62
256
6
ByLayer
370
18
48
1
60
0
100
AcDbLine
10
12.710134
20
9.992442
30
0
11
12.876473
21
10.158781
31
0
39
0
210
0
220
0
230
1
0
LINE
5
90
100
AcDbEntity
8
1
62
256
6
ByLayer
370
18
48
1
60
0
100
AcDbLine
10
13.402538
20
11.153359
30
0
11
13.568876
21
11.319698
31
0
39
0
210
0
220
0
230
1
0
LINE
5
91
100
AcDbEntity
8
1
62
256
6
ByLayer
370
18
48
1
60
0
100
AcDbLine
10
15.25945
20
9.296446
30
0
11
15.425789
21
9.462785
31
0
39
0
210
0
220
0
230
1
0
LINE
5
92
100
AcDbEntity
8
1
62
256
6
ByLayer
370
18
48
1
60
0
100
AcDbLine
10
15.229248
20
10.654644
30
0
11
15.395587
21
10.820983
31
0
39
0
210
0
220
0
230
1
0
LINE
5
93
100
AcDbEntity
8
1
62
256
6
ByLayer
370
18
48
1
60
0
100
AcDbLine
10
14.098534
20
8.604043
30
0
11
14.264872
21
8.770381
31
0
39
0
210
0
220
0
230
1
0
LINE
5
94
100
AcDbEntity
8
1
62
256
6
ByLayer
370
18
48
1
60
0
100
AcDbLine
10
4.241749
20
15.9994
30
0
11
7.493616
21
16.840066
31
0
39
0
210
0
220
0
230
1
0
LINE
5
95
100
AcDbEntity
8
1
62
256
6
ByLayer
370
18
48
1
60
0
100
AcDbLine
10
4.980586
20
-12.449478
30
0
11
10.178329
21
-9.242705
31
0
39
0
210
0
220
0
230
1
0
LINE
5
96
100
AcDbEntity
8
1
62
256
6
ByLayer
370
18
48
1
60
0
100
AcDbLine
10
29.055156
20
4.127274
30
0
11
29.09068
21
4.204162
31
0
39
0
210
0
220
0
230
1
0
LINE
5
97
100
AcDbEntity
8
1
62
256
6
ByLayer
370
18
48
1
60
0
100
AcDbLine
10
27.941171
20
1.716163
30
0
11
29.055156
21
4.127274
31
0
39
0
210
0
220
0
230
1
0
LINE
5
98
100
AcDbEntity
8
1
62
256
6
ByLayer
370
18
48
1
60
0
100
AcDbLine
10
27.941171
20
1.716163
30
0
11
16.619672
21
-5.268689
31
0
39
0
210
0
220
0
230
1
0
LINE
5
99
100
AcDbEntity
8
1
62
256
6
ByLayer
370
18
48
1
60
0
100
AcDbLine
10
0
20
-12.4375
30
0
11
0
21
12.4375
31
0
39
0
210
0
220
0
230
1
0
LINE
5
9A
100
AcDbEntity
8
1
62
256
6
ByLayer
370
18
48
1
60
0
100
AcDbLine
10
17.541534
20
19.437632
30
0
11
7.493616
21
16.840066
31
0
39
0
210
0
220
0
230
1
0
LINE
5
9B
100
AcDbEntity
8
1
62
256
6
ByLayer
370
18
48
1
60
0
100
AcDbLine
10
10.972868
20
-8.752511
30
0
11
10.995521
21
-8.738535
31
0
39
0
210
0
220
0
230
1
0
LINE
5
9C
100
AcDbEntity
8
1
62
256
6
ByLayer
370
18
48
1
60
0
100
AcDbLine
10
4.980586
20
-12.449478
30
0
11
2.957802
21
-12.450406
31
0
39
0
210
0
220
0
230
1
0
LINE
5
9D
100
AcDbEntity
8
1
62
256
6
ByLayer
370
18
48
1
60
0
100
AcDbLine
10
16.619672
20
-5.268689
30
0
11
12.369138
21
-1.018154
31
0
39
0
210
0
220
0
230
1
0
LINE
5
9E
100
AcDbEntity
8
1
62
256
6
ByLayer
370
18
48
1
60
0
100
AcDbLine
10
10.995521
20
-8.738535
30
0
11
13.445021
21
-7.227305
31
0
39
0
210
0
220
0
230
1
0
LINE
5
9F
100
AcDbEntity
8
1
62
256
6
ByLayer
370
18
48
1
60
0
100
AcDbLine
10
0.539465
20
12.976965
30
0
11
0
21
12.4375
31
0
39
0
210
0
220
0
230
1
0
LINE
5
A0
100
AcDbEntity
8
1
62
256
6
ByLayer
370
18
48
1
60
0
100
AcDbLine
10
3.349861
20
15.768831
30
0
11
4.217025
21
15.993009
31
0
39
0
210
0
220
0
230
1
0
LINE
5
A1
100
AcDbEntity
8
1
62
256
6
ByLayer
370
18
48
1
60
0
100
AcDbLine
10
10.178329
20
-9.242705
30
0
11
10.972868
21
-8.752511
31
0
39
0
210
0
220
0
230
1
0
LINE
5
A2
100
AcDbEntity
8
1
62
256
6
ByLayer
370
18
48
1
60
0
100
AcDbLine
10
3.324871
20
15.762371
30
0
11
3.349861
21
15.768831
31
0
39
0
210
0
220
0
230
1
0
LINE
5
A3
100
AcDbEntity
8
1
62
256
6
ByLayer
370
18
48
1
60
0
100
AcDbLine
10
2.957802
20
-12.450406
30
0
11
0.539465
21
12.976965
31
0
39
0
210
0
220
0
230
1
0
LINE
5
A4
100
AcDbEntity
8
1
62
256
6
ByLayer
370
18
48
1
60
0
100
AcDbLine
10
24.250558
20
19.437632
30
0
11
17.541534
21
19.437632
31
0
39
0
210
0
220
0
230
1
0
LINE
5
A5
100
AcDbEntity
8
1
62
256
6
ByLayer
370
18
48
1
60
0
100
AcDbLine
10
24.250558
20
19.437632
30
0
11
24.459305
21
18.854352
31
0
39
0
210
0
220
0
230
1
0
LINE
5
A6
100
AcDbEntity
8
1
62
256
6
ByLayer
370
18
48
1
60
0
100
AcDbLine
10
0.539465
20
12.976965
30
0
11
3.324871
21
15.762371
31
0
39
0
210
0
220
0
230
1
0
LINE
5
A7
100
AcDbEntity
8
1
62
256
6
ByLayer
370
18
48
1
60
0
100
AcDbLine
10
4.217025
20
15.993009
30
0
11
4.241749
21
15.9994
31
0
39
0
210
0
220
0
230
1
0
LINE
5
A8
100
AcDbEntity
8
1
62
256
6
ByLayer
370
18
48
1
60
0
100
AcDbLine
10
0
20
-12.4375
30
0
11
2.957802
21
-12.450406
31
0
39
0
210
0
220
0
230
1
0
LINE
5
A9
100
AcDbEntity
8
1
62
256
6
ByLayer
370
18
48
1
60
0
100
AcDbLine
10
12.369138
20
-1.018154
30
0
11
13.445021
21
-7.227305
31
0
39
0
210
0
220
0
230
1
0
LINE
5
AA
100
AcDbEntity
8
1
62
256
6
ByLayer
370
18
48
1
60
0
100
AcDbLine
10
16.619672
20
-5.268689
30
0
11
13.445021
21
-7.227305
31
0
39
0
210
0
220
0
230
1
0
LINE
5
AB
100
AcDbEntity
8
SK1
62
256
6
ByLayer
370
18
48
1
60
0
100
AcDbLine
10
0
20
12.4375
30
0
11
0
21
-12.4375
31
0
39
0
210
0
220
0
230
1
0
LINE
5
AD
100
AcDbEntity
8
SK1
62
256
6
ByLayer
370
18
48
1
60
0
100
AcDbLine
10
-137.00765
20
12.4375
30
0
11
-137.00765
21
-12.4375
31
0
39
0
210
0
220
0
230
1
0
LINE
5
AE
100
AcDbEntity
8
SK1
62
256
6
ByLayer
370
18
48
1
60
0
100
AcDbLine
10
-137.00765
20
-12.4375
30
0
11
0
21
-12.4375
31
0
39
0
210
0
220
0
230
1
0
LINE
5
AF
100
AcDbEntity
8
SK1
62
256
6
ByLayer
370
18
48
1
60
0
100
AcDbLine
10
0
20
12.4375
30
0
11
-137.00765
21
12.4375
31
0
39
0
210
0
220
0
230
1
0
LINE
5
B0
100
AcDbEntity
8
1
62
256
6
ByLayer
370
18
48
1
60
0
100
AcDbLine
10
13.440985
20
16.870589
30
0
11
8.226674
21
15.499899
31
0
39
0
210
0
220
0
230
1
0
LINE
5
B1
100
AcDbEntity
8
1
62
256
6
ByLayer
370
18
48
1
60
0
100
AcDbLine
10
28.117996
20
15.266258
30
0
11
27.917106
21
15.398606
31
0
39
0
210
0
220
0
230
1
0
LINE
5
B2
100
AcDbEntity
8
1
62
256
6
ByLayer
370
18
48
1
60
0
100
AcDbLine
10
8.22131
20
15.50025
30
0
11
6.840119
21
15.137176
31
0
39
0
210
0
220
0
230
1
0
LINE
5
B3
100
AcDbEntity
8
1
62
256
6
ByLayer
370
18
48
1
60
0
100
AcDbLine
10
27.158497
20
13.283098
30
0
11
29.797411
21
13.734144
31
0
39
0
210
0
220
0
230
1
0
LINE
5
B4
100
AcDbEntity
8
1
62
256
6
ByLayer
370
18
48
1
60
0
100
AcDbLine
10
6.721386
20
14.176333
30
0
11
14.043655
21
16.101143
31
0
39
0
210
0
220
0
230
1
0
LINE
5
B5
100
AcDbEntity
8
1
62
256
6
ByLayer
370
18
48
1
60
0
100
AcDbLine
10
12.00363
20
1.646245
30
0
11
12.007877
21
1.649985
31
0
39
0
210
0
220
0
230
1
0
LINE
5
B6
100
AcDbEntity
8
1
62
256
6
ByLayer
370
18
48
1
60
0
100
AcDbLine
10
5.369528
20
11.878683
30
0
11
3.909468
21
10.990293
31
0
39
0
210
0
220
0
230
1
0
LINE
5
B7
100
AcDbEntity
8
1
62
256
6
ByLayer
370
18
48
1
60
0
100
AcDbLine
10
6.312686
20
10.541202
30
0
11
7.678524
21
5.538366
31
0
39
0
210
0
220
0
230
1
0
LINE
5
B8
100
AcDbEntity
8
1
62
256
6
ByLayer
370
18
48
1
60
0
100
AcDbLine
10
13.981471
20
14.281881
30
0
11
13.584308
21
14.040222
31
0
39
0
210
0
220
0
230
1
0
LINE
5
B9
100
AcDbEntity
8
1
62
256
6
ByLayer
370
18
48
1
60
0
100
AcDbLine
10
7.773218
20
10.923092
30
0
11
6.312686
21
10.541202
31
0
39
0
210
0
220
0
230
1
0
LINE
5
BA
100
AcDbEntity
8
1
62
256
6
ByLayer
370
18
48
1
60
0
100
AcDbLine
10
17.222188
20
3.020675
30
0
11
12.007877
21
1.649985
31
0
39
0
210
0
220
0
230
1
0
LINE
5
BB
100
AcDbEntity
8
1
62
256
6
ByLayer
370
18
48
1
60
0
100
AcDbLine
10
28.558304
20
15.063603
30
0
11
28.353257
21
15.170733
31
0
39
0
210
0
220
0
230
1
0
LINE
5
BC
100
AcDbEntity
8
1
62
256
6
ByLayer
370
18
48
1
60
0
100
AcDbLine
10
11.621821
20
13.527083
30
0
11
13.584308
21
14.040222
31
0
39
0
210
0
220
0
230
1
0
LINE
5
BD
100
AcDbEntity
8
1
62
256
6
ByLayer
370
18
48
1
60
0
100
AcDbLine
10
12.011051
20
13.763915
30
0
11
13.981471
21
14.281881
31
0
39
0
210
0
220
0
230
1
0
LINE
5
BE
100
AcDbEntity
8
1
62
256
6
ByLayer
370
18
48
1
60
0
100
AcDbLine
10
12.011051
20
13.763915
30
0
11
11.621821
21
13.527083
31
0
39
0
210
0
220
0
230
1
0
LINE
5
BF
100
AcDbEntity
8
1
62
256
6
ByLayer
370
18
48
1
60
0
100
AcDbLine
10
6.115821
20
2.908789
30
0
11
3.909468
21
10.990293
31
0
39
0
210
0
220
0
230
1
0
LINE
5
C0
100
AcDbEntity
8
1
62
256
6
ByLayer
370
18
48
1
60
0
100
AcDbLine
10
7.575882
20
3.79718
30
0
11
6.115821
21
2.908789
31
0
39
0
210
0
220
0
230
1
0
LINE
5
C1
100
AcDbEntity
8
1
62
256
6
ByLayer
370
18
48
1
60
0
100
AcDbLine
10
10.622439
20
1.28317
30
0
11
10.137913
21
0.988354
31
0
39
0
210
0
220
0
230
1
0
LINE
5
C2
100
AcDbEntity
8
1
62
256
6
ByLayer
370
18
48
1
60
0
100
AcDbLine
10
8.150224
20
11.152486
30
0
11
7.773218
21
10.923092
31
0
39
0
210
0
220
0
230
1
0
LINE
5
C3
100
AcDbEntity
8
1
62
256
6
ByLayer
370
18
48
1
60
0
100
AcDbLine
10
5.369528
20
11.878683
30
0
11
7.575882
21
3.79718
31
0
39
0
210
0
220
0
230
1
0
LINE
5
C4
100
AcDbEntity
8
1
62
256
6
ByLayer
370
18
48
1
60
0
100
AcDbLine
10
29.430529
20
11.86879
30
0
11
29.305942
21
11.681205
31
0
39
0
210
0
220
0
230
1
0
LINE
5
C5
100
AcDbEntity
8
1
62
256
6
ByLayer
370
18
48
1
60
0
100
AcDbLine
10
10.622439
20
1.28317
30
0
11
12.00363
21
1.646245
31
0
39
0
210
0
220
0
230
1
0
LINE
5
C6
100
AcDbEntity
8
1
62
256
6
ByLayer
370
18
48
1
60
0
100
AcDbLine
10
29.040938
20
11.282198
30
0
11
29.147498
21
11.495366
31
0
39
0
210
0
220
0
230
1
0
LINE
5
C7
100
AcDbEntity
8
1
62
256
6
ByLayer
370
18
48
1
60
0
100
AcDbLine
10
27.917106
20
15.398606
30
0
11
26.951739
21
15.902977
31
0
39
0
210
0
220
0
230
1
0
LINE
5
C8
100
AcDbEntity
8
1
62
256
6
ByLayer
370
18
48
1
60
0
100
AcDbLine
10
16.161559
20
6.296586
30
0
11
14.191138
21
5.77862
31
0
39
0
210
0
220
0
230
1
0
LINE
5
C9
100
AcDbEntity
8
1
62
256
6
ByLayer
370
18
48
1
60
0
100
AcDbLine
10
9.914056
20
2.482118
30
0
11
17.236325
21
4.406928
31
0
39
0
210
0
220
0
230
1
0
LINE
5
CA
100
AcDbEntity
8
1
62
256
6
ByLayer
370
18
48
1
60
0
100
AcDbLine
10
8.22131
20
15.50025
30
0
11
8.226674
21
15.499899
31
0
39
0
210
0
220
0
230
1
0
LINE
5
CB
100
AcDbEntity
8
1
62
256
6
ByLayer
370
18
48
1
60
0
100
AcDbLine
10
29.040938
20
11.282198
30
0
11
28.454383
21
10.399044
31
0
39
0
210
0
220
0
230
1
0
LINE
5
CC
100
AcDbEntity
8
1
62
256
6
ByLayer
370
18
48
1
60
0
100
AcDbLine
10
12.00363
20
1.646245
30
0
11
10.208022
21
1.012995
31
0
39
0
210
0
220
0
230
1
0
LINE
5
CD
100
AcDbEntity
8
1
62
256
6
ByLayer
370
18
48
1
60
0
100
AcDbLine
10
34.339715
20
19.05001
30
0
11
33.801571
21
12.492445
31
0
39
0
210
0
220
0
230
1
0
LINE
5
CE
100
AcDbEntity
8
1
62
256
6
ByLayer
370
18
48
1
60
0
100
AcDbLine
10
26.922296
20
19.371721
30
0
11
33.47986
21
19.909865
31
0
39
0
210
0
220
0
230
1
0
LINE
5
CF
100
AcDbEntity
8
1
62
256
6
ByLayer
370
18
48
1
60
0
100
AcDbLine
10
28.833461
20
3.621919
30
0
11
29.328318
21
4.116777
31
0
39
0
210
0
220
0
230
1
0
LINE
5
D0
100
AcDbEntity
8
1
62
256
6
ByLayer
370
18
48
1
60
0
100
AcDbLine
10
33.245465
20
10.376934
30
0
11
30.49481
21
4.423413
31
0
39
0
210
0
220
0
230
1
0
MTEXT
5
140
100
AcDbEntity
8
SK6
62
256
6
ByLayer
370
18
48
1
60
0
100
AcDbMText
10
-65.45765
20
-23.536104
30
0
210
0
220
0
230
1
1
\W0.7910;DWLNR 3225P 08
40
3.5
41
0
44
1.084337
50
0
71
7
72
5
7
iso_b_vert
0
DIMENSION
5
151
100
AcDbEntity
8
2
62
256
6
ByLayer
370
13
48
1
60
0
100
AcDbDimension
2
DimnDraft3D1
10
32.48703
20
19.828051
30
0
11
15.655938
21
37.196042
31
0
70
34
71
5
72
1
41
1
210
0
220
0
230
1
3
Standard
100
AcDb2LineAngularDimension
13
34.34235
23
19.9125
33
0
14
34.34235
24
18.325
34
0
15
33.48368
25
19.909841
35
0
16
18.965488
26
34.146964
36
0
40
0
0
DIMENSION
5
167
100
AcDbEntity
8
SK2
62
256
6
ByLayer
370
13
48
1
60
0
100
AcDbDimension
2
DimnDraft3D2
10
-144.75765
20
12.4375
30
0
11
-144.75765
21
-5.281579
31
0
70
32
71
5
72
1
41
1
210
0
220
0
230
1
3
Standard
100
AcDbAlignedDimension
13
-139.00765
23
-12.4375
33
0
14
-139.00765
24
12.4375
34
0
50
90
100
AcDbRotatedDimension
1001
ACAD
1000
DSTYLE
1002
{
1070
    74
1070
     0
1070
   279
1070
     0
1070
   172
1070
     1
1070
   173
1070
     1
1070
   340
1005
141
1070
    77
1070
     1
1070
    73
1070
     0
1070
   171
1070
     3
1070
   274
1070
     4
1070
   177
1070
     2
1070
   176
1070
     2
1070
   178
1070
     7
1070
    78
1070
     8
1070
    41
1041
3.175
1070
   147
1041
2.25
1070
    42
1041
2.0
1070
    44
1041
2.0
1070
   140
1041
4.5
1070
   343
1005
152
1070
   344
1005
152
1002
}
0
DIMENSION
5
175
100
AcDbEntity
8
2
62
256
6
ByLayer
370
13
48
1
60
0
100
AcDbDimension
2
DimnDraft3D3
10
56.59235
20
19.9125
30
0
11
56.59235
21
-1.544079
31
0
70
32
71
5
72
1
41
1
210
0
220
0
230
1
3
Standard
100
AcDbAlignedDimension
13
2
23
-12.4375
33
0
14
36.34235
24
19.9125
34
0
50
90
100
AcDbRotatedDimension
1001
ACAD
1000
DSTYLE
1002
{
1070
    74
1070
     0
1070
   279
1070
     0
1070
   172
1070
     1
1070
   173
1070
     1
1070
   340
1005
141
1070
    77
1070
     1
1070
    73
1070
     0
1070
   171
1070
     3
1070
   274
1070
     4
1070
   177
1070
     2
1070
   176
1070
     2
1070
   178
1070
     7
1070
    78
1070
     8
1070
    41
1041
3.175
1070
   147
1041
2.25
1070
    42
1041
2.0
1070
    44
1041
2.0
1070
   140
1041
4.5
1070
   343
1005
152
1070
   344
1005
152
1002
}
0
DIMENSION
5
183
100
AcDbEntity
8
2
62
256
6
ByLayer
370
13
48
1
60
0
100
AcDbDimension
2
DimnDraft3D4
10
34.34235
20
49.6625
30
0
11
11.652754
21
49.6625
31
0
70
32
71
5
72
1
41
1
210
0
220
0
230
1
3
Standard
100
AcDbAlignedDimension
13
0
23
14.4375
33
0
14
34.34235
24
21.9125
34
0
50
0
100
AcDbRotatedDimension
1001
ACAD
1000
DSTYLE
1002
{
1070
   279
1070
     0
1070
   172
1070
     1
1070
   173
1070
     1
1070
   340
1005
141
1070
    77
1070
     1
1070
    73
1070
     0
1070
   171
1070
     3
1070
   274
1070
     4
1070
   177
1070
     2
1070
   176
1070
     2
1070
   178
1070
     7
1070
    78
1070
     8
1070
    41
1041
3.175
1070
   147
1041
2.25
1070
    42
1041
2.0
1070
    44
1041
2.0
1070
   140
1041
4.5
1070
   343
1005
152
1070
   344
1005
152
1002
}
0
DIMENSION
5
191
100
AcDbEntity
8
SK2
62
256
6
ByLayer
370
13
48
1
60
0
100
AcDbDimension
2
DimnDraft3D5
10
-137.00765
20
59.6625
30
0
11
-57.733308
21
59.6625
31
0
70
32
71
5
72
1
41
1
210
0
220
0
230
1
3
Standard
100
AcDbAlignedDimension
13
34.34235
23
21.9125
33
0
14
-137.00765
24
14.4375
34
0
50
0
100
AcDbRotatedDimension
1001
ACAD
1000
DSTYLE
1002
{
1070
   279
1070
     0
1070
   172
1070
     1
1070
   173
1070
     1
1070
   340
1005
141
1070
    77
1070
     1
1070
    73
1070
     0
1070
   171
1070
     3
1070
   274
1070
     4
1070
   177
1070
     2
1070
   176
1070
     2
1070
   178
1070
     7
1070
    78
1070
     8
1070
    41
1041
3.175
1070
   147
1041
2.25
1070
    42
1041
2.0
1070
    44
1041
2.0
1070
   140
1041
4.5
1070
   343
1005
152
1070
   344
1005
152
1002
}
0
ENDSEC
0
SECTION
2
OBJECTS
0
DICTIONARY
5
1fb
330
0
100
AcDbDictionary
280
0
281
1
3
ACAD_GROUP
350
1fc
3
ACAD_MLINESTYLE
350
1fd
0
DICTIONARY
5
1fc
330
0
100
AcDbDictionary
280
0
281
1
0
DICTIONARY
5
1fd
330
0
100
AcDbDictionary
280
0
281
1
3
Standard
350
18
0
MLINESTYLE
5
18
330
1fd
100
AcDbMlineStyle
2
Standard
70
0
3

62
256
51
90
52
90
71
2
49
-0.5
62
256
6
ByLayer
49
0.5
62
256
6
ByLayer
0
RASTERVARIABLES
5
1ea
330

100
AcDbRasterVariables
90
0
70
1
71
1
72
1
0
ENDSEC
0
EOF
