0
SECTION
2
HEADER
9
$ACADVER
1
AC1015
9
$DWGCODEPAGE
3
ANSI_1252
9
$HANDSEED
5
223
9
$ANGBASE
50
0
9
$ANGDIR
70
0
9
$ATTMODE
70
1
9
$AUNITS
70
0
9
$AUPREC
70
0
9
$CECOLOR
62
256
9
$CELTSCALE
40
1
9
$CELTYPE
6
ByLayer
9
$CELWEIGHT
370
18
9
$CLAYER
8
0
9
$CMLJUST
70
0
9
$CMLSCALE
40
1
9
$CMLSTYLE
2
Standard
9
$DIMSTYLE
2
Standard
9
$TEXTSIZE
40
0.2
9
$TEXTSTYLE
7
Standard
9
$LUNITS
70
2
9
$LUPREC
70
4
9
$EXTNAMES
290
1
9
$INSUNITS
70
4
9
$LTSCALE
40
1
9
$LWDISPLAY
290
1
9
$PDMODE
70
0
9
$PDSIZE
40
0
9
$PLINEGEN
70
0
0
ENDSEC
0
SECTION
2
CLASSES
0
CLASS
1
RASTERVARIABLES
2
AcDbRasterVariables
3
ISM
90
0
280
0
281
0
0
ENDSEC
0
SECTION
2
TABLES
0
TABLE
2
VPORT
5
219
100
AcDbSymbolTable
0
VPORT
5
1
100
AcDbSymbolTableRecord
100
AcDbViewportTableRecord
2
*Active
70
0
10
0
20
0
11
1
21
1
12
-1
22
1
13
0
23
0
14
0.5
24
0.5
15
10
25
10
16
0
26
0
36
1
17
0
27
0
37
0
0
ENDTAB
0
TABLE
2
LTYPE
5
21a
100
AcDbSymbolTable
0
LTYPE
5
14
100
AcDbSymbolTableRecord
100
AcDbLinetypeTableRecord
70
0
2
ByBlock
3

72
65
73
0
40
0
0
LTYPE
5
15
100
AcDbSymbolTableRecord
100
AcDbLinetypeTableRecord
70
0
2
ByLayer
3

72
65
73
0
40
0
0
LTYPE
5
16
100
AcDbSymbolTableRecord
100
AcDbLinetypeTableRecord
70
0
2
CONTINUOUS
3
Solid line
72
65
73
0
40
0
0
LTYPE
5
6A
100
AcDbSymbolTableRecord
100
AcDbLinetypeTableRecord
70
0
2
CENTER
3
____ _ ____ _ ____ _ ____
72
65
73
4
40
47.5
49
22
74
0
49
-8.5
74
0
49
8.5
74
0
49
-8.5
74
0
0
LTYPE
5
6B
100
AcDbSymbolTableRecord
100
AcDbLinetypeTableRecord
70
0
2
DASHED
3
__ __ __ __ __ __ __ __ __
72
65
73
2
40
25.72
49
12.86
74
0
49
-12.86
74
0
0
ENDTAB
0
TABLE
2
LAYER
5
21b
100
AcDbSymbolTable
0
LAYER
5
10
100
AcDbSymbolTableRecord
100
AcDbLayerTableRecord
2
0
70
0
62
7
6
CONTINUOUS
290
1
370
-3
390
0
0
LAYER
5
6D
100
AcDbSymbolTableRecord
100
AcDbLayerTableRecord
2
2
70
0
62
7
6
CONTINUOUS
290
1
370
-3
390
0
0
LAYER
5
6F
100
AcDbSymbolTableRecord
100
AcDbLayerTableRecord
2
80
70
0
62
-6
6
CONTINUOUS
290
1
370
-3
390
0
0
LAYER
5
71
100
AcDbSymbolTableRecord
100
AcDbLayerTableRecord
2
81
70
0
62
-3
6
CONTINUOUS
290
1
370
-3
390
0
0
LAYER
5
73
100
AcDbSymbolTableRecord
100
AcDbLayerTableRecord
2
1
70
0
62
4
6
CONTINUOUS
290
1
370
-3
390
0
0
LAYER
5
206
100
AcDbSymbolTableRecord
100
AcDbLayerTableRecord
2
SK1
70
0
62
4
6
CONTINUOUS
290
1
370
-3
390
0
0
LAYER
5
207
100
AcDbSymbolTableRecord
100
AcDbLayerTableRecord
2
SK6
70
0
62
5
6
CONTINUOUS
290
1
370
-3
390
0
0
LAYER
5
208
100
AcDbSymbolTableRecord
100
AcDbLayerTableRecord
2
SK2
70
0
62
7
6
CONTINUOUS
290
1
370
-3
390
0
0
ENDTAB
0
TABLE
2
STYLE
5
21c
100
AcDbSymbolTable
0
STYLE
5
11
100
AcDbSymbolTableRecord
100
AcDbTextStyleTableRecord
2
Standard
3
txt
70
0
71
0
40
0
41
1
42
0
50
0
0
STYLE
5
15C
100
AcDbSymbolTableRecord
100
AcDbTextStyleTableRecord
2
iso_b_vert
3
simplex.shx
70
0
71
0
40
0
41
1
42
0
50
0
0
STYLE
5
15D
100
AcDbSymbolTableRecord
100
AcDbTextStyleTableRecord
2
DWGDirectTextStyle
3
simplex
70
0
71
0
40
0
41
1
42
0
50
0
0
ENDTAB
0
TABLE
2
DIMSTYLE
5
21d
100
AcDbSymbolTable
100
AcDbDimStyleTable
0
DIMSTYLE
105
27
100
AcDbSymbolTableRecord
100
AcDbDimStyleTableRecord
2
Standard
70
0
3
<>
41
0.18
42
0.0625
44
0.18
140
0.18
147
0.09
73
0
74
0
77
1
271
2
275
0
278
52
280
0
340
11
0
ENDTAB
0
TABLE
2
VIEW
5
21e
100
AcDbSymbolTable
0
ENDTAB
0
TABLE
2
UCS
5
21f
100
AcDbSymbolTable
0
ENDTAB
0
TABLE
2
APPID
5
220
100
AcDbSymbolTable
0
APPID
5
12
100
AcDbSymbolTableRecord
100
AcDbRegAppTableRecord
2
ACAD
70
0
0
ENDTAB
0
TABLE
2
BLOCK_RECORD
5
221
100
AcDbSymbolTable
0
BLOCK_RECORD
5
1F
100
AcDbSymbolTableRecord
100
AcDbBlockTableRecord
2
*Model_Space
340
0
70
0
0
BLOCK_RECORD
5
1B
100
AcDbSymbolTableRecord
100
AcDbBlockTableRecord
2
*Paper_Space
340
0
70
0
0
BLOCK_RECORD
5
23
100
AcDbSymbolTableRecord
100
AcDbBlockTableRecord
2
*Paper_Space0
340
0
70
0
0
BLOCK_RECORD
5
15F
100
AcDbSymbolTableRecord
100
AcDbBlockTableRecord
2
DimnDraft3D1
340
0
70
0
0
BLOCK_RECORD
5
16D
100
AcDbSymbolTableRecord
100
AcDbBlockTableRecord
2
_CLOSED
340
0
70
0
0
BLOCK_RECORD
5
174
100
AcDbSymbolTableRecord
100
AcDbBlockTableRecord
2
DimnDraft3D2
340
0
70
0
0
BLOCK_RECORD
5
183
100
AcDbSymbolTableRecord
100
AcDbBlockTableRecord
2
DimnDraft3D3
340
0
70
0
0
BLOCK_RECORD
5
191
100
AcDbSymbolTableRecord
100
AcDbBlockTableRecord
2
DimnDraft3D4
340
0
70
0
0
BLOCK_RECORD
5
19F
100
AcDbSymbolTableRecord
100
AcDbBlockTableRecord
2
DimnDraft3D5
340
0
70
0
0
ENDTAB
0
ENDSEC
0
SECTION
2
BLOCKS
0
BLOCK
5
20
100
AcDbEntity
8
0
100
AcDbBlockBegin
2
*Model_Space
70
0
10
0
20
0
30
0
3
*Model_Space
0
ENDBLK
5
21
100
AcDbEntity
8
0
100
AcDbBlockEnd
0
BLOCK
5
1C
100
AcDbEntity
8
0
100
AcDbBlockBegin
2
*Paper_Space
70
0
10
0
20
0
30
0
3
*Paper_Space
0
ENDBLK
5
1D
100
AcDbEntity
8
0
100
AcDbBlockEnd
0
BLOCK
5
24
100
AcDbEntity
8
0
100
AcDbBlockBegin
2
*Paper_Space0
70
0
10
0
20
0
30
0
3
*Paper_Space0
0
ENDBLK
5
25
100
AcDbEntity
8
0
100
AcDbBlockEnd
0
BLOCK
5
16A
100
AcDbEntity
8
0
100
AcDbBlockBegin
2
DimnDraft3D1
70
0
10
0
20
0
30
0
3
DimnDraft3D1
0
MTEXT
5
160
100
AcDbEntity
8
2
62
256
6
ByLayer
370
18
48
1
60
0
100
AcDbMText
10
8.258245
20
32.762381
30
0
210
0
220
0
230
1
1
\W0.7399;95%%d
40
4.5
41
0
44
1.084337
50
47.3457231599999
71
7
72
5
7
iso_b_vert
0
LINE
5
161
100
AcDbEntity
8
2
62
256
6
ByLayer
370
13
48
1
60
0
100
AcDbLine
10
26.440383
20
21.9125
30
0
11
26.440383
21
42.88825
31
0
39
0
210
0
220
0
230
1
0
LINE
5
162
100
AcDbEntity
8
2
62
256
6
ByLayer
370
13
48
1
60
0
100
AcDbLine
10
22.591764
20
19.664471
30
0
11
3.609191
21
18.106673
31
0
39
0
210
0
220
0
230
1
0
ARC
5
163
100
AcDbEntity
8
2
62
256
6
ByLayer
370
13
48
1
60
0
100
AcDbCircle
39
0
10
26.440383
20
19.980307
30
0
40
20.9079424705682
210
0
220
0
230
1
100
AcDbArc
50
90
51
184.691446
0
LINE
5
164
100
AcDbEntity
8
2
62
256
6
ByLayer
370
13
48
1
60
0
100
AcDbLine
10
26.440383
20
40.88825
30
0
11
23.283499
21
40.350277
31
0
39
0
210
0
220
0
230
1
0
LINE
5
165
100
AcDbEntity
8
2
62
256
6
ByLayer
370
13
48
1
60
0
100
AcDbLine
10
26.440383
20
40.88825
30
0
11
23.251826
21
41.18567
31
0
39
0
210
0
220
0
230
1
0
LINE
5
166
100
AcDbEntity
8
2
62
256
6
ByLayer
370
13
48
1
60
0
100
AcDbLine
10
23.283499
20
40.350277
30
0
11
23.251826
21
41.18567
31
0
39
0
210
0
220
0
230
1
0
LINE
5
167
100
AcDbEntity
8
2
62
256
6
ByLayer
370
13
48
1
60
0
100
AcDbLine
10
5.602491
20
18.270252
30
0
11
5.045276
21
21.423798
31
0
39
0
210
0
220
0
230
1
0
LINE
5
168
100
AcDbEntity
8
2
62
256
6
ByLayer
370
13
48
1
60
0
100
AcDbLine
10
5.602491
20
18.270252
30
0
11
5.88046
21
21.460564
31
0
39
0
210
0
220
0
230
1
0
LINE
5
169
100
AcDbEntity
8
2
62
256
6
ByLayer
370
13
48
1
60
0
100
AcDbLine
10
5.045276
20
21.423798
30
0
11
5.88046
21
21.460564
31
0
39
0
210
0
220
0
230
1
0
ENDBLK
5
16B
100
AcDbEntity
8
0
100
AcDbBlockEnd
0
BLOCK
5
16E
100
AcDbEntity
8
0
100
AcDbBlockBegin
2
_CLOSED
70
0
10
0
20
0
30
0
3
_CLOSED
0
LINE
5
170
100
AcDbEntity
8
0
62
256
6
ByLayer
370
-2
48
1
60
0
100
AcDbLine
10
-1
20
0.166667
30
0
11
0
21
0
31
0
39
0
210
0
220
0
230
1
0
LINE
5
171
100
AcDbEntity
8
0
62
256
6
ByLayer
370
-2
48
1
60
0
100
AcDbLine
10
0
20
0
30
0
11
-1
21
-0.166667
31
0
39
0
210
0
220
0
230
1
0
LINE
5
172
100
AcDbEntity
8
0
62
256
6
ByLayer
370
-2
48
1
60
0
100
AcDbLine
10
-1
20
0.166667
30
0
11
-1
21
-0.166667
31
0
39
0
210
0
220
0
230
1
0
LINE
5
173
100
AcDbEntity
8
0
62
256
6
ByLayer
370
-2
48
1
60
0
100
AcDbLine
10
0
20
0
30
0
11
-1
21
0
31
0
39
0
210
0
220
0
230
1
0
ENDBLK
5
16F
100
AcDbEntity
8
0
100
AcDbBlockEnd
0
BLOCK
5
180
100
AcDbEntity
8
0
100
AcDbBlockBegin
2
DimnDraft3D2
70
0
10
0
20
0
30
0
3
DimnDraft3D2
0
MTEXT
5
175
100
AcDbEntity
8
SK2
62
256
6
ByLayer
370
18
48
1
60
0
100
AcDbMText
10
-133.784617
20
-4.156579
30
0
210
0
220
0
230
1
1
\W0.7346;25.0
40
4.5
41
0
44
1.084337
50
90
71
7
72
5
7
iso_b_vert
0
LINE
5
177
100
AcDbEntity
8
SK2
62
256
6
ByLayer
370
13
48
1
60
0
100
AcDbLine
10
-126.909617
20
-12.4375
30
0
11
-134.659617
21
-12.4375
31
0
39
0
210
0
220
0
230
1
0
LINE
5
178
100
AcDbEntity
8
SK2
62
256
6
ByLayer
370
13
48
1
60
0
100
AcDbLine
10
-126.909617
20
12.4375
30
0
11
-134.659617
21
12.4375
31
0
39
0
210
0
220
0
230
1
0
LINE
5
179
100
AcDbEntity
8
SK2
62
256
6
ByLayer
370
13
48
1
60
0
100
AcDbLine
10
-132.659617
20
-12.4375
30
0
11
-132.659617
21
12.4375
31
0
39
0
210
0
220
0
230
1
0
LINE
5
17A
100
AcDbEntity
8
SK2
62
256
6
ByLayer
370
13
48
1
60
0
100
AcDbLine
10
-132.659617
20
-12.4375
30
0
11
-133.077613
21
-9.262502
31
0
39
0
210
0
220
0
230
1
0
LINE
5
17B
100
AcDbEntity
8
SK2
62
256
6
ByLayer
370
13
48
1
60
0
100
AcDbLine
10
-132.659617
20
-12.4375
30
0
11
-132.24162
21
-9.262498
31
0
39
0
210
0
220
0
230
1
0
LINE
5
17C
100
AcDbEntity
8
SK2
62
256
6
ByLayer
370
13
48
1
60
0
100
AcDbLine
10
-133.077613
20
-9.262502
30
0
11
-132.24162
21
-9.262498
31
0
39
0
210
0
220
0
230
1
0
LINE
5
17D
100
AcDbEntity
8
SK2
62
256
6
ByLayer
370
13
48
1
60
0
100
AcDbLine
10
-132.659617
20
12.4375
30
0
11
-132.24162
21
9.262502
31
0
39
0
210
0
220
0
230
1
0
LINE
5
17E
100
AcDbEntity
8
SK2
62
256
6
ByLayer
370
13
48
1
60
0
100
AcDbLine
10
-132.659617
20
12.4375
30
0
11
-133.077613
21
9.262498
31
0
39
0
210
0
220
0
230
1
0
LINE
5
17F
100
AcDbEntity
8
SK2
62
256
6
ByLayer
370
13
48
1
60
0
100
AcDbLine
10
-132.24162
20
9.262502
30
0
11
-133.077613
21
9.262498
31
0
39
0
210
0
220
0
230
1
0
ENDBLK
5
181
100
AcDbEntity
8
0
100
AcDbBlockEnd
0
BLOCK
5
18E
100
AcDbEntity
8
0
100
AcDbBlockBegin
2
DimnDraft3D3
70
0
10
0
20
0
30
0
3
DimnDraft3D3
0
MTEXT
5
184
100
AcDbEntity
8
2
62
256
6
ByLayer
370
18
48
1
60
0
100
AcDbMText
10
47.565383
20
-0.419079
30
0
210
0
220
0
230
1
1
\W0.7346;32.0
40
4.5
41
0
44
1.084337
50
90
71
7
72
5
7
iso_b_vert
0
LINE
5
185
100
AcDbEntity
8
2
62
256
6
ByLayer
370
13
48
1
60
0
100
AcDbLine
10
2
20
-12.4375
30
0
11
50.690383
21
-12.4375
31
0
39
0
210
0
220
0
230
1
0
LINE
5
186
100
AcDbEntity
8
2
62
256
6
ByLayer
370
13
48
1
60
0
100
AcDbLine
10
28.440383
20
19.9125
30
0
11
50.690383
21
19.9125
31
0
39
0
210
0
220
0
230
1
0
LINE
5
187
100
AcDbEntity
8
2
62
256
6
ByLayer
370
13
48
1
60
0
100
AcDbLine
10
48.690383
20
-12.4375
30
0
11
48.690383
21
19.9125
31
0
39
0
210
0
220
0
230
1
0
LINE
5
188
100
AcDbEntity
8
2
62
256
6
ByLayer
370
13
48
1
60
0
100
AcDbLine
10
48.690383
20
-12.4375
30
0
11
48.272387
21
-9.262502
31
0
39
0
210
0
220
0
230
1
0
LINE
5
189
100
AcDbEntity
8
2
62
256
6
ByLayer
370
13
48
1
60
0
100
AcDbLine
10
48.690383
20
-12.4375
30
0
11
49.10838
21
-9.262498
31
0
39
0
210
0
220
0
230
1
0
LINE
5
18A
100
AcDbEntity
8
2
62
256
6
ByLayer
370
13
48
1
60
0
100
AcDbLine
10
48.272387
20
-9.262502
30
0
11
49.10838
21
-9.262498
31
0
39
0
210
0
220
0
230
1
0
LINE
5
18B
100
AcDbEntity
8
2
62
256
6
ByLayer
370
13
48
1
60
0
100
AcDbLine
10
48.690383
20
19.9125
30
0
11
49.10838
21
16.737502
31
0
39
0
210
0
220
0
230
1
0
LINE
5
18C
100
AcDbEntity
8
2
62
256
6
ByLayer
370
13
48
1
60
0
100
AcDbLine
10
48.690383
20
19.9125
30
0
11
48.272387
21
16.737498
31
0
39
0
210
0
220
0
230
1
0
LINE
5
18D
100
AcDbEntity
8
2
62
256
6
ByLayer
370
13
48
1
60
0
100
AcDbLine
10
49.10838
20
16.737502
30
0
11
48.272387
21
16.737498
31
0
39
0
210
0
220
0
230
1
0
ENDBLK
5
18F
100
AcDbEntity
8
0
100
AcDbBlockEnd
0
BLOCK
5
19C
100
AcDbEntity
8
0
100
AcDbBlockBegin
2
DimnDraft3D4
70
0
10
0
20
0
30
0
3
DimnDraft3D4
0
MTEXT
5
192
100
AcDbEntity
8
2
62
256
6
ByLayer
370
18
48
1
60
0
100
AcDbMText
10
8.826771
20
50.7875
30
0
210
0
220
0
230
1
1
\W0.7528;26.4
40
4.5
41
0
44
1.084337
50
0
71
7
72
5
7
iso_b_vert
0
LINE
5
193
100
AcDbEntity
8
2
62
256
6
ByLayer
370
13
48
1
60
0
100
AcDbLine
10
0
20
14.4375
30
0
11
0
21
51.6625
31
0
39
0
210
0
220
0
230
1
0
LINE
5
194
100
AcDbEntity
8
2
62
256
6
ByLayer
370
13
48
1
60
0
100
AcDbLine
10
26.440383
20
21.9125
30
0
11
26.440383
21
51.6625
31
0
39
0
210
0
220
0
230
1
0
LINE
5
195
100
AcDbEntity
8
2
62
256
6
ByLayer
370
13
48
1
60
0
100
AcDbLine
10
0
20
49.6625
30
0
11
26.440383
21
49.6625
31
0
39
0
210
0
220
0
230
1
0
LINE
5
196
100
AcDbEntity
8
2
62
256
6
ByLayer
370
13
48
1
60
0
100
AcDbLine
10
0
20
49.6625
30
0
11
3.174998
21
50.080497
31
0
39
0
210
0
220
0
230
1
0
LINE
5
197
100
AcDbEntity
8
2
62
256
6
ByLayer
370
13
48
1
60
0
100
AcDbLine
10
0
20
49.6625
30
0
11
3.175002
21
49.244503
31
0
39
0
210
0
220
0
230
1
0
LINE
5
198
100
AcDbEntity
8
2
62
256
6
ByLayer
370
13
48
1
60
0
100
AcDbLine
10
3.174998
20
50.080497
30
0
11
3.175002
21
49.244503
31
0
39
0
210
0
220
0
230
1
0
LINE
5
199
100
AcDbEntity
8
2
62
256
6
ByLayer
370
13
48
1
60
0
100
AcDbLine
10
26.440383
20
49.6625
30
0
11
23.265385
21
49.244503
31
0
39
0
210
0
220
0
230
1
0
LINE
5
19A
100
AcDbEntity
8
2
62
256
6
ByLayer
370
13
48
1
60
0
100
AcDbLine
10
26.440383
20
49.6625
30
0
11
23.265382
21
50.080497
31
0
39
0
210
0
220
0
230
1
0
LINE
5
19B
100
AcDbEntity
8
2
62
256
6
ByLayer
370
13
48
1
60
0
100
AcDbLine
10
23.265385
20
49.244503
30
0
11
23.265382
21
50.080497
31
0
39
0
210
0
220
0
230
1
0
ENDBLK
5
19D
100
AcDbEntity
8
0
100
AcDbBlockEnd
0
BLOCK
5
1AA
100
AcDbEntity
8
0
100
AcDbBlockBegin
2
DimnDraft3D5
70
0
10
0
20
0
30
0
3
DimnDraft3D5
0
MTEXT
5
1A0
100
AcDbEntity
8
SK2
62
256
6
ByLayer
370
18
48
1
60
0
100
AcDbMText
10
-54.510275
20
60.7875
30
0
210
0
220
0
230
1
1
\W0.6864;150.0
40
4.5
41
0
44
1.084337
50
0
71
7
72
5
7
iso_b_vert
0
LINE
5
1A1
100
AcDbEntity
8
SK2
62
256
6
ByLayer
370
13
48
1
60
0
100
AcDbLine
10
26.440383
20
21.9125
30
0
11
26.440383
21
61.6625
31
0
39
0
210
0
220
0
230
1
0
LINE
5
1A2
100
AcDbEntity
8
SK2
62
256
6
ByLayer
370
13
48
1
60
0
100
AcDbLine
10
-124.909617
20
14.4375
30
0
11
-124.909617
21
61.6625
31
0
39
0
210
0
220
0
230
1
0
LINE
5
1A3
100
AcDbEntity
8
SK2
62
256
6
ByLayer
370
13
48
1
60
0
100
AcDbLine
10
26.440383
20
59.6625
30
0
11
-124.909617
21
59.6625
31
0
39
0
210
0
220
0
230
1
0
LINE
5
1A4
100
AcDbEntity
8
SK2
62
256
6
ByLayer
370
13
48
1
60
0
100
AcDbLine
10
26.440383
20
59.6625
30
0
11
23.265385
21
59.244503
31
0
39
0
210
0
220
0
230
1
0
LINE
5
1A5
100
AcDbEntity
8
SK2
62
256
6
ByLayer
370
13
48
1
60
0
100
AcDbLine
10
26.440383
20
59.6625
30
0
11
23.265382
21
60.080497
31
0
39
0
210
0
220
0
230
1
0
LINE
5
1A6
100
AcDbEntity
8
SK2
62
256
6
ByLayer
370
13
48
1
60
0
100
AcDbLine
10
23.265385
20
59.244503
30
0
11
23.265382
21
60.080497
31
0
39
0
210
0
220
0
230
1
0
LINE
5
1A7
100
AcDbEntity
8
SK2
62
256
6
ByLayer
370
13
48
1
60
0
100
AcDbLine
10
-124.909617
20
59.6625
30
0
11
-121.734618
21
60.080497
31
0
39
0
210
0
220
0
230
1
0
LINE
5
1A8
100
AcDbEntity
8
SK2
62
256
6
ByLayer
370
13
48
1
60
0
100
AcDbLine
10
-124.909617
20
59.6625
30
0
11
-121.734615
21
59.244503
31
0
39
0
210
0
220
0
230
1
0
LINE
5
1A9
100
AcDbEntity
8
SK2
62
256
6
ByLayer
370
13
48
1
60
0
100
AcDbLine
10
-121.734618
20
60.080497
30
0
11
-121.734615
21
59.244503
31
0
39
0
210
0
220
0
230
1
0
ENDBLK
5
1AB
100
AcDbEntity
8
0
100
AcDbBlockEnd
0
ENDSEC
0
SECTION
2
ENTITIES
0
ELLIPSE
5
D0
100
AcDbEntity
8
1
62
256
6
ByLayer
370
18
48
1
60
0
100
AcDbEllipse
10
9.85822
20
12.623677
30
0
11
-0.205060966544571
21
0.205060966543627
31
0
210
0
220
0
230
1
40
0.989133
41
-0.916355500204805
42
-0.353242264771849
0
ELLIPSE
5
D1
100
AcDbEntity
8
1
62
256
6
ByLayer
370
18
48
1
60
0
100
AcDbEllipse
10
11.033975
20
11.447922
30
0
11
-0.205060966544571
21
0.205060966543627
31
0
210
0
220
0
230
1
40
0.989133
41
-2.78835038881802
42
-2.22523715338507
0
ELLIPSE
5
D2
100
AcDbEntity
8
1
62
256
6
ByLayer
370
18
48
1
60
0
100
AcDbEllipse
10
10.745433
20
12.335136
30
0
11
0.636396103069343
21
-0.636396103066443
31
0
210
0
220
0
230
1
40
0.989133
41
3.04803607130189
42
-1.05812350213849
0
ELLIPSE
5
D3
100
AcDbEntity
8
1
62
256
6
ByLayer
370
18
48
1
60
0
100
AcDbEllipse
10
10.745433
20
12.335136
30
0
11
0.636396103069343
21
-0.636396103066443
31
0
210
0
220
0
230
1
40
0.989133
41
0.0935647154546631
42
3.04803607130189
0
ELLIPSE
5
D4
100
AcDbEntity
8
1
62
256
6
ByLayer
370
18
48
1
60
0
100
AcDbEllipse
10
10.78182
20
12.371522
30
0
11
0.636396103069343
21
-0.636396103066443
31
0
210
0
220
0
230
1
40
0.989133
41
-0.651058630376989
42
-0.0934920250935545
0
ELLIPSE
5
D5
100
AcDbEntity
8
1
62
256
6
ByLayer
370
18
48
1
60
0
100
AcDbEllipse
10
10.78182
20
12.371522
30
0
11
0.636396103069343
21
-0.636396103066443
31
0
210
0
220
0
230
1
40
0.989133
41
-1.87877926261833
42
-1.26281266557636
0
ELLIPSE
5
D6
100
AcDbEntity
8
1
62
256
6
ByLayer
370
18
48
1
60
0
100
AcDbEllipse
10
10.78182
20
12.371522
30
0
11
0.636396103069343
21
-0.636396103066443
31
0
210
0
220
0
230
1
40
0.989133
41
-3.04810062849624
42
-2.4905340232128
0
ELLIPSE
5
D7
100
AcDbEntity
8
1
62
256
6
ByLayer
370
18
48
1
60
0
100
AcDbEllipse
10
10.703849
20
12.293551
30
0
11
2.26274169980211
21
-2.26274169979179
31
0
210
0
220
0
230
1
40
0.989133
41
3.14149826808217
42
-0.79086129178442
0
ELLIPSE
5
D8
100
AcDbEntity
8
1
62
256
6
ByLayer
370
18
48
1
60
0
100
AcDbEllipse
10
10.703849
20
12.293551
30
0
11
2.26274169980211
21
-2.26274169979179
31
0
210
0
220
0
230
1
40
0.989133
41
-0.790861291784412
42
0
0
ELLIPSE
5
D9
100
AcDbEntity
8
1
62
256
6
ByLayer
370
18
48
1
60
0
100
AcDbEllipse
10
11.70542
20
12.119368
30
0
11
-0.205060966544571
21
0.205060966543627
31
0
210
0
220
0
230
1
40
0.989133
41
-2.78831280022454
42
-1.17803960218858
0
ELLIPSE
5
DA
100
AcDbEntity
8
1
62
256
6
ByLayer
370
18
48
1
60
0
100
AcDbEllipse
10
10.529665
20
13.295123
30
0
11
-0.205060966544571
21
0.205060966543627
31
0
210
0
220
0
230
1
40
0.989133
41
-1.96355305140138
42
-0.353279853365434
0
ELLIPSE
5
DB
100
AcDbEntity
8
1
62
256
6
ByLayer
370
18
48
1
60
0
100
AcDbEllipse
10
21.332504
20
14.804621
30
0
11
1.34703841816344
21
-1.3470384181573
31
0
210
0
220
0
230
1
40
0.989133
41
-0.430950493227313
42
0
0
ELLIPSE
5
DC
100
AcDbEntity
8
1
62
256
6
ByLayer
370
18
48
1
60
0
100
AcDbEllipse
10
21.332504
20
14.804621
30
0
11
1.34703841816344
21
-1.3470384181573
31
0
210
0
220
0
230
1
40
0.989133
41
0
42
2.51684477621944
0
ELLIPSE
5
DD
100
AcDbEntity
8
1
62
256
6
ByLayer
370
18
48
1
60
0
100
AcDbEllipse
10
21.332504
20
14.804621
30
0
11
1.34703841816344
21
-1.3470384181573
31
0
210
0
220
0
230
1
40
0.989133
41
-0.790861398161609
42
-0.534525330787258
0
ELLIPSE
5
DE
100
AcDbEntity
8
1
62
256
6
ByLayer
370
18
48
1
60
0
100
AcDbEllipse
10
22.45941
20
8.369515
30
0
11
0.561230652229042
21
-0.561230652226484
31
0
210
0
220
0
230
1
40
0.989133
41
-1.30714314300745
42
-3.15567798546389E-07
0
ELLIPSE
5
DF
100
AcDbEntity
8
1
62
256
6
ByLayer
370
18
48
1
60
0
100
AcDbEllipse
10
20.837647
20
14.309763
30
0
11
-1.34703841816347
21
1.34703841815727
31
0
210
0
220
0
230
1
40
0.989133
41
-2.95482960714711
42
-2.61210151267088
0
ELLIPSE
5
E0
100
AcDbEntity
8
1
62
256
6
ByLayer
370
18
48
1
60
0
100
AcDbEllipse
10
4.926497
20
16.142185
30
0
11
2.00411319484461
21
-2.23238220344315
31
0
210
0
220
0
230
1
40
0.98676
41
-0.47041465650476
42
-0.182392924462539
0
ELLIPSE
5
E1
100
AcDbEntity
8
1
62
256
6
ByLayer
370
18
48
1
60
0
100
AcDbEllipse
10
9.781269
20
12.051614
30
0
11
2.23792640090982
21
-2.49282679384486
31
0
210
0
220
0
230
1
40
0.98676
41
2.67117799708504
42
2.95919026972488
0
ELLIPSE
5
E2
100
AcDbEntity
8
1
62
256
6
ByLayer
370
18
48
1
60
0
100
AcDbEllipse
10
11.360832
20
12.464628
30
0
11
-2.23792640090982
21
2.49282679384486
31
0
210
0
220
0
230
1
40
0.98676
41
3.03010495957257
42
-0.470414656504745
0
ELLIPSE
5
E3
100
AcDbEntity
8
1
62
256
6
ByLayer
370
18
48
1
60
0
100
AcDbEllipse
10
8.792375
20
9.331662
30
0
11
4.34112244422441
21
1.18518181063122
31
0
210
0
220
0
230
1
40
0.073512
41
1.96218052381016
42
2.401057092639
0
ELLIPSE
5
E4
100
AcDbEntity
8
1
62
256
6
ByLayer
370
18
48
1
60
0
100
AcDbEllipse
10
6.909616
20
16.503896
30
0
11
-2.6368040395465
21
-0.592727853621845
31
0
210
0
220
0
230
1
40
0.255808
41
-0.142989970854399
42
0.598500912874964
0
ELLIPSE
5
E5
100
AcDbEntity
8
1
62
256
6
ByLayer
370
18
48
1
60
0
100
AcDbEllipse
10
4.866325
20
13.444833
30
0
11
-2.29135103077358
21
1.01920308151069
31
0
210
0
220
0
230
1
40
0.990371
41
-0.433487814484512
42
0.680306581627503
0
ELLIPSE
5
E6
100
AcDbEntity
8
1
62
256
6
ByLayer
370
18
48
1
60
0
100
AcDbEllipse
10
7.194093
20
14.861191
30
0
11
-3.33911270900425
21
0.617089188743469
31
0
210
0
220
0
230
1
40
0.419778
41
-0.728448483430973
42
-0.43682461993392
0
ELLIPSE
5
E7
100
AcDbEntity
8
1
62
256
6
ByLayer
370
18
48
1
60
0
100
AcDbEllipse
10
6.468558
20
7.576122
30
0
11
-2.29135103079396
21
1.01920308147175
31
0
210
0
220
0
230
1
40
0.990371
41
0.680306581610253
42
1.7941009777213
0
ELLIPSE
5
E8
100
AcDbEntity
8
1
62
256
6
ByLayer
370
18
48
1
60
0
100
AcDbEllipse
10
6.827576
20
7.992167
30
0
11
1.34291647595085
21
-1.19857220834614
31
0
210
0
220
0
230
1
40
0.774573
41
-2.07992256258795
42
-0.649692756139158
0
ELLIPSE
5
E9
100
AcDbEntity
8
1
62
256
6
ByLayer
370
18
48
1
60
0
100
AcDbEllipse
10
5.205886
20
13.932146
30
0
11
-0.247184512010698
21
-1.78294694733804
31
0
210
0
220
0
230
1
40
0.816684
41
-2.70668511481896
42
-1.27645530837015
0
ELLIPSE
5
EA
100
AcDbEntity
8
1
62
256
6
ByLayer
370
18
48
1
60
0
100
AcDbEllipse
10
9.637809
20
6.510981
30
0
11
-2.56809873138955
21
-0.842944249136988
31
0
210
0
220
0
230
1
40
0.402459
41
-0.607273697119754
42
0.134217186607365
0
ELLIPSE
5
EB
100
AcDbEntity
8
1
62
256
6
ByLayer
370
18
48
1
60
0
100
AcDbEllipse
10
21.591564
20
15.003576
30
0
11
-1.31499033952464
21
1.00450433236647
31
0
210
0
220
0
230
1
40
0.820784
41
-2.2038258171759
42
-1.92274213202166
0
ELLIPSE
5
EC
100
AcDbEntity
8
1
62
256
6
ByLayer
370
18
48
1
60
0
100
AcDbEllipse
10
7.636666
20
13.56483
30
0
11
4.34112244422441
21
1.18518181063122
31
0
210
0
220
0
230
1
40
0.073512
41
1.96218052381015
42
2.40105709263896
0
ELLIPSE
5
ED
100
AcDbEntity
8
1
62
256
6
ByLayer
370
18
48
1
60
0
100
AcDbEllipse
10
8.796326
20
8.99248
30
0
11
-2.00779183717239
21
-3.32412133799216
31
0
210
0
220
0
230
1
40
0.505057
41
0.188256892932448
42
0.479880756449814
0
ELLIPSE
5
EE
100
AcDbEntity
8
1
62
256
6
ByLayer
370
18
48
1
60
0
100
AcDbEllipse
10
7.298937
20
14.801872
30
0
11
-4.37176408351401
21
-1.07285756057053
31
0
210
0
220
0
230
1
40
0.124294
41
0.528446719174748
42
0.590094898191999
0
ELLIPSE
5
EF
100
AcDbEntity
8
1
62
256
6
ByLayer
370
18
48
1
60
0
100
AcDbEllipse
10
9.130103
20
8.09462
30
0
11
-4.30841367616924
21
-1.30451414167287
31
0
210
0
220
0
230
1
40
0.27121
41
-0.594336370131902
42
-0.53268819402893
0
ELLIPSE
5
F0
100
AcDbEntity
8
1
62
256
6
ByLayer
370
18
48
1
60
0
100
AcDbEllipse
10
21.591564
20
15.003576
30
0
11
-0.212188269388345
21
1.73934239031212
31
0
210
0
220
0
230
1
40
0.837681
41
-1.79523243043902
42
-1.51414874520422
0
ELLIPSE
5
F1
100
AcDbEntity
8
1
62
256
6
ByLayer
370
18
48
1
60
0
100
AcDbEllipse
10
3.246829
20
4.526902
30
0
11
5.78816325896588
21
1.58024241417495
31
0
210
0
220
0
230
1
40
0.073512
41
-0.793135574676257
42
-0.791246453599056
0
ELLIPSE
5
F2
100
AcDbEntity
8
1
62
256
6
ByLayer
370
18
48
1
60
0
100
AcDbEllipse
10
22.954268
20
8.864373
30
0
11
-0.561230652229054
21
0.561230652226472
31
0
210
0
220
0
230
1
40
0.989133
41
1.74532925199433
42
-2.79252680319097
0
ELLIPSE
5
F3
100
AcDbEntity
8
1
62
256
6
ByLayer
370
18
48
1
60
0
100
AcDbEllipse
10
21.332504
20
14.804621
30
0
11
-3.36759604540868
21
3.36759604539318
31
0
210
0
220
0
230
1
40
0.989133
41
-2.79252680319097
42
-2.44346095279206
0
ELLIPSE
5
F4
100
AcDbEntity
8
1
62
256
6
ByLayer
370
18
48
1
60
0
100
AcDbEllipse
10
21.332504
20
14.804621
30
0
11
-3.36759604540868
21
3.36759604539318
31
0
210
0
220
0
230
1
40
0.989133
41
-0.698131700797735
42
-0.349065850398876
0
ELLIPSE
5
F5
100
AcDbEntity
8
1
62
256
6
ByLayer
370
18
48
1
60
0
100
AcDbEllipse
10
25.650989
20
19.123105
30
0
11
-0.561230652229054
21
0.561230652226472
31
0
210
0
220
0
230
1
40
0.989133
41
-2.44346095279207
42
-0.698131700797775
0
ELLIPSE
5
F6
100
AcDbEntity
8
1
62
256
6
ByLayer
370
18
48
1
60
0
100
AcDbEllipse
10
11.770454
20
11.663585
30
0
11
0.22273863607427
21
-0.222738636073255
31
0
210
0
220
0
230
1
40
0.989133
41
2.22523715338493
42
2.6984374211503
0
ELLIPSE
5
F7
100
AcDbEntity
8
1
62
256
6
ByLayer
370
18
48
1
60
0
100
AcDbEllipse
10
11.845768
20
12.259716
30
0
11
-0.205060966544571
21
0.205060966543627
31
0
210
0
220
0
230
1
40
0.989133
41
2.22523715338505
42
-1.17803960218857
0
ELLIPSE
5
F8
100
AcDbEntity
8
1
62
256
6
ByLayer
370
18
48
1
60
0
100
AcDbEllipse
10
10.922168
20
12.511871
30
0
11
0.654073772599047
21
-0.654073772596066
31
0
210
0
220
0
230
1
40
0.989133
41
0.900652520408399
42
1.19374258198474
0
ELLIPSE
5
F9
100
AcDbEntity
8
1
62
256
6
ByLayer
370
18
48
1
60
0
100
AcDbEllipse
10
10.876531
20
12.466234
30
0
11
-2.26274169980216
21
2.26274169979175
31
0
210
0
220
0
230
1
40
0.989133
41
0
42
6.28318530717959
0
ELLIPSE
5
FA
100
AcDbEntity
8
1
62
256
6
ByLayer
370
18
48
1
60
0
100
AcDbEllipse
10
10.073882
20
13.360156
30
0
11
0.22273863607427
21
-0.222738636073255
31
0
210
0
220
0
230
1
40
0.989133
41
0.443155232439469
42
0.916355500204741
0
ELLIPSE
5
FB
100
AcDbEntity
8
1
62
256
6
ByLayer
370
18
48
1
60
0
100
AcDbEllipse
10
10.922168
20
12.511871
30
0
11
-1.34350288425753
21
1.34350288425135
31
0
210
0
220
0
230
1
40
0.989133
41
0
42
6.28318530717959
0
ELLIPSE
5
FC
100
AcDbEntity
8
1
62
256
6
ByLayer
370
18
48
1
60
0
100
AcDbEllipse
10
11.770454
20
11.663585
30
0
11
0.22273863607427
21
-0.222738636073255
31
0
210
0
220
0
230
1
40
0.989133
41
-2.6984374211503
42
-2.22523715338502
0
ELLIPSE
5
FD
100
AcDbEntity
8
1
62
256
6
ByLayer
370
18
48
1
60
0
100
AcDbEllipse
10
10.250722
20
11.840425
30
0
11
-0.205060966544571
21
0.205060966543627
31
0
210
0
220
0
230
1
40
0.989133
41
0.130842050991854
42
3.01075060259789
0
ELLIPSE
5
FE
100
AcDbEntity
8
1
62
256
6
ByLayer
370
18
48
1
60
0
100
AcDbEllipse
10
10.922168
20
12.511871
30
0
11
0.654073772599047
21
-0.654073772596066
31
0
210
0
220
0
230
1
40
0.989133
41
-1.19374258198479
42
-0.900652520408421
0
ELLIPSE
5
FF
100
AcDbEntity
8
1
62
256
6
ByLayer
370
18
48
1
60
0
100
AcDbEllipse
10
11.593614
20
13.183316
30
0
11
-0.205060966544571
21
0.205060966543627
31
0
210
0
220
0
230
1
40
0.989133
41
-3.01075060259789
42
-0.130842050991904
0
ELLIPSE
5
100
100
AcDbEntity
8
1
62
256
6
ByLayer
370
18
48
1
60
0
100
AcDbEllipse
10
11.932617
20
12.674033
30
0
11
0.22273863607427
21
-0.222738636073255
31
0
210
0
220
0
230
1
40
0.989133
41
-3.01075060259792
42
-2.36439475620688
0
ELLIPSE
5
101
100
AcDbEntity
8
1
62
256
6
ByLayer
370
18
48
1
60
0
100
AcDbEllipse
10
10.073882
20
13.360156
30
0
11
0.22273863607427
21
-0.222738636073255
31
0
210
0
220
0
230
1
40
0.989133
41
-0.916355500204769
42
-0.443155232439527
0
ELLIPSE
5
102
100
AcDbEntity
8
1
62
256
6
ByLayer
370
18
48
1
60
0
100
AcDbEllipse
10
10.78182
20
12.371522
30
0
11
0.636396103069343
21
-0.636396103066443
31
0
210
0
220
0
230
1
40
0.989133
41
1.14068957629015
42
2.00090307729965
0
ELLIPSE
5
103
100
AcDbEntity
8
1
62
256
6
ByLayer
370
18
48
1
60
0
100
AcDbEllipse
10
10.917666
20
12.507369
30
0
11
0.636396103069343
21
-0.636396103066443
31
0
210
0
220
0
230
1
40
0.989133
41
3.04810062849608
42
-3.04810062848652
0
ELLIPSE
5
104
100
AcDbEntity
8
1
62
256
6
ByLayer
370
18
48
1
60
0
100
AcDbEllipse
10
10.917666
20
12.507369
30
0
11
0.636396103069343
21
-0.636396103066443
31
0
210
0
220
0
230
1
40
0.989133
41
0.953705526103051
42
1.14068957629017
0
ELLIPSE
5
105
100
AcDbEntity
8
1
62
256
6
ByLayer
370
18
48
1
60
0
100
AcDbEllipse
10
10.670013
20
13.435471
30
0
11
-0.205060966544571
21
0.205060966543627
31
0
210
0
220
0
230
1
40
0.989133
41
-1.96355305140143
42
0.916355500204726
0
ELLIPSE
5
106
100
AcDbEntity
8
1
62
256
6
ByLayer
370
18
48
1
60
0
100
AcDbEllipse
10
10.917666
20
12.507369
30
0
11
0.636396103069343
21
-0.636396103066443
31
0
210
0
220
0
230
1
40
0.989133
41
2.00090307729458
42
2.18788712749455
0
ELLIPSE
5
107
100
AcDbEntity
8
1
62
256
6
ByLayer
370
18
48
1
60
0
100
AcDbEllipse
10
10.78182
20
12.371522
30
0
11
0.636396103069343
21
-0.636396103066443
31
0
210
0
220
0
230
1
40
0.989133
41
2.18788712748679
42
3.04810062849626
0
ELLIPSE
5
108
100
AcDbEntity
8
1
62
256
6
ByLayer
370
18
48
1
60
0
100
AcDbEllipse
10
9.933534
20
13.219808
30
0
11
0.22273863607427
21
-0.222738636073255
31
0
210
0
220
0
230
1
40
0.989133
41
-0.916355500204769
42
-0.269999653813755
0
ELLIPSE
5
109
100
AcDbEntity
8
1
62
256
6
ByLayer
370
18
48
1
60
0
100
AcDbEllipse
10
9.998568
20
12.764025
30
0
11
-0.205060966544571
21
0.205060966543627
31
0
210
0
220
0
230
1
40
0.989133
41
-0.916355500204835
42
1.96355305140133
0
ELLIPSE
5
10A
100
AcDbEntity
8
1
62
256
6
ByLayer
370
18
48
1
60
0
100
AcDbEllipse
10
12.072965
20
12.814381
30
0
11
0.22273863607427
21
-0.222738636073255
31
0
210
0
220
0
230
1
40
0.989133
41
-1.65123986995367
42
-1.17803960218846
0
ELLIPSE
5
10B
100
AcDbEntity
8
1
62
256
6
ByLayer
370
18
48
1
60
0
100
AcDbEllipse
10
11.932617
20
12.674033
30
0
11
0.22273863607427
21
-0.222738636073255
31
0
210
0
220
0
230
1
40
0.989133
41
-1.82439544857946
42
-1.17803960218848
0
ELLIPSE
5
10C
100
AcDbEntity
8
1
62
256
6
ByLayer
370
18
48
1
60
0
100
AcDbEllipse
10
9.771371
20
12.20936
30
0
11
0.22273863607427
21
-0.222738636073255
31
0
210
0
220
0
230
1
40
0.989133
41
1.49035278363608
42
1.96355305140135
0
ELLIPSE
5
10D
100
AcDbEntity
8
1
62
256
6
ByLayer
370
18
48
1
60
0
100
AcDbEllipse
10
10.619657
20
11.361074
30
0
11
0.22273863607427
21
-0.222738636073255
31
0
210
0
220
0
230
1
40
0.989133
41
2.5375503348327
42
3.01075060259796
0
ELLIPSE
5
10E
100
AcDbEntity
8
1
62
256
6
ByLayer
370
18
48
1
60
0
100
AcDbEllipse
10
10.78182
20
12.371522
30
0
11
0.636396103069343
21
-0.636396103066443
31
0
210
0
220
0
230
1
40
0.989133
41
0.0934920250935545
42
0.953705526103039
0
ELLIPSE
5
10F
100
AcDbEntity
8
1
62
256
6
ByLayer
370
18
48
1
60
0
100
AcDbEllipse
10
10.922168
20
12.511871
30
0
11
0.654073772599047
21
-0.654073772596066
31
0
210
0
220
0
230
1
40
0.989133
41
1.947850071605
42
2.24094013318135
0
ELLIPSE
5
110
100
AcDbEntity
8
1
62
256
6
ByLayer
370
18
48
1
60
0
100
AcDbEllipse
10
11.224679
20
13.662667
30
0
11
0.22273863607427
21
-0.222738636073255
31
0
210
0
220
0
230
1
40
0.989133
41
-0.604042318757056
42
-0.130842050991786
0
ELLIPSE
5
111
100
AcDbEntity
8
1
62
256
6
ByLayer
370
18
48
1
60
0
100
AcDbEllipse
10
11.084331
20
13.522319
30
0
11
0.22273863607427
21
-0.222738636073255
31
0
210
0
220
0
230
1
40
0.989133
41
-1.96355305140131
42
-1.31719720501045
0
ELLIPSE
5
112
100
AcDbEntity
8
1
62
256
6
ByLayer
370
18
48
1
60
0
100
AcDbEllipse
10
9.771371
20
12.20936
30
0
11
0.22273863607427
21
-0.222738636073255
31
0
210
0
220
0
230
1
40
0.989133
41
0.130842050991745
42
0.604042318757023
0
ELLIPSE
5
113
100
AcDbEntity
8
1
62
256
6
ByLayer
370
18
48
1
60
0
100
AcDbEllipse
10
10.922168
20
12.511871
30
0
11
0.654073772599047
21
-0.654073772596066
31
0
210
0
220
0
230
1
40
0.989133
41
-0.146545030788189
42
0.146545030788154
0
ELLIPSE
5
114
100
AcDbEntity
8
1
62
256
6
ByLayer
370
18
48
1
60
0
100
AcDbEllipse
10
10.917666
20
12.507369
30
0
11
0.636396103069343
21
-0.636396103066443
31
0
210
0
220
0
230
1
40
0.989133
41
-0.0934920250937149
42
0.0934920251033008
0
ELLIPSE
5
115
100
AcDbEntity
8
1
62
256
6
ByLayer
370
18
48
1
60
0
100
AcDbEllipse
10
11.174323
20
11.58827
30
0
11
-0.205060966544571
21
0.205060966543627
31
0
210
0
220
0
230
1
40
0.989133
41
1.17803960218832
42
-2.22523715338504
0
ELLIPSE
5
116
100
AcDbEntity
8
1
62
256
6
ByLayer
370
18
48
1
60
0
100
AcDbEllipse
10
10.619657
20
11.361074
30
0
11
0.22273863607427
21
-0.222738636073255
31
0
210
0
220
0
230
1
40
0.989133
41
1.17803960218838
42
1.65123986995366
0
ELLIPSE
5
117
100
AcDbEntity
8
1
62
256
6
ByLayer
370
18
48
1
60
0
100
AcDbEllipse
10
10.922168
20
12.511871
30
0
11
0.654073772599047
21
-0.654073772596066
31
0
210
0
220
0
230
1
40
0.989133
41
2.9950476228016
42
-2.99504762280163
0
ELLIPSE
5
118
100
AcDbEntity
8
1
62
256
6
ByLayer
370
18
48
1
60
0
100
AcDbEllipse
10
12.072965
20
12.814381
30
0
11
0.22273863607427
21
-0.222738636073255
31
0
210
0
220
0
230
1
40
0.989133
41
-3.01075060259796
42
-2.5375503348327
0
ELLIPSE
5
119
100
AcDbEntity
8
1
62
256
6
ByLayer
370
18
48
1
60
0
100
AcDbEllipse
10
11.453266
20
13.042968
30
0
11
-0.205060966544571
21
0.205060966543627
31
0
210
0
220
0
230
1
40
0.989133
41
-3.01075060259794
42
-0.130842050991904
0
ELLIPSE
5
11A
100
AcDbEntity
8
1
62
256
6
ByLayer
370
18
48
1
60
0
100
AcDbEllipse
10
10.922168
20
12.511871
30
0
11
0.654073772599047
21
-0.654073772596066
31
0
210
0
220
0
230
1
40
0.989133
41
-2.24094013318137
42
-1.94785007160502
0
ELLIPSE
5
11B
100
AcDbEntity
8
1
62
256
6
ByLayer
370
18
48
1
60
0
100
AcDbEllipse
10
11.224679
20
13.662667
30
0
11
0.22273863607427
21
-0.222738636073255
31
0
210
0
220
0
230
1
40
0.989133
41
-1.96355305140131
42
-1.49035278363608
0
ELLIPSE
5
11C
100
AcDbEntity
8
1
62
256
6
ByLayer
370
18
48
1
60
0
100
AcDbEllipse
10
10.917666
20
12.507369
30
0
11
0.636396103069343
21
-0.636396103066443
31
0
210
0
220
0
230
1
40
0.989133
41
-2.18788712748674
42
-2.00090307729964
0
ELLIPSE
5
11D
100
AcDbEntity
8
1
62
256
6
ByLayer
370
18
48
1
60
0
100
AcDbEllipse
10
11.630106
20
11.523237
30
0
11
0.22273863607427
21
-0.222738636073255
31
0
210
0
220
0
230
1
40
0.989133
41
-2.87159299977604
42
-2.22523715338496
0
ELLIPSE
5
11E
100
AcDbEntity
8
1
62
256
6
ByLayer
370
18
48
1
60
0
100
AcDbEllipse
10
10.917666
20
12.507369
30
0
11
0.636396103069343
21
-0.636396103066443
31
0
210
0
220
0
230
1
40
0.989133
41
-1.14068957629015
42
-0.953705526103053
0
ELLIPSE
5
11F
100
AcDbEntity
8
1
62
256
6
ByLayer
370
18
48
1
60
0
100
AcDbEllipse
10
11.084331
20
13.522319
30
0
11
0.22273863607427
21
-0.222738636073255
31
0
210
0
220
0
230
1
40
0.989133
41
-0.777197897382946
42
-0.130842050991832
0
POINT
5
6C
100
AcDbEntity
8
2
62
256
6
ByLayer
370
18
48
1
60
0
100
AcDbPoint
10
26.440383
20
19.9125
30
0
39
0
210
0
220
0
230
1
50
360
0
POINT
5
6E
100
AcDbEntity
8
80
62
256
6
ByLayer
370
18
48
1
60
0
100
AcDbPoint
10
0
20
0
30
0
39
0
210
0
220
0
230
1
50
360
0
POINT
5
70
100
AcDbEntity
8
81
62
256
6
ByLayer
370
18
48
1
60
0
100
AcDbPoint
10
26.440383
20
19.9125
30
0
39
0
210
0
220
0
230
1
50
360
0
SPLINE
5
120
100
AcDbEntity
8
1
62
256
6
ByLayer
370
18
48
1
60
0
100
AcDbSpline
70
4
71
3
72
10
73
6
40
0
40
0
40
0
40
0
40
0.131076473002665
40
0.131076473002665
40
1
40
1
40
1
40
1
41
1
10
3.62769776453695
20
15.617589100785
30
0
41
1
10
3.60941305259899
20
15.6065018287312
30
0
41
1
10
3.59114043827498
20
15.5952129656866
30
0
41
1
10
3.4506849230163
20
15.506758551318
30
0
41
1
10
3.32873849527692
20
15.4200506818425
30
0
41
1
10
3.21089177238059
20
15.322954132848
30
0
0
SPLINE
5
121
100
AcDbEntity
8
1
62
256
6
ByLayer
370
18
48
1
60
0
100
AcDbSpline
70
4
71
3
72
16
73
12
40
0
40
0
40
0
40
0
40
0.346164403850464
40
0.346164403850464
40
0.574058138681871
40
0.574058138681871
40
0.756733946461147
40
0.756733946461147
40
0.941193093213315
40
0.941193093213315
40
1
40
1
40
1
40
1
41
1
10
7.13820388621582
20
5.5373128574835
30
0
41
1
10
6.86444296999906
20
5.58787982451483
30
0
41
1
10
6.65037156225196
20
5.70433389128806
30
0
41
1
10
6.28609588653603
20
5.98067775137096
30
0
41
1
10
6.13502842691787
20
6.11814389782293
30
0
41
1
10
5.85952244655687
20
6.42594884592174
30
0
41
1
10
5.73418472801472
20
6.58778981213237
30
0
41
1
10
5.50558125439807
20
6.947991060112
30
0
41
1
10
5.39957569663096
20
7.15290027170437
30
0
41
1
10
5.28778486034184
20
7.42822819897034
30
0
41
1
10
5.26231291240492
20
7.49650751950452
30
0
41
1
10
5.2389653653201
20
7.56426918232504
30
0
0
SPLINE
5
122
100
AcDbEntity
8
1
62
256
6
ByLayer
370
18
48
1
60
0
100
AcDbSpline
70
4
71
3
72
12
73
8
40
0
40
0
40
0
40
0
40
0.369659083875785
40
0.369659083875785
40
0.72770450158611
40
0.72770450158611
40
1
40
1
40
1
40
1
41
1
10
4.81656419652325
20
15.6341705947285
30
0
41
1
10
5.01221428603605
20
15.5699985888733
30
0
41
1
10
5.26039684442264
20
15.4400649822524
30
0
41
1
10
5.80544783416485
20
15.0930732767813
30
0
41
1
10
6.10704343951431
20
14.8749622037046
30
0
41
1
10
6.66065963679023
20
14.4416197767441
30
0
41
1
10
6.91089047156879
20
14.2353650143062
30
0
41
1
10
7.16358431671233
20
14.0185496669496
30
0
0
SPLINE
5
123
100
AcDbEntity
8
1
62
256
6
ByLayer
370
18
48
1
60
0
100
AcDbSpline
70
4
71
3
72
8
73
4
40
0
40
0
40
0
40
0
40
1
40
1
40
1
40
1
41
1
10
6.02756126250324
20
13.4464311804148
30
0
41
1
10
5.9847076585063
20
13.4334980382375
30
0
41
1
10
5.94221049905508
20
13.4205860251147
30
0
41
1
10
5.9001282381297
20
13.4077137924635
30
0
0
SPLINE
5
124
100
AcDbEntity
8
1
62
256
6
ByLayer
370
18
48
1
60
0
100
AcDbSpline
70
4
71
3
72
8
73
4
40
0
40
0
40
0
40
0
40
1
40
1
40
1
40
1
41
1
10
19.3760964951489
20
17.6396778524986
30
0
41
1
10
18.2218222685543
20
17.3083798391363
30
0
41
1
10
17.9522304504887
20
16.2258083107116
30
0
41
1
10
16.9260142276338
20
15.7600000084384
30
0
0
SPLINE
5
125
100
AcDbEntity
8
1
62
256
6
ByLayer
370
18
48
1
60
0
100
AcDbSpline
70
4
71
2
72
6
73
3
40
0
40
0
40
0
40
1
40
1
40
1
41
1.02990374504916
10
10.8798382827202
20
17.2280281863751
30
0
41
0.929591662588769
10
11.1228148462335
20
16.9529706720007
30
0
41
0.932817050574084
10
11.4908754454888
20
15.9728191282057
30
0
0
SPLINE
5
126
100
AcDbEntity
8
1
62
256
6
ByLayer
370
18
48
1
60
0
100
AcDbSpline
70
4
71
1
72
4
73
2
40
0
40
0
40
1
40
1
41
1
10
10.8798382827202
20
17.2280281863751
30
0
41
1
10
10.4555209293258
20
17.7083694787327
30
0
0
SPLINE
5
127
100
AcDbEntity
8
1
62
256
6
ByLayer
370
18
48
1
60
0
100
AcDbSpline
70
4
71
3
72
8
73
4
40
0
40
0
40
0
40
0
40
1
40
1
40
1
40
1
41
1
10
11.490875426614
20
15.9728191271142
30
0
41
1
10
11.2431648675863
20
15.9586345805283
30
0
41
1
10
10.9999693232503
20
15.9211137488257
30
0
41
1
10
10.7617740293227
20
15.8584991659908
30
0
0
SPLINE
5
128
100
AcDbEntity
8
1
62
256
6
ByLayer
370
18
48
1
60
0
100
AcDbSpline
70
4
71
3
72
8
73
4
40
0
40
0
40
0
40
0
40
1
40
1
40
1
40
1
41
1
10
17.8433847127811
20
12.3998255882072
30
0
41
1
10
19.0191455786073
20
12.3163866366718
30
0
41
1
10
19.8578129977108
20
11.2973551951079
30
0
41
1
10
21.0785563539754
20
11.403852572044
30
0
0
SPLINE
5
129
100
AcDbEntity
8
1
62
256
6
ByLayer
370
18
48
1
60
0
100
AcDbSpline
70
4
71
3
72
11
73
7
40
0
40
0
40
0
40
0
40
0.559926195718575
40
0.559926195718575
40
0.559926195718575
40
1
40
1
40
1
40
1
41
1
10
18.4669492945109
20
17.8252663753211
30
0
41
1
10
18.149063643146
20
17.7825135100342
30
0
41
1
10
17.7827594619441
20
17.7631257327348
30
0
41
1
10
17.4027966979364
20
17.7746895322163
30
0
41
1
10
17.1020101506759
20
17.7838436800663
30
0
41
1
10
16.7873883456222
20
17.8112800387259
30
0
41
1
10
16.4742336153885
20
17.8524022694487
30
0
0
SPLINE
5
12A
100
AcDbEntity
8
1
62
256
6
ByLayer
370
18
48
1
60
0
100
AcDbSpline
70
4
71
2
72
8
73
5
40
0
40
0
40
0
40
0.14599151027804
40
0.563470207586085
40
1
40
1
40
1
41
1.02393576174182
10
15.0991776388786
20
12.753261084541
30
0
41
1.02323174907608
10
15.3506010215039
20
12.8401417569648
30
0
41
1.02039724512338
10
16.314711085729
20
13.1764432575646
30
0
41
1.01644464721285
10
17.701902009877
20
13.7181317171477
30
0
41
1.01495409538129
10
18.4188842517019
20
13.9138463684703
30
0
0
SPLINE
5
12B
100
AcDbEntity
8
1
62
256
6
ByLayer
370
18
48
1
60
0
100
AcDbSpline
70
4
71
3
72
12
73
8
40
0
40
0
40
0
40
0
40
0.307573270173405
40
0.307573270173405
40
0.648852820657659
40
0.648852820657659
40
1
40
1
40
1
40
1
41
1
10
14.6749319872798
20
14.3072018434396
30
0
41
1
10
14.7547923662042
20
14.1603850489484
30
0
41
1
10
14.8243406374761
20
14.0074388164328
30
0
41
1
10
14.946936196234
20
13.6773786101834
30
0
41
1
10
14.997762807147
20
13.4983191014423
30
0
41
1
10
15.0711190501005
20
13.1312925735335
30
0
41
1
10
15.0930521575966
20
12.9418972180433
30
0
41
1
10
15.0991776393481
20
12.7532610847033
30
0
0
SPLINE
5
12C
100
AcDbEntity
8
1
62
256
6
ByLayer
370
18
48
1
60
0
100
AcDbSpline
70
4
71
2
72
6
73
3
40
0
40
0
40
0
40
1
40
1
40
1
41
1.02990374504916
10
13.3985565147128
20
8.00238520949122
30
0
41
1.02990374504916
10
13.3804126664309
20
7.53191203833233
30
0
41
1.02990374504916
10
13.3622688181491
20
7.06143886717338
30
0
0
SPLINE
5
12D
100
AcDbEntity
8
1
62
256
6
ByLayer
370
18
48
1
60
0
100
AcDbSpline
70
4
71
3
72
16
73
12
40
0
40
0
40
0
40
0
40
0.283825424659834
40
0.283825424659834
40
0.572792249827489
40
0.572792249827489
40
0.572792249827489
40
0.894188232602858
40
0.894188232602858
40
0.894188232602858
40
1
40
1
40
1
40
1
41
1
10
11.4908754454926
20
15.9728191281953
30
0
41
1
10
11.8474362436405
20
15.9881658032448
30
0
41
1
10
12.2130232235277
20
15.9492846405486
30
0
41
1
10
12.9117265931931
20
15.773863713394
30
0
41
1
10
13.2533725811597
20
15.6339568421738
30
0
41
1
10
13.5617120822848
20
15.4478850506297
30
0
41
1
10
13.9026506031186
20
15.2421409239561
30
0
41
1
10
14.2146435030343
20
14.9706516572479
30
0
41
1
10
14.4557606397767
20
14.6485073232538
30
0
41
1
10
14.5366171764862
20
14.5404790200013
30
0
41
1
10
14.6102605478268
20
14.4260596166704
30
0
41
1
10
14.6749319872798
20
14.3072018434396
30
0
0
SPLINE
5
12E
100
AcDbEntity
8
1
62
256
6
ByLayer
370
18
48
1
60
0
100
AcDbSpline
70
4
71
3
72
8
73
4
40
0
40
0
40
0
40
0
40
1
40
1
40
1
40
1
41
1
10
10.4555209293258
20
17.7083694787327
30
0
41
1
10
12.447010976164
20
18.0726798614158
30
0
41
1
10
14.4611284141172
20
18.1167552188485
30
0
41
1
10
16.4742336153885
20
17.8524022694487
30
0
0
SPLINE
5
12F
100
AcDbEntity
8
1
62
256
6
ByLayer
370
18
48
1
60
0
100
AcDbSpline
70
4
71
3
72
8
73
4
40
0
40
0
40
0
40
0
40
1
40
1
40
1
40
1
41
1
10
8.44868090378702
20
9.31145613319481
30
0
41
1
10
8.06353196957139
20
8.10018832540828
30
0
41
1
10
7.66561292157292
20
6.99670803540556
30
0
41
1
10
7.33528242851588
20
6.4085276178447
30
0
0
SPLINE
5
130
100
AcDbEntity
8
1
62
256
6
ByLayer
370
18
48
1
60
0
100
AcDbSpline
70
4
71
3
72
10
73
6
40
0
40
0
40
0
40
0
40
0.106616270583449
40
0.106616270583449
40
1
40
1
40
1
40
1
41
1
10
19.3114494245566
20
14.5674594781867
30
0
41
1
10
19.2793315819478
20
14.546679778581
30
0
41
1
10
19.2472438784625
20
14.5256305796894
30
0
41
1
10
18.946942535825
20
14.3259224296032
30
0
41
1
10
18.6806535903251
20
14.128399601469
30
0
41
1
10
18.4188842516326
20
13.9138463684514
30
0
0
SPLINE
5
131
100
AcDbEntity
8
1
62
256
6
ByLayer
370
18
48
1
60
0
100
AcDbSpline
70
4
71
3
72
12
73
8
40
0
40
0
40
0
40
0
40
0.50163756713016
40
0.50163756713016
40
0.88695747130446
40
0.88695747130446
40
1
40
1
40
1
40
1
41
1
10
7.18327025356001
20
9.21326273734158
30
0
41
1
10
7.3785704236704
20
9.27220398455808
30
0
41
1
10
7.58922714663197
20
9.31663527034684
30
0
41
1
10
7.96916976379123
20
9.35066601711486
30
0
41
1
10
8.14042734482473
20
9.35048706414952
30
0
41
1
10
8.35300947921962
20
9.32691235620257
30
0
41
1
10
8.40129251486405
20
9.31994531829844
30
0
41
1
10
8.44868090378708
20
9.31145613319481
30
0
0
SPLINE
5
132
100
AcDbEntity
8
1
62
256
6
ByLayer
370
18
48
1
60
0
100
AcDbSpline
70
4
71
3
72
8
73
4
40
0
40
0
40
0
40
0
40
1
40
1
40
1
40
1
41
1
10
10.9356555739347
20
8.99563872445944
30
0
41
1
10
10.2746910638675
20
8.82189046779101
30
0
41
1
10
9.60173614657282
20
8.88351337688894
30
0
41
1
10
9.00878475633999
20
9.14253488269159
30
0
0
SPLINE
5
133
100
AcDbEntity
8
1
62
256
6
ByLayer
370
18
48
1
60
0
100
AcDbSpline
70
4
71
3
72
8
73
4
40
0
40
0
40
0
40
0
40
1
40
1
40
1
40
1
41
1
10
5.21333824892338
20
7.64738137558425
30
0
41
1
10
5.22109318059063
20
7.61897635990488
30
0
41
1
10
5.22965494049623
20
7.59129085896365
30
0
41
1
10
5.2389653653201
20
7.56426918232506
30
0
0
SPLINE
5
134
100
AcDbEntity
8
1
62
256
6
ByLayer
370
18
48
1
60
0
100
AcDbSpline
70
4
71
3
72
12
73
8
40
0
40
0
40
0
40
0
40
0.391502209781613
40
0.391502209781613
40
0.886018843801021
40
0.886018843801021
40
1
40
1
40
1
40
1
41
1
10
5.36238285704519
20
7.66810749153203
30
0
41
1
10
5.53200025685442
20
7.80404649306641
30
0
41
1
10
5.72955947170107
20
7.9726754933568
30
0
41
1
10
6.21486193606825
20
8.40054574383919
30
0
41
1
10
6.51821736105984
20
8.67684416326074
30
0
41
1
10
6.90676220610885
20
9.03607195640865
30
0
41
1
10
6.98098132621362
20
9.10491803182677
30
0
41
1
10
7.0558372291876
20
9.17454534938952
30
0
0
SPLINE
5
135
100
AcDbEntity
8
1
62
256
6
ByLayer
370
18
48
1
60
0
100
AcDbSpline
70
4
71
3
72
16
73
12
40
0
40
0
40
0
40
0
40
0.151798394921708
40
0.151798394921708
40
0.302355402833642
40
0.302355402833642
40
0.469907609657966
40
0.469907609657966
40
0.750934341340612
40
0.750934341340612
40
1
40
1
40
1
40
1
41
1
10
3.59075414283041
20
13.6013908007895
30
0
41
1
10
3.55351264593975
20
13.782978521592
30
0
41
1
10
3.52845701951321
20
13.9706472597395
30
0
41
1
10
3.51061447992072
20
14.3251654767833
30
0
41
1
10
3.51690184497835
20
14.4970083897405
30
0
41
1
10
3.55537829911111
20
14.8277081179251
30
0
41
1
10
3.59044026852632
20
14.9865845286768
30
0
41
1
10
3.7044715880217
20
15.3539235662887
30
0
41
1
10
3.79515858407456
20
15.5302868519105
30
0
41
1
10
4.00160571313057
20
15.8047269516456
30
0
41
1
10
4.1175924910695
20
15.9150197717314
30
0
41
1
10
4.27811533929446
20
16.0133381154977
30
0
0
SPLINE
5
136
100
AcDbEntity
8
1
62
256
6
ByLayer
370
18
48
1
60
0
100
AcDbSpline
70
4
71
2
72
6
73
3
40
0
40
0
40
0
40
1
40
1
40
1
41
1.01212826498425
10
20.5541630748715
20
10.8667635427295
30
0
41
1.01163342726426
10
20.8212121222753
20
11.1278125092729
30
0
41
1.01103575694871
10
21.0745550008666
20
11.3995589642796
30
0
0
SPLINE
5
137
100
AcDbEntity
8
1
62
256
6
ByLayer
370
18
48
1
60
0
100
AcDbSpline
70
4
71
3
72
8
73
4
40
0
40
0
40
0
40
0
40
1
40
1
40
1
40
1
41
1
10
13.209116189012
20
9.67919110474463
30
0
41
1
10
12.99253059834
20
9.56679005486382
30
0
41
1
10
12.7599015606086
20
9.47517969086735
30
0
41
1
10
12.521603629341
20
9.41253812767474
30
0
0
SPLINE
5
138
100
AcDbEntity
8
1
62
256
6
ByLayer
370
18
48
1
60
0
100
AcDbSpline
70
4
71
3
72
8
73
4
40
0
40
0
40
0
40
0
40
1
40
1
40
1
40
1
41
1
10
20.5546617345682
20
10.8672510195005
30
0
41
1
10
20.4971074123403
20
10.8485984261297
30
0
41
1
10
20.4393042025381
20
10.8306587440676
30
0
41
1
10
20.3812605125763
20
10.8134650470938
30
0
0
SPLINE
5
139
100
AcDbEntity
8
1
62
256
6
ByLayer
370
18
48
1
60
0
100
AcDbSpline
70
4
71
3
72
8
73
4
40
0
40
0
40
0
40
0
40
1
40
1
40
1
40
1
41
1
10
5.90012823813032
20
13.4077137924635
30
0
41
1
10
5.03440654231599
20
13.5540144575746
30
0
41
1
10
4.26426321583688
20
13.6380358290926
30
0
41
1
10
3.74069280855065
20
13.6080864921763
30
0
0
SPLINE
5
13A
100
AcDbEntity
8
1
62
256
6
ByLayer
370
18
48
1
60
0
100
AcDbSpline
70
4
71
3
72
8
73
4
40
0
40
0
40
0
40
0
40
1
40
1
40
1
40
1
41
1
10
3.61110532950386
20
13.5160921716631
30
0
41
1
10
3.60335039783661
20
13.5444971873425
30
0
41
1
10
3.5965910407096
20
13.5729303716733
30
0
41
1
10
3.59075414283041
20
13.6013908007895
30
0
0
SPLINE
5
13B
100
AcDbEntity
8
1
62
256
6
ByLayer
370
18
48
1
60
0
100
AcDbSpline
70
4
71
3
72
10
73
6
40
0
40
0
40
0
40
0
40
0.560518156563278
40
0.560518156563278
40
1
40
1
40
1
40
1
41
1
10
18.6483174125914
20
9.88909749797597
30
0
41
1
10
18.9652757592871
20
10.1287535142781
30
0
41
1
10
19.2990099535821
20
10.3433663420271
30
0
41
1
10
19.8829774892416
20
10.6398469629455
30
0
41
1
10
20.1405809399519
20
10.7421709642707
30
0
41
1
10
20.3812605125764
20
10.8134650470938
30
0
0
SPLINE
5
13C
100
AcDbEntity
8
1
62
256
6
ByLayer
370
18
48
1
60
0
100
AcDbSpline
70
4
71
3
72
8
73
4
40
0
40
0
40
0
40
0
40
1
40
1
40
1
40
1
41
1
10
7.56766445396283
20
14.421117150289
30
0
41
1
10
7.95409944552318
20
14.9062965512951
30
0
41
1
10
8.52334304860392
20
15.2700810669118
30
0
41
1
10
9.17582597391652
20
15.4415997627755
30
0
0
SPLINE
5
13D
100
AcDbEntity
8
1
62
256
6
ByLayer
370
18
48
1
60
0
100
AcDbSpline
70
4
71
3
72
10
73
6
40
0
40
0
40
0
40
0
40
0.207845795367725
40
0.207845795367725
40
1
40
1
40
1
40
1
41
1
10
8.44868090378702
20
9.31145613319481
30
0
41
1
10
8.48940066804755
20
9.30416156960996
30
0
41
1
10
8.52987864346483
20
9.2959076817362
30
0
41
1
10
8.72167550048124
20
9.25196490079051
30
0
41
1
10
8.86954445738269
20
9.20335982129265
30
0
41
1
10
9.00878475633999
20
9.14253488269159
30
0
0
SPLINE
5
13E
100
AcDbEntity
8
1
62
256
6
ByLayer
370
18
48
1
60
0
100
AcDbSpline
70
4
71
3
72
8
73
4
40
0
40
0
40
0
40
0
40
1
40
1
40
1
40
1
41
1
10
7.05583722918709
20
9.17454534939026
30
0
41
1
10
7.09791949011242
20
9.18741758204152
30
0
41
1
10
7.14041664956301
20
9.20032959516419
30
0
41
1
10
7.18327025356001
20
9.21326273734158
30
0
0
SPLINE
5
13F
100
AcDbEntity
8
1
62
256
6
ByLayer
370
18
48
1
60
0
100
AcDbSpline
70
4
71
2
72
8
73
5
40
0
40
0
40
0
40
0.581603760070721
40
0.872405640106081
40
1
40
1
40
1
41
1.02990374504916
10
13.3985565147128
20
8.00238520949122
30
0
41
1.02669755169729
10
14.7888280320663
20
9.10695187848323
30
0
41
1.02039724512338
10
16.7129007428588
20
11.0778209620394
30
0
41
1.01761724169608
10
17.5717297050933
20
12.1405973888895
30
0
41
1.01686274329306
10
17.843384712781
20
12.399825588207
30
0
0
SPLINE
5
140
100
AcDbEntity
8
1
62
256
6
ByLayer
370
18
48
1
60
0
100
AcDbSpline
70
4
71
2
72
6
73
3
40
0
40
0
40
0
40
1
40
1
40
1
41
1.01103575695168
10
19.3704435813763
20
17.6414336354748
30
0
41
1.01163342726563
10
19.012584391195
20
17.7525129250767
30
0
41
1.01212826498448
10
18.6483045750819
20
17.8476039800045
30
0
0
SPLINE
5
141
100
AcDbEntity
8
1
62
256
6
ByLayer
370
18
48
1
60
0
100
AcDbSpline
70
4
71
3
72
12
73
8
40
0
40
0
40
0
40
0
40
0.415356444741149
40
0.415356444741149
40
0.825259843212199
40
0.825259843212199
40
1
40
1
40
1
40
1
41
1
10
7.16358431671244
20
14.0185496669498
30
0
41
1
10
7.02981939099857
20
13.9119344626515
30
0
41
1
10
6.87527424980095
20
13.811983165708
30
0
41
1
10
6.56048657132493
20
13.6440535738234
30
0
41
1
10
6.39635732336706
20
13.573030029315
30
0
41
1
10
6.1655936242081
20
13.4899622360915
30
0
41
1
10
6.09631631603241
20
13.4671813344222
30
0
41
1
10
6.02756126250324
20
13.4464311804148
30
0
0
SPLINE
5
142
100
AcDbEntity
8
1
62
256
6
ByLayer
370
18
48
1
60
0
100
AcDbSpline
70
4
71
3
72
8
73
4
40
0
40
0
40
0
40
0
40
1
40
1
40
1
40
1
41
1
10
18.4669492945109
20
17.8252663753211
30
0
41
1
10
18.5274650737991
20
17.8334052232009
30
0
41
1
10
18.5881517584203
20
17.8407832199868
30
0
41
1
10
18.6489848040804
20
17.8474263986534
30
0
0
SPLINE
5
143
100
AcDbEntity
8
1
62
256
6
ByLayer
370
18
48
1
60
0
100
AcDbSpline
70
4
71
3
72
25
73
21
40
0
40
0
40
0
40
0
40
0.442411593548792
40
0.442411593548792
40
0.442411593548792
40
0.583396916265394
40
0.583396916265394
40
0.651602530488677
40
0.651602530488677
40
0.706341521306471
40
0.706341521306471
40
0.742475286987759
40
0.742475286987759
40
0.778972968742946
40
0.778972968742946
40
0.811539464980192
40
0.811539464980192
40
0.868309796146659
40
0.868309796146659
40
1
40
1
40
1
40
1
41
1
10
18.4188842516326
20
13.9138463684514
30
0
41
1
10
18.1752199001825
20
13.7140010351146
30
0
41
1
10
17.9324312453506
20
13.4700648977255
30
0
41
1
10
17.7337270841438
20
13.1757729009152
30
0
41
1
10
17.6692221281148
20
13.0802374466065
30
0
41
1
10
17.6085511277021
20
12.9779613373853
30
0
41
1
10
17.5350202939557
20
12.8179953031383
30
0
41
1
10
17.5134080968766
20
12.7638157113799
30
0
41
1
10
17.4838521470637
20
12.6654254964084
30
0
41
1
10
17.4738408811177
20
12.6204863610533
30
0
41
1
10
17.4678221623566
20
12.5494872674258
30
0
41
1
10
17.4683009431271
20
12.5216771815479
30
0
41
1
10
17.4768964989461
20
12.4719458464118
30
0
41
1
10
17.4853118604158
20
12.4495361228321
30
0
41
1
10
17.507403664925
20
12.4160839528998
30
0
41
1
10
17.5205784115611
20
12.4036197996535
30
0
41
1
10
17.5603082980084
20
12.3782230510771
30
0
41
1
10
17.5900234754317
20
12.3708729054197
30
0
41
1
10
17.6909565656752
20
12.3621751672307
30
0
41
1
10
17.7675954458117
20
12.3787552468693
30
0
41
1
10
17.8433847127811
20
12.3998255882072
30
0
0
SPLINE
5
144
100
AcDbEntity
8
1
62
256
6
ByLayer
370
18
48
1
60
0
100
AcDbSpline
70
4
71
3
72
10
73
6
40
0
40
0
40
0
40
0
40
0.715855354518053
40
0.715855354518053
40
1
40
1
40
1
40
1
41
1
10
7.39066316438641
20
5.33243024441407
30
0
41
1
10
7.1071156953144
20
5.23251973802346
30
0
41
1
10
6.78016641528251
20
5.15222052982625
30
0
41
1
10
6.28557070190584
20
5.1230468109265
30
0
41
1
10
6.13963888257933
20
5.12419341307566
30
0
41
1
10
5.99165822057762
20
5.13747243533089
30
0
0
SPLINE
5
145
100
AcDbEntity
8
1
62
256
6
ByLayer
370
18
48
1
60
0
100
AcDbSpline
70
4
71
3
72
15
73
11
40
0
40
0
40
0
40
0
40
0.225043240787981
40
0.225043240787981
40
0.520482827227108
40
0.520482827227108
40
0.820975208236871
40
0.820975208236871
40
0.820975208236871
40
1
40
1
40
1
40
1
41
1
10
15.0991776393481
20
12.7532610847033
30
0
41
1
10
15.1082807267961
20
12.4719743311327
30
0
41
1
10
15.0733237136192
20
12.1827565164785
30
0
41
1
10
14.9071408417525
20
11.5476602674826
30
0
41
1
10
14.7480575093057
20
11.2007401921433
30
0
41
1
10
14.3358993459409
20
10.5745016382465
30
0
41
1
10
14.0749783090623
20
10.2868566101767
30
0
41
1
10
13.7795486393496
20
10.0503788946922
30
0
41
1
10
13.6020968804584
20
9.90833701178957
30
0
41
1
10
13.4099831648169
20
9.78291163876966
30
0
41
1
10
13.209116189012
20
9.67919110474463
30
0
0
SPLINE
5
146
100
AcDbEntity
8
1
62
256
6
ByLayer
370
18
48
1
60
0
100
AcDbSpline
70
4
71
3
72
10
73
6
40
0
40
0
40
0
40
0
40
0.759976532001888
40
0.759976532001888
40
1
40
1
40
1
40
1
41
1
10
18.1841044913074
20
14.7738053028987
30
0
41
1
10
18.4748666934619
20
14.7071266296905
30
0
41
1
10
18.7625481799603
20
14.6511838845733
30
0
41
1
10
19.1343583269254
20
14.5923649348942
30
0
41
1
10
19.223169368109
20
14.5793529083098
30
0
41
1
10
19.3114494245566
20
14.5674594781867
30
0
0
SPLINE
5
147
100
AcDbEntity
8
1
62
256
6
ByLayer
370
18
48
1
60
0
100
AcDbSpline
70
4
71
3
72
10
73
6
40
0
40
0
40
0
40
0
40
0.679966690484322
40
0.679966690484322
40
1
40
1
40
1
40
1
41
1
10
7.56766445396283
20
14.421117150289
30
0
41
1
10
7.48920541706411
20
14.3226097444966
30
0
41
1
10
7.40094846664238
20
14.2279056324611
30
0
41
1
10
7.25958565515697
20
14.09786779144
30
0
41
1
10
7.21237982720697
20
14.0574413516903
30
0
41
1
10
7.16358431671244
20
14.0185496669498
30
0
0
SPLINE
5
148
100
AcDbEntity
8
1
62
256
6
ByLayer
370
18
48
1
60
0
100
AcDbSpline
70
4
71
3
72
8
73
4
40
0
40
0
40
0
40
0
40
1
40
1
40
1
40
1
41
1
10
18.6483174125914
20
9.88909749797594
30
0
41
1
10
17.0491145134479
20
8.67992096086007
30
0
41
1
10
15.265952072247
20
7.72049713978623
30
0
41
1
10
13.3622688181491
20
7.06143886717339
30
0
0
SPLINE
5
149
100
AcDbEntity
8
1
62
256
6
ByLayer
370
18
48
1
60
0
100
AcDbSpline
70
4
71
2
72
8
73
5
40
0
40
0
40
0
40
0.145991510275432
40
0.563470207592126
40
1
40
1
40
1
41
1.02393576174177
10
14.6749319867495
20
14.3072018433563
30
0
41
1.02323174907605
10
14.9387627020893
20
14.3486365343396
30
0
41
1.02039724512338
10
15.9535987879997
20
14.4991371145367
30
0
41
1.01644464721292
10
17.4496730772368
20
14.6420040467943
30
0
41
1.01495409538139
10
18.1841044913278
20
14.7738053029024
30
0
0
SPLINE
5
14A
100
AcDbEntity
8
1
62
256
6
ByLayer
370
18
48
1
60
0
100
AcDbSpline
70
4
71
3
72
14
73
10
40
0
40
0
40
0
40
0
40
0.262932482489328
40
0.262932482489328
40
0.526305718382443
40
0.526305718382443
40
0.786105451116559
40
0.786105451116559
40
1
40
1
40
1
40
1
41
1
10
22.2094494875287
20
13.3930904782012
30
0
41
1
10
22.3154111626722
20
13.4582670461864
30
0
41
1
10
22.4209254214477
20
13.5458348416901
30
0
41
1
10
22.6132030994086
20
13.7551788602152
30
0
41
1
10
22.7023638210813
20
13.8797179333288
30
0
41
1
10
22.8519062125321
20
14.1443791666996
30
0
41
1
10
22.9145741005283
20
14.287253536541
30
0
41
1
10
23.0038601131171
20
14.5495677461368
30
0
41
1
10
23.0356556012933
20
14.6704355344168
30
0
41
1
10
23.0592600080449
20
14.789762239983
30
0
0
SPLINE
5
14B
100
AcDbEntity
8
1
62
256
6
ByLayer
370
18
48
1
60
0
100
AcDbSpline
70
4
71
3
72
24
73
20
40
0
40
0
40
0
40
0
40
0.142613444608227
40
0.142613444608227
40
0.190795218269492
40
0.190795218269492
40
0.226951176162323
40
0.226951176162323
40
0.263437466712853
40
0.263437466712853
40
0.29611936557235
40
0.29611936557235
40
0.35232485083228
40
0.35232485083228
40
0.455294648588094
40
0.455294648588094
40
0.662705158043623
40
0.662705158043623
40
1
40
1
40
1
40
1
41
1
10
16.9260142276338
20
15.7600000084384
30
0
41
1
10
16.8409482187527
20
15.7499164861206
30
0
41
1
10
16.7567781080855
20
15.735715943535
30
0
41
1
10
16.6733704730366
20
15.6900614681712
30
0
41
1
10
16.6548097138013
20
15.6756879002321
30
0
41
1
10
16.6332057374053
20
15.6437753842067
30
0
41
1
10
16.6274373935184
20
15.6275535900124
30
0
41
1
10
16.6262703926689
20
15.5910962786342
30
0
41
1
10
16.6310684884232
20
15.5703236346656
30
0
41
1
10
16.6490937126822
20
15.5301809571598
30
0
41
1
10
16.6614670309161
20
15.5104699150708
30
0
41
1
10
16.7011483489524
20
15.4583538277303
30
0
41
1
10
16.7332277327598
20
15.426004108815
30
0
41
1
10
16.8301883967706
20
15.3405109177245
30
0
41
1
10
16.9021524140723
20
15.2900376442595
30
0
41
1
10
17.1219248630937
20
15.1525499367005
30
0
41
1
10
17.2790440412553
20
15.0761357980175
30
0
41
1
10
17.6855116567429
20
14.9065112158295
30
0
41
1
10
17.9396011423689
20
14.8299433320683
30
0
41
1
10
18.1841044913074
20
14.7738053028987
30
0
0
SPLINE
5
14C
100
AcDbEntity
8
1
62
256
6
ByLayer
370
18
48
1
60
0
100
AcDbSpline
70
4
71
2
72
8
73
5
40
0
40
0
40
0
40
0.581603760044148
40
0.872405640066222
40
1
40
1
40
1
41
1.02990374504916
10
10.8798382827202
20
17.2280281863751
30
0
41
1.02669755169729
10
12.6279165536648
20
17.0220086511143
30
0
41
1.02039724512338
10
15.2804964824454
20
16.324477826609
30
0
41
1.01761724169577
10
16.5585020469628
20
15.8518805762445
30
0
41
1.01686274329252
10
16.9260142276336
20
15.7600000084385
30
0
0
SPLINE
5
14D
100
AcDbEntity
8
1
62
256
6
ByLayer
370
18
48
1
60
0
100
AcDbSpline
70
4
71
2
72
6
73
3
40
0
40
0
40
0
40
1
40
1
40
1
41
0.932817050425109
10
13.2091161986903
20
9.67919105235223
30
0
41
0.929591664905397
10
13.4193359136998
20
8.54119867311248
30
0
41
1.02990374504916
10
13.3985565147128
20
8.00238520949122
30
0
0
SPLINE
5
14E
100
AcDbEntity
8
1
62
256
6
ByLayer
370
18
48
1
60
0
100
AcDbSpline
70
4
71
3
72
14
73
10
40
0
40
0
40
0
40
0
40
0.30439177600898
40
0.30439177600898
40
0.577373879687162
40
0.577373879687162
40
0.851610378463908
40
0.851610378463908
40
1
40
1
40
1
40
1
41
1
10
22.8188173810677
20
15.6704633063987
30
0
41
1
10
22.7065764548085
20
15.7907743752517
30
0
41
1
10
22.5772261098317
20
15.908477139842
30
0
41
1
10
22.3091727981406
20
16.109130887521
30
0
41
1
10
22.1695101043755
20
16.1963764524182
30
0
41
1
10
21.8850324682425
20
16.3378887977671
30
0
41
1
10
21.7363337991861
20
16.3937612087499
30
0
41
1
10
21.5179453273069
20
16.4491304690958
30
0
41
1
10
21.4419327481909
20
16.4631408341659
30
0
41
1
10
21.3689799687442
20
16.4715895396576
30
0
0
SPLINE
5
14F
100
AcDbEntity
8
1
62
256
6
ByLayer
370
18
48
1
60
0
100
AcDbSpline
70
4
71
3
72
8
73
4
40
0
40
0
40
0
40
0
40
1
40
1
40
1
40
1
41
1
10
10.0360239434649
20
12.362246687407
30
0
41
1
10
10.0272346645588
20
12.3804969151562
30
0
41
1
10
10.0180388933013
20
12.3966797026653
30
0
41
1
10
10.0088756228356
20
12.4110668410672
30
0
0
SPLINE
5
150
100
AcDbEntity
8
1
62
256
6
ByLayer
370
18
48
1
60
0
100
AcDbSpline
70
4
71
3
72
10
73
6
40
0
40
0
40
0
40
0
40
0.315026012182558
40
0.315026012182558
40
1
40
1
40
1
40
1
41
1
10
11.2244577877784
20
13.344873674907
30
0
41
1
10
11.2310771805614
20
13.3452910538885
30
0
41
1
10
11.2375529056025
20
13.345923560602
30
0
41
1
10
11.2575389656851
20
13.3484853249975
30
0
41
1
10
11.2705339564123
20
13.3510692892586
30
0
41
1
10
11.2828681783501
20
13.3542080584263
30
0
0
SPLINE
5
151
100
AcDbEntity
8
1
62
256
6
ByLayer
370
18
48
1
60
0
100
AcDbSpline
70
4
71
3
72
10
73
6
40
0
40
0
40
0
40
0
40
0.629893813379305
40
0.629893813379305
40
1
40
1
40
1
40
1
41
1
10
10.821364361506
20
11.5985781024158
30
0
41
1
10
10.8122852897571
20
11.6043606275917
30
0
41
1
10
10.8025234867758
20
11.6101324062774
30
0
41
1
10
10.7857933066661
20
11.6191505503276
30
0
41
1
10
10.7793130737714
20
11.6224665486274
30
0
41
1
10
10.772544207835
20
11.6257264230471
30
0
0
SPLINE
5
152
100
AcDbEntity
8
1
62
256
6
ByLayer
370
18
48
1
60
0
100
AcDbSpline
70
4
71
3
72
8
73
4
40
0
40
0
40
0
40
0
40
1
40
1
40
1
40
1
41
1
10
11.7993089286023
20
12.6524911438247
30
0
41
1
10
11.810627234657
20
12.6367699432243
30
0
41
1
10
11.822951396516
20
12.6237155463167
30
0
41
1
10
11.8354605914381
20
12.6126743323711
30
0
0
SPLINE
5
153
100
AcDbEntity
8
1
62
256
6
ByLayer
370
18
48
1
60
0
100
AcDbSpline
70
4
71
3
72
10
73
6
40
0
40
0
40
0
40
0
40
0.123732606265373
40
0.123732606265373
40
1
40
1
40
1
40
1
41
1
10
10.342815295207
20
13.1997514467023
30
0
41
1
10
10.3441712027414
20
13.2020381482242
30
0
41
1
10
10.3454933895607
20
13.2043203295502
30
0
41
1
10
10.3558231259714
20
13.2225525300305
30
0
41
1
10
10.3632997090863
20
13.238252830716
30
0
41
1
10
10.3695756940489
20
13.2534043127743
30
0
0
SPLINE
5
154
100
AcDbEntity
8
1
62
256
6
ByLayer
370
18
48
1
60
0
100
AcDbSpline
70
4
71
3
72
10
73
6
40
0
40
0
40
0
40
0
40
0.123732606265429
40
0.123732606265429
40
1
40
1
40
1
40
1
41
1
10
11.4925175768601
20
11.8149863845294
30
0
41
1
10
11.4914776183672
20
11.8130156320491
30
0
41
1
10
11.4904808297523
20
11.8110588489274
30
0
41
1
10
11.482825462687
20
11.7955010177925
30
0
41
1
10
11.4781052276767
20
11.7825570652117
30
0
41
1
10
11.4747605202248
20
11.770336860664
30
0
0
SPLINE
5
155
100
AcDbEntity
8
1
62
256
6
ByLayer
370
18
48
1
60
0
100
AcDbSpline
70
4
71
3
72
10
73
6
40
0
40
0
40
0
40
0
40
0.516155291935693
40
0.516155291935693
40
1
40
1
40
1
40
1
41
1
10
10.1806343810791
20
13.0644629998037
30
0
41
1
10
10.1878489263136
20
13.0664376429543
30
0
41
1
10
10.1952980735001
20
13.0688905367895
30
0
41
1
10
10.2101908060855
20
13.0747933563609
30
0
41
1
10
10.2176364844263
20
13.0781845420809
30
0
41
1
10
10.2252839049403
20
13.0822200564296
30
0
0
SPLINE
5
156
100
AcDbEntity
8
1
62
256
6
ByLayer
370
18
48
1
60
0
100
AcDbSpline
70
4
71
3
72
10
73
6
40
0
40
0
40
0
40
0
40
0.629893813379522
40
0.629893813379522
40
1
40
1
40
1
40
1
41
1
10
11.0229718527645
20
13.4251630710193
30
0
41
1
10
11.0299394630566
20
13.4172690843866
30
0
41
1
10
11.0376869861575
20
13.4094830258206
30
0
41
1
10
11.0514993263632
20
13.3975470418663
30
0
41
1
10
11.0569577945728
20
13.3932092788814
30
0
41
1
10
11.06278866423
20
13.3890114081827
30
0
0
SPLINE
5
157
100
AcDbEntity
8
1
62
256
6
ByLayer
370
18
48
1
60
0
100
AcDbSpline
70
4
71
3
72
8
73
4
40
0
40
0
40
0
40
0
40
1
40
1
40
1
40
1
41
1
10
11.7645055788423
20
12.8725706579363
30
0
41
1
10
11.7599250041148
20
12.8545706642209
30
0
41
1
10
11.7564894779001
20
12.8350674776861
30
0
41
1
10
11.7551711953274
20
12.8141602673616
30
0
0
SPLINE
5
158
100
AcDbEntity
8
1
62
256
6
ByLayer
370
18
48
1
60
0
100
AcDbSpline
70
4
71
3
72
10
73
6
40
0
40
0
40
0
40
0
40
0.315026012182321
40
0.315026012182321
40
1
40
1
40
1
40
1
41
1
10
10.6108750842873
20
11.6698641563233
30
0
41
1
10
10.6050564020628
20
11.6702474879004
30
0
41
1
10
10.599442393672
20
11.6704766978371
30
0
41
1
10
10.5823248941067
20
11.670783493959
30
0
41
1
10
10.5715095140147
20
11.670379140333
30
0
41
1
10
10.5614680359235
20
11.669533115012
30
0
0
SPLINE
5
159
100
AcDbEntity
8
1
62
256
6
ByLayer
370
18
48
1
60
0
100
AcDbSpline
70
4
71
3
72
10
73
6
40
0
40
0
40
0
40
0
40
0.516155291935551
40
0.516155291935551
40
1
40
1
40
1
40
1
41
1
10
11.6637018331945
20
11.9592781736346
30
0
41
1
10
11.6547567249312
20
11.9555729674552
30
0
41
1
10
11.6456438233117
20
11.951456319187
30
0
41
1
10
11.6277372414905
20
11.9425396503799
30
0
41
1
10
11.6189224143499
20
11.9377793158599
30
0
41
1
10
11.6100489671245
20
11.9325177747999
30
0
0
SPLINE
5
15A
100
AcDbEntity
8
1
62
256
6
ByLayer
370
18
48
1
60
0
100
AcDbSpline
70
4
71
3
72
8
73
4
40
0
40
0
40
0
40
0
40
1
40
1
40
1
40
1
41
1
10
10.0798306354313
20
12.151170515502
30
0
41
1
10
10.0810652857025
20
12.1658245847611
30
0
41
1
10
10.0813724213157
20
12.1821993806944
30
0
41
1
10
10.0801616767397
20
12.2005775638701
30
0
0
LINE
5
72
100
AcDbEntity
8
1
62
256
6
ByLayer
370
18
48
1
60
0
100
AcDbLine
10
23.020641
20
7.808285
30
0
11
23.515498
21
8.303142
31
0
39
0
210
0
220
0
230
1
0
LINE
5
74
100
AcDbEntity
8
1
62
256
6
ByLayer
370
18
48
1
60
0
100
AcDbLine
10
4.281857
20
16.015622
30
0
11
3.623707
21
15.615163
31
0
39
0
210
0
220
0
230
1
0
LINE
5
75
100
AcDbEntity
8
1
62
256
6
ByLayer
370
18
48
1
60
0
100
AcDbLine
10
6.497339
20
13.587845
30
0
11
6.869216
21
13.814118
31
0
39
0
210
0
220
0
230
1
0
LINE
5
76
100
AcDbEntity
8
1
62
256
6
ByLayer
370
18
48
1
60
0
100
AcDbLine
10
12.96659
20
10.030809
30
0
11
13.139273
21
10.203492
31
0
39
0
210
0
220
0
230
1
0
LINE
5
77
100
AcDbEntity
8
1
62
256
6
ByLayer
370
18
48
1
60
0
100
AcDbLine
10
8.613789
20
14.728975
30
0
11
8.443055
21
14.558241
31
0
39
0
210
0
220
0
230
1
0
LINE
5
78
100
AcDbEntity
8
80
62
256
6
ByLayer
370
18
48
1
60
0
100
AcDbLine
10
0
20
0
30
0
11
-5
21
0
31
0
39
0
210
0
220
0
230
1
0
LINE
5
79
100
AcDbEntity
8
81
62
256
6
ByLayer
370
18
48
1
60
0
100
AcDbLine
10
26.440383
20
19.9125
30
0
11
36.440383
21
19.9125
31
0
39
0
210
0
220
0
230
1
0
LINE
5
7A
100
AcDbEntity
8
1
62
256
6
ByLayer
370
13
48
0.05
60
0
100
AcDbLine
10
-124.909617
20
-12.884714
30
0
11
-124.909617
21
-8.815286
31
0
39
0
210
0
220
0
230
1
0
LINE
5
7B
100
AcDbEntity
8
1
62
256
6
ByLayer
370
18
48
1
60
0
100
AcDbLine
10
10.225285
20
13.082221
30
0
11
10.342815
21
13.199751
31
0
39
0
210
0
220
0
230
1
0
LINE
5
7C
100
AcDbEntity
8
1
62
256
6
ByLayer
370
18
48
1
60
0
100
AcDbLine
10
11.610049
20
11.932518
30
0
11
11.492518
21
11.814987
31
0
39
0
210
0
220
0
230
1
0
LINE
5
7D
100
AcDbEntity
8
1
62
256
6
ByLayer
370
18
48
1
60
0
100
AcDbLine
10
9.607744
20
-7.207904
30
0
11
6.238284
21
5.133862
31
0
39
0
210
0
220
0
230
1
0
LINE
5
7E
100
AcDbEntity
8
1
62
256
6
ByLayer
370
18
48
1
60
0
100
AcDbLine
10
3.416204
20
15.47067
30
0
11
3.334058
21
15.771558
31
0
39
0
210
0
220
0
230
1
0
LINE
5
7F
100
AcDbEntity
8
1
62
256
6
ByLayer
370
18
48
1
60
0
100
AcDbLine
10
9.200566
20
4.272359
30
0
11
8.777575
21
5.821704
31
0
39
0
210
0
220
0
230
1
0
LINE
5
80
100
AcDbEntity
8
1
62
256
6
ByLayer
370
18
48
1
60
0
100
AcDbLine
10
5.858627
20
16.51332
30
0
11
5.772937
21
16.827191
31
0
39
0
210
0
220
0
230
1
0
LINE
5
81
100
AcDbEntity
8
1
62
256
6
ByLayer
370
18
48
1
60
0
100
AcDbLine
10
19.276086
20
10.308573
30
0
11
22.298989
21
8.183528
31
0
39
0
210
0
220
0
230
1
0
LINE
5
82
100
AcDbEntity
8
1
62
256
6
ByLayer
370
18
48
1
60
0
100
AcDbLine
10
16.197421
20
17.885561
30
0
11
18.584363
21
18.975662
31
0
39
0
210
0
220
0
230
1
0
LINE
5
83
100
AcDbEntity
8
1
62
256
6
ByLayer
370
18
48
1
60
0
100
AcDbLine
10
8.878782
20
-8.035245
30
0
11
5.199775
21
5.44034
31
0
39
0
210
0
220
0
230
1
0
LINE
5
84
100
AcDbEntity
8
1
62
256
6
ByLayer
370
18
48
1
60
0
100
AcDbLine
10
2.679501
20
14.671683
30
0
11
2.583997
21
15.021497
31
0
39
0
210
0
220
0
230
1
0
LINE
5
85
100
AcDbEntity
8
1
62
256
6
ByLayer
370
18
48
1
60
0
100
AcDbLine
10
9.587537
20
-7.230839
30
0
11
6.211685
21
5.134341
31
0
39
0
210
0
220
0
230
1
0
LINE
5
86
100
AcDbEntity
8
1
62
256
6
ByLayer
370
18
48
1
60
0
100
AcDbLine
10
3.394047
20
15.454877
30
0
11
3.313265
21
15.750765
31
0
39
0
210
0
220
0
230
1
0
LINE
5
87
100
AcDbEntity
8
1
62
256
6
ByLayer
370
18
48
1
60
0
100
AcDbLine
10
19.355861
20
10.354353
30
0
11
22.334513
21
8.260415
31
0
39
0
210
0
220
0
230
1
0
LINE
5
88
100
AcDbEntity
8
1
62
256
6
ByLayer
370
18
48
1
60
0
100
AcDbLine
10
18.646172
20
18.802956
30
0
11
18.584363
21
18.975662
31
0
39
0
210
0
220
0
230
1
0
LINE
5
89
100
AcDbEntity
8
1
62
256
6
ByLayer
370
18
48
1
60
0
100
AcDbLine
10
22.505026
20
8.220218
30
0
11
19.418251
21
10.390164
31
0
39
0
210
0
220
0
230
1
0
LINE
5
8A
100
AcDbEntity
8
1
62
256
6
ByLayer
370
18
48
1
60
0
100
AcDbLine
10
16.567044
20
17.842353
30
0
11
19.307268
21
19.108395
31
0
39
0
210
0
220
0
230
1
0
LINE
5
8B
100
AcDbEntity
8
1
62
256
6
ByLayer
370
18
48
1
60
0
100
AcDbLine
10
22.153554
20
7.868745
30
0
11
22.505026
21
8.220218
31
0
39
0
210
0
220
0
230
1
0
LINE
5
8C
100
AcDbEntity
8
1
62
256
6
ByLayer
370
18
48
1
60
0
100
AcDbLine
10
6.013616
20
16.554131
30
0
11
4.874867
21
16.254787
31
0
39
0
210
0
220
0
230
1
0
LINE
5
8D
100
AcDbEntity
8
1
62
256
6
ByLayer
370
18
48
1
60
0
100
AcDbLine
10
8.901355
20
15.274594
30
0
11
10.480917
21
15.687609
31
0
39
0
210
0
220
0
230
1
0
LINE
5
8E
100
AcDbEntity
8
1
62
256
6
ByLayer
370
18
48
1
60
0
100
AcDbLine
10
7.335282
20
6.408528
30
0
11
13.398557
21
8.002385
31
0
39
0
210
0
220
0
230
1
0
LINE
5
8F
100
AcDbEntity
8
1
62
256
6
ByLayer
370
18
48
1
60
0
100
AcDbLine
10
6.013616
20
16.554131
30
0
11
6.060842
21
16.553137
31
0
39
0
210
0
220
0
230
1
0
LINE
5
90
100
AcDbEntity
8
1
62
256
6
ByLayer
370
18
48
1
60
0
100
AcDbLine
10
9.175826
20
15.4416
30
0
11
10.761774
21
15.858499
31
0
39
0
210
0
220
0
230
1
0
LINE
5
91
100
AcDbEntity
8
1
62
256
6
ByLayer
370
18
48
1
60
0
100
AcDbLine
10
10.455521
20
17.708369
30
0
11
6.060842
21
16.553137
31
0
39
0
210
0
220
0
230
1
0
LINE
5
92
100
AcDbEntity
8
1
62
256
6
ByLayer
370
18
48
1
60
0
100
AcDbLine
10
9.175826
20
15.4416
30
0
11
8.901355
21
15.274594
31
0
39
0
210
0
220
0
230
1
0
LINE
5
93
100
AcDbEntity
8
1
62
256
6
ByLayer
370
18
48
1
60
0
100
AcDbLine
10
12.521604
20
9.412538
30
0
11
10.935656
21
8.995639
31
0
39
0
210
0
220
0
230
1
0
LINE
5
94
100
AcDbEntity
8
1
62
256
6
ByLayer
370
18
48
1
60
0
100
AcDbLine
10
19.311449
20
14.567459
30
0
11
23.034228
21
15.279514
31
0
39
0
210
0
220
0
230
1
0
LINE
5
95
100
AcDbEntity
8
1
62
256
6
ByLayer
370
18
48
1
60
0
100
AcDbLine
10
7.790405
20
5.575658
30
0
11
8.929155
21
5.875002
31
0
39
0
210
0
220
0
230
1
0
LINE
5
96
100
AcDbEntity
8
1
62
256
6
ByLayer
370
18
48
1
60
0
100
AcDbLine
10
4.816564
20
15.634171
30
0
11
10.879838
21
17.228028
31
0
39
0
210
0
220
0
230
1
0
LINE
5
97
100
AcDbEntity
8
1
62
256
6
ByLayer
370
18
48
1
60
0
100
AcDbLine
10
21.072591
20
11.393359
30
0
11
22.209449
21
13.39309
31
0
39
0
210
0
220
0
230
1
0
LINE
5
98
100
AcDbEntity
8
1
62
256
6
ByLayer
370
18
48
1
60
0
100
AcDbLine
10
7.790405
20
5.575658
30
0
11
7.390663
21
5.33243
31
0
39
0
210
0
220
0
230
1
0
LINE
5
99
100
AcDbEntity
8
1
62
256
6
ByLayer
370
18
48
1
60
0
100
AcDbLine
10
5.714481
20
13.255934
30
0
11
4.37367
21
12.905347
31
0
39
0
210
0
220
0
230
1
0
LINE
5
9A
100
AcDbEntity
8
1
62
256
6
ByLayer
370
18
48
1
60
0
100
AcDbLine
10
8.929155
20
5.875002
30
0
11
8.96759
21
5.906206
31
0
39
0
210
0
220
0
230
1
0
LINE
5
9B
100
AcDbEntity
8
1
62
256
6
ByLayer
370
18
48
1
60
0
100
AcDbLine
10
10.761774
20
15.858499
30
0
11
10.480917
21
15.687609
31
0
39
0
210
0
220
0
230
1
0
LINE
5
9C
100
AcDbEntity
8
1
62
256
6
ByLayer
370
18
48
1
60
0
100
AcDbLine
10
4.37367
20
12.905347
30
0
11
5.529379
21
8.672178
31
0
39
0
210
0
220
0
230
1
0
LINE
5
9D
100
AcDbEntity
8
1
62
256
6
ByLayer
370
18
48
1
60
0
100
AcDbLine
10
21.36898
20
16.47159
30
0
11
19.365584
21
17.645839
31
0
39
0
210
0
220
0
230
1
0
LINE
5
9E
100
AcDbEntity
8
1
62
256
6
ByLayer
370
18
48
1
60
0
100
AcDbLine
10
8.929155
20
5.875002
30
0
11
7.398293
21
5.33512
31
0
39
0
210
0
220
0
230
1
0
LINE
5
9F
100
AcDbEntity
8
1
62
256
6
ByLayer
370
18
48
1
60
0
100
AcDbLine
10
5.213338
20
7.647381
30
0
11
4.05237
21
6.940977
31
0
39
0
210
0
220
0
230
1
0
LINE
5
A0
100
AcDbEntity
8
1
62
256
6
ByLayer
370
18
48
1
60
0
100
AcDbLine
10
3.611105
20
13.516092
30
0
11
2.450137
21
12.809687
31
0
39
0
210
0
220
0
230
1
0
LINE
5
A1
100
AcDbEntity
8
1
62
256
6
ByLayer
370
18
48
1
60
0
100
AcDbLine
10
6.027561
20
13.446431
30
0
11
5.714481
21
13.255934
31
0
39
0
210
0
220
0
230
1
0
LINE
5
A2
100
AcDbEntity
8
1
62
256
6
ByLayer
370
18
48
1
60
0
100
AcDbLine
10
13.362269
20
7.061439
30
0
11
8.96759
21
5.906206
31
0
39
0
210
0
220
0
230
1
0
LINE
5
A3
100
AcDbEntity
8
1
62
256
6
ByLayer
370
18
48
1
60
0
100
AcDbLine
10
4.05237
20
6.940977
30
0
11
2.450137
21
12.809687
31
0
39
0
210
0
220
0
230
1
0
LINE
5
A4
100
AcDbEntity
8
1
62
256
6
ByLayer
370
18
48
1
60
0
100
AcDbLine
10
3.611105
20
13.516092
30
0
11
5.213338
21
7.647381
31
0
39
0
210
0
220
0
230
1
0
LINE
5
A5
100
AcDbEntity
8
1
62
256
6
ByLayer
370
18
48
1
60
0
100
AcDbLine
10
9.200566
20
4.272359
30
0
11
10.929801
21
-5.707425
31
0
39
0
210
0
220
0
230
1
0
LINE
5
A6
100
AcDbEntity
8
1
62
256
6
ByLayer
370
18
48
1
60
0
100
AcDbLine
10
18.444558
20
19.366307
30
0
11
13.8194
21
19.366307
31
0
39
0
210
0
220
0
230
1
0
LINE
5
A7
100
AcDbEntity
8
1
62
256
6
ByLayer
370
18
48
1
60
0
100
AcDbLine
10
4.990213
20
-12.448607
30
0
11
8.878782
21
-8.035245
31
0
39
0
210
0
220
0
230
1
0
LINE
5
A8
100
AcDbEntity
8
1
62
256
6
ByLayer
370
18
48
1
60
0
100
AcDbLine
10
13.8194
20
19.366307
30
0
11
5.772937
21
16.827191
31
0
39
0
210
0
220
0
230
1
0
LINE
5
A9
100
AcDbEntity
8
1
62
256
6
ByLayer
370
18
48
1
60
0
100
AcDbLine
10
14.794303
20
-1.321378
30
0
11
10.929801
21
-5.707425
31
0
39
0
210
0
220
0
230
1
0
LINE
5
AA
100
AcDbEntity
8
1
62
256
6
ByLayer
370
18
48
1
60
0
100
AcDbLine
10
22.298989
20
8.183528
30
0
11
22.334513
21
8.260415
31
0
39
0
210
0
220
0
230
1
0
LINE
5
AB
100
AcDbEntity
8
1
62
256
6
ByLayer
370
18
48
1
60
0
100
AcDbLine
10
0.375538
20
12.813038
30
0
11
2.583997
21
15.021497
31
0
39
0
210
0
220
0
230
1
0
LINE
5
AC
100
AcDbEntity
8
1
62
256
6
ByLayer
370
18
48
1
60
0
100
AcDbLine
10
14.794303
20
-1.321378
30
0
11
9.200566
21
4.272359
31
0
39
0
210
0
220
0
230
1
0
LINE
5
AD
100
AcDbEntity
8
1
62
256
6
ByLayer
370
18
48
1
60
0
100
AcDbLine
10
0.375538
20
12.813038
30
0
11
0
21
12.4375
31
0
39
0
210
0
220
0
230
1
0
LINE
5
AE
100
AcDbEntity
8
1
62
256
6
ByLayer
370
18
48
1
60
0
100
AcDbLine
10
0
20
-12.4375
30
0
11
0
21
12.4375
31
0
39
0
210
0
220
0
230
1
0
LINE
5
AF
100
AcDbEntity
8
1
62
256
6
ByLayer
370
18
48
1
60
0
100
AcDbLine
10
18.444558
20
19.366307
30
0
11
18.584363
21
18.975662
31
0
39
0
210
0
220
0
230
1
0
LINE
5
B0
100
AcDbEntity
8
1
62
256
6
ByLayer
370
18
48
1
60
0
100
AcDbLine
10
21.339829
20
6.107519
30
0
11
22.298989
21
8.183528
31
0
39
0
210
0
220
0
230
1
0
LINE
5
B1
100
AcDbEntity
8
1
62
256
6
ByLayer
370
18
48
1
60
0
100
AcDbLine
10
21.339829
20
6.107519
30
0
11
14.794303
21
-1.321378
31
0
39
0
210
0
220
0
230
1
0
LINE
5
B2
100
AcDbEntity
8
1
62
256
6
ByLayer
370
18
48
1
60
0
100
AcDbLine
10
3.313265
20
15.750765
30
0
11
3.334058
21
15.771558
31
0
39
0
210
0
220
0
230
1
0
LINE
5
B3
100
AcDbEntity
8
1
62
256
6
ByLayer
370
18
48
1
60
0
100
AcDbLine
10
4.990213
20
-12.448607
30
0
11
2.77821
21
-12.449622
31
0
39
0
210
0
220
0
230
1
0
LINE
5
B4
100
AcDbEntity
8
1
62
256
6
ByLayer
370
18
48
1
60
0
100
AcDbLine
10
9.607744
20
-7.207904
30
0
11
10.929801
21
-5.707425
31
0
39
0
210
0
220
0
230
1
0
LINE
5
B5
100
AcDbEntity
8
1
62
256
6
ByLayer
370
18
48
1
60
0
100
AcDbLine
10
8.878782
20
-8.035245
30
0
11
9.587537
21
-7.230839
31
0
39
0
210
0
220
0
230
1
0
LINE
5
B6
100
AcDbEntity
8
1
62
256
6
ByLayer
370
18
48
1
60
0
100
AcDbLine
10
3.751958
20
16.189458
30
0
11
5.772937
21
16.827191
31
0
39
0
210
0
220
0
230
1
0
LINE
5
B7
100
AcDbEntity
8
1
62
256
6
ByLayer
370
18
48
1
60
0
100
AcDbLine
10
2.77821
20
-12.449622
30
0
11
0.375538
21
12.813038
31
0
39
0
210
0
220
0
230
1
0
LINE
5
B8
100
AcDbEntity
8
1
62
256
6
ByLayer
370
18
48
1
60
0
100
AcDbLine
10
2.583997
20
15.021497
30
0
11
3.313265
21
15.750765
31
0
39
0
210
0
220
0
230
1
0
LINE
5
B9
100
AcDbEntity
8
1
62
256
6
ByLayer
370
18
48
1
60
0
100
AcDbLine
10
3.334058
20
15.771558
30
0
11
3.751958
21
16.189458
31
0
39
0
210
0
220
0
230
1
0
LINE
5
BA
100
AcDbEntity
8
1
62
256
6
ByLayer
370
18
48
1
60
0
100
AcDbLine
10
0
20
-12.4375
30
0
11
2.77821
21
-12.449622
31
0
39
0
210
0
220
0
230
1
0
LINE
5
BB
100
AcDbEntity
8
1
62
256
6
ByLayer
370
18
48
1
60
0
100
AcDbLine
10
9.587537
20
-7.230839
30
0
11
9.607744
21
-7.207904
31
0
39
0
210
0
220
0
230
1
0
LINE
5
BC
100
AcDbEntity
8
SK1
62
256
6
ByLayer
370
18
48
1
60
0
100
AcDbLine
10
-124.909617
20
12.4375
30
0
11
-124.909617
21
-12.4375
31
0
39
0
210
0
220
0
230
1
0
LINE
5
BE
100
AcDbEntity
8
SK1
62
256
6
ByLayer
370
18
48
1
60
0
100
AcDbLine
10
-124.909617
20
-12.4375
30
0
11
0
21
-12.4375
31
0
39
0
210
0
220
0
230
1
0
LINE
5
BF
100
AcDbEntity
8
SK1
62
256
6
ByLayer
370
18
48
1
60
0
100
AcDbLine
10
0
20
12.4375
30
0
11
0
21
-12.4375
31
0
39
0
210
0
220
0
230
1
0
LINE
5
C0
100
AcDbEntity
8
SK1
62
256
6
ByLayer
370
18
48
1
60
0
100
AcDbLine
10
0
20
12.4375
30
0
11
-124.909617
21
12.4375
31
0
39
0
210
0
220
0
230
1
0
LINE
5
C1
100
AcDbEntity
8
1
62
256
6
ByLayer
370
18
48
1
60
0
100
AcDbLine
10
25.636279
20
12.779385
30
0
11
23.671518
21
8.526855
31
0
39
0
210
0
220
0
230
1
0
LINE
5
C2
100
AcDbEntity
8
1
62
256
6
ByLayer
370
18
48
1
60
0
100
AcDbLine
10
20.893902
20
19.525475
30
0
11
25.577893
21
19.909865
31
0
39
0
210
0
220
0
230
1
0
LINE
5
C3
100
AcDbEntity
8
1
62
256
6
ByLayer
370
18
48
1
60
0
100
AcDbLine
10
26.437748
20
19.05001
30
0
11
26.053358
21
14.366018
31
0
39
0
210
0
220
0
230
1
0
LINE
5
C4
100
AcDbEntity
8
1
62
256
6
ByLayer
370
18
48
1
60
0
100
AcDbLine
10
11.088611
20
13.209027
30
0
11
11.224458
21
13.344874
31
0
39
0
210
0
220
0
230
1
0
LINE
5
C5
100
AcDbEntity
8
1
62
256
6
ByLayer
370
18
48
1
60
0
100
AcDbLine
10
11.062789
20
13.389011
30
0
11
10.926942
21
13.253165
31
0
39
0
210
0
220
0
230
1
0
LINE
5
C6
100
AcDbEntity
8
1
62
256
6
ByLayer
370
18
48
1
60
0
100
AcDbLine
10
11.276421
20
13.27274
30
0
11
11.416769
21
13.413088
31
0
39
0
210
0
220
0
230
1
0
LINE
5
C7
100
AcDbEntity
8
1
62
256
6
ByLayer
370
18
48
1
60
0
100
AcDbLine
10
11.663462
20
12.516645
30
0
11
11.799309
21
12.652491
31
0
39
0
210
0
220
0
230
1
0
LINE
5
C8
100
AcDbEntity
8
1
62
256
6
ByLayer
370
18
48
1
60
0
100
AcDbLine
10
11.755171
20
12.81416
30
0
11
11.619325
21
12.678314
31
0
39
0
210
0
220
0
230
1
0
LINE
5
C9
100
AcDbEntity
8
1
62
256
6
ByLayer
370
18
48
1
60
0
100
AcDbLine
10
10.795538
20
13.404027
30
0
11
10.935886
21
13.544375
31
0
39
0
210
0
220
0
230
1
0
LINE
5
CA
100
AcDbEntity
8
1
62
256
6
ByLayer
370
18
48
1
60
0
100
AcDbLine
10
9.894321
20
12.909426
30
0
11
10.034669
21
13.049774
31
0
39
0
210
0
220
0
230
1
0
LINE
5
CB
100
AcDbEntity
8
1
62
256
6
ByLayer
370
18
48
1
60
0
100
AcDbLine
10
11.683037
20
12.866123
30
0
11
11.823385
21
13.006471
31
0
39
0
210
0
220
0
230
1
0
LINE
5
CC
100
AcDbEntity
8
1
62
256
6
ByLayer
370
18
48
1
60
0
100
AcDbLine
10
11.356671
20
11.67914
30
0
11
11.492518
21
11.814986
31
0
39
0
210
0
220
0
230
1
0
LINE
5
CD
100
AcDbEntity
8
1
62
256
6
ByLayer
370
18
48
1
60
0
100
AcDbLine
10
11.319723
20
11.484023
30
0
11
11.460072
21
11.624371
31
0
39
0
210
0
220
0
230
1
0
LINE
5
CE
100
AcDbEntity
8
1
62
256
6
ByLayer
370
18
48
1
60
0
100
AcDbLine
10
11.814324
20
12.38524
30
0
11
11.954673
21
12.525589
31
0
39
0
210
0
220
0
230
1
0
LINE
5
CF
100
AcDbEntity
8
1
62
256
6
ByLayer
370
18
48
1
60
0
100
AcDbLine
10
10.225284
20
13.08222
30
0
11
10.089437
21
12.946374
31
0
39
0
210
0
220
0
230
1
0
MTEXT
5
15B
100
AcDbEntity
8
SK6
62
256
6
ByLayer
370
18
48
1
60
0
100
AcDbMText
10
-63.359617
20
-23.536104
30
0
210
0
220
0
230
1
1
\W0.7918;DWLNR 2525M 06
40
3.5
41
0
44
1.084337
50
0
71
7
72
5
7
iso_b_vert
0
DIMENSION
5
16C
100
AcDbEntity
8
2
62
256
6
ByLayer
370
13
48
1
60
0
100
AcDbDimension
2
DimnDraft3D1
10
24.585063
20
19.828051
30
0
11
7.753971
21
37.196042
31
0
70
34
71
5
72
1
41
1
210
0
220
0
230
1
3
Standard
100
AcDb2LineAngularDimension
13
26.440383
23
19.9125
33
0
14
26.440383
24
18.325
34
0
15
25.581713
25
19.909841
35
0
16
11.063521
26
34.146964
36
0
40
0
0
DIMENSION
5
182
100
AcDbEntity
8
SK2
62
256
6
ByLayer
370
13
48
1
60
0
100
AcDbDimension
2
DimnDraft3D2
10
-132.659617
20
12.4375
30
0
11
-132.659617
21
-5.281579
31
0
70
32
71
5
72
1
41
1
210
0
220
0
230
1
3
Standard
100
AcDbAlignedDimension
13
-126.909617
23
-12.4375
33
0
14
-126.909617
24
12.4375
34
0
50
90
100
AcDbRotatedDimension
1001
ACAD
1000
DSTYLE
1002
{
1070
    74
1070
     0
1070
   279
1070
     0
1070
   172
1070
     1
1070
   173
1070
     1
1070
   340
1005
15C
1070
    77
1070
     1
1070
    73
1070
     0
1070
   171
1070
     3
1070
   274
1070
     4
1070
   177
1070
     2
1070
   176
1070
     2
1070
   178
1070
     7
1070
    78
1070
     8
1070
    41
1041
3.175
1070
   147
1041
2.25
1070
    42
1041
2.0
1070
    44
1041
2.0
1070
   140
1041
4.5
1070
   343
1005
16D
1070
   344
1005
16D
1002
}
0
DIMENSION
5
190
100
AcDbEntity
8
2
62
256
6
ByLayer
370
13
48
1
60
0
100
AcDbDimension
2
DimnDraft3D3
10
48.690383
20
19.9125
30
0
11
48.690383
21
-1.544079
31
0
70
32
71
5
72
1
41
1
210
0
220
0
230
1
3
Standard
100
AcDbAlignedDimension
13
2
23
-12.4375
33
0
14
28.440383
24
19.9125
34
0
50
90
100
AcDbRotatedDimension
1001
ACAD
1000
DSTYLE
1002
{
1070
    74
1070
     0
1070
   279
1070
     0
1070
   172
1070
     1
1070
   173
1070
     1
1070
   340
1005
15C
1070
    77
1070
     1
1070
    73
1070
     0
1070
   171
1070
     3
1070
   274
1070
     4
1070
   177
1070
     2
1070
   176
1070
     2
1070
   178
1070
     7
1070
    78
1070
     8
1070
    41
1041
3.175
1070
   147
1041
2.25
1070
    42
1041
2.0
1070
    44
1041
2.0
1070
   140
1041
4.5
1070
   343
1005
16D
1070
   344
1005
16D
1002
}
0
DIMENSION
5
19E
100
AcDbEntity
8
2
62
256
6
ByLayer
370
13
48
1
60
0
100
AcDbDimension
2
DimnDraft3D4
10
26.440383
20
49.6625
30
0
11
7.701771
21
49.6625
31
0
70
32
71
5
72
1
41
1
210
0
220
0
230
1
3
Standard
100
AcDbAlignedDimension
13
0
23
14.4375
33
0
14
26.440383
24
21.9125
34
0
50
0
100
AcDbRotatedDimension
1001
ACAD
1000
DSTYLE
1002
{
1070
   279
1070
     0
1070
   172
1070
     1
1070
   173
1070
     1
1070
   340
1005
15C
1070
    77
1070
     1
1070
    73
1070
     0
1070
   171
1070
     3
1070
   274
1070
     4
1070
   177
1070
     2
1070
   176
1070
     2
1070
   178
1070
     7
1070
    78
1070
     8
1070
    41
1041
3.175
1070
   147
1041
2.25
1070
    42
1041
2.0
1070
    44
1041
2.0
1070
   140
1041
4.5
1070
   343
1005
16D
1070
   344
1005
16D
1002
}
0
DIMENSION
5
1AC
100
AcDbEntity
8
SK2
62
256
6
ByLayer
370
13
48
1
60
0
100
AcDbDimension
2
DimnDraft3D5
10
-124.909617
20
59.6625
30
0
11
-55.635275
21
59.6625
31
0
70
32
71
5
72
1
41
1
210
0
220
0
230
1
3
Standard
100
AcDbAlignedDimension
13
26.440383
23
21.9125
33
0
14
-124.909617
24
14.4375
34
0
50
0
100
AcDbRotatedDimension
1001
ACAD
1000
DSTYLE
1002
{
1070
   279
1070
     0
1070
   172
1070
     1
1070
   173
1070
     1
1070
   340
1005
15C
1070
    77
1070
     1
1070
    73
1070
     0
1070
   171
1070
     3
1070
   274
1070
     4
1070
   177
1070
     2
1070
   176
1070
     2
1070
   178
1070
     7
1070
    78
1070
     8
1070
    41
1041
3.175
1070
   147
1041
2.25
1070
    42
1041
2.0
1070
    44
1041
2.0
1070
   140
1041
4.5
1070
   343
1005
16D
1070
   344
1005
16D
1002
}
0
ENDSEC
0
SECTION
2
OBJECTS
0
DICTIONARY
5
216
330
0
100
AcDbDictionary
280
0
281
1
3
ACAD_GROUP
350
217
3
ACAD_MLINESTYLE
350
218
0
DICTIONARY
5
217
330
0
100
AcDbDictionary
280
0
281
1
0
DICTIONARY
5
218
330
0
100
AcDbDictionary
280
0
281
1
3
Standard
350
18
0
MLINESTYLE
5
18
330
218
100
AcDbMlineStyle
2
Standard
70
0
3

62
256
51
90
52
90
71
2
49
-0.5
62
256
6
ByLayer
49
0.5
62
256
6
ByLayer
0
RASTERVARIABLES
5
205
330

100
AcDbRasterVariables
90
0
70
1
71
1
72
1
0
ENDSEC
0
EOF
