0
SECTION
2
HEADER
9
$ACADVER
1
AC1015
9
$DWGCODEPAGE
3
ANSI_1252
9
$HANDSEED
5
221
9
$ANGBASE
50
0
9
$ANGDIR
70
0
9
$ATTMODE
70
1
9
$AUNITS
70
0
9
$AUPREC
70
0
9
$CECOLOR
62
256
9
$CELTSCALE
40
1
9
$CELTYPE
6
ByLayer
9
$CELWEIGHT
370
18
9
$CLAYER
8
0
9
$CMLJUST
70
0
9
$CMLSCALE
40
1
9
$CMLSTYLE
2
Standard
9
$DIMSTYLE
2
Standard
9
$TEXTSIZE
40
0.2
9
$TEXTSTYLE
7
Standard
9
$LUNITS
70
2
9
$LUPREC
70
4
9
$EXTNAMES
290
1
9
$INSUNITS
70
4
9
$LTSCALE
40
1
9
$LWDISPLAY
290
1
9
$PDMODE
70
0
9
$PDSIZE
40
0
9
$PLINEGEN
70
0
0
ENDSEC
0
SECTION
2
CLASSES
0
CLASS
1
RASTERVARIABLES
2
AcDbRasterVariables
3
ISM
90
0
280
0
281
0
0
ENDSEC
0
SECTION
2
TABLES
0
TABLE
2
VPORT
5
217
100
AcDbSymbolTable
0
VPORT
5
1
100
AcDbSymbolTableRecord
100
AcDbViewportTableRecord
2
*Active
70
0
10
0
20
0
11
1
21
1
12
-1
22
1
13
0
23
0
14
0.5
24
0.5
15
10
25
10
16
0
26
0
36
1
17
0
27
0
37
0
0
ENDTAB
0
TABLE
2
LTYPE
5
218
100
AcDbSymbolTable
0
LTYPE
5
14
100
AcDbSymbolTableRecord
100
AcDbLinetypeTableRecord
70
0
2
ByBlock
3

72
65
73
0
40
0
0
LTYPE
5
15
100
AcDbSymbolTableRecord
100
AcDbLinetypeTableRecord
70
0
2
ByLayer
3

72
65
73
0
40
0
0
LTYPE
5
16
100
AcDbSymbolTableRecord
100
AcDbLinetypeTableRecord
70
0
2
CONTINUOUS
3
Solid line
72
65
73
0
40
0
0
LTYPE
5
6A
100
AcDbSymbolTableRecord
100
AcDbLinetypeTableRecord
70
0
2
CENTER
3
____ _ ____ _ ____ _ ____
72
65
73
4
40
47.5
49
22
74
0
49
-8.5
74
0
49
8.5
74
0
49
-8.5
74
0
0
LTYPE
5
6B
100
AcDbSymbolTableRecord
100
AcDbLinetypeTableRecord
70
0
2
DASHED
3
__ __ __ __ __ __ __ __ __
72
65
73
2
40
25.72
49
12.86
74
0
49
-12.86
74
0
0
ENDTAB
0
TABLE
2
LAYER
5
219
100
AcDbSymbolTable
0
LAYER
5
10
100
AcDbSymbolTableRecord
100
AcDbLayerTableRecord
2
0
70
0
62
7
6
CONTINUOUS
290
1
370
-3
390
0
0
LAYER
5
6D
100
AcDbSymbolTableRecord
100
AcDbLayerTableRecord
2
2
70
0
62
7
6
CONTINUOUS
290
1
370
-3
390
0
0
LAYER
5
6F
100
AcDbSymbolTableRecord
100
AcDbLayerTableRecord
2
80
70
0
62
-6
6
CONTINUOUS
290
1
370
-3
390
0
0
LAYER
5
71
100
AcDbSymbolTableRecord
100
AcDbLayerTableRecord
2
81
70
0
62
-3
6
CONTINUOUS
290
1
370
-3
390
0
0
LAYER
5
73
100
AcDbSymbolTableRecord
100
AcDbLayerTableRecord
2
1
70
0
62
4
6
CONTINUOUS
290
1
370
-3
390
0
0
LAYER
5
204
100
AcDbSymbolTableRecord
100
AcDbLayerTableRecord
2
SK1
70
0
62
4
6
CONTINUOUS
290
1
370
-3
390
0
0
LAYER
5
205
100
AcDbSymbolTableRecord
100
AcDbLayerTableRecord
2
SK6
70
0
62
5
6
CONTINUOUS
290
1
370
-3
390
0
0
LAYER
5
206
100
AcDbSymbolTableRecord
100
AcDbLayerTableRecord
2
SK2
70
0
62
7
6
CONTINUOUS
290
1
370
-3
390
0
0
ENDTAB
0
TABLE
2
STYLE
5
21a
100
AcDbSymbolTable
0
STYLE
5
11
100
AcDbSymbolTableRecord
100
AcDbTextStyleTableRecord
2
Standard
3
txt
70
0
71
0
40
0
41
1
42
0
50
0
0
STYLE
5
15A
100
AcDbSymbolTableRecord
100
AcDbTextStyleTableRecord
2
iso_b_vert
3
simplex.shx
70
0
71
0
40
0
41
1
42
0
50
0
0
STYLE
5
15B
100
AcDbSymbolTableRecord
100
AcDbTextStyleTableRecord
2
DWGDirectTextStyle
3
simplex
70
0
71
0
40
0
41
1
42
0
50
0
0
ENDTAB
0
TABLE
2
DIMSTYLE
5
21b
100
AcDbSymbolTable
100
AcDbDimStyleTable
0
DIMSTYLE
105
27
100
AcDbSymbolTableRecord
100
AcDbDimStyleTableRecord
2
Standard
70
0
3
<>
41
0.18
42
0.0625
44
0.18
140
0.18
147
0.09
73
0
74
0
77
1
271
2
275
0
278
52
280
0
340
11
0
ENDTAB
0
TABLE
2
VIEW
5
21c
100
AcDbSymbolTable
0
ENDTAB
0
TABLE
2
UCS
5
21d
100
AcDbSymbolTable
0
ENDTAB
0
TABLE
2
APPID
5
21e
100
AcDbSymbolTable
0
APPID
5
12
100
AcDbSymbolTableRecord
100
AcDbRegAppTableRecord
2
ACAD
70
0
0
ENDTAB
0
TABLE
2
BLOCK_RECORD
5
21f
100
AcDbSymbolTable
0
BLOCK_RECORD
5
1F
100
AcDbSymbolTableRecord
100
AcDbBlockTableRecord
2
*Model_Space
340
0
70
0
0
BLOCK_RECORD
5
1B
100
AcDbSymbolTableRecord
100
AcDbBlockTableRecord
2
*Paper_Space
340
0
70
0
0
BLOCK_RECORD
5
23
100
AcDbSymbolTableRecord
100
AcDbBlockTableRecord
2
*Paper_Space0
340
0
70
0
0
BLOCK_RECORD
5
15D
100
AcDbSymbolTableRecord
100
AcDbBlockTableRecord
2
DimnDraft3D11
340
0
70
0
0
BLOCK_RECORD
5
16C
100
AcDbSymbolTableRecord
100
AcDbBlockTableRecord
2
DimnDraft3D2
340
0
70
0
0
BLOCK_RECORD
5
17A
100
AcDbSymbolTableRecord
100
AcDbBlockTableRecord
2
_CLOSED
340
0
70
0
0
BLOCK_RECORD
5
181
100
AcDbSymbolTableRecord
100
AcDbBlockTableRecord
2
DimnDraft3D3
340
0
70
0
0
BLOCK_RECORD
5
18F
100
AcDbSymbolTableRecord
100
AcDbBlockTableRecord
2
DimnDraft3D4
340
0
70
0
0
BLOCK_RECORD
5
19D
100
AcDbSymbolTableRecord
100
AcDbBlockTableRecord
2
DimnDraft3D5
340
0
70
0
0
ENDTAB
0
ENDSEC
0
SECTION
2
BLOCKS
0
BLOCK
5
20
100
AcDbEntity
8
0
100
AcDbBlockBegin
2
*Model_Space
70
0
10
0
20
0
30
0
3
*Model_Space
0
ENDBLK
5
21
100
AcDbEntity
8
0
100
AcDbBlockEnd
0
BLOCK
5
1C
100
AcDbEntity
8
0
100
AcDbBlockBegin
2
*Paper_Space
70
0
10
0
20
0
30
0
3
*Paper_Space
0
ENDBLK
5
1D
100
AcDbEntity
8
0
100
AcDbBlockEnd
0
BLOCK
5
24
100
AcDbEntity
8
0
100
AcDbBlockBegin
2
*Paper_Space0
70
0
10
0
20
0
30
0
3
*Paper_Space0
0
ENDBLK
5
25
100
AcDbEntity
8
0
100
AcDbBlockEnd
0
BLOCK
5
15E
100
AcDbEntity
8
0
100
AcDbBlockBegin
2
DimnDraft3D11
70
0
10
0
20
0
30
0
3
DimnDraft3D11
0
LINE
5
160
100
AcDbEntity
8
SK2
62
256
6
ByLayer
370
25
48
1
60
0
100
AcDbLine
10
26.440383
20
-17.4125
30
0
11
26.440383
21
-55.6625
31
0
39
0
210
0
220
0
230
1
0
LINE
5
162
100
AcDbEntity
8
SK2
62
256
6
ByLayer
370
25
48
1
60
0
100
AcDbLine
10
-99.909617
20
-11.9375
30
0
11
-99.909617
21
-55.6625
31
0
39
0
210
0
220
0
230
1
0
LINE
5
163
100
AcDbEntity
8
SK2
62
256
6
ByLayer
370
25
48
1
60
0
100
AcDbLine
10
26.440383
20
-53.6625
30
0
11
-99.909617
21
-53.6625
31
0
39
0
210
0
220
0
230
1
0
LINE
5
164
100
AcDbEntity
8
SK2
62
256
6
ByLayer
370
25
48
1
60
0
100
AcDbLine
10
26.440383
20
-53.6625
30
0
11
23.265385
21
-54.080497
31
0
39
0
210
0
220
0
230
1
0
LINE
5
165
100
AcDbEntity
8
SK2
62
256
6
ByLayer
370
25
48
1
60
0
100
AcDbLine
10
26.440383
20
-53.6625
30
0
11
23.265382
21
-53.244503
31
0
39
0
210
0
220
0
230
1
0
LINE
5
166
100
AcDbEntity
8
SK2
62
256
6
ByLayer
370
25
48
1
60
0
100
AcDbLine
10
23.265385
20
-54.080497
30
0
11
23.265382
21
-53.244503
31
0
39
0
210
0
220
0
230
1
0
LINE
5
167
100
AcDbEntity
8
SK2
62
256
6
ByLayer
370
25
48
1
60
0
100
AcDbLine
10
-99.909617
20
-53.6625
30
0
11
-96.734618
21
-53.244503
31
0
39
0
210
0
220
0
230
1
0
LINE
5
168
100
AcDbEntity
8
SK2
62
256
6
ByLayer
370
25
48
1
60
0
100
AcDbLine
10
-99.909617
20
-53.6625
30
0
11
-96.734615
21
-54.080497
31
0
39
0
210
0
220
0
230
1
0
LINE
5
169
100
AcDbEntity
8
SK2
62
256
6
ByLayer
370
25
48
1
60
0
100
AcDbLine
10
-96.734618
20
-53.244503
30
0
11
-96.734615
21
-54.080497
31
0
39
0
210
0
220
0
230
1
0
MTEXT
5
16A
100
AcDbEntity
8
SK2
62
256
6
ByLayer
370
18
48
1
60
0
100
AcDbMText
10
-42.010275
20
-52.5375
30
0
210
0
220
0
230
1
1
\W0.6864;125.0
40
4.5
41
0
44
1.084337
50
0
71
7
72
5
7
iso_b_vert
0
ENDBLK
5
15F
100
AcDbEntity
8
0
100
AcDbBlockEnd
0
BLOCK
5
177
100
AcDbEntity
8
0
100
AcDbBlockBegin
2
DimnDraft3D2
70
0
10
0
20
0
30
0
3
DimnDraft3D2
0
MTEXT
5
16D
100
AcDbEntity
8
2
62
256
6
ByLayer
370
18
48
1
60
0
100
AcDbMText
10
9.53445
20
-27.086616
30
0
210
0
220
0
230
1
1
\W0.7399;95%%d
40
4.5
41
0
44
1.084337
50
312.65427684
71
7
72
5
7
iso_b_vert
0
LINE
5
16E
100
AcDbEntity
8
2
62
256
6
ByLayer
370
13
48
1
60
0
100
AcDbLine
10
26.440383
20
-17.4125
30
0
11
26.440383
21
-38.902991
31
0
39
0
210
0
220
0
230
1
0
LINE
5
16F
100
AcDbEntity
8
2
62
256
6
ByLayer
370
13
48
1
60
0
100
AcDbLine
10
22.591764
20
-15.164471
30
0
11
3.096175
21
-13.564572
31
0
39
0
210
0
220
0
230
1
0
ARC
5
170
100
AcDbEntity
8
2
62
256
6
ByLayer
370
13
48
1
60
0
100
AcDbCircle
39
0
10
26.440383
20
-15.480307
30
0
40
21.4226837817216
210
0
220
0
230
1
100
AcDbArc
50
175.308554
51
270
0
LINE
5
171
100
AcDbEntity
8
2
62
256
6
ByLayer
370
13
48
1
60
0
100
AcDbLine
10
26.440383
20
-36.902991
30
0
11
23.2521
21
-37.203304
31
0
39
0
210
0
220
0
230
1
0
LINE
5
172
100
AcDbEntity
8
2
62
256
6
ByLayer
370
13
48
1
60
0
100
AcDbLine
10
26.440383
20
-36.902991
30
0
11
23.283009
21
-36.367882
31
0
39
0
210
0
220
0
230
1
0
LINE
5
173
100
AcDbEntity
8
2
62
256
6
ByLayer
370
13
48
1
60
0
100
AcDbLine
10
23.2521
20
-37.203304
30
0
11
23.283009
21
-36.367882
31
0
39
0
210
0
220
0
230
1
0
LINE
5
174
100
AcDbEntity
8
2
62
256
6
ByLayer
370
13
48
1
60
0
100
AcDbLine
10
5.089474
20
-13.728152
30
0
11
5.36455
21
-16.918711
31
0
39
0
210
0
220
0
230
1
0
LINE
5
175
100
AcDbEntity
8
2
62
256
6
ByLayer
370
13
48
1
60
0
100
AcDbLine
10
5.089474
20
-13.728152
30
0
11
4.529399
21
-16.881193
31
0
39
0
210
0
220
0
230
1
0
LINE
5
176
100
AcDbEntity
8
2
62
256
6
ByLayer
370
13
48
1
60
0
100
AcDbLine
10
5.36455
20
-16.918711
30
0
11
4.529399
21
-16.881193
31
0
39
0
210
0
220
0
230
1
0
ENDBLK
5
178
100
AcDbEntity
8
0
100
AcDbBlockEnd
0
BLOCK
5
17B
100
AcDbEntity
8
0
100
AcDbBlockBegin
2
_CLOSED
70
0
10
0
20
0
30
0
3
_CLOSED
0
LINE
5
17D
100
AcDbEntity
8
0
62
256
6
ByLayer
370
-2
48
1
60
0
100
AcDbLine
10
-1
20
0.166667
30
0
11
0
21
0
31
0
39
0
210
0
220
0
230
1
0
LINE
5
17E
100
AcDbEntity
8
0
62
256
6
ByLayer
370
-2
48
1
60
0
100
AcDbLine
10
0
20
0
30
0
11
-1
21
-0.166667
31
0
39
0
210
0
220
0
230
1
0
LINE
5
17F
100
AcDbEntity
8
0
62
256
6
ByLayer
370
-2
48
1
60
0
100
AcDbLine
10
-1
20
0.166667
30
0
11
-1
21
-0.166667
31
0
39
0
210
0
220
0
230
1
0
LINE
5
180
100
AcDbEntity
8
0
62
256
6
ByLayer
370
-2
48
1
60
0
100
AcDbLine
10
0
20
0
30
0
11
-1
21
0
31
0
39
0
210
0
220
0
230
1
0
ENDBLK
5
17C
100
AcDbEntity
8
0
100
AcDbBlockEnd
0
BLOCK
5
18C
100
AcDbEntity
8
0
100
AcDbBlockBegin
2
DimnDraft3D3
70
0
10
0
20
0
30
0
3
DimnDraft3D3
0
MTEXT
5
182
100
AcDbEntity
8
2
62
256
6
ByLayer
370
18
48
1
60
0
100
AcDbMText
10
8.826771
20
-42.5375
30
0
210
0
220
0
230
1
1
\W0.7528;26.4
40
4.5
41
0
44
1.084337
50
0
71
7
72
5
7
iso_b_vert
0
LINE
5
183
100
AcDbEntity
8
2
62
256
6
ByLayer
370
13
48
1
60
0
100
AcDbLine
10
0
20
-11.9375
30
0
11
0
21
-45.6625
31
0
39
0
210
0
220
0
230
1
0
LINE
5
184
100
AcDbEntity
8
2
62
256
6
ByLayer
370
13
48
1
60
0
100
AcDbLine
10
26.440383
20
-17.4125
30
0
11
26.440383
21
-45.6625
31
0
39
0
210
0
220
0
230
1
0
LINE
5
185
100
AcDbEntity
8
2
62
256
6
ByLayer
370
13
48
1
60
0
100
AcDbLine
10
0
20
-43.6625
30
0
11
26.440383
21
-43.6625
31
0
39
0
210
0
220
0
230
1
0
LINE
5
186
100
AcDbEntity
8
2
62
256
6
ByLayer
370
13
48
1
60
0
100
AcDbLine
10
0
20
-43.6625
30
0
11
3.174998
21
-43.244503
31
0
39
0
210
0
220
0
230
1
0
LINE
5
187
100
AcDbEntity
8
2
62
256
6
ByLayer
370
13
48
1
60
0
100
AcDbLine
10
0
20
-43.6625
30
0
11
3.175002
21
-44.080497
31
0
39
0
210
0
220
0
230
1
0
LINE
5
188
100
AcDbEntity
8
2
62
256
6
ByLayer
370
13
48
1
60
0
100
AcDbLine
10
3.174998
20
-43.244503
30
0
11
3.175002
21
-44.080497
31
0
39
0
210
0
220
0
230
1
0
LINE
5
189
100
AcDbEntity
8
2
62
256
6
ByLayer
370
13
48
1
60
0
100
AcDbLine
10
26.440383
20
-43.6625
30
0
11
23.265385
21
-44.080497
31
0
39
0
210
0
220
0
230
1
0
LINE
5
18A
100
AcDbEntity
8
2
62
256
6
ByLayer
370
13
48
1
60
0
100
AcDbLine
10
26.440383
20
-43.6625
30
0
11
23.265382
21
-43.244503
31
0
39
0
210
0
220
0
230
1
0
LINE
5
18B
100
AcDbEntity
8
2
62
256
6
ByLayer
370
13
48
1
60
0
100
AcDbLine
10
23.265385
20
-44.080497
30
0
11
23.265382
21
-43.244503
31
0
39
0
210
0
220
0
230
1
0
ENDBLK
5
18D
100
AcDbEntity
8
0
100
AcDbBlockEnd
0
BLOCK
5
19A
100
AcDbEntity
8
0
100
AcDbBlockBegin
2
DimnDraft3D4
70
0
10
0
20
0
30
0
3
DimnDraft3D4
0
MTEXT
5
190
100
AcDbEntity
8
2
62
256
6
ByLayer
370
18
48
1
60
0
100
AcDbMText
10
47.565383
20
-6.894079
30
0
210
0
220
0
230
1
1
\W0.7346;25.0
40
4.5
41
0
44
1.084337
50
90
71
7
72
5
7
iso_b_vert
0
LINE
5
191
100
AcDbEntity
8
2
62
256
6
ByLayer
370
13
48
1
60
0
100
AcDbLine
10
2
20
9.9375
30
0
11
50.690383
21
9.9375
31
0
39
0
210
0
220
0
230
1
0
LINE
5
192
100
AcDbEntity
8
2
62
256
6
ByLayer
370
13
48
1
60
0
100
AcDbLine
10
28.440383
20
-15.4125
30
0
11
50.690383
21
-15.4125
31
0
39
0
210
0
220
0
230
1
0
LINE
5
193
100
AcDbEntity
8
2
62
256
6
ByLayer
370
13
48
1
60
0
100
AcDbLine
10
48.690383
20
9.9375
30
0
11
48.690383
21
-15.4125
31
0
39
0
210
0
220
0
230
1
0
LINE
5
194
100
AcDbEntity
8
2
62
256
6
ByLayer
370
13
48
1
60
0
100
AcDbLine
10
48.690383
20
9.9375
30
0
11
49.10838
21
6.762502
31
0
39
0
210
0
220
0
230
1
0
LINE
5
195
100
AcDbEntity
8
2
62
256
6
ByLayer
370
13
48
1
60
0
100
AcDbLine
10
48.690383
20
9.9375
30
0
11
48.272387
21
6.762498
31
0
39
0
210
0
220
0
230
1
0
LINE
5
196
100
AcDbEntity
8
2
62
256
6
ByLayer
370
13
48
1
60
0
100
AcDbLine
10
49.10838
20
6.762502
30
0
11
48.272387
21
6.762498
31
0
39
0
210
0
220
0
230
1
0
LINE
5
197
100
AcDbEntity
8
2
62
256
6
ByLayer
370
13
48
1
60
0
100
AcDbLine
10
48.690383
20
-15.4125
30
0
11
48.272387
21
-12.237502
31
0
39
0
210
0
220
0
230
1
0
LINE
5
198
100
AcDbEntity
8
2
62
256
6
ByLayer
370
13
48
1
60
0
100
AcDbLine
10
48.690383
20
-15.4125
30
0
11
49.10838
21
-12.237498
31
0
39
0
210
0
220
0
230
1
0
LINE
5
199
100
AcDbEntity
8
2
62
256
6
ByLayer
370
13
48
1
60
0
100
AcDbLine
10
48.272387
20
-12.237502
30
0
11
49.10838
21
-12.237498
31
0
39
0
210
0
220
0
230
1
0
ENDBLK
5
19B
100
AcDbEntity
8
0
100
AcDbBlockEnd
0
BLOCK
5
1A8
100
AcDbEntity
8
0
100
AcDbBlockBegin
2
DimnDraft3D5
70
0
10
0
20
0
30
0
3
DimnDraft3D5
0
MTEXT
5
19E
100
AcDbEntity
8
SK2
62
256
6
ByLayer
370
18
48
1
60
0
100
AcDbMText
10
-108.784617
20
-4.156579
30
0
210
0
220
0
230
1
1
\W0.7346;20.0
40
4.5
41
0
44
1.084337
50
90
71
7
72
5
7
iso_b_vert
0
LINE
5
19F
100
AcDbEntity
8
SK2
62
256
6
ByLayer
370
13
48
1
60
0
100
AcDbLine
10
-101.909617
20
9.9375
30
0
11
-109.659617
21
9.9375
31
0
39
0
210
0
220
0
230
1
0
LINE
5
1A0
100
AcDbEntity
8
SK2
62
256
6
ByLayer
370
13
48
1
60
0
100
AcDbLine
10
-101.909617
20
-9.9375
30
0
11
-109.659617
21
-9.9375
31
0
39
0
210
0
220
0
230
1
0
LINE
5
1A1
100
AcDbEntity
8
SK2
62
256
6
ByLayer
370
13
48
1
60
0
100
AcDbLine
10
-107.659617
20
21.1875
30
0
11
-107.659617
21
-21.1875
31
0
39
0
210
0
220
0
230
1
0
LINE
5
1A2
100
AcDbEntity
8
SK2
62
256
6
ByLayer
370
13
48
1
60
0
100
AcDbLine
10
-107.659617
20
9.9375
30
0
11
-108.077613
21
13.112498
31
0
39
0
210
0
220
0
230
1
0
LINE
5
1A3
100
AcDbEntity
8
SK2
62
256
6
ByLayer
370
13
48
1
60
0
100
AcDbLine
10
-107.659617
20
9.9375
30
0
11
-107.24162
21
13.112502
31
0
39
0
210
0
220
0
230
1
0
LINE
5
1A4
100
AcDbEntity
8
SK2
62
256
6
ByLayer
370
13
48
1
60
0
100
AcDbLine
10
-108.077613
20
13.112498
30
0
11
-107.24162
21
13.112502
31
0
39
0
210
0
220
0
230
1
0
LINE
5
1A5
100
AcDbEntity
8
SK2
62
256
6
ByLayer
370
13
48
1
60
0
100
AcDbLine
10
-107.659617
20
-9.9375
30
0
11
-107.24162
21
-13.112498
31
0
39
0
210
0
220
0
230
1
0
LINE
5
1A6
100
AcDbEntity
8
SK2
62
256
6
ByLayer
370
13
48
1
60
0
100
AcDbLine
10
-107.659617
20
-9.9375
30
0
11
-108.077613
21
-13.112502
31
0
39
0
210
0
220
0
230
1
0
LINE
5
1A7
100
AcDbEntity
8
SK2
62
256
6
ByLayer
370
13
48
1
60
0
100
AcDbLine
10
-107.24162
20
-13.112498
30
0
11
-108.077613
21
-13.112502
31
0
39
0
210
0
220
0
230
1
0
ENDBLK
5
1A9
100
AcDbEntity
8
0
100
AcDbBlockEnd
0
ENDSEC
0
SECTION
2
ENTITIES
0
ELLIPSE
5
D0
100
AcDbEntity
8
1
62
256
6
ByLayer
370
18
48
1
60
0
100
AcDbEllipse
10
11.033975
20
-6.947922
30
0
11
-0.205060966544568
21
-0.20506096654363
31
0
210
0
220
0
230
1
40
0.989133
41
2.22523715338499
42
2.78835038881794
0
ELLIPSE
5
D1
100
AcDbEntity
8
1
62
256
6
ByLayer
370
18
48
1
60
0
100
AcDbEllipse
10
9.85822
20
-8.123677
30
0
11
-0.205060966544568
21
-0.20506096654363
31
0
210
0
220
0
230
1
40
0.989133
41
0.353242264771782
42
0.916355500204741
0
ELLIPSE
5
D2
100
AcDbEntity
8
1
62
256
6
ByLayer
370
18
48
1
60
0
100
AcDbEllipse
10
10.745433
20
-7.835136
30
0
11
0.636396103069352
21
0.636396103066434
31
0
210
0
220
0
230
1
40
0.989133
41
-3.04813623094158
42
-0.0934683133249929
0
ELLIPSE
5
D3
100
AcDbEntity
8
1
62
256
6
ByLayer
370
18
48
1
60
0
100
AcDbEllipse
10
10.78182
20
-7.871522
30
0
11
0.636396103069352
21
0.636396103066434
31
0
210
0
220
0
230
1
40
0.989133
41
1.26281339097146
42
1.87877998801343
0
ELLIPSE
5
D4
100
AcDbEntity
8
1
62
256
6
ByLayer
370
18
48
1
60
0
100
AcDbEllipse
10
10.78182
20
-7.871522
30
0
11
0.636396103069352
21
0.636396103066434
31
0
210
0
220
0
230
1
40
0.989133
41
0.0934920250935535
42
0.65105863037699
0
ELLIPSE
5
D5
100
AcDbEntity
8
1
62
256
6
ByLayer
370
18
48
1
60
0
100
AcDbEllipse
10
10.78182
20
-7.871522
30
0
11
0.636396103069352
21
0.636396103066434
31
0
210
0
220
0
230
1
40
0.989133
41
2.49053402321283
42
3.04810062849627
0
ELLIPSE
5
D6
100
AcDbEntity
8
1
62
256
6
ByLayer
370
18
48
1
60
0
100
AcDbEllipse
10
10.703849
20
-7.793551
30
0
11
2.26274169980214
21
2.26274169979177
31
0
210
0
220
0
230
1
40
0.989133
41
0.790861447994065
42
3.14158704533068
0
ELLIPSE
5
D7
100
AcDbEntity
8
1
62
256
6
ByLayer
370
18
48
1
60
0
100
AcDbEllipse
10
10.703849
20
-7.793551
30
0
11
2.26274169980214
21
2.26274169979177
31
0
210
0
220
0
230
1
40
0.989133
41
9.24095939305285E-05
42
0.790861133810249
0
ELLIPSE
5
D8
100
AcDbEntity
8
1
62
256
6
ByLayer
370
18
48
1
60
0
100
AcDbEllipse
10
11.70542
20
-7.619368
30
0
11
-0.205060966544568
21
-0.20506096654363
31
0
210
0
220
0
230
1
40
0.989133
41
1.17803960218852
42
2.78831280022446
0
ELLIPSE
5
D9
100
AcDbEntity
8
1
62
256
6
ByLayer
370
18
48
1
60
0
100
AcDbEllipse
10
10.529665
20
-8.795123
30
0
11
-0.205060966544568
21
-0.20506096654363
31
0
210
0
220
0
230
1
40
0.989133
41
0.353279853365401
42
1.96355305140136
0
ELLIPSE
5
DA
100
AcDbEntity
8
1
62
256
6
ByLayer
370
18
48
1
60
0
100
AcDbEllipse
10
21.332504
20
-10.304621
30
0
11
1.34703841816346
21
1.34703841815728
31
0
210
0
220
0
230
1
40
0.989133
41
-2.51681411120253
42
0
0
ELLIPSE
5
DB
100
AcDbEntity
8
1
62
256
6
ByLayer
370
18
48
1
60
0
100
AcDbEllipse
10
21.332504
20
-10.304621
30
0
11
1.34703841816346
21
1.34703841815728
31
0
210
0
220
0
230
1
40
0.989133
41
0
42
0.431079735436964
0
ELLIPSE
5
DC
100
AcDbEntity
8
1
62
256
6
ByLayer
370
18
48
1
60
0
100
AcDbEllipse
10
22.45941
20
-3.869515
30
0
11
0.561230652229049
21
0.561230652226476
31
0
210
0
220
0
230
1
40
0.989133
41
5.28576569061476E-07
42
1.30714335385627
0
ELLIPSE
5
DD
100
AcDbEntity
8
1
62
256
6
ByLayer
370
18
48
1
60
0
100
AcDbEllipse
10
20.837647
20
-9.809763
30
0
11
-1.34703841816345
21
-1.34703841815729
31
0
210
0
220
0
230
1
40
0.989133
41
2.95476028034047
42
-0.769008880426867
0
ELLIPSE
5
DE
100
AcDbEntity
8
1
62
256
6
ByLayer
370
18
48
1
60
0
100
AcDbEllipse
10
20.837647
20
-9.809763
30
0
11
-1.34703841816345
21
-1.34703841815729
31
0
210
0
220
0
230
1
40
0.989133
41
2.61350463182352
42
2.95476028034047
0
ELLIPSE
5
DF
100
AcDbEntity
8
1
62
256
6
ByLayer
370
18
48
1
60
0
100
AcDbEllipse
10
4.926497
20
-11.642185
30
0
11
2.00411319484461
21
2.23238220344316
31
0
210
0
220
0
230
1
40
0.98676
41
0.182841668561994
42
0.470414656504744
0
ELLIPSE
5
E0
100
AcDbEntity
8
1
62
256
6
ByLayer
370
18
48
1
60
0
100
AcDbEllipse
10
11.360832
20
-7.964628
30
0
11
-2.23792640090982
21
-2.49282679384486
31
0
210
0
220
0
230
1
40
0.98676
41
0.470414656504749
42
-3.01837296875395
0
ELLIPSE
5
E1
100
AcDbEntity
8
1
62
256
6
ByLayer
370
18
48
1
60
0
100
AcDbEllipse
10
7.194093
20
-10.361191
30
0
11
-3.33911270866978
21
-0.617089188586523
31
0
210
0
220
0
230
1
40
0.419778
41
0.436824619966342
42
0.72844848348107
0
ELLIPSE
5
E2
100
AcDbEntity
8
1
62
256
6
ByLayer
370
18
48
1
60
0
100
AcDbEllipse
10
4.866325
20
-8.944833
30
0
11
-2.29135103078686
21
-1.01920308148715
31
0
210
0
220
0
230
1
40
0.990371
41
-0.680306581616514
42
0.433487814494907
0
ELLIPSE
5
E3
100
AcDbEntity
8
1
62
256
6
ByLayer
370
18
48
1
60
0
100
AcDbEllipse
10
5.205886
20
-9.432146
30
0
11
-0.247184512010696
21
1.78294694733804
31
0
210
0
220
0
230
1
40
0.816684
41
1.27645530837014
42
2.70668511481895
0
ELLIPSE
5
E4
100
AcDbEntity
8
1
62
256
6
ByLayer
370
18
48
1
60
0
100
AcDbEllipse
10
8.792375
20
-4.831662
30
0
11
4.34112244422441
21
-1.18518181063122
31
0
210
0
220
0
230
1
40
0.073512
41
-2.40105709263897
42
-1.96218052381014
0
ELLIPSE
5
E5
100
AcDbEntity
8
1
62
256
6
ByLayer
370
18
48
1
60
0
100
AcDbEllipse
10
6.827576
20
-3.492167
30
0
11
1.34291647595085
21
1.19857220834614
31
0
210
0
220
0
230
1
40
0.774573
41
0.649692756139155
42
2.07992256258796
0
ELLIPSE
5
E6
100
AcDbEntity
8
1
62
256
6
ByLayer
370
18
48
1
60
0
100
AcDbEllipse
10
7.298937
20
-10.301872
30
0
11
-4.37176376465706
21
1.07285745949454
31
0
210
0
220
0
230
1
40
0.124294
41
-0.590094919498197
42
-0.528446737816182
0
ELLIPSE
5
E7
100
AcDbEntity
8
1
62
256
6
ByLayer
370
18
48
1
60
0
100
AcDbEllipse
10
8.796326
20
-4.49248
30
0
11
-2.00779183713968
21
3.32412133790122
31
0
210
0
220
0
230
1
40
0.505057
41
-0.479880756458224
42
-0.188256892937133
0
ELLIPSE
5
E8
100
AcDbEntity
8
1
62
256
6
ByLayer
370
18
48
1
60
0
100
AcDbEllipse
10
9.637809
20
-2.010981
30
0
11
-2.56809873136184
21
0.842944249131944
31
0
210
0
220
0
230
1
40
0.402459
41
-0.134217186607543
42
0.60727369712358
0
ELLIPSE
5
E9
100
AcDbEntity
8
1
62
256
6
ByLayer
370
18
48
1
60
0
100
AcDbEllipse
10
21.591564
20
-10.503576
30
0
11
-0.212188270447682
21
-1.73934239206667
31
0
210
0
220
0
230
1
40
0.837681
41
1.51414874583623
42
1.795232430771
0
ELLIPSE
5
EA
100
AcDbEntity
8
1
62
256
6
ByLayer
370
18
48
1
60
0
100
AcDbEllipse
10
3.246829
20
-0.026902
30
0
11
5.78816325896588
21
-1.58024241417496
31
0
210
0
220
0
230
1
40
0.073512
41
0.791246453599077
42
0.793135574676266
0
ELLIPSE
5
EB
100
AcDbEntity
8
1
62
256
6
ByLayer
370
18
48
1
60
0
100
AcDbEllipse
10
21.591564
20
-10.503576
30
0
11
-1.31499034231695
21
-1.00450433121298
31
0
210
0
220
0
230
1
40
0.820784
41
1.9227421337314
42
2.20382581867269
0
ELLIPSE
5
EC
100
AcDbEntity
8
1
62
256
6
ByLayer
370
18
48
1
60
0
100
AcDbEllipse
10
6.909616
20
-12.003896
30
0
11
-2.63680403953052
21
0.592727853616923
31
0
210
0
220
0
230
1
40
0.255808
41
-0.598500912876991
42
0.142989970854765
0
ELLIPSE
5
ED
100
AcDbEntity
8
1
62
256
6
ByLayer
370
18
48
1
60
0
100
AcDbEllipse
10
7.636666
20
-9.06483
30
0
11
4.34112244422441
21
-1.18518181063122
31
0
210
0
220
0
230
1
40
0.073512
41
-2.40105709263898
42
-1.96218052381014
0
ELLIPSE
5
EE
100
AcDbEntity
8
1
62
256
6
ByLayer
370
18
48
1
60
0
100
AcDbEllipse
10
9.130104
20
-3.59462
30
0
11
-4.30841420037772
21
1.30451421550971
31
0
210
0
220
0
230
1
40
0.27121
41
0.53268816072193
42
0.59433633263613
0
ELLIPSE
5
EF
100
AcDbEntity
8
1
62
256
6
ByLayer
370
18
48
1
60
0
100
AcDbEllipse
10
6.468558
20
-3.076122
30
0
11
-2.29135103077558
21
-1.01920308150969
31
0
210
0
220
0
230
1
40
0.990371
41
-1.79410097773837
42
-0.680306581626696
0
ELLIPSE
5
F0
100
AcDbEntity
8
1
62
256
6
ByLayer
370
18
48
1
60
0
100
AcDbEllipse
10
10.78182
20
-7.871522
30
0
11
0.636396103069352
21
0.636396103066434
31
0
210
0
220
0
230
1
40
0.989133
41
-0.953705526103038
42
-0.0934920250935374
0
ELLIPSE
5
F1
100
AcDbEntity
8
1
62
256
6
ByLayer
370
18
48
1
60
0
100
AcDbEllipse
10
11.770454
20
-7.163585
30
0
11
0.222738636074273
21
0.222738636073252
31
0
210
0
220
0
230
1
40
0.989133
41
-2.6984374211502
42
-2.22523715338496
0
ELLIPSE
5
F2
100
AcDbEntity
8
1
62
256
6
ByLayer
370
18
48
1
60
0
100
AcDbEllipse
10
11.845768
20
-7.759716
30
0
11
-0.205060966544568
21
-0.20506096654363
31
0
210
0
220
0
230
1
40
0.989133
41
1.17803960218852
42
-2.2252371533851
0
ELLIPSE
5
F3
100
AcDbEntity
8
1
62
256
6
ByLayer
370
18
48
1
60
0
100
AcDbEllipse
10
10.917666
20
-8.007369
30
0
11
0.636396103069352
21
0.636396103066434
31
0
210
0
220
0
230
1
40
0.989133
41
0.953705526103051
42
1.14068957629013
0
ELLIPSE
5
F4
100
AcDbEntity
8
1
62
256
6
ByLayer
370
18
48
1
60
0
100
AcDbEllipse
10
10.250722
20
-7.340425
30
0
11
-0.205060966544568
21
-0.20506096654363
31
0
210
0
220
0
230
1
40
0.989133
41
-3.01075060259799
42
-0.130842050991848
0
ELLIPSE
5
F5
100
AcDbEntity
8
1
62
256
6
ByLayer
370
18
48
1
60
0
100
AcDbEllipse
10
12.072965
20
-8.314381
30
0
11
0.222738636074273
21
0.222738636073252
31
0
210
0
220
0
230
1
40
0.989133
41
2.53755033483277
42
3.01075060259805
0
ELLIPSE
5
F6
100
AcDbEntity
8
1
62
256
6
ByLayer
370
18
48
1
60
0
100
AcDbEllipse
10
10.917666
20
-8.007369
30
0
11
0.636396103069352
21
0.636396103066434
31
0
210
0
220
0
230
1
40
0.989133
41
2.00090307729965
42
2.18788712748673
0
ELLIPSE
5
F7
100
AcDbEntity
8
1
62
256
6
ByLayer
370
18
48
1
60
0
100
AcDbEllipse
10
11.084331
20
-9.022319
30
0
11
0.222738636074273
21
0.222738636073252
31
0
210
0
220
0
230
1
40
0.989133
41
1.31719720501034
42
1.96355305140139
0
ELLIPSE
5
F8
100
AcDbEntity
8
1
62
256
6
ByLayer
370
18
48
1
60
0
100
AcDbEllipse
10
10.922168
20
-8.011871
30
0
11
0.654073772599056
21
0.654073772596057
31
0
210
0
220
0
230
1
40
0.989133
41
0.900652520408422
42
1.19374258198478
0
ELLIPSE
5
F9
100
AcDbEntity
8
1
62
256
6
ByLayer
370
18
48
1
60
0
100
AcDbEllipse
10
11.453266
20
-8.542968
30
0
11
-0.205060966544568
21
-0.20506096654363
31
0
210
0
220
0
230
1
40
0.989133
41
0.130842050991848
42
3.01075060259789
0
ELLIPSE
5
FA
100
AcDbEntity
8
1
62
256
6
ByLayer
370
18
48
1
60
0
100
AcDbEllipse
10
10.922168
20
-8.011871
30
0
11
0.654073772599056
21
0.654073772596057
31
0
210
0
220
0
230
1
40
0.989133
41
2.9950476228016
42
-2.99504762280162
0
ELLIPSE
5
FB
100
AcDbEntity
8
1
62
256
6
ByLayer
370
18
48
1
60
0
100
AcDbEllipse
10
11.224679
20
-9.162667
30
0
11
0.222738636074273
21
0.222738636073252
31
0
210
0
220
0
230
1
40
0.989133
41
0.130842050991832
42
0.604042318757125
0
ELLIPSE
5
FC
100
AcDbEntity
8
1
62
256
6
ByLayer
370
18
48
1
60
0
100
AcDbEllipse
10
9.933534
20
-8.719808
30
0
11
0.222738636074273
21
0.222738636073252
31
0
210
0
220
0
230
1
40
0.989133
41
0.269999653813767
42
0.916355500204805
0
ELLIPSE
5
FD
100
AcDbEntity
8
1
62
256
6
ByLayer
370
18
48
1
60
0
100
AcDbEllipse
10
10.917666
20
-8.007369
30
0
11
0.636396103069352
21
0.636396103066434
31
0
210
0
220
0
230
1
40
0.989133
41
-1.14068957629011
42
-0.953705526103029
0
ELLIPSE
5
FE
100
AcDbEntity
8
1
62
256
6
ByLayer
370
18
48
1
60
0
100
AcDbEllipse
10
9.771371
20
-7.70936
30
0
11
0.222738636074273
21
0.222738636073252
31
0
210
0
220
0
230
1
40
0.989133
41
-1.96355305140139
42
-1.49035278363617
0
ELLIPSE
5
FF
100
AcDbEntity
8
1
62
256
6
ByLayer
370
18
48
1
60
0
100
AcDbEllipse
10
12.072965
20
-8.314381
30
0
11
0.222738636074273
21
0.222738636073252
31
0
210
0
220
0
230
1
40
0.989133
41
1.17803960218838
42
1.65123986995367
0
ELLIPSE
5
100
100
AcDbEntity
8
1
62
256
6
ByLayer
370
18
48
1
60
0
100
AcDbEllipse
10
10.619657
20
-6.861074
30
0
11
0.222738636074273
21
0.222738636073252
31
0
210
0
220
0
230
1
40
0.989133
41
-1.65123986995371
42
-1.17803960218843
0
ELLIPSE
5
101
100
AcDbEntity
8
1
62
256
6
ByLayer
370
18
48
1
60
0
100
AcDbEllipse
10
11.630106
20
-7.023236
30
0
11
0.222738636074273
21
0.222738636073252
31
0
210
0
220
0
230
1
40
0.989133
41
2.22523715338509
42
2.87159299977622
0
ELLIPSE
5
102
100
AcDbEntity
8
1
62
256
6
ByLayer
370
18
48
1
60
0
100
AcDbEllipse
10
10.922168
20
-8.011871
30
0
11
0.654073772599056
21
0.654073772596057
31
0
210
0
220
0
230
1
40
0.989133
41
-1.19374258198476
42
-0.900652520408412
0
ELLIPSE
5
103
100
AcDbEntity
8
1
62
256
6
ByLayer
370
18
48
1
60
0
100
AcDbEllipse
10
10.922168
20
-8.011871
30
0
11
0.654073772599056
21
0.654073772596057
31
0
210
0
220
0
230
1
40
0.989133
41
-2.24094013318136
42
-1.94785007160501
0
ELLIPSE
5
104
100
AcDbEntity
8
1
62
256
6
ByLayer
370
18
48
1
60
0
100
AcDbEllipse
10
9.771371
20
-7.70936
30
0
11
0.222738636074273
21
0.222738636073252
31
0
210
0
220
0
230
1
40
0.989133
41
-0.604042318757148
42
-0.130842050991835
0
ELLIPSE
5
105
100
AcDbEntity
8
1
62
256
6
ByLayer
370
18
48
1
60
0
100
AcDbEllipse
10
10.78182
20
-7.871522
30
0
11
0.636396103069352
21
0.636396103066434
31
0
210
0
220
0
230
1
40
0.989133
41
-2.00090307729962
42
-1.14068957629013
0
ELLIPSE
5
106
100
AcDbEntity
8
1
62
256
6
ByLayer
370
18
48
1
60
0
100
AcDbEllipse
10
11.593614
20
-8.683316
30
0
11
-0.205060966544568
21
-0.20506096654363
31
0
210
0
220
0
230
1
40
0.989133
41
0.130842050991854
42
3.01075060259795
0
ELLIPSE
5
107
100
AcDbEntity
8
1
62
256
6
ByLayer
370
18
48
1
60
0
100
AcDbEllipse
10
11.932617
20
-8.174033
30
0
11
0.222738636074273
21
0.222738636073252
31
0
210
0
220
0
230
1
40
0.989133
41
2.36439475620694
42
3.01075060259796
0
ELLIPSE
5
108
100
AcDbEntity
8
1
62
256
6
ByLayer
370
18
48
1
60
0
100
AcDbEllipse
10
11.932617
20
-8.174033
30
0
11
0.222738636074273
21
0.222738636073252
31
0
210
0
220
0
230
1
40
0.989133
41
1.1780396021884
42
1.82439544857954
0
ELLIPSE
5
109
100
AcDbEntity
8
1
62
256
6
ByLayer
370
18
48
1
60
0
100
AcDbEllipse
10
10.78182
20
-7.871522
30
0
11
0.636396103069352
21
0.636396103066434
31
0
210
0
220
0
230
1
40
0.989133
41
-3.04810062849621
42
-2.18788712748673
0
ELLIPSE
5
10A
100
AcDbEntity
8
1
62
256
6
ByLayer
370
18
48
1
60
0
100
AcDbEllipse
10
11.224679
20
-9.162667
30
0
11
0.222738636074273
21
0.222738636073252
31
0
210
0
220
0
230
1
40
0.989133
41
1.49035278363613
42
1.96355305140135
0
ELLIPSE
5
10B
100
AcDbEntity
8
1
62
256
6
ByLayer
370
18
48
1
60
0
100
AcDbEllipse
10
10.670013
20
-8.935471
30
0
11
-0.205060966544568
21
-0.20506096654363
31
0
210
0
220
0
230
1
40
0.989133
41
-0.916355500204782
42
1.96355305140143
0
ELLIPSE
5
10C
100
AcDbEntity
8
1
62
256
6
ByLayer
370
18
48
1
60
0
100
AcDbEllipse
10
11.174323
20
-7.08827
30
0
11
-0.205060966544568
21
-0.20506096654363
31
0
210
0
220
0
230
1
40
0.989133
41
2.22523715338502
42
-1.17803960218848
0
ELLIPSE
5
10D
100
AcDbEntity
8
1
62
256
6
ByLayer
370
18
48
1
60
0
100
AcDbEllipse
10
10.917666
20
-8.007369
30
0
11
0.636396103069352
21
0.636396103066434
31
0
210
0
220
0
230
1
40
0.989133
41
-0.0934920251032868
42
0.0934920250937119
0
ELLIPSE
5
10E
100
AcDbEntity
8
1
62
256
6
ByLayer
370
18
48
1
60
0
100
AcDbEllipse
10
11.770454
20
-7.163585
30
0
11
0.222738636074273
21
0.222738636073252
31
0
210
0
220
0
230
1
40
0.989133
41
2.22523715338506
42
2.69843742115027
0
ELLIPSE
5
10F
100
AcDbEntity
8
1
62
256
6
ByLayer
370
18
48
1
60
0
100
AcDbEllipse
10
10.073882
20
-8.860156
30
0
11
0.222738636074273
21
0.222738636073252
31
0
210
0
220
0
230
1
40
0.989133
41
0.443155232439527
42
0.916355500204866
0
ELLIPSE
5
110
100
AcDbEntity
8
1
62
256
6
ByLayer
370
18
48
1
60
0
100
AcDbEllipse
10
10.922168
20
-8.011871
30
0
11
0.654073772599056
21
0.654073772596057
31
0
210
0
220
0
230
1
40
0.989133
41
-0.146545030788173
42
0.146545030788155
0
ELLIPSE
5
111
100
AcDbEntity
8
1
62
256
6
ByLayer
370
18
48
1
60
0
100
AcDbEllipse
10
10.922168
20
-8.011871
30
0
11
0.654073772599056
21
0.654073772596057
31
0
210
0
220
0
230
1
40
0.989133
41
1.94785007160501
42
2.24094013318137
0
ELLIPSE
5
112
100
AcDbEntity
8
1
62
256
6
ByLayer
370
18
48
1
60
0
100
AcDbEllipse
10
10.619657
20
-6.861074
30
0
11
0.222738636074273
21
0.222738636073252
31
0
210
0
220
0
230
1
40
0.989133
41
-3.01075060259796
42
-2.53755033483273
0
ELLIPSE
5
113
100
AcDbEntity
8
1
62
256
6
ByLayer
370
18
48
1
60
0
100
AcDbEllipse
10
10.922168
20
-8.011871
30
0
11
-1.34350288425751
21
-1.34350288425137
31
0
210
0
220
0
230
1
40
0.989133
41
0
42
6.28318530717959
0
ELLIPSE
5
114
100
AcDbEntity
8
1
62
256
6
ByLayer
370
18
48
1
60
0
100
AcDbEllipse
10
10.876531
20
-7.966234
30
0
11
-2.26274169980212
21
-2.26274169979178
31
0
210
0
220
0
230
1
40
0.989133
41
0
42
6.28318530717959
0
ELLIPSE
5
115
100
AcDbEntity
8
1
62
256
6
ByLayer
370
18
48
1
60
0
100
AcDbEllipse
10
10.073882
20
-8.860156
30
0
11
0.222738636074273
21
0.222738636073252
31
0
210
0
220
0
230
1
40
0.989133
41
-0.916355500204797
42
-0.443155232439507
0
ELLIPSE
5
116
100
AcDbEntity
8
1
62
256
6
ByLayer
370
18
48
1
60
0
100
AcDbEllipse
10
10.917666
20
-8.007369
30
0
11
0.636396103069352
21
0.636396103066434
31
0
210
0
220
0
230
1
40
0.989133
41
-2.18788712749453
42
-2.00090307729451
0
ELLIPSE
5
117
100
AcDbEntity
8
1
62
256
6
ByLayer
370
18
48
1
60
0
100
AcDbEllipse
10
11.084331
20
-9.022319
30
0
11
0.222738636074273
21
0.222738636073252
31
0
210
0
220
0
230
1
40
0.989133
41
0.130842050991832
42
0.777197897382818
0
ELLIPSE
5
118
100
AcDbEntity
8
1
62
256
6
ByLayer
370
18
48
1
60
0
100
AcDbEllipse
10
9.998568
20
-8.264025
30
0
11
-0.205060966544568
21
-0.20506096654363
31
0
210
0
220
0
230
1
40
0.989133
41
-1.96355305140129
42
0.916355500204765
0
ELLIPSE
5
119
100
AcDbEntity
8
1
62
256
6
ByLayer
370
18
48
1
60
0
100
AcDbEllipse
10
10.917666
20
-8.007369
30
0
11
0.636396103069352
21
0.636396103066434
31
0
210
0
220
0
230
1
40
0.989133
41
3.04810062848654
42
-3.04810062849606
0
ELLIPSE
5
11A
100
AcDbEntity
8
1
62
256
6
ByLayer
370
18
48
1
60
0
100
AcDbEllipse
10
25.650989
20
-14.623105
30
0
11
-0.561230652229045
21
-0.56123065222648
31
0
210
0
220
0
230
1
40
0.989133
41
0.698131700797761
42
2.44346095279208
0
ELLIPSE
5
11B
100
AcDbEntity
8
1
62
256
6
ByLayer
370
18
48
1
60
0
100
AcDbEllipse
10
22.954268
20
-4.364373
30
0
11
-0.561230652229045
21
-0.56123065222648
31
0
210
0
220
0
230
1
40
0.989133
41
2.79252680319096
42
-1.74532925199431
0
ELLIPSE
5
11C
100
AcDbEntity
8
1
62
256
6
ByLayer
370
18
48
1
60
0
100
AcDbEllipse
10
21.332504
20
-10.304621
30
0
11
-3.36759604540863
21
-3.36759604539324
31
0
210
0
220
0
230
1
40
0.989133
41
2.44346095279206
42
2.79252680319096
0
ELLIPSE
5
11D
100
AcDbEntity
8
1
62
256
6
ByLayer
370
18
48
1
60
0
100
AcDbEllipse
10
21.332504
20
-10.304621
30
0
11
-3.36759604540863
21
-3.36759604539324
31
0
210
0
220
0
230
1
40
0.989133
41
0.349065850398877
42
0.698131700797735
0
POINT
5
6C
100
AcDbEntity
8
2
62
256
6
ByLayer
370
18
48
1
60
0
100
AcDbPoint
10
26.440383
20
35.2875
30
0
39
0
210
0
220
0
230
1
50
360
0
POINT
5
6E
100
AcDbEntity
8
80
62
256
6
ByLayer
370
18
48
1
60
0
100
AcDbPoint
10
0
20
0
30
0
39
0
210
0
220
0
230
1
50
360
0
POINT
5
70
100
AcDbEntity
8
81
62
256
6
ByLayer
370
18
48
1
60
0
100
AcDbPoint
10
26.440383
20
-15.4125
30
0
39
0
210
0
220
0
230
1
50
360
0
SPLINE
5
11E
100
AcDbEntity
8
1
62
256
6
ByLayer
370
18
48
1
60
0
100
AcDbSpline
70
4
71
3
72
10
73
6
40
0
40
0
40
0
40
0
40
0.131076473002575
40
0.131076473002575
40
1
40
1
40
1
40
1
41
1
10
3.62769776453797
20
-11.117589100785
30
0
41
1
10
3.60941305260002
20
-11.1065018287312
30
0
41
1
10
3.591140438276
20
-11.0952129656866
30
0
41
1
10
3.45068492301726
20
-11.006758551318
30
0
41
1
10
3.32873849527789
20
-10.9200506818426
30
0
41
1
10
3.21089177238156
20
-10.822954132848
30
0
0
SPLINE
5
11F
100
AcDbEntity
8
1
62
256
6
ByLayer
370
18
48
1
60
0
100
AcDbSpline
70
4
71
3
72
8
73
4
40
0
40
0
40
0
40
0
40
1
40
1
40
1
40
1
41
1
10
6.02756126250421
20
-8.94643118041483
30
0
41
1
10
5.98470765850721
20
-8.93349803823747
30
0
41
1
10
5.94221049905605
20
-8.92058602511474
30
0
41
1
10
5.90012823813072
20
-8.90771379246348
30
0
0
SPLINE
5
120
100
AcDbEntity
8
1
62
256
6
ByLayer
370
18
48
1
60
0
100
AcDbSpline
70
4
71
3
72
10
73
6
40
0
40
0
40
0
40
0
40
0.207845795367678
40
0.207845795367678
40
1
40
1
40
1
40
1
41
1
10
8.44868090378804
20
-4.81145613319484
30
0
41
1
10
8.48940066804852
20
-4.80416156960999
30
0
41
1
10
8.52987864346574
20
-4.79590768173623
30
0
41
1
10
8.72167550048221
20
-4.75196490079051
30
0
41
1
10
8.86954445738365
20
-4.70335982129265
30
0
41
1
10
9.0087847563409
20
-4.64253488269162
30
0
0
SPLINE
5
121
100
AcDbEntity
8
1
62
256
6
ByLayer
370
18
48
1
60
0
100
AcDbSpline
70
4
71
3
72
12
73
8
40
0
40
0
40
0
40
0
40
0.41535644474115
40
0.41535644474115
40
0.825259843212189
40
0.825259843212189
40
1
40
1
40
1
40
1
41
1
10
7.16358431671341
20
-9.51854966694978
30
0
41
1
10
7.02981939099953
20
-9.41193446265152
30
0
41
1
10
6.87527424980192
20
-9.31198316570797
30
0
41
1
10
6.5604865713259
20
-9.14405357382341
30
0
41
1
10
6.39635732336808
20
-9.07303002931496
30
0
41
1
10
6.16559362420912
20
-8.98996223609154
30
0
41
1
10
6.09631631603338
20
-8.96718133442215
30
0
41
1
10
6.02756126250421
20
-8.94643118041483
30
0
0
SPLINE
5
122
100
AcDbEntity
8
1
62
256
6
ByLayer
370
18
48
1
60
0
100
AcDbSpline
70
4
71
3
72
8
73
4
40
0
40
0
40
0
40
0
40
1
40
1
40
1
40
1
41
1
10
10.9356555739357
20
-4.49563872445947
30
0
41
1
10
10.2746910638685
20
-4.32189046779104
30
0
41
1
10
9.60173614657378
20
-4.38351337688894
30
0
41
1
10
9.0087847563409
20
-4.64253488269159
30
0
0
SPLINE
5
123
100
AcDbEntity
8
1
62
256
6
ByLayer
370
18
48
1
60
0
100
AcDbSpline
70
4
71
3
72
14
73
10
40
0
40
0
40
0
40
0
40
0.262932482489329
40
0.262932482489329
40
0.526305718382452
40
0.526305718382452
40
0.786105451116565
40
0.786105451116565
40
1
40
1
40
1
40
1
41
1
10
22.2094494875297
20
-8.89309047820117
30
0
41
1
10
22.3154111626732
20
-8.95826704618642
30
0
41
1
10
22.4209254214487
20
-9.04583484169018
30
0
41
1
10
22.6132030994096
20
-9.25517886021527
30
0
41
1
10
22.7023638210824
20
-9.37971793332878
30
0
41
1
10
22.8519062125332
20
-9.64437916669965
30
0
41
1
10
22.9145741005293
20
-9.78725353654102
30
0
41
1
10
23.0038601131182
20
-10.0495677461368
30
0
41
1
10
23.0356556012942
20
-10.1704355344168
30
0
41
1
10
23.059260008046
20
-10.289762239983
30
0
0
SPLINE
5
124
100
AcDbEntity
8
1
62
256
6
ByLayer
370
18
48
1
60
0
100
AcDbSpline
70
4
71
3
72
11
73
7
40
0
40
0
40
0
40
0
40
0.559926195718574
40
0.559926195718574
40
0.559926195718574
40
1
40
1
40
1
40
1
41
1
10
18.4669492945119
20
-13.3252663753211
30
0
41
1
10
18.1490636431469
20
-13.2825135100342
30
0
41
1
10
17.7827594619452
20
-13.2631257327348
30
0
41
1
10
17.4027966979374
20
-13.2746895322163
30
0
41
1
10
17.1020101506769
20
-13.2838436800663
30
0
41
1
10
16.7873883456232
20
-13.311280038726
30
0
41
1
10
16.4742336153894
20
-13.3524022694487
30
0
0
SPLINE
5
125
100
AcDbEntity
8
1
62
256
6
ByLayer
370
18
48
1
60
0
100
AcDbSpline
70
4
71
3
72
8
73
4
40
0
40
0
40
0
40
0
40
1
40
1
40
1
40
1
41
1
10
8.44868090378804
20
-4.81145613319484
30
0
41
1
10
8.06353196957241
20
-3.60018832540828
30
0
41
1
10
7.66561292157388
20
-2.49670803540559
30
0
41
1
10
7.33528242851685
20
-1.9085276178447
30
0
0
SPLINE
5
126
100
AcDbEntity
8
1
62
256
6
ByLayer
370
18
48
1
60
0
100
AcDbSpline
70
4
71
3
72
12
73
8
40
0
40
0
40
0
40
0
40
0.369659083875781
40
0.369659083875781
40
0.727704501586108
40
0.727704501586108
40
1
40
1
40
1
40
1
41
1
10
4.81656419652427
20
-11.1341705947285
30
0
41
1
10
5.01221428603702
20
-11.0699985888733
30
0
41
1
10
5.26039684442355
20
-10.9400649822524
30
0
41
1
10
5.80544783416582
20
-10.5930732767813
30
0
41
1
10
6.10704343951528
20
-10.3749622037046
30
0
41
1
10
6.66065963679114
20
-9.94161977674409
30
0
41
1
10
6.91089047156976
20
-9.73536501430615
30
0
41
1
10
7.1635843167133
20
-9.51854966694964
30
0
0
SPLINE
5
127
100
AcDbEntity
8
1
62
256
6
ByLayer
370
18
48
1
60
0
100
AcDbSpline
70
4
71
3
72
10
73
6
40
0
40
0
40
0
40
0
40
0.715855354518047
40
0.715855354518047
40
1
40
1
40
1
40
1
41
1
10
7.39066316438743
20
-0.832430244414098
30
0
41
1
10
7.10711569531537
20
-0.732519738023456
30
0
41
1
10
6.78016641528347
20
-0.65222052982628
30
0
41
1
10
6.28557070190675
20
-0.623046810926496
30
0
41
1
10
6.13963888258036
20
-0.624193413075687
30
0
41
1
10
5.99165822057859
20
-0.637472435330892
30
0
0
SPLINE
5
128
100
AcDbEntity
8
1
62
256
6
ByLayer
370
18
48
1
60
0
100
AcDbSpline
70
4
71
3
72
12
73
8
40
0
40
0
40
0
40
0
40
0.391502209781616
40
0.391502209781616
40
0.886018843801028
40
0.886018843801028
40
1
40
1
40
1
40
1
41
1
10
5.36238285704616
20
-3.16810749153206
30
0
41
1
10
5.53200025685538
20
-3.30404649306644
30
0
41
1
10
5.72955947170203
20
-3.47267549335683
30
0
41
1
10
6.21486193606927
20
-3.90054574383922
30
0
41
1
10
6.51821736106081
20
-4.17684416326077
30
0
41
1
10
6.90676220610982
20
-4.53607195640865
30
0
41
1
10
6.98098132621465
20
-4.6049180318268
30
0
41
1
10
7.05583722918857
20
-4.67454534938955
30
0
0
SPLINE
5
129
100
AcDbEntity
8
1
62
256
6
ByLayer
370
18
48
1
60
0
100
AcDbSpline
70
4
71
3
72
25
73
21
40
0
40
0
40
0
40
0
40
0.442411593548778
40
0.442411593548778
40
0.442411593548778
40
0.583396916265382
40
0.583396916265382
40
0.65160253048866
40
0.65160253048866
40
0.706341521306451
40
0.706341521306451
40
0.742475286987738
40
0.742475286987738
40
0.77897296874293
40
0.77897296874293
40
0.811539464980175
40
0.811539464980175
40
0.868309796146654
40
0.868309796146654
40
1
40
1
40
1
40
1
41
1
10
18.4188842516336
20
-9.4138463684514
30
0
41
1
10
18.1752199001834
20
-9.21400103511459
30
0
41
1
10
17.9324312453517
20
-8.97006489772551
30
0
41
1
10
17.7337270841448
20
-8.67577290091521
30
0
41
1
10
17.6692221281159
20
-8.5802374466065
30
0
41
1
10
17.608551127703
20
-8.47796133738535
30
0
41
1
10
17.5350202939566
20
-8.31799530313825
30
0
41
1
10
17.5134080968776
20
-8.26381571137992
30
0
41
1
10
17.4838521470647
20
-8.16542549640843
30
0
41
1
10
17.4738408811186
20
-8.12048636105334
30
0
41
1
10
17.4678221623576
20
-8.0494872674258
30
0
41
1
10
17.468300943128
20
-8.02167718154791
30
0
41
1
10
17.476896498947
20
-7.97194584641178
30
0
41
1
10
17.4853118604168
20
-7.94953612283209
30
0
41
1
10
17.507403664926
20
-7.91608395289975
30
0
41
1
10
17.5205784115622
20
-7.90361979965354
30
0
41
1
10
17.5603082980094
20
-7.87822305107716
30
0
41
1
10
17.5900234754326
20
-7.8708729054197
30
0
41
1
10
17.6909565656761
20
-7.86217516723073
30
0
41
1
10
17.7675954458127
20
-7.87875524686936
30
0
41
1
10
17.843384712782
20
-7.89982558820719
30
0
0
SPLINE
5
12A
100
AcDbEntity
8
1
62
256
6
ByLayer
370
18
48
1
60
0
100
AcDbSpline
70
4
71
3
72
8
73
4
40
0
40
0
40
0
40
0
40
1
40
1
40
1
40
1
41
1
10
3.61110532950477
20
-9.01609217166313
30
0
41
1
10
3.60335039783763
20
-9.0444971873425
30
0
41
1
10
3.59659104071056
20
-9.07293037167332
30
0
41
1
10
3.59075414283143
20
-9.10139080078952
30
0
0
SPLINE
5
12B
100
AcDbEntity
8
1
62
256
6
ByLayer
370
18
48
1
60
0
100
AcDbSpline
70
4
71
3
72
8
73
4
40
0
40
0
40
0
40
0
40
1
40
1
40
1
40
1
41
1
10
18.4669492945119
20
-13.3252663753211
30
0
41
1
10
18.5274650738
20
-13.3334052232009
30
0
41
1
10
18.5881517584213
20
-13.3407832199868
30
0
41
1
10
18.6489848040815
20
-13.3474263986534
30
0
0
SPLINE
5
12C
100
AcDbEntity
8
1
62
256
6
ByLayer
370
18
48
1
60
0
100
AcDbSpline
70
4
71
3
72
8
73
4
40
0
40
0
40
0
40
0
40
1
40
1
40
1
40
1
41
1
10
20.5546617345692
20
-6.36725101950057
30
0
41
1
10
20.4971074123412
20
-6.34859842612977
30
0
41
1
10
20.439304202539
20
-6.33065874406768
30
0
41
1
10
20.3812605125773
20
-6.31346504709384
30
0
0
SPLINE
5
12D
100
AcDbEntity
8
1
62
256
6
ByLayer
370
18
48
1
60
0
100
AcDbSpline
70
4
71
3
72
10
73
6
40
0
40
0
40
0
40
0
40
0.759976532001899
40
0.759976532001899
40
1
40
1
40
1
40
1
41
1
10
18.1841044913084
20
-10.2738053028988
30
0
41
1
10
18.4748666934629
20
-10.2071266296906
30
0
41
1
10
18.7625481799612
20
-10.1511838845733
30
0
41
1
10
19.1343583269264
20
-10.0923649348943
30
0
41
1
10
19.22316936811
20
-10.0793529083099
30
0
41
1
10
19.3114494245576
20
-10.0674594781868
30
0
0
SPLINE
5
12E
100
AcDbEntity
8
1
62
256
6
ByLayer
370
18
48
1
60
0
100
AcDbSpline
70
4
71
2
72
8
73
5
40
0
40
0
40
0
40
0.581603760044145
40
0.872405640066218
40
1
40
1
40
1
41
1.02990374504916
10
10.8798382827211
20
-12.7280281863751
30
0
41
1.02669755169729
10
12.6279165536657
20
-12.5220086511143
30
0
41
1.02039724512338
10
15.2804964824464
20
-11.824477826609
30
0
41
1.01761724169577
10
16.5585020469637
20
-11.3518805762445
30
0
41
1.01686274329252
10
16.9260142276347
20
-11.2600000084385
30
0
0
SPLINE
5
12F
100
AcDbEntity
8
1
62
256
6
ByLayer
370
18
48
1
60
0
100
AcDbSpline
70
4
71
1
72
4
73
2
40
0
40
0
40
1
40
1
41
1
10
13.3985565147138
20
-3.50238520949125
30
0
41
1
10
13.3622688181501
20
-2.56143886717339
30
0
0
SPLINE
5
130
100
AcDbEntity
8
1
62
256
6
ByLayer
370
18
48
1
60
0
100
AcDbSpline
70
4
71
2
72
8
73
5
40
0
40
0
40
0
40
0.145991510275419
40
0.563470207592128
40
1
40
1
40
1
41
1.02393576174177
10
14.6749319867505
20
-9.80720184335638
30
0
41
1.02323174907605
10
14.9387627020903
20
-9.84863653433963
30
0
41
1.02039724512338
10
15.9535987880006
20
-9.99913711453674
30
0
41
1.01644464721292
10
17.4496730772378
20
-10.1420040467943
30
0
41
1.01495409538139
10
18.1841044913288
20
-10.2738053029024
30
0
0
SPLINE
5
131
100
AcDbEntity
8
1
62
256
6
ByLayer
370
18
48
1
60
0
100
AcDbSpline
70
4
71
3
72
10
73
6
40
0
40
0
40
0
40
0
40
0.106616270583435
40
0.106616270583435
40
1
40
1
40
1
40
1
41
1
10
19.3114494245575
20
-10.0674594781867
30
0
41
1
10
19.2793315819487
20
-10.046679778581
30
0
41
1
10
19.2472438784636
20
-10.0256305796894
30
0
41
1
10
18.9469425358259
20
-9.82592242960328
30
0
41
1
10
18.6806535903261
20
-9.62839960146903
30
0
41
1
10
18.4188842516336
20
-9.4138463684514
30
0
0
SPLINE
5
132
100
AcDbEntity
8
1
62
256
6
ByLayer
370
18
48
1
60
0
100
AcDbSpline
70
4
71
2
72
6
73
3
40
0
40
0
40
0
40
1
40
1
40
1
41
1.02990374504916
10
10.8798382827211
20
-12.7280281863751
30
0
41
1.02990374504916
10
10.667679606024
20
-12.9681988325539
30
0
41
1.02990374504916
10
10.4555209293267
20
-13.2083694787327
30
0
0
SPLINE
5
133
100
AcDbEntity
8
1
62
256
6
ByLayer
370
18
48
1
60
0
100
AcDbSpline
70
4
71
3
72
16
73
12
40
0
40
0
40
0
40
0
40
0.283825424659826
40
0.283825424659826
40
0.572792249827486
40
0.572792249827486
40
0.572792249827486
40
0.894188232602852
40
0.894188232602852
40
0.894188232602852
40
1
40
1
40
1
40
1
41
1
10
11.4908754454937
20
-11.4728191281953
30
0
41
1
10
11.8474362436415
20
-11.4881658032449
30
0
41
1
10
12.2130232235287
20
-11.4492846405486
30
0
41
1
10
12.9117265931941
20
-11.273863713394
30
0
41
1
10
13.2533725811607
20
-11.1339568421738
30
0
41
1
10
13.5617120822857
20
-10.9478850506297
30
0
41
1
10
13.9026506031195
20
-10.7421409239562
30
0
41
1
10
14.2146435030353
20
-10.4706516572479
30
0
41
1
10
14.4557606397776
20
-10.1485073232538
30
0
41
1
10
14.5366171764872
20
-10.0404790200013
30
0
41
1
10
14.6102605478277
20
-9.92605961667044
30
0
41
1
10
14.6749319872807
20
-9.80720184343963
30
0
0
SPLINE
5
134
100
AcDbEntity
8
1
62
256
6
ByLayer
370
18
48
1
60
0
100
AcDbSpline
70
4
71
3
72
8
73
4
40
0
40
0
40
0
40
0
40
1
40
1
40
1
40
1
41
1
10
13.2091161890129
20
-5.17919110474463
30
0
41
1
10
12.9925305983409
20
-5.06679005486382
30
0
41
1
10
12.7599015606096
20
-4.97517969086738
30
0
41
1
10
12.5216036293419
20
-4.91253812767476
30
0
0
SPLINE
5
135
100
AcDbEntity
8
1
62
256
6
ByLayer
370
18
48
1
60
0
100
AcDbSpline
70
4
71
3
72
10
73
6
40
0
40
0
40
0
40
0
40
0.679966690484307
40
0.679966690484307
40
1
40
1
40
1
40
1
41
1
10
7.5676644539638
20
-9.92111715028904
30
0
41
1
10
7.48920541706508
20
-9.82260974449665
30
0
41
1
10
7.40094846664329
20
-9.72790563246113
30
0
41
1
10
7.25958565515794
20
-9.59786779144
30
0
41
1
10
7.21237982720788
20
-9.55744135169033
30
0
41
1
10
7.16358431671341
20
-9.51854966694975
30
0
0
SPLINE
5
136
100
AcDbEntity
8
1
62
256
6
ByLayer
370
18
48
1
60
0
100
AcDbSpline
70
4
71
3
72
8
73
4
40
0
40
0
40
0
40
0
40
1
40
1
40
1
40
1
41
1
10
10.8798382827212
20
-12.7280281863751
30
0
41
1
10
11.0361634064726
20
-12.5510629706703
30
0
41
1
10
11.2540743405036
20
-12.1034244391102
30
0
41
1
10
11.4908754454937
20
-11.4728191281953
30
0
0
SPLINE
5
137
100
AcDbEntity
8
1
62
256
6
ByLayer
370
18
48
1
60
0
100
AcDbSpline
70
4
71
3
72
8
73
4
40
0
40
0
40
0
40
0
40
1
40
1
40
1
40
1
41
1
10
17.843384712782
20
-7.89982558820719
30
0
41
1
10
19.0191455786083
20
-7.81638663667178
30
0
41
1
10
19.8578129977118
20
-6.79735519510785
30
0
41
1
10
21.0785563539764
20
-6.90385257204397
30
0
0
SPLINE
5
138
100
AcDbEntity
8
1
62
256
6
ByLayer
370
18
48
1
60
0
100
AcDbSpline
70
4
71
2
72
6
73
3
40
0
40
0
40
0
40
1
40
1
40
1
41
1
10
19.3712399081542
20
-13.1440873243205
30
0
41
1
10
19.0127568889972
20
-13.2552144347685
30
0
41
1
10
18.6489084857925
20
-13.3500163431692
30
0
0
SPLINE
5
139
100
AcDbEntity
8
1
62
256
6
ByLayer
370
18
48
1
60
0
100
AcDbSpline
70
4
71
3
72
12
73
8
40
0
40
0
40
0
40
0
40
0.501637567130155
40
0.501637567130155
40
0.886957471304438
40
0.886957471304438
40
1
40
1
40
1
40
1
41
1
10
7.18327025356098
20
-4.71326273734161
30
0
41
1
10
7.37857042367136
20
-4.77220398455808
30
0
41
1
10
7.58922714663294
20
-4.81663527034684
30
0
41
1
10
7.96916976379214
20
-4.85066601711489
30
0
41
1
10
8.14042734482575
20
-4.85048706414952
30
0
41
1
10
8.35300947922059
20
-4.8269123562026
30
0
41
1
10
8.40129251486502
20
-4.81994531829844
30
0
41
1
10
8.44868090378804
20
-4.81145613319484
30
0
0
SPLINE
5
13A
100
AcDbEntity
8
1
62
256
6
ByLayer
370
18
48
1
60
0
100
AcDbSpline
70
4
71
3
72
10
73
6
40
0
40
0
40
0
40
0
40
0.56051815656327
40
0.56051815656327
40
1
40
1
40
1
40
1
41
1
10
18.6483174125924
20
-5.38909749797597
30
0
41
1
10
18.9652757592882
20
-5.62875351427809
30
0
41
1
10
19.2990099535831
20
-5.84336634202717
30
0
41
1
10
19.8829774892426
20
-6.13984696294546
30
0
41
1
10
20.1405809399529
20
-6.24217096427068
30
0
41
1
10
20.3812605125773
20
-6.31346504709387
30
0
0
SPLINE
5
13B
100
AcDbEntity
8
1
62
256
6
ByLayer
370
18
48
1
60
0
100
AcDbSpline
70
4
71
3
72
16
73
12
40
0
40
0
40
0
40
0
40
0.346164403850466
40
0.346164403850466
40
0.574058138681869
40
0.574058138681869
40
0.756733946461147
40
0.756733946461147
40
0.941193093213316
40
0.941193093213316
40
1
40
1
40
1
40
1
41
1
10
7.13820388621679
20
-1.0373128574835
30
0
41
1
10
6.86444297000003
20
-1.08787982451483
30
0
41
1
10
6.65037156225293
20
-1.20433389128809
30
0
41
1
10
6.286095886537
20
-1.48067775137096
30
0
41
1
10
6.13502842691884
20
-1.61814389782293
30
0
41
1
10
5.85952244655783
20
-1.92594884592177
30
0
41
1
10
5.73418472801569
20
-2.08778981213237
30
0
41
1
10
5.50558125439909
20
-2.44799106011203
30
0
41
1
10
5.39957569663193
20
-2.6529002717044
30
0
41
1
10
5.28778486034281
20
-2.92822819897034
30
0
41
1
10
5.26231291240595
20
-2.99650751950452
30
0
41
1
10
5.23896536532106
20
-3.06426918232506
30
0
0
SPLINE
5
13C
100
AcDbEntity
8
1
62
256
6
ByLayer
370
18
48
1
60
0
100
AcDbSpline
70
4
71
3
72
8
73
4
40
0
40
0
40
0
40
0
40
1
40
1
40
1
40
1
41
1
10
5.2133382489244
20
-3.14738137558427
30
0
41
1
10
5.22109318059165
20
-3.11897635990488
30
0
41
1
10
5.2296549404972
20
-3.09129085896365
30
0
41
1
10
5.23896536532106
20
-3.06426918232506
30
0
0
SPLINE
5
13D
100
AcDbEntity
8
1
62
256
6
ByLayer
370
18
48
1
60
0
100
AcDbSpline
70
4
71
3
72
12
73
8
40
0
40
0
40
0
40
0
40
0.307573270173408
40
0.307573270173408
40
0.64885282065766
40
0.64885282065766
40
1
40
1
40
1
40
1
41
1
10
14.6749319872807
20
-9.80720184343963
30
0
41
1
10
14.7547923662051
20
-9.66038504894837
30
0
41
1
10
14.8243406374771
20
-9.5074388164328
30
0
41
1
10
14.946936196235
20
-9.17737861018335
30
0
41
1
10
14.9977628071479
20
-8.99831910144229
30
0
41
1
10
15.0711190501015
20
-8.63129257353353
30
0
41
1
10
15.0930521575976
20
-8.44189721804329
30
0
41
1
10
15.0991776393491
20
-8.25326108470333
30
0
0
SPLINE
5
13E
100
AcDbEntity
8
1
62
256
6
ByLayer
370
18
48
1
60
0
100
AcDbSpline
70
4
71
3
72
8
73
4
40
0
40
0
40
0
40
0
40
1
40
1
40
1
40
1
41
1
10
10.4555209293268
20
-13.2083694787328
30
0
41
1
10
12.447010976165
20
-13.5726798614158
30
0
41
1
10
14.4611284141182
20
-13.6167552188485
30
0
41
1
10
16.4742336153894
20
-13.3524022694487
30
0
0
SPLINE
5
13F
100
AcDbEntity
8
1
62
256
6
ByLayer
370
18
48
1
60
0
100
AcDbSpline
70
4
71
3
72
14
73
10
40
0
40
0
40
0
40
0
40
0.304391776008987
40
0.304391776008987
40
0.577373879687172
40
0.577373879687172
40
0.851610378463916
40
0.851610378463916
40
1
40
1
40
1
40
1
41
1
10
22.8188173810687
20
-11.1704633063987
30
0
41
1
10
22.7065764548095
20
-11.2907743752517
30
0
41
1
10
22.5772261098327
20
-11.408477139842
30
0
41
1
10
22.3091727981416
20
-11.609130887521
30
0
41
1
10
22.1695101043765
20
-11.6963764524182
30
0
41
1
10
21.8850324682435
20
-11.8378887977671
30
0
41
1
10
21.7363337991872
20
-11.8937612087499
30
0
41
1
10
21.5179453273078
20
-11.9491304690958
30
0
41
1
10
21.4419327481918
20
-11.963140834166
30
0
41
1
10
21.3689799687452
20
-11.9715895396576
30
0
0
SPLINE
5
140
100
AcDbEntity
8
1
62
256
6
ByLayer
370
18
48
1
60
0
100
AcDbSpline
70
4
71
3
72
8
73
4
40
0
40
0
40
0
40
0
40
1
40
1
40
1
40
1
41
1
10
19.3760964951499
20
-13.1396778524986
30
0
41
1
10
18.2218222685556
20
-12.808379839136
30
0
41
1
10
17.9522304504898
20
-11.7258083107116
30
0
41
1
10
16.9260142276348
20
-11.2600000084385
30
0
0
SPLINE
5
141
100
AcDbEntity
8
1
62
256
6
ByLayer
370
18
48
1
60
0
100
AcDbSpline
70
4
71
3
72
8
73
4
40
0
40
0
40
0
40
0
40
1
40
1
40
1
40
1
41
1
10
13.2091161986891
20
-5.17919105236433
30
0
41
1
10
13.3443663748623
20
-4.44703484252182
30
0
41
1
10
13.4119254671625
20
-3.84904449344873
30
0
41
1
10
13.3985565147137
20
-3.50238520949125
30
0
0
SPLINE
5
142
100
AcDbEntity
8
1
62
256
6
ByLayer
370
18
48
1
60
0
100
AcDbSpline
70
4
71
2
72
6
73
3
40
0
40
0
40
0
40
1
40
1
40
1
41
1
10
20.5559151176144
20
-6.36497049078491
30
0
41
1
10
20.8227378376129
20
-6.62555741007259
30
0
41
1
10
21.0765966372501
20
-6.89765129290521
30
0
0
SPLINE
5
143
100
AcDbEntity
8
1
62
256
6
ByLayer
370
18
48
1
60
0
100
AcDbSpline
70
4
71
3
72
8
73
4
40
0
40
0
40
0
40
0
40
1
40
1
40
1
40
1
41
1
10
7.56766445396374
20
-9.92111715028904
30
0
41
1
10
7.95409944552409
20
-10.4062965512951
30
0
41
1
10
8.52334304860489
20
-10.7700810669118
30
0
41
1
10
9.17582597391748
20
-10.9415997627755
30
0
0
SPLINE
5
144
100
AcDbEntity
8
1
62
256
6
ByLayer
370
18
48
1
60
0
100
AcDbSpline
70
4
71
3
72
8
73
4
40
0
40
0
40
0
40
0
40
1
40
1
40
1
40
1
41
1
10
5.90012823813129
20
-8.90771379246351
30
0
41
1
10
5.03440654231702
20
-9.0540144575746
30
0
41
1
10
4.26426321583784
20
-9.13803582909259
30
0
41
1
10
3.74069280855167
20
-9.10808649217637
30
0
0
SPLINE
5
145
100
AcDbEntity
8
1
62
256
6
ByLayer
370
18
48
1
60
0
100
AcDbSpline
70
4
71
2
72
8
73
5
40
0
40
0
40
0
40
0.145991510278035
40
0.563470207586076
40
1
40
1
40
1
41
1.02393576174182
10
15.0991776388797
20
-8.25326108454106
30
0
41
1.02323174907608
10
15.3506010215049
20
-8.34014175696478
30
0
41
1.02039724512338
10
16.3147110857299
20
-8.67644325756462
30
0
41
1.01644464721285
10
17.7019020098779
20
-9.21813171714778
30
0
41
1.01495409538129
10
18.4188842517029
20
-9.41384636847032
30
0
0
SPLINE
5
146
100
AcDbEntity
8
1
62
256
6
ByLayer
370
18
48
1
60
0
100
AcDbSpline
70
4
71
3
72
15
73
11
40
0
40
0
40
0
40
0
40
0.225043240787981
40
0.225043240787981
40
0.520482827227111
40
0.520482827227111
40
0.820975208236872
40
0.820975208236872
40
0.820975208236872
40
1
40
1
40
1
40
1
41
1
10
15.0991776393491
20
-8.25326108470333
30
0
41
1
10
15.1082807267971
20
-7.97197433113266
30
0
41
1
10
15.0733237136202
20
-7.68275651647849
30
0
41
1
10
14.9071408417535
20
-7.04766026748263
30
0
41
1
10
14.7480575093067
20
-6.70074019214334
30
0
41
1
10
14.3358993459419
20
-6.07450163824655
30
0
41
1
10
14.0749783090633
20
-5.78685661017673
30
0
41
1
10
13.7795486393505
20
-5.55037889469222
30
0
41
1
10
13.6020968804594
20
-5.4083370117896
30
0
41
1
10
13.4099831648179
20
-5.28291163876969
30
0
41
1
10
13.209116189013
20
-5.17919110474463
30
0
0
SPLINE
5
147
100
AcDbEntity
8
1
62
256
6
ByLayer
370
18
48
1
60
0
100
AcDbSpline
70
4
71
3
72
8
73
4
40
0
40
0
40
0
40
0
40
1
40
1
40
1
40
1
41
1
10
11.4908754266149
20
-11.4728191271143
30
0
41
1
10
11.2431648675873
20
-11.4586345805284
30
0
41
1
10
10.9999693232513
20
-11.4211137488258
30
0
41
1
10
10.7617740293237
20
-11.3584991659908
30
0
0
SPLINE
5
148
100
AcDbEntity
8
1
62
256
6
ByLayer
370
18
48
1
60
0
100
AcDbSpline
70
4
71
2
72
8
73
5
40
0
40
0
40
0
40
0.581603760070721
40
0.872405640106081
40
1
40
1
40
1
41
1.02990374504916
10
13.3985565147138
20
-3.50238520949125
30
0
41
1.02669755169729
10
14.7888280320672
20
-4.60695187848324
30
0
41
1.02039724512338
10
16.7129007428597
20
-6.57782096203943
30
0
41
1.01761724169607
10
17.5717297050942
20
-7.6405973888896
30
0
41
1.01686274329306
10
17.843384712782
20
-7.89982558820708
30
0
0
SPLINE
5
149
100
AcDbEntity
8
1
62
256
6
ByLayer
370
18
48
1
60
0
100
AcDbSpline
70
4
71
3
72
8
73
4
40
0
40
0
40
0
40
0
40
1
40
1
40
1
40
1
41
1
10
7.05583722918806
20
-4.67454534939029
30
0
41
1
10
7.09791949011344
20
-4.68741758204155
30
0
41
1
10
7.14041664956397
20
-4.70032959516422
30
0
41
1
10
7.18327025356098
20
-4.71326273734161
30
0
0
SPLINE
5
14A
100
AcDbEntity
8
1
62
256
6
ByLayer
370
18
48
1
60
0
100
AcDbSpline
70
4
71
3
72
24
73
20
40
0
40
0
40
0
40
0
40
0.14261344460822
40
0.14261344460822
40
0.190795218269489
40
0.190795218269489
40
0.22695117616232
40
0.22695117616232
40
0.263437466712856
40
0.263437466712856
40
0.296119365572354
40
0.296119365572354
40
0.352324850832282
40
0.352324850832282
40
0.4552946485881
40
0.4552946485881
40
0.662705158043625
40
0.662705158043625
40
1
40
1
40
1
40
1
41
1
10
16.9260142276348
20
-11.2600000084385
30
0
41
1
10
16.8409482187537
20
-11.2499164861206
30
0
41
1
10
16.7567781080866
20
-11.235715943535
30
0
41
1
10
16.6733704730376
20
-11.1900614681712
30
0
41
1
10
16.6548097138024
20
-11.1756879002321
30
0
41
1
10
16.6332057374063
20
-11.1437753842067
30
0
41
1
10
16.6274373935194
20
-11.1275535900125
30
0
41
1
10
16.6262703926698
20
-11.0910962786342
30
0
41
1
10
16.6310684884242
20
-11.0703236346656
30
0
41
1
10
16.6490937126832
20
-11.0301809571598
30
0
41
1
10
16.661467030917
20
-11.0104699150708
30
0
41
1
10
16.7011483489534
20
-10.9583538277304
30
0
41
1
10
16.7332277327607
20
-10.926004108815
30
0
41
1
10
16.8301883967716
20
-10.8405109177246
30
0
41
1
10
16.9021524140733
20
-10.7900376442595
30
0
41
1
10
17.1219248630947
20
-10.6525499367005
30
0
41
1
10
17.2790440412562
20
-10.5761357980175
30
0
41
1
10
17.6855116567439
20
-10.4065112158296
30
0
41
1
10
17.9396011423699
20
-10.3299433320683
30
0
41
1
10
18.1841044913084
20
-10.2738053028988
30
0
0
SPLINE
5
14B
100
AcDbEntity
8
1
62
256
6
ByLayer
370
18
48
1
60
0
100
AcDbSpline
70
4
71
3
72
8
73
4
40
0
40
0
40
0
40
0
40
1
40
1
40
1
40
1
41
1
10
18.6483174125924
20
-5.389097497976
30
0
41
1
10
17.0491145134489
20
-4.17992096086013
30
0
41
1
10
15.265952072248
20
-3.22049713978623
30
0
41
1
10
13.3622688181501
20
-2.56143886717339
30
0
0
SPLINE
5
14C
100
AcDbEntity
8
1
62
256
6
ByLayer
370
18
48
1
60
0
100
AcDbSpline
70
4
71
3
72
16
73
12
40
0
40
0
40
0
40
0
40
0.151798394921707
40
0.151798394921707
40
0.302355402833642
40
0.302355402833642
40
0.469907609657965
40
0.469907609657965
40
0.750934341340612
40
0.750934341340612
40
1
40
1
40
1
40
1
41
1
10
3.59075414283137
20
-9.10139080078952
30
0
41
1
10
3.55351264594071
20
-9.28297852159204
30
0
41
1
10
3.52845701951424
20
-9.47064725973948
30
0
41
1
10
3.51061447992169
20
-9.8251654767833
30
0
41
1
10
3.51690184497937
20
-9.9970083897405
30
0
41
1
10
3.55537829911214
20
-10.3277081179251
30
0
41
1
10
3.59044026852734
20
-10.4865845286768
30
0
41
1
10
3.70447158802267
20
-10.8539235662887
30
0
41
1
10
3.79515858407558
20
-11.0302868519105
30
0
41
1
10
4.00160571313154
20
-11.3047269516456
30
0
41
1
10
4.11759249107047
20
-11.4150197717314
30
0
41
1
10
4.27811533929548
20
-11.5133381154977
30
0
0
SPLINE
5
14D
100
AcDbEntity
8
1
62
256
6
ByLayer
370
18
48
1
60
0
100
AcDbSpline
70
4
71
3
72
8
73
4
40
0
40
0
40
0
40
0
40
1
40
1
40
1
40
1
41
1
10
10.0798306354323
20
-7.65117051550203
30
0
41
1
10
10.0810652857035
20
-7.66582458476108
30
0
41
1
10
10.0813724213167
20
-7.68219938069441
30
0
41
1
10
10.0801616767407
20
-7.70057756387013
30
0
0
SPLINE
5
14E
100
AcDbEntity
8
1
62
256
6
ByLayer
370
18
48
1
60
0
100
AcDbSpline
70
4
71
3
72
8
73
4
40
0
40
0
40
0
40
0
40
1
40
1
40
1
40
1
41
1
10
10.0360239434658
20
-7.86224668740704
30
0
41
1
10
10.0272346645598
20
-7.88049691515624
30
0
41
1
10
10.0180388933023
20
-7.89667970266535
30
0
41
1
10
10.0088756228365
20
-7.9110668410672
30
0
0
SPLINE
5
14F
100
AcDbEntity
8
1
62
256
6
ByLayer
370
18
48
1
60
0
100
AcDbSpline
70
4
71
3
72
8
73
4
40
0
40
0
40
0
40
0
40
1
40
1
40
1
40
1
41
1
10
11.7993089286032
20
-8.15249114382476
30
0
41
1
10
11.8106272346579
20
-8.13676994322427
30
0
41
1
10
11.822951396517
20
-8.12371554631667
30
0
41
1
10
11.8354605914391
20
-8.11267433237114
30
0
0
SPLINE
5
150
100
AcDbEntity
8
1
62
256
6
ByLayer
370
18
48
1
60
0
100
AcDbSpline
70
4
71
3
72
10
73
6
40
0
40
0
40
0
40
0
40
0.123732606265338
40
0.123732606265338
40
1
40
1
40
1
40
1
41
1
10
11.4925175768611
20
-7.31498638452945
30
0
41
1
10
11.4914776183682
20
-7.31301563204914
30
0
41
1
10
11.4904808297533
20
-7.31105884892744
30
0
41
1
10
11.4828254626879
20
-7.29550101779247
30
0
41
1
10
11.4781052276777
20
-7.28255706521168
30
0
41
1
10
11.4747605202258
20
-7.270336860664
30
0
0
SPLINE
5
151
100
AcDbEntity
8
1
62
256
6
ByLayer
370
18
48
1
60
0
100
AcDbSpline
70
4
71
3
72
10
73
6
40
0
40
0
40
0
40
0
40
0.516155291935594
40
0.516155291935594
40
1
40
1
40
1
40
1
41
1
10
10.1806343810801
20
-8.56446299980377
30
0
41
1
10
10.1878489263146
20
-8.5664376429543
30
0
41
1
10
10.1952980735011
20
-8.5688905367895
30
0
41
1
10
10.2101908060865
20
-8.57479335636089
30
0
41
1
10
10.2176364844273
20
-8.57818454208092
30
0
41
1
10
10.2252839049413
20
-8.58222005642961
30
0
0
SPLINE
5
152
100
AcDbEntity
8
1
62
256
6
ByLayer
370
18
48
1
60
0
100
AcDbSpline
70
4
71
3
72
10
73
6
40
0
40
0
40
0
40
0
40
0.315026012182539
40
0.315026012182539
40
1
40
1
40
1
40
1
41
1
10
10.6108750842883
20
-7.16986415632334
30
0
41
1
10
10.6050564020638
20
-7.17024748790047
30
0
41
1
10
10.599442393673
20
-7.1704766978371
30
0
41
1
10
10.5823248941077
20
-7.17078349395902
30
0
41
1
10
10.5715095140156
20
-7.17037914033301
30
0
41
1
10
10.5614680359245
20
-7.169533115012
30
0
0
SPLINE
5
153
100
AcDbEntity
8
1
62
256
6
ByLayer
370
18
48
1
60
0
100
AcDbSpline
70
4
71
3
72
10
73
6
40
0
40
0
40
0
40
0
40
0.516155291935637
40
0.516155291935637
40
1
40
1
40
1
40
1
41
1
10
11.6637018331955
20
-7.45927817363457
30
0
41
1
10
11.6547567249322
20
-7.4555729674552
30
0
41
1
10
11.6456438233127
20
-7.451456319187
30
0
41
1
10
11.6277372414915
20
-7.44253965037987
30
0
41
1
10
11.6189224143508
20
-7.43777931585993
30
0
41
1
10
11.6100489671255
20
-7.43251777479986
30
0
0
SPLINE
5
154
100
AcDbEntity
8
1
62
256
6
ByLayer
370
18
48
1
60
0
100
AcDbSpline
70
4
71
3
72
10
73
6
40
0
40
0
40
0
40
0
40
0.315026012182523
40
0.315026012182523
40
1
40
1
40
1
40
1
41
1
10
11.2244577877794
20
-8.84487367490706
30
0
41
1
10
11.2310771805625
20
-8.84529105388853
30
0
41
1
10
11.2375529056034
20
-8.84592356060202
30
0
41
1
10
11.2575389656861
20
-8.84848532499751
30
0
41
1
10
11.2705339564133
20
-8.85106928925862
30
0
41
1
10
11.2828681783511
20
-8.85420805842634
30
0
0
SPLINE
5
155
100
AcDbEntity
8
1
62
256
6
ByLayer
370
18
48
1
60
0
100
AcDbSpline
70
4
71
3
72
8
73
4
40
0
40
0
40
0
40
0
40
1
40
1
40
1
40
1
41
1
10
11.7645055788433
20
-8.37257065793631
30
0
41
1
10
11.7599250041158
20
-8.35457066422092
30
0
41
1
10
11.7564894779011
20
-8.3350674776861
30
0
41
1
10
11.7551711953284
20
-8.31416026736167
30
0
0
SPLINE
5
156
100
AcDbEntity
8
1
62
256
6
ByLayer
370
18
48
1
60
0
100
AcDbSpline
70
4
71
3
72
10
73
6
40
0
40
0
40
0
40
0
40
0.629893813379454
40
0.629893813379454
40
1
40
1
40
1
40
1
41
1
10
11.0229718527655
20
-8.92516307101928
30
0
41
1
10
11.0299394630576
20
-8.91726908438667
30
0
41
1
10
11.0376869861585
20
-8.90948302582063
30
0
41
1
10
11.0514993263641
20
-8.89754704186635
30
0
41
1
10
11.0569577945737
20
-8.89320927888136
30
0
41
1
10
11.062788664231
20
-8.88901140818268
30
0
0
SPLINE
5
157
100
AcDbEntity
8
1
62
256
6
ByLayer
370
18
48
1
60
0
100
AcDbSpline
70
4
71
3
72
10
73
6
40
0
40
0
40
0
40
0
40
0.629893813379317
40
0.629893813379317
40
1
40
1
40
1
40
1
41
1
10
10.8213643615069
20
-7.09857810241587
30
0
41
1
10
10.8122852897581
20
-7.10436062759172
30
0
41
1
10
10.8025234867769
20
-7.11013240627742
30
0
41
1
10
10.7857933066671
20
-7.11915055032762
30
0
41
1
10
10.7793130737724
20
-7.12246654862741
30
0
41
1
10
10.7725442078361
20
-7.12572642304707
30
0
0
SPLINE
5
158
100
AcDbEntity
8
1
62
256
6
ByLayer
370
18
48
1
60
0
100
AcDbSpline
70
4
71
3
72
10
73
6
40
0
40
0
40
0
40
0
40
0.123732606265311
40
0.123732606265311
40
1
40
1
40
1
40
1
41
1
10
10.3428152952079
20
-8.69975144670232
30
0
41
1
10
10.3441712027424
20
-8.7020381482242
30
0
41
1
10
10.3454933895617
20
-8.70432032955023
30
0
41
1
10
10.3558231259724
20
-8.72255253003055
30
0
41
1
10
10.3632997090874
20
-8.73825283071605
30
0
41
1
10
10.3695756940498
20
-8.75340431277436
30
0
0
INSERT
5
16B
100
AcDbEntity
8
SK2
62
256
6
ByLayer
370
25
48
1
60
0
100
AcDbBlockReference
2
DimnDraft3D11
10
0
20
0
30
0
41
1
42
1
43
1
50
0
210
0
220
0
230
1
0
LINE
5
72
100
AcDbEntity
8
1
62
256
6
ByLayer
370
18
48
1
60
0
100
AcDbLine
10
8.443055
20
-10.058241
30
0
11
8.613789
21
-10.228975
31
0
39
0
210
0
220
0
230
1
0
LINE
5
74
100
AcDbEntity
8
1
62
256
6
ByLayer
370
18
48
1
60
0
100
AcDbLine
10
13.139273
20
-5.703492
30
0
11
12.96659
21
-5.530809
31
0
39
0
210
0
220
0
230
1
0
LINE
5
75
100
AcDbEntity
8
1
62
256
6
ByLayer
370
18
48
1
60
0
100
AcDbLine
10
3.623707
20
-11.115163
30
0
11
4.282095
21
-11.515767
31
0
39
0
210
0
220
0
230
1
0
LINE
5
76
100
AcDbEntity
8
1
62
256
6
ByLayer
370
18
48
1
60
0
100
AcDbLine
10
23.515498
20
-3.803142
30
0
11
23.020641
21
-3.308285
31
0
39
0
210
0
220
0
230
1
0
LINE
5
77
100
AcDbEntity
8
1
62
256
6
ByLayer
370
18
48
1
60
0
100
AcDbLine
10
6.869216
20
-9.314118
30
0
11
6.497237
21
-9.087783
31
0
39
0
210
0
220
0
230
1
0
LINE
5
78
100
AcDbEntity
8
80
62
256
6
ByLayer
370
18
48
1
60
0
100
AcDbLine
10
0
20
0
30
0
11
-5
21
0
31
0
39
0
210
0
220
0
230
1
0
LINE
5
79
100
AcDbEntity
8
81
62
256
6
ByLayer
370
18
48
1
60
0
100
AcDbLine
10
26.440383
20
-15.4125
30
0
11
36.440383
21
-15.4125
31
0
39
0
210
0
220
0
230
1
0
LINE
5
7A
100
AcDbEntity
8
1
62
256
6
ByLayer
370
13
48
0.05
60
0
100
AcDbLine
10
-99.909617
20
9.490286
30
0
11
-99.909617
21
13.559714
31
0
39
0
210
0
220
0
230
1
0
LINE
5
7B
100
AcDbEntity
8
1
62
256
6
ByLayer
370
18
48
1
60
0
100
AcDbLine
10
8.45746
20
7.494608
30
0
11
6.238198
21
-0.634178
31
0
39
0
210
0
220
0
230
1
0
LINE
5
7C
100
AcDbEntity
8
1
62
256
6
ByLayer
370
18
48
1
60
0
100
AcDbLine
10
3.416195
20
-10.970704
30
0
11
2.913419
21
-12.812286
31
0
39
0
210
0
220
0
230
1
0
LINE
5
7D
100
AcDbEntity
8
1
62
256
6
ByLayer
370
18
48
1
60
0
100
AcDbLine
10
9.200566
20
0.227641
30
0
11
8.777591
21
-1.321644
31
0
39
0
210
0
220
0
230
1
0
LINE
5
7E
100
AcDbEntity
8
1
62
256
6
ByLayer
370
18
48
1
60
0
100
AcDbLine
10
5.858645
20
-12.013255
30
0
11
5.508983
21
-13.294009
31
0
39
0
210
0
220
0
230
1
0
LINE
5
7F
100
AcDbEntity
8
1
62
256
6
ByLayer
370
18
48
1
60
0
100
AcDbLine
10
16.197421
20
-13.385561
30
0
11
18.584363
21
-14.475662
31
0
39
0
210
0
220
0
230
1
0
LINE
5
80
100
AcDbEntity
8
1
62
256
6
ByLayer
370
18
48
1
60
0
100
AcDbLine
10
19.276086
20
-5.808573
30
0
11
22.298989
21
-3.683528
31
0
39
0
210
0
220
0
230
1
0
LINE
5
81
100
AcDbEntity
8
1
62
256
6
ByLayer
370
18
48
1
60
0
100
AcDbLine
10
8.435272
20
7.510285
30
0
11
6.2116
21
-0.634651
31
0
39
0
210
0
220
0
230
1
0
LINE
5
82
100
AcDbEntity
8
1
62
256
6
ByLayer
370
18
48
1
60
0
100
AcDbLine
10
3.394048
20
-10.954872
30
0
11
2.888227
21
-12.80761
31
0
39
0
210
0
220
0
230
1
0
LINE
5
83
100
AcDbEntity
8
1
62
256
6
ByLayer
370
18
48
1
60
0
100
AcDbLine
10
7.657027
20
8.06016
30
0
11
5.199631
21
-0.94087
31
0
39
0
210
0
220
0
230
1
0
LINE
5
84
100
AcDbEntity
8
1
62
256
6
ByLayer
370
18
48
1
60
0
100
AcDbLine
10
2.679478
20
-10.171766
30
0
11
2.155073
21
-12.092573
31
0
39
0
210
0
220
0
230
1
0
LINE
5
85
100
AcDbEntity
8
1
62
256
6
ByLayer
370
18
48
1
60
0
100
AcDbLine
10
19.355861
20
-5.854353
30
0
11
22.334513
21
-3.760415
31
0
39
0
210
0
220
0
230
1
0
LINE
5
86
100
AcDbEntity
8
1
62
256
6
ByLayer
370
18
48
1
60
0
100
AcDbLine
10
18.646172
20
-14.302956
30
0
11
18.584363
21
-14.475662
31
0
39
0
210
0
220
0
230
1
0
LINE
5
87
100
AcDbEntity
8
1
62
256
6
ByLayer
370
18
48
1
60
0
100
AcDbLine
10
11.610049
20
-7.432518
30
0
11
11.492518
21
-7.314987
31
0
39
0
210
0
220
0
230
1
0
LINE
5
88
100
AcDbEntity
8
1
62
256
6
ByLayer
370
18
48
1
60
0
100
AcDbLine
10
10.225285
20
-8.582221
30
0
11
10.342815
21
-8.699751
31
0
39
0
210
0
220
0
230
1
0
LINE
5
89
100
AcDbEntity
8
1
62
256
6
ByLayer
370
18
48
1
60
0
100
AcDbLine
10
16.57123
20
-13.344287
30
0
11
19.307268
21
-14.608395
31
0
39
0
210
0
220
0
230
1
0
LINE
5
8A
100
AcDbEntity
8
1
62
256
6
ByLayer
370
18
48
1
60
0
100
AcDbLine
10
22.505026
20
-3.720218
30
0
11
19.418251
21
-5.890164
31
0
39
0
210
0
220
0
230
1
0
LINE
5
8B
100
AcDbEntity
8
1
62
256
6
ByLayer
370
18
48
1
60
0
100
AcDbLine
10
22.153554
20
-3.368745
30
0
11
22.505026
21
-3.720218
31
0
39
0
210
0
220
0
230
1
0
LINE
5
8C
100
AcDbEntity
8
1
62
256
6
ByLayer
370
18
48
1
60
0
100
AcDbLine
10
3.611105
20
-9.016092
30
0
11
2.450137
21
-8.309687
31
0
39
0
210
0
220
0
230
1
0
LINE
5
8D
100
AcDbEntity
8
1
62
256
6
ByLayer
370
18
48
1
60
0
100
AcDbLine
10
10.455521
20
-13.208369
30
0
11
6.060842
21
-12.053137
31
0
39
0
210
0
220
0
230
1
0
LINE
5
8E
100
AcDbEntity
8
1
62
256
6
ByLayer
370
18
48
1
60
0
100
AcDbLine
10
7.790405
20
-1.075658
30
0
11
7.390663
21
-0.83243
31
0
39
0
210
0
220
0
230
1
0
LINE
5
8F
100
AcDbEntity
8
1
62
256
6
ByLayer
370
18
48
1
60
0
100
AcDbLine
10
10.761774
20
-11.358499
30
0
11
10.480917
21
-11.187609
31
0
39
0
210
0
220
0
230
1
0
LINE
5
90
100
AcDbEntity
8
1
62
256
6
ByLayer
370
18
48
1
60
0
100
AcDbLine
10
6.027561
20
-8.946431
30
0
11
5.714481
21
-8.755934
31
0
39
0
210
0
220
0
230
1
0
LINE
5
91
100
AcDbEntity
8
1
62
256
6
ByLayer
370
18
48
1
60
0
100
AcDbLine
10
4.816564
20
-11.134171
30
0
11
10.879838
21
-12.728028
31
0
39
0
210
0
220
0
230
1
0
LINE
5
92
100
AcDbEntity
8
1
62
256
6
ByLayer
370
18
48
1
60
0
100
AcDbLine
10
6.013616
20
-12.054131
30
0
11
6.060842
21
-12.053137
31
0
39
0
210
0
220
0
230
1
0
LINE
5
93
100
AcDbEntity
8
1
62
256
6
ByLayer
370
18
48
1
60
0
100
AcDbLine
10
7.790405
20
-1.075658
30
0
11
8.929155
21
-1.375002
31
0
39
0
210
0
220
0
230
1
0
LINE
5
94
100
AcDbEntity
8
1
62
256
6
ByLayer
370
18
48
1
60
0
100
AcDbLine
10
12.521604
20
-4.912538
30
0
11
10.935656
21
-4.495639
31
0
39
0
210
0
220
0
230
1
0
LINE
5
95
100
AcDbEntity
8
1
62
256
6
ByLayer
370
18
48
1
60
0
100
AcDbLine
10
9.175826
20
-10.9416
30
0
11
10.761774
21
-11.358499
31
0
39
0
210
0
220
0
230
1
0
LINE
5
96
100
AcDbEntity
8
1
62
256
6
ByLayer
370
18
48
1
60
0
100
AcDbLine
10
5.714481
20
-8.755934
30
0
11
4.37367
21
-8.405347
31
0
39
0
210
0
220
0
230
1
0
LINE
5
97
100
AcDbEntity
8
1
62
256
6
ByLayer
370
18
48
1
60
0
100
AcDbLine
10
21.072591
20
-6.893359
30
0
11
22.209449
21
-8.89309
31
0
39
0
210
0
220
0
230
1
0
LINE
5
98
100
AcDbEntity
8
1
62
256
6
ByLayer
370
18
48
1
60
0
100
AcDbLine
10
13.362269
20
-2.561439
30
0
11
8.96759
21
-1.406206
31
0
39
0
210
0
220
0
230
1
0
LINE
5
99
100
AcDbEntity
8
1
62
256
6
ByLayer
370
18
48
1
60
0
100
AcDbLine
10
19.311449
20
-10.067459
30
0
11
23.034228
21
-10.779514
31
0
39
0
210
0
220
0
230
1
0
LINE
5
9A
100
AcDbEntity
8
1
62
256
6
ByLayer
370
18
48
1
60
0
100
AcDbLine
10
8.901355
20
-10.774594
30
0
11
10.480917
21
-11.187609
31
0
39
0
210
0
220
0
230
1
0
LINE
5
9B
100
AcDbEntity
8
1
62
256
6
ByLayer
370
18
48
1
60
0
100
AcDbLine
10
4.37367
20
-8.405347
30
0
11
5.529379
21
-4.172178
31
0
39
0
210
0
220
0
230
1
0
LINE
5
9C
100
AcDbEntity
8
1
62
256
6
ByLayer
370
18
48
1
60
0
100
AcDbLine
10
3.611105
20
-9.016092
30
0
11
5.213338
21
-3.147381
31
0
39
0
210
0
220
0
230
1
0
LINE
5
9D
100
AcDbEntity
8
1
62
256
6
ByLayer
370
18
48
1
60
0
100
AcDbLine
10
4.05237
20
-2.440977
30
0
11
2.450137
21
-8.309687
31
0
39
0
210
0
220
0
230
1
0
LINE
5
9E
100
AcDbEntity
8
1
62
256
6
ByLayer
370
18
48
1
60
0
100
AcDbLine
10
6.013616
20
-12.054131
30
0
11
4.874867
21
-11.754787
31
0
39
0
210
0
220
0
230
1
0
LINE
5
9F
100
AcDbEntity
8
1
62
256
6
ByLayer
370
18
48
1
60
0
100
AcDbLine
10
8.929155
20
-1.375002
30
0
11
8.96759
21
-1.406206
31
0
39
0
210
0
220
0
230
1
0
LINE
5
A0
100
AcDbEntity
8
1
62
256
6
ByLayer
370
18
48
1
60
0
100
AcDbLine
10
9.175826
20
-10.9416
30
0
11
8.901355
21
-10.774594
31
0
39
0
210
0
220
0
230
1
0
LINE
5
A1
100
AcDbEntity
8
1
62
256
6
ByLayer
370
18
48
1
60
0
100
AcDbLine
10
21.36898
20
-11.97159
30
0
11
19.365584
21
-13.145839
31
0
39
0
210
0
220
0
230
1
0
LINE
5
A2
100
AcDbEntity
8
1
62
256
6
ByLayer
370
18
48
1
60
0
100
AcDbLine
10
7.335282
20
-1.908528
30
0
11
13.398557
21
-3.502385
31
0
39
0
210
0
220
0
230
1
0
LINE
5
A3
100
AcDbEntity
8
1
62
256
6
ByLayer
370
18
48
1
60
0
100
AcDbLine
10
8.929155
20
-1.375002
30
0
11
7.398293
21
-0.83512
31
0
39
0
210
0
220
0
230
1
0
LINE
5
A4
100
AcDbEntity
8
1
62
256
6
ByLayer
370
18
48
1
60
0
100
AcDbLine
10
5.213338
20
-3.147381
30
0
11
4.05237
21
-2.440977
31
0
39
0
210
0
220
0
230
1
0
LINE
5
A5
100
AcDbEntity
8
1
62
256
6
ByLayer
370
18
48
1
60
0
100
AcDbLine
10
11.755171
20
-8.31416
30
0
11
11.619325
21
-8.178314
31
0
39
0
210
0
220
0
230
1
0
LINE
5
A6
100
AcDbEntity
8
1
62
256
6
ByLayer
370
18
48
1
60
0
100
AcDbLine
10
11.356671
20
-7.17914
30
0
11
11.492518
21
-7.314986
31
0
39
0
210
0
220
0
230
1
0
LINE
5
A7
100
AcDbEntity
8
1
62
256
6
ByLayer
370
18
48
1
60
0
100
AcDbLine
10
11.088611
20
-8.709027
30
0
11
11.224458
21
-8.844874
31
0
39
0
210
0
220
0
230
1
0
LINE
5
A8
100
AcDbEntity
8
1
62
256
6
ByLayer
370
18
48
1
60
0
100
AcDbLine
10
10.795538
20
-8.904027
30
0
11
10.935886
21
-9.044375
31
0
39
0
210
0
220
0
230
1
0
LINE
5
A9
100
AcDbEntity
8
1
62
256
6
ByLayer
370
18
48
1
60
0
100
AcDbLine
10
11.814324
20
-7.88524
30
0
11
11.954673
21
-8.025589
31
0
39
0
210
0
220
0
230
1
0
LINE
5
AA
100
AcDbEntity
8
1
62
256
6
ByLayer
370
18
48
1
60
0
100
AcDbLine
10
11.276421
20
-8.77274
30
0
11
11.416769
21
-8.913088
31
0
39
0
210
0
220
0
230
1
0
LINE
5
AB
100
AcDbEntity
8
1
62
256
6
ByLayer
370
18
48
1
60
0
100
AcDbLine
10
11.319723
20
-6.984023
30
0
11
11.460072
21
-7.124371
31
0
39
0
210
0
220
0
230
1
0
LINE
5
AC
100
AcDbEntity
8
1
62
256
6
ByLayer
370
18
48
1
60
0
100
AcDbLine
10
11.663462
20
-8.016645
30
0
11
11.799309
21
-8.152491
31
0
39
0
210
0
220
0
230
1
0
LINE
5
AD
100
AcDbEntity
8
1
62
256
6
ByLayer
370
18
48
1
60
0
100
AcDbLine
10
11.062789
20
-8.889011
30
0
11
10.926942
21
-8.753165
31
0
39
0
210
0
220
0
230
1
0
LINE
5
AE
100
AcDbEntity
8
1
62
256
6
ByLayer
370
18
48
1
60
0
100
AcDbLine
10
9.894321
20
-8.409426
30
0
11
10.034669
21
-8.549774
31
0
39
0
210
0
220
0
230
1
0
LINE
5
AF
100
AcDbEntity
8
1
62
256
6
ByLayer
370
18
48
1
60
0
100
AcDbLine
10
10.225284
20
-8.58222
30
0
11
10.089437
21
-8.446374
31
0
39
0
210
0
220
0
230
1
0
LINE
5
B0
100
AcDbEntity
8
1
62
256
6
ByLayer
370
18
48
1
60
0
100
AcDbLine
10
11.683037
20
-8.366123
30
0
11
11.823385
21
-8.506471
31
0
39
0
210
0
220
0
230
1
0
LINE
5
B1
100
AcDbEntity
8
1
62
256
6
ByLayer
370
18
48
1
60
0
100
AcDbLine
10
0
20
9.9375
30
0
11
2.11218
21
9.946716
31
0
39
0
210
0
220
0
230
1
0
LINE
5
B2
100
AcDbEntity
8
1
62
256
6
ByLayer
370
18
48
1
60
0
100
AcDbLine
10
21.339829
20
-1.607519
30
0
11
22.298989
21
-3.683528
31
0
39
0
210
0
220
0
230
1
0
LINE
5
B3
100
AcDbEntity
8
1
62
256
6
ByLayer
370
18
48
1
60
0
100
AcDbLine
10
2.913419
20
-12.812286
30
0
11
5.508983
21
-13.294009
31
0
39
0
210
0
220
0
230
1
0
LINE
5
B4
100
AcDbEntity
8
1
62
256
6
ByLayer
370
18
48
1
60
0
100
AcDbLine
10
0
20
-9.9375
30
0
11
0
21
9.9375
31
0
39
0
210
0
220
0
230
1
0
LINE
5
B5
100
AcDbEntity
8
1
62
256
6
ByLayer
370
18
48
1
60
0
100
AcDbLine
10
0.201843
20
-10.139343
30
0
11
2.155073
21
-12.092573
31
0
39
0
210
0
220
0
230
1
0
LINE
5
B6
100
AcDbEntity
8
1
62
256
6
ByLayer
370
18
48
1
60
0
100
AcDbLine
10
8.435272
20
7.510285
30
0
11
8.45746
21
7.494608
31
0
39
0
210
0
220
0
230
1
0
LINE
5
B7
100
AcDbEntity
8
1
62
256
6
ByLayer
370
18
48
1
60
0
100
AcDbLine
10
4.988824
20
9.945396
30
0
11
2.11218
21
9.946716
31
0
39
0
210
0
220
0
230
1
0
LINE
5
B8
100
AcDbEntity
8
1
62
256
6
ByLayer
370
18
48
1
60
0
100
AcDbLine
10
2.11218
20
9.946716
30
0
11
0.201843
21
-10.139343
31
0
39
0
210
0
220
0
230
1
0
LINE
5
B9
100
AcDbEntity
8
1
62
256
6
ByLayer
370
18
48
1
60
0
100
AcDbLine
10
2.888227
20
-12.80761
30
0
11
2.913419
21
-12.812286
31
0
39
0
210
0
220
0
230
1
0
LINE
5
BA
100
AcDbEntity
8
1
62
256
6
ByLayer
370
18
48
1
60
0
100
AcDbLine
10
9.200566
20
0.227641
30
0
11
10.241344
21
6.234192
31
0
39
0
210
0
220
0
230
1
0
LINE
5
BB
100
AcDbEntity
8
1
62
256
6
ByLayer
370
18
48
1
60
0
100
AcDbLine
10
4.988824
20
9.945396
30
0
11
7.657027
21
8.06016
31
0
39
0
210
0
220
0
230
1
0
LINE
5
BC
100
AcDbEntity
8
1
62
256
6
ByLayer
370
18
48
1
60
0
100
AcDbLine
10
18.444558
20
-14.866307
30
0
11
18.584363
21
-14.475662
31
0
39
0
210
0
220
0
230
1
0
LINE
5
BD
100
AcDbEntity
8
1
62
256
6
ByLayer
370
18
48
1
60
0
100
AcDbLine
10
7.657027
20
8.06016
30
0
11
8.435272
21
7.510285
31
0
39
0
210
0
220
0
230
1
0
LINE
5
BE
100
AcDbEntity
8
1
62
256
6
ByLayer
370
18
48
1
60
0
100
AcDbLine
10
2.155073
20
-12.092573
30
0
11
2.865981
21
-12.803481
31
0
39
0
210
0
220
0
230
1
0
LINE
5
BF
100
AcDbEntity
8
1
62
256
6
ByLayer
370
18
48
1
60
0
100
AcDbLine
10
18.444558
20
-14.866307
30
0
11
13.98066
21
-14.866307
31
0
39
0
210
0
220
0
230
1
0
LINE
5
C0
100
AcDbEntity
8
1
62
256
6
ByLayer
370
18
48
1
60
0
100
AcDbLine
10
13.98066
20
-14.866307
30
0
11
5.508983
21
-13.294009
31
0
39
0
210
0
220
0
230
1
0
LINE
5
C1
100
AcDbEntity
8
1
62
256
6
ByLayer
370
18
48
1
60
0
100
AcDbLine
10
22.298989
20
-3.683528
30
0
11
22.334513
21
-3.760415
31
0
39
0
210
0
220
0
230
1
0
LINE
5
C2
100
AcDbEntity
8
1
62
256
6
ByLayer
370
18
48
1
60
0
100
AcDbLine
10
21.339829
20
-1.607519
30
0
11
13.151164
21
4.178239
31
0
39
0
210
0
220
0
230
1
0
LINE
5
C3
100
AcDbEntity
8
1
62
256
6
ByLayer
370
18
48
1
60
0
100
AcDbLine
10
2.865981
20
-12.803481
30
0
11
2.888227
21
-12.80761
31
0
39
0
210
0
220
0
230
1
0
LINE
5
C4
100
AcDbEntity
8
1
62
256
6
ByLayer
370
18
48
1
60
0
100
AcDbLine
10
13.151164
20
4.178239
30
0
11
9.200566
21
0.227641
31
0
39
0
210
0
220
0
230
1
0
LINE
5
C5
100
AcDbEntity
8
1
62
256
6
ByLayer
370
18
48
1
60
0
100
AcDbLine
10
13.151164
20
4.178239
30
0
11
10.241344
21
6.234192
31
0
39
0
210
0
220
0
230
1
0
LINE
5
C6
100
AcDbEntity
8
1
62
256
6
ByLayer
370
18
48
1
60
0
100
AcDbLine
10
0.201843
20
-10.139343
30
0
11
0
21
-9.9375
31
0
39
0
210
0
220
0
230
1
0
LINE
5
C7
100
AcDbEntity
8
1
62
256
6
ByLayer
370
18
48
1
60
0
100
AcDbLine
10
8.45746
20
7.494608
30
0
11
10.241344
21
6.234192
31
0
39
0
210
0
220
0
230
1
0
LINE
5
C8
100
AcDbEntity
8
SK1
62
256
6
ByLayer
370
18
48
1
60
0
100
AcDbLine
10
-99.909617
20
-9.9375
30
0
11
-99.909617
21
9.9375
31
0
39
0
210
0
220
0
230
1
0
LINE
5
CA
100
AcDbEntity
8
SK1
62
256
6
ByLayer
370
18
48
1
60
0
100
AcDbLine
10
0
20
-9.9375
30
0
11
0
21
9.9375
31
0
39
0
210
0
220
0
230
1
0
LINE
5
CB
100
AcDbEntity
8
SK1
62
256
6
ByLayer
370
18
48
1
60
0
100
AcDbLine
10
0
20
-9.9375
30
0
11
-99.909617
21
-9.9375
31
0
39
0
210
0
220
0
230
1
0
LINE
5
CC
100
AcDbEntity
8
SK1
62
256
6
ByLayer
370
18
48
1
60
0
100
AcDbLine
10
-99.909617
20
9.9375
30
0
11
0
21
9.9375
31
0
39
0
210
0
220
0
230
1
0
LINE
5
CD
100
AcDbEntity
8
1
62
256
6
ByLayer
370
18
48
1
60
0
100
AcDbLine
10
20.893902
20
-15.025475
30
0
11
25.577893
21
-15.409865
31
0
39
0
210
0
220
0
230
1
0
LINE
5
CE
100
AcDbEntity
8
1
62
256
6
ByLayer
370
18
48
1
60
0
100
AcDbLine
10
26.437748
20
-14.55001
30
0
11
26.053358
21
-9.866018
31
0
39
0
210
0
220
0
230
1
0
LINE
5
CF
100
AcDbEntity
8
1
62
256
6
ByLayer
370
18
48
1
60
0
100
AcDbLine
10
25.636279
20
-8.279385
30
0
11
23.671518
21
-4.026855
31
0
39
0
210
0
220
0
230
1
0
MTEXT
5
159
100
AcDbEntity
8
SK6
62
256
6
ByLayer
370
18
48
1
60
0
100
AcDbMText
10
-50.859617
20
20.873604
30
0
210
0
220
0
230
1
1
\W0.7940;DWLNL 2020K 06
40
3.5
41
0
44
1.084337
50
0
71
7
72
5
7
iso_b_vert
0
DIMENSION
5
179
100
AcDbEntity
8
2
62
256
6
ByLayer
370
13
48
1
60
0
100
AcDbDimension
2
DimnDraft3D2
10
24.585063
20
-15.328051
30
0
11
13.994502
21
-26.94666
31
0
70
34
71
5
72
1
41
1
210
0
220
0
230
1
3
Standard
100
AcDb2LineAngularDimension
13
26.440383
23
-15.4125
33
0
14
26.440383
24
-13.825
34
0
15
25.581713
25
-15.409841
35
0
16
10.684952
26
-29.995739
36
0
40
0
0
DIMENSION
5
18E
100
AcDbEntity
8
2
62
256
6
ByLayer
370
13
48
1
60
0
100
AcDbDimension
2
DimnDraft3D3
10
26.440383
20
-43.6625
30
0
11
7.701771
21
-43.6625
31
0
70
32
71
5
72
1
41
1
210
0
220
0
230
1
3
Standard
100
AcDbAlignedDimension
13
0
23
-11.9375
33
0
14
26.440383
24
-17.4125
34
0
50
0
100
AcDbRotatedDimension
1001
ACAD
1000
DSTYLE
1002
{
1070
   279
1070
     0
1070
   172
1070
     1
1070
   173
1070
     1
1070
   340
1005
15A
1070
    77
1070
     1
1070
    73
1070
     0
1070
   171
1070
     3
1070
   274
1070
     4
1070
   177
1070
     2
1070
   176
1070
     2
1070
   178
1070
     7
1070
    78
1070
     8
1070
    41
1041
3.175
1070
   147
1041
2.25
1070
    42
1041
2.0
1070
    44
1041
2.0
1070
   140
1041
4.5
1070
   343
1005
17A
1070
   344
1005
17A
1002
}
0
DIMENSION
5
19C
100
AcDbEntity
8
2
62
256
6
ByLayer
370
13
48
1
60
0
100
AcDbDimension
2
DimnDraft3D4
10
48.690383
20
-15.4125
30
0
11
48.690383
21
-8.019079
31
0
70
32
71
5
72
1
41
1
210
0
220
0
230
1
3
Standard
100
AcDbAlignedDimension
13
2
23
9.9375
33
0
14
28.440383
24
-15.4125
34
0
50
90
100
AcDbRotatedDimension
1001
ACAD
1000
DSTYLE
1002
{
1070
    74
1070
     0
1070
   279
1070
     0
1070
   172
1070
     1
1070
   173
1070
     1
1070
   340
1005
15A
1070
    77
1070
     1
1070
    73
1070
     0
1070
   171
1070
     3
1070
   274
1070
     4
1070
   177
1070
     2
1070
   176
1070
     2
1070
   178
1070
     7
1070
    78
1070
     8
1070
    41
1041
3.175
1070
   147
1041
2.25
1070
    42
1041
2.0
1070
    44
1041
2.0
1070
   140
1041
4.5
1070
   343
1005
17A
1070
   344
1005
17A
1002
}
0
DIMENSION
5
1AA
100
AcDbEntity
8
SK2
62
256
6
ByLayer
370
13
48
1
60
0
100
AcDbDimension
2
DimnDraft3D5
10
-107.659617
20
-9.9375
30
0
11
-107.659617
21
-5.281579
31
0
70
32
71
5
72
1
41
1
210
0
220
0
230
1
3
Standard
100
AcDbAlignedDimension
13
-101.909617
23
9.9375
33
0
14
-101.909617
24
-9.9375
34
0
50
90
100
AcDbRotatedDimension
1001
ACAD
1000
DSTYLE
1002
{
1070
    74
1070
     0
1070
   279
1070
     0
1070
   172
1070
     1
1070
   173
1070
     1
1070
   340
1005
15A
1070
    77
1070
     1
1070
    73
1070
     0
1070
   171
1070
     3
1070
   274
1070
     4
1070
   177
1070
     2
1070
   176
1070
     2
1070
   178
1070
     7
1070
    78
1070
     8
1070
    41
1041
3.175
1070
   147
1041
2.25
1070
    42
1041
2.0
1070
    44
1041
2.0
1070
   140
1041
4.5
1070
   343
1005
17A
1070
   344
1005
17A
1002
}
0
ENDSEC
0
SECTION
2
OBJECTS
0
DICTIONARY
5
214
330
0
100
AcDbDictionary
280
0
281
1
3
ACAD_GROUP
350
215
3
ACAD_MLINESTYLE
350
216
0
DICTIONARY
5
215
330
0
100
AcDbDictionary
280
0
281
1
0
DICTIONARY
5
216
330
0
100
AcDbDictionary
280
0
281
1
3
Standard
350
18
0
MLINESTYLE
5
18
330
216
100
AcDbMlineStyle
2
Standard
70
0
3

62
256
51
90
52
90
71
2
49
-0.5
62
256
6
ByLayer
49
0.5
62
256
6
ByLayer
0
RASTERVARIABLES
5
203
330

100
AcDbRasterVariables
90
0
70
1
71
1
72
1
0
ENDSEC
0
EOF
