0
SECTION
2
HEADER
9
$ACADVER
1
AC1015
9
$DWGCODEPAGE
3
ANSI_1252
9
$HANDSEED
5
228
9
$ANGBASE
50
0
9
$ANGDIR
70
0
9
$ATTMODE
70
1
9
$AUNITS
70
0
9
$AUPREC
70
0
9
$CECOLOR
62
256
9
$CELTSCALE
40
1
9
$CELTYPE
6
ByLayer
9
$CELWEIGHT
370
18
9
$CLAYER
8
0
9
$CMLJUST
70
0
9
$CMLSCALE
40
1
9
$CMLSTYLE
2
Standard
9
$DIMSTYLE
2
Standard
9
$TEXTSIZE
40
0.2
9
$TEXTSTYLE
7
Standard
9
$LUNITS
70
2
9
$LUPREC
70
4
9
$EXTNAMES
290
1
9
$INSUNITS
70
4
9
$LTSCALE
40
1
9
$LWDISPLAY
290
1
9
$PDMODE
70
0
9
$PDSIZE
40
0
9
$PLINEGEN
70
0
0
ENDSEC
0
SECTION
2
CLASSES
0
CLASS
1
RASTERVARIABLES
2
AcDbRasterVariables
3
ISM
90
0
280
0
281
0
0
ENDSEC
0
SECTION
2
TABLES
0
TABLE
2
VPORT
5
21e
100
AcDbSymbolTable
0
VPORT
5
1
100
AcDbSymbolTableRecord
100
AcDbViewportTableRecord
2
*Active
70
0
10
0
20
0
11
1
21
1
12
-1
22
1
13
0
23
0
14
0.5
24
0.5
15
10
25
10
16
0
26
0
36
1
17
0
27
0
37
0
0
ENDTAB
0
TABLE
2
LTYPE
5
21f
100
AcDbSymbolTable
0
LTYPE
5
14
100
AcDbSymbolTableRecord
100
AcDbLinetypeTableRecord
70
0
2
ByBlock
3

72
65
73
0
40
0
0
LTYPE
5
15
100
AcDbSymbolTableRecord
100
AcDbLinetypeTableRecord
70
0
2
ByLayer
3

72
65
73
0
40
0
0
LTYPE
5
16
100
AcDbSymbolTableRecord
100
AcDbLinetypeTableRecord
70
0
2
CONTINUOUS
3
Solid line
72
65
73
0
40
0
0
LTYPE
5
6A
100
AcDbSymbolTableRecord
100
AcDbLinetypeTableRecord
70
0
2
CENTER
3
____ _ ____ _ ____ _ ____
72
65
73
4
40
47.5
49
22
74
0
49
-8.5
74
0
49
8.5
74
0
49
-8.5
74
0
0
LTYPE
5
6B
100
AcDbSymbolTableRecord
100
AcDbLinetypeTableRecord
70
0
2
DASHED
3
__ __ __ __ __ __ __ __ __
72
65
73
2
40
25.72
49
12.86
74
0
49
-12.86
74
0
0
ENDTAB
0
TABLE
2
LAYER
5
220
100
AcDbSymbolTable
0
LAYER
5
10
100
AcDbSymbolTableRecord
100
AcDbLayerTableRecord
2
0
70
0
62
7
6
CONTINUOUS
290
1
370
-3
390
0
0
LAYER
5
6D
100
AcDbSymbolTableRecord
100
AcDbLayerTableRecord
2
2
70
0
62
7
6
CONTINUOUS
290
1
370
-3
390
0
0
LAYER
5
6F
100
AcDbSymbolTableRecord
100
AcDbLayerTableRecord
2
80
70
0
62
-6
6
CONTINUOUS
290
1
370
-3
390
0
0
LAYER
5
71
100
AcDbSymbolTableRecord
100
AcDbLayerTableRecord
2
81
70
0
62
-3
6
CONTINUOUS
290
1
370
-3
390
0
0
LAYER
5
73
100
AcDbSymbolTableRecord
100
AcDbLayerTableRecord
2
1
70
0
62
4
6
CONTINUOUS
290
1
370
-3
390
0
0
LAYER
5
20b
100
AcDbSymbolTableRecord
100
AcDbLayerTableRecord
2
SK1
70
0
62
4
6
CONTINUOUS
290
1
370
-3
390
0
0
LAYER
5
20c
100
AcDbSymbolTableRecord
100
AcDbLayerTableRecord
2
SK6
70
0
62
5
6
CONTINUOUS
290
1
370
-3
390
0
0
LAYER
5
20d
100
AcDbSymbolTableRecord
100
AcDbLayerTableRecord
2
SK2
70
0
62
7
6
CONTINUOUS
290
1
370
-3
390
0
0
ENDTAB
0
TABLE
2
STYLE
5
221
100
AcDbSymbolTable
0
STYLE
5
11
100
AcDbSymbolTableRecord
100
AcDbTextStyleTableRecord
2
Standard
3
txt
70
0
71
0
40
0
41
1
42
0
50
0
0
STYLE
5
161
100
AcDbSymbolTableRecord
100
AcDbTextStyleTableRecord
2
iso_b_vert
3
simplex.shx
70
0
71
0
40
0
41
1
42
0
50
0
0
STYLE
5
162
100
AcDbSymbolTableRecord
100
AcDbTextStyleTableRecord
2
DWGDirectTextStyle
3
simplex
70
0
71
0
40
0
41
1
42
0
50
0
0
ENDTAB
0
TABLE
2
DIMSTYLE
5
222
100
AcDbSymbolTable
100
AcDbDimStyleTable
0
DIMSTYLE
105
27
100
AcDbSymbolTableRecord
100
AcDbDimStyleTableRecord
2
Standard
70
0
3
<>
41
0.18
42
0.0625
44
0.18
140
0.18
147
0.09
73
0
74
0
77
1
271
2
275
0
278
52
280
0
340
11
0
ENDTAB
0
TABLE
2
VIEW
5
223
100
AcDbSymbolTable
0
ENDTAB
0
TABLE
2
UCS
5
224
100
AcDbSymbolTable
0
ENDTAB
0
TABLE
2
APPID
5
225
100
AcDbSymbolTable
0
APPID
5
12
100
AcDbSymbolTableRecord
100
AcDbRegAppTableRecord
2
ACAD
70
0
0
ENDTAB
0
TABLE
2
BLOCK_RECORD
5
226
100
AcDbSymbolTable
0
BLOCK_RECORD
5
1F
100
AcDbSymbolTableRecord
100
AcDbBlockTableRecord
2
*Model_Space
340
0
70
0
0
BLOCK_RECORD
5
1B
100
AcDbSymbolTableRecord
100
AcDbBlockTableRecord
2
*Paper_Space
340
0
70
0
0
BLOCK_RECORD
5
23
100
AcDbSymbolTableRecord
100
AcDbBlockTableRecord
2
*Paper_Space0
340
0
70
0
0
BLOCK_RECORD
5
164
100
AcDbSymbolTableRecord
100
AcDbBlockTableRecord
2
DimnDraft3D1
340
0
70
0
0
BLOCK_RECORD
5
172
100
AcDbSymbolTableRecord
100
AcDbBlockTableRecord
2
_CLOSED
340
0
70
0
0
BLOCK_RECORD
5
179
100
AcDbSymbolTableRecord
100
AcDbBlockTableRecord
2
DimnDraft3D2
340
0
70
0
0
BLOCK_RECORD
5
188
100
AcDbSymbolTableRecord
100
AcDbBlockTableRecord
2
DimnDraft3D3
340
0
70
0
0
BLOCK_RECORD
5
196
100
AcDbSymbolTableRecord
100
AcDbBlockTableRecord
2
DimnDraft3D4
340
0
70
0
0
BLOCK_RECORD
5
1A4
100
AcDbSymbolTableRecord
100
AcDbBlockTableRecord
2
DimnDraft3D5
340
0
70
0
0
ENDTAB
0
ENDSEC
0
SECTION
2
BLOCKS
0
BLOCK
5
20
100
AcDbEntity
8
0
100
AcDbBlockBegin
2
*Model_Space
70
0
10
0
20
0
30
0
3
*Model_Space
0
ENDBLK
5
21
100
AcDbEntity
8
0
100
AcDbBlockEnd
0
BLOCK
5
1C
100
AcDbEntity
8
0
100
AcDbBlockBegin
2
*Paper_Space
70
0
10
0
20
0
30
0
3
*Paper_Space
0
ENDBLK
5
1D
100
AcDbEntity
8
0
100
AcDbBlockEnd
0
BLOCK
5
24
100
AcDbEntity
8
0
100
AcDbBlockBegin
2
*Paper_Space0
70
0
10
0
20
0
30
0
3
*Paper_Space0
0
ENDBLK
5
25
100
AcDbEntity
8
0
100
AcDbBlockEnd
0
BLOCK
5
16F
100
AcDbEntity
8
0
100
AcDbBlockBegin
2
DimnDraft3D1
70
0
10
0
20
0
30
0
3
DimnDraft3D1
0
MTEXT
5
165
100
AcDbEntity
8
2
62
256
6
ByLayer
370
18
48
1
60
0
100
AcDbMText
10
16.691106
20
29.682075
30
0
210
0
220
0
230
1
1
\W0.6809;117%%d30'
40
4.5
41
0
44
1.084337
50
58.7500000000001
71
7
72
5
7
iso_b_vert
0
LINE
5
166
100
AcDbEntity
8
2
62
256
6
ByLayer
370
13
48
1
60
0
100
AcDbLine
10
39.219028
20
26.425
30
0
11
39.219028
21
47.534117
31
0
39
0
210
0
220
0
230
1
0
LINE
5
167
100
AcDbEntity
8
2
62
256
6
ByLayer
370
13
48
1
60
0
100
AcDbLine
10
35.397732
20
22.950069
30
0
11
19.177189
21
14.506188
31
0
39
0
210
0
220
0
230
1
0
ARC
5
168
100
AcDbEntity
8
2
62
256
6
ByLayer
370
13
48
1
60
0
100
AcDbCircle
39
0
10
39.219028
20
24.93931
30
0
40
20.5948076629831
210
0
220
0
230
1
100
AcDbArc
50
90
51
207.5
0
LINE
5
169
100
AcDbEntity
8
2
62
256
6
ByLayer
370
13
48
1
60
0
100
AcDbLine
10
39.219028
20
45.534117
30
0
11
36.062452
21
44.994333
31
0
39
0
210
0
220
0
230
1
0
LINE
5
16A
100
AcDbEntity
8
2
62
256
6
ByLayer
370
13
48
1
60
0
100
AcDbLine
10
39.219028
20
45.534117
30
0
11
36.0303
21
45.829708
31
0
39
0
210
0
220
0
230
1
0
LINE
5
16B
100
AcDbEntity
8
2
62
256
6
ByLayer
370
13
48
1
60
0
100
AcDbLine
10
36.062452
20
44.994333
30
0
11
36.0303
21
45.829708
31
0
39
0
210
0
220
0
230
1
0
LINE
5
16C
100
AcDbEntity
8
2
62
256
6
ByLayer
370
13
48
1
60
0
100
AcDbLine
10
20.95121
20
15.429686
30
0
11
19.216629
21
18.12163
31
0
39
0
210
0
220
0
230
1
0
LINE
5
16D
100
AcDbEntity
8
2
62
256
6
ByLayer
370
13
48
1
60
0
100
AcDbLine
10
20.95121
20
15.429686
30
0
11
19.972459
21
18.47885
31
0
39
0
210
0
220
0
230
1
0
LINE
5
16E
100
AcDbEntity
8
2
62
256
6
ByLayer
370
13
48
1
60
0
100
AcDbLine
10
19.216629
20
18.12163
30
0
11
19.972459
21
18.47885
31
0
39
0
210
0
220
0
230
1
0
ENDBLK
5
170
100
AcDbEntity
8
0
100
AcDbBlockEnd
0
BLOCK
5
173
100
AcDbEntity
8
0
100
AcDbBlockBegin
2
_CLOSED
70
0
10
0
20
0
30
0
3
_CLOSED
0
LINE
5
175
100
AcDbEntity
8
0
62
256
6
ByLayer
370
-2
48
1
60
0
100
AcDbLine
10
-1
20
0.166667
30
0
11
0
21
0
31
0
39
0
210
0
220
0
230
1
0
LINE
5
176
100
AcDbEntity
8
0
62
256
6
ByLayer
370
-2
48
1
60
0
100
AcDbLine
10
0
20
0
30
0
11
-1
21
-0.166667
31
0
39
0
210
0
220
0
230
1
0
LINE
5
177
100
AcDbEntity
8
0
62
256
6
ByLayer
370
-2
48
1
60
0
100
AcDbLine
10
-1
20
0.166667
30
0
11
-1
21
-0.166667
31
0
39
0
210
0
220
0
230
1
0
LINE
5
178
100
AcDbEntity
8
0
62
256
6
ByLayer
370
-2
48
1
60
0
100
AcDbLine
10
0
20
0
30
0
11
-1
21
0
31
0
39
0
210
0
220
0
230
1
0
ENDBLK
5
174
100
AcDbEntity
8
0
100
AcDbBlockEnd
0
BLOCK
5
185
100
AcDbEntity
8
0
100
AcDbBlockBegin
2
DimnDraft3D2
70
0
10
0
20
0
30
0
3
DimnDraft3D2
0
MTEXT
5
17A
100
AcDbEntity
8
SK2
62
256
6
ByLayer
370
18
48
1
60
0
100
AcDbMText
10
-141.005972
20
-4.156579
30
0
210
0
220
0
230
1
1
\W0.7346;32.0
40
4.5
41
0
44
1.084337
50
90
71
7
72
5
7
iso_b_vert
0
LINE
5
17C
100
AcDbEntity
8
SK2
62
256
6
ByLayer
370
13
48
1
60
0
100
AcDbLine
10
-134.130972
20
-15.925
30
0
11
-141.880972
21
-15.925
31
0
39
0
210
0
220
0
230
1
0
LINE
5
17D
100
AcDbEntity
8
SK2
62
256
6
ByLayer
370
13
48
1
60
0
100
AcDbLine
10
-134.130972
20
15.925
30
0
11
-141.880972
21
15.925
31
0
39
0
210
0
220
0
230
1
0
LINE
5
17E
100
AcDbEntity
8
SK2
62
256
6
ByLayer
370
13
48
1
60
0
100
AcDbLine
10
-139.880972
20
-15.925
30
0
11
-139.880972
21
15.925
31
0
39
0
210
0
220
0
230
1
0
LINE
5
17F
100
AcDbEntity
8
SK2
62
256
6
ByLayer
370
13
48
1
60
0
100
AcDbLine
10
-139.880972
20
-15.925
30
0
11
-140.298969
21
-12.750002
31
0
39
0
210
0
220
0
230
1
0
LINE
5
180
100
AcDbEntity
8
SK2
62
256
6
ByLayer
370
13
48
1
60
0
100
AcDbLine
10
-139.880972
20
-15.925
30
0
11
-139.462976
21
-12.749998
31
0
39
0
210
0
220
0
230
1
0
LINE
5
181
100
AcDbEntity
8
SK2
62
256
6
ByLayer
370
13
48
1
60
0
100
AcDbLine
10
-140.298969
20
-12.750002
30
0
11
-139.462976
21
-12.749998
31
0
39
0
210
0
220
0
230
1
0
LINE
5
182
100
AcDbEntity
8
SK2
62
256
6
ByLayer
370
13
48
1
60
0
100
AcDbLine
10
-139.880972
20
15.925
30
0
11
-139.462976
21
12.750002
31
0
39
0
210
0
220
0
230
1
0
LINE
5
183
100
AcDbEntity
8
SK2
62
256
6
ByLayer
370
13
48
1
60
0
100
AcDbLine
10
-139.880972
20
15.925
30
0
11
-140.298969
21
12.749998
31
0
39
0
210
0
220
0
230
1
0
LINE
5
184
100
AcDbEntity
8
SK2
62
256
6
ByLayer
370
13
48
1
60
0
100
AcDbLine
10
-139.462976
20
12.750002
30
0
11
-140.298969
21
12.749998
31
0
39
0
210
0
220
0
230
1
0
ENDBLK
5
186
100
AcDbEntity
8
0
100
AcDbBlockEnd
0
BLOCK
5
193
100
AcDbEntity
8
0
100
AcDbBlockBegin
2
DimnDraft3D3
70
0
10
0
20
0
30
0
3
DimnDraft3D3
0
MTEXT
5
189
100
AcDbEntity
8
2
62
256
6
ByLayer
370
18
48
1
60
0
100
AcDbMText
10
60.344028
20
-0.143421
30
0
210
0
220
0
230
1
1
\W0.7640;40.0
40
4.5
41
0
44
1.084337
50
90
71
7
72
5
7
iso_b_vert
0
LINE
5
18A
100
AcDbEntity
8
2
62
256
6
ByLayer
370
13
48
1
60
0
100
AcDbLine
10
2
20
-15.925
30
0
11
63.469028
21
-15.925
31
0
39
0
210
0
220
0
230
1
0
LINE
5
18B
100
AcDbEntity
8
2
62
256
6
ByLayer
370
13
48
1
60
0
100
AcDbLine
10
41.219028
20
24.425
30
0
11
63.469028
21
24.425
31
0
39
0
210
0
220
0
230
1
0
LINE
5
18C
100
AcDbEntity
8
2
62
256
6
ByLayer
370
13
48
1
60
0
100
AcDbLine
10
61.469028
20
-15.925
30
0
11
61.469028
21
24.425
31
0
39
0
210
0
220
0
230
1
0
LINE
5
18D
100
AcDbEntity
8
2
62
256
6
ByLayer
370
13
48
1
60
0
100
AcDbLine
10
61.469028
20
-15.925
30
0
11
61.051031
21
-12.750002
31
0
39
0
210
0
220
0
230
1
0
LINE
5
18E
100
AcDbEntity
8
2
62
256
6
ByLayer
370
13
48
1
60
0
100
AcDbLine
10
61.469028
20
-15.925
30
0
11
61.887024
21
-12.749998
31
0
39
0
210
0
220
0
230
1
0
LINE
5
18F
100
AcDbEntity
8
2
62
256
6
ByLayer
370
13
48
1
60
0
100
AcDbLine
10
61.051031
20
-12.750002
30
0
11
61.887024
21
-12.749998
31
0
39
0
210
0
220
0
230
1
0
LINE
5
190
100
AcDbEntity
8
2
62
256
6
ByLayer
370
13
48
1
60
0
100
AcDbLine
10
61.469028
20
24.425
30
0
11
61.887024
21
21.250002
31
0
39
0
210
0
220
0
230
1
0
LINE
5
191
100
AcDbEntity
8
2
62
256
6
ByLayer
370
13
48
1
60
0
100
AcDbLine
10
61.469028
20
24.425
30
0
11
61.051031
21
21.249998
31
0
39
0
210
0
220
0
230
1
0
LINE
5
192
100
AcDbEntity
8
2
62
256
6
ByLayer
370
13
48
1
60
0
100
AcDbLine
10
61.887024
20
21.250002
30
0
11
61.051031
21
21.249998
31
0
39
0
210
0
220
0
230
1
0
ENDBLK
5
194
100
AcDbEntity
8
0
100
AcDbBlockEnd
0
BLOCK
5
1A1
100
AcDbEntity
8
0
100
AcDbBlockBegin
2
DimnDraft3D4
70
0
10
0
20
0
30
0
3
DimnDraft3D4
0
MTEXT
5
197
100
AcDbEntity
8
2
62
256
6
ByLayer
370
18
48
1
60
0
100
AcDbMText
10
15.452935
20
55.3
30
0
210
0
220
0
230
1
1
\W0.7346;39.2
40
4.5
41
0
44
1.084337
50
0
71
7
72
5
7
iso_b_vert
0
LINE
5
198
100
AcDbEntity
8
2
62
256
6
ByLayer
370
13
48
1
60
0
100
AcDbLine
10
0
20
17.925
30
0
11
0
21
56.175
31
0
39
0
210
0
220
0
230
1
0
LINE
5
199
100
AcDbEntity
8
2
62
256
6
ByLayer
370
13
48
1
60
0
100
AcDbLine
10
39.219028
20
26.425
30
0
11
39.219028
21
56.175
31
0
39
0
210
0
220
0
230
1
0
LINE
5
19A
100
AcDbEntity
8
2
62
256
6
ByLayer
370
13
48
1
60
0
100
AcDbLine
10
0
20
54.175
30
0
11
39.219028
21
54.175
31
0
39
0
210
0
220
0
230
1
0
LINE
5
19B
100
AcDbEntity
8
2
62
256
6
ByLayer
370
13
48
1
60
0
100
AcDbLine
10
0
20
54.175
30
0
11
3.174998
21
54.592997
31
0
39
0
210
0
220
0
230
1
0
LINE
5
19C
100
AcDbEntity
8
2
62
256
6
ByLayer
370
13
48
1
60
0
100
AcDbLine
10
0
20
54.175
30
0
11
3.175002
21
53.757003
31
0
39
0
210
0
220
0
230
1
0
LINE
5
19D
100
AcDbEntity
8
2
62
256
6
ByLayer
370
13
48
1
60
0
100
AcDbLine
10
3.174998
20
54.592997
30
0
11
3.175002
21
53.757003
31
0
39
0
210
0
220
0
230
1
0
LINE
5
19E
100
AcDbEntity
8
2
62
256
6
ByLayer
370
13
48
1
60
0
100
AcDbLine
10
39.219028
20
54.175
30
0
11
36.044029
21
53.757003
31
0
39
0
210
0
220
0
230
1
0
LINE
5
19F
100
AcDbEntity
8
2
62
256
6
ByLayer
370
13
48
1
60
0
100
AcDbLine
10
39.219028
20
54.175
30
0
11
36.044026
21
54.592997
31
0
39
0
210
0
220
0
230
1
0
LINE
5
1A0
100
AcDbEntity
8
2
62
256
6
ByLayer
370
13
48
1
60
0
100
AcDbLine
10
36.044029
20
53.757003
30
0
11
36.044026
21
54.592997
31
0
39
0
210
0
220
0
230
1
0
ENDBLK
5
1A2
100
AcDbEntity
8
0
100
AcDbBlockEnd
0
BLOCK
5
1AF
100
AcDbEntity
8
0
100
AcDbBlockBegin
2
DimnDraft3D5
70
0
10
0
20
0
30
0
3
DimnDraft3D5
0
MTEXT
5
1A5
100
AcDbEntity
8
SK2
62
256
6
ByLayer
370
18
48
1
60
0
100
AcDbMText
10
-51.73163
20
65.3
30
0
210
0
220
0
230
1
1
\W0.6864;170.0
40
4.5
41
0
44
1.084337
50
0
71
7
72
5
7
iso_b_vert
0
LINE
5
1A6
100
AcDbEntity
8
SK2
62
256
6
ByLayer
370
13
48
1
60
0
100
AcDbLine
10
39.219028
20
26.425
30
0
11
39.219028
21
66.175
31
0
39
0
210
0
220
0
230
1
0
LINE
5
1A7
100
AcDbEntity
8
SK2
62
256
6
ByLayer
370
13
48
1
60
0
100
AcDbLine
10
-132.130972
20
17.925
30
0
11
-132.130972
21
66.175
31
0
39
0
210
0
220
0
230
1
0
LINE
5
1A8
100
AcDbEntity
8
SK2
62
256
6
ByLayer
370
13
48
1
60
0
100
AcDbLine
10
39.219028
20
64.175
30
0
11
-132.130972
21
64.175
31
0
39
0
210
0
220
0
230
1
0
LINE
5
1A9
100
AcDbEntity
8
SK2
62
256
6
ByLayer
370
13
48
1
60
0
100
AcDbLine
10
39.219028
20
64.175
30
0
11
36.044029
21
63.757003
31
0
39
0
210
0
220
0
230
1
0
LINE
5
1AA
100
AcDbEntity
8
SK2
62
256
6
ByLayer
370
13
48
1
60
0
100
AcDbLine
10
39.219028
20
64.175
30
0
11
36.044026
21
64.592997
31
0
39
0
210
0
220
0
230
1
0
LINE
5
1AB
100
AcDbEntity
8
SK2
62
256
6
ByLayer
370
13
48
1
60
0
100
AcDbLine
10
36.044029
20
63.757003
30
0
11
36.044026
21
64.592997
31
0
39
0
210
0
220
0
230
1
0
LINE
5
1AC
100
AcDbEntity
8
SK2
62
256
6
ByLayer
370
13
48
1
60
0
100
AcDbLine
10
-132.130972
20
64.175
30
0
11
-128.955974
21
64.592997
31
0
39
0
210
0
220
0
230
1
0
LINE
5
1AD
100
AcDbEntity
8
SK2
62
256
6
ByLayer
370
13
48
1
60
0
100
AcDbLine
10
-132.130972
20
64.175
30
0
11
-128.955971
21
63.757003
31
0
39
0
210
0
220
0
230
1
0
LINE
5
1AE
100
AcDbEntity
8
SK2
62
256
6
ByLayer
370
13
48
1
60
0
100
AcDbLine
10
-128.955974
20
64.592997
30
0
11
-128.955971
21
63.757003
31
0
39
0
210
0
220
0
230
1
0
ENDBLK
5
1B0
100
AcDbEntity
8
0
100
AcDbBlockEnd
0
ENDSEC
0
SECTION
2
ENTITIES
0
ELLIPSE
5
DC
100
AcDbEntity
8
1
62
256
6
ByLayer
370
18
48
1
60
0
100
AcDbEllipse
10
14.479376
20
4.513204
30
0
11
-0.271270645271924
21
0.266105687676446
31
0
210
0
220
0
230
1
40
0.970308
41
-1.02561085322929
42
-0.830043308272091
0
ELLIPSE
5
DD
100
AcDbEntity
8
1
62
256
6
ByLayer
370
18
48
1
60
0
100
AcDbEllipse
10
15.455202
20
3.851669
30
0
11
2.85548047654656
21
-2.80111250185732
31
0
210
0
220
0
230
1
40
0.970308
41
3.14151969505637
42
-0.81007052407515
0
ELLIPSE
5
DE
100
AcDbEntity
8
1
62
256
6
ByLayer
370
18
48
1
60
0
100
AcDbEllipse
10
15.455202
20
3.851669
30
0
11
2.85548047654656
21
-2.80111250185732
31
0
210
0
220
0
230
1
40
0.970308
41
-0.81007052407515
42
-2.28839301464104E-16
0
ELLIPSE
5
DF
100
AcDbEntity
8
1
62
256
6
ByLayer
370
18
48
1
60
0
100
AcDbEllipse
10
16.617037
20
2.783627
30
0
11
0.303394800633073
21
-0.297618203322341
31
0
210
0
220
0
230
1
40
0.970308
41
3.14158889476163
42
-2.44012946644357
0
ELLIPSE
5
E0
100
AcDbEntity
8
1
62
256
6
ByLayer
370
18
48
1
60
0
100
AcDbEllipse
10
14.649058
20
5.282306
30
0
11
0.303394800633073
21
-0.297618203322341
31
0
210
0
220
0
230
1
40
0.970308
41
-1.0256108532293
42
-3.1231461091953E-06
0
ELLIPSE
5
E1
100
AcDbEntity
8
1
62
256
6
ByLayer
370
18
48
1
60
0
100
AcDbEllipse
10
16.786719
20
3.552729
30
0
11
-0.271270645271924
21
0.266105687676446
31
0
210
0
220
0
230
1
40
0.970308
41
-2.31155769860296
42
-1.33226161763423
0
ELLIPSE
5
E2
100
AcDbEntity
8
1
62
256
6
ByLayer
370
18
48
1
60
0
100
AcDbEllipse
10
15.442426
20
5.259534
30
0
11
-0.271270645271924
21
0.266105687676446
31
0
210
0
220
0
230
1
40
0.970308
41
-2.07280840442589
42
-0.825698985757033
0
ELLIPSE
5
E3
100
AcDbEntity
8
1
62
256
6
ByLayer
370
18
48
1
60
0
100
AcDbEllipse
10
15.633047
20
4.032967
30
0
11
0.820950637007137
21
-0.805319844283981
31
0
210
0
220
0
230
1
40
0.970308
41
-0.532572756201176
42
0
0
ELLIPSE
5
E4
100
AcDbEntity
8
1
62
256
6
ByLayer
370
18
48
1
60
0
100
AcDbEllipse
10
15.633047
20
4.032967
30
0
11
0.820950637007137
21
-0.805319844283981
31
0
210
0
220
0
230
1
40
0.970308
41
0
42
-2.88189474160376
0
ELLIPSE
5
E5
100
AcDbEntity
8
1
62
256
6
ByLayer
370
18
48
1
60
0
100
AcDbEllipse
10
15.489077
20
3.886202
30
0
11
0.820950637007137
21
-0.805319844283981
31
0
210
0
220
0
230
1
40
0.970308
41
0.0922114309060566
42
3.04943220526947
0
ELLIPSE
5
E6
100
AcDbEntity
8
1
62
256
6
ByLayer
370
18
48
1
60
0
100
AcDbEllipse
10
14.042565
20
2.411614
30
0
11
1.39204673231645
21
-1.36554234465545
31
0
210
0
220
0
230
1
40
0.970308
41
-1.81100447655698
42
-1.72804701839772
0
ELLIPSE
5
E7
100
AcDbEntity
8
1
62
256
6
ByLayer
370
18
48
1
60
0
100
AcDbEllipse
10
7.560394
20
4.811042
30
0
11
2.12290441978204
21
-2.11973508355876
31
0
210
0
220
0
230
1
40
0.965976
41
-0.123156309823629
42
-0.0346820701947824
0
ELLIPSE
5
E8
100
AcDbEntity
8
1
62
256
6
ByLayer
370
18
48
1
60
0
100
AcDbEllipse
10
15.988092
20
4.256548
30
0
11
-2.93668444736513
21
2.93230019892298
31
0
210
0
220
0
230
1
40
0.965976
41
-3.04311944675076
42
-0.123156309823621
0
ELLIPSE
5
E9
100
AcDbEntity
8
1
62
256
6
ByLayer
370
18
48
1
60
0
100
AcDbEllipse
10
14.360138
20
2.99648
30
0
11
-1.83985049714442
21
1.83710373908428
31
0
210
0
220
0
230
1
40
0.965976
41
1.2422583628233
42
1.65832312639636
0
ELLIPSE
5
EA
100
AcDbEntity
8
1
62
256
6
ByLayer
370
18
48
1
60
0
100
AcDbEllipse
10
25.685965
20
16.60314
30
0
11
-0.566634407064709
21
0.555845762087313
31
0
210
0
220
0
230
1
40
0.970308
41
-8.18707869436233E-06
42
0.304593628763561
0
ELLIPSE
5
EB
100
AcDbEntity
8
1
62
256
6
ByLayer
370
18
48
1
60
0
100
AcDbEllipse
10
30.559104
20
13.874282
30
0
11
-0.786254706154955
21
0.147660208076465
31
0
210
0
220
0
230
1
40
0.633191
41
3.05326527656182
42
3.13575885596269
0
ELLIPSE
5
EC
100
AcDbEntity
8
1
62
256
6
ByLayer
370
18
48
1
60
0
100
AcDbEllipse
10
31.622545
20
10.770101
30
0
11
-0.566634407064709
21
0.555845762087313
31
0
210
0
220
0
230
1
40
0.970308
41
2.83532104415525
42
3.14158399193962
0
ELLIPSE
5
ED
100
AcDbEntity
8
1
62
256
6
ByLayer
370
18
48
1
60
0
100
AcDbEllipse
10
30.674497
20
14.579285
30
0
11
-0.791510023912319
21
0.116240621326286
31
0
210
0
220
0
230
1
40
0.871401
41
3.00587637405939
42
-3.14150262725975
0
ELLIPSE
5
EE
100
AcDbEntity
8
1
62
256
6
ByLayer
370
18
48
1
60
0
100
AcDbEllipse
10
7.31404
20
2.536548
30
0
11
-2.22912711965011
21
2.0084971911989
31
0
210
0
220
0
230
1
40
0.977262
41
0.34027502326742
42
1.39663653410012
0
ELLIPSE
5
EF
100
AcDbEntity
8
1
62
256
6
ByLayer
370
18
48
1
60
0
100
AcDbEllipse
10
17.146374
20
-3.298994
30
0
11
-2.55109942040392
21
-2.414702344372
31
0
210
0
220
0
230
1
40
0.351752
41
-0.700270969662574
42
0.0969927033305431
0
ELLIPSE
5
F0
100
AcDbEntity
8
1
62
256
6
ByLayer
370
18
48
1
60
0
100
AcDbEllipse
10
13.367704
20
-3.185864
30
0
11
1.82824732396721
21
-0.810870965324785
31
0
210
0
220
0
230
1
40
0.741658
41
-1.79903922846756
42
-0.525024408520361
0
ELLIPSE
5
F1
100
AcDbEntity
8
1
62
256
6
ByLayer
370
18
48
1
60
0
100
AcDbEllipse
10
8.951586
20
7.105661
30
0
11
-2.93707779960027
21
-1.92575261897119
31
0
210
0
220
0
230
1
40
0.288759
41
-0.103889717215033
42
0.693373955775241
0
ELLIPSE
5
F2
100
AcDbEntity
8
1
62
256
6
ByLayer
370
18
48
1
60
0
100
AcDbEllipse
10
12.50884
20
-4.05912
30
0
11
-2.22912711966128
21
2.00849719118573
31
0
210
0
220
0
230
1
40
0.977262
41
1.3966365340943
42
2.45299804492708
0
ELLIPSE
5
F3
100
AcDbEntity
8
1
62
256
6
ByLayer
370
18
48
1
60
0
100
AcDbEllipse
10
15.916562
20
-0.883005
30
0
11
-1.55631588201285
21
-4.87993947601355
31
0
210
0
220
0
230
1
40
0.36839
41
0.171324173895966
42
0.491463916747627
0
ELLIPSE
5
F4
100
AcDbEntity
8
1
62
256
6
ByLayer
370
18
48
1
60
0
100
AcDbEllipse
10
10.721762
20
5.712662
30
0
11
-4.81999647738701
21
-0.835239854326408
31
0
210
0
220
0
230
1
40
0.331453
41
-0.558497538667199
42
-0.238357795800097
0
ELLIPSE
5
F5
100
AcDbEntity
8
1
62
256
6
ByLayer
370
18
48
1
60
0
100
AcDbEllipse
10
11.334212
20
3.835921
30
0
11
4.32077299985683
21
3.40307518043728
31
0
210
0
220
0
230
1
40
0.031772
41
1.8628892262821
42
2.40716127761673
0
ELLIPSE
5
F6
100
AcDbEntity
8
1
62
256
6
ByLayer
370
18
48
1
60
0
100
AcDbEllipse
10
14.55004
20
-0.247111
30
0
11
4.32077299985683
21
3.40307518043728
31
0
210
0
220
0
230
1
40
0.031772
41
1.8628892262821
42
2.40716127761673
0
ELLIPSE
5
F7
100
AcDbEntity
8
1
62
256
6
ByLayer
370
18
48
1
60
0
100
AcDbEllipse
10
8.114965
20
3.483367
30
0
11
0.486913215814112
21
-1.93982357967563
31
0
210
0
220
0
230
1
40
0.760068
41
-2.70308330237917
42
-1.42906848243265
0
ELLIPSE
5
F8
100
AcDbEntity
8
1
62
256
6
ByLayer
370
18
48
1
60
0
100
AcDbEllipse
10
20.310034
20
25.960658
30
0
11
7.28147521519374
21
-7.14283687973618
31
0
210
0
220
0
230
1
40
0.970308
41
-0.847977260771634
42
-0.34021497743696
0
ELLIPSE
5
F9
100
AcDbEntity
8
1
62
256
6
ByLayer
370
18
48
1
60
0
100
AcDbEllipse
10
27.542301
20
9.632318
30
0
11
-2.7107843832434
21
-0.164700014966742
31
0
210
0
220
0
230
1
40
0.380077
41
2.44141797923235
42
2.81268899800865
0
ELLIPSE
5
FA
100
AcDbEntity
8
1
62
256
6
ByLayer
370
18
48
1
60
0
100
AcDbEllipse
10
2.193084
20
5.606238
30
0
11
-0.0549984624149162
21
1.33296588373314
31
0
210
0
220
0
230
1
40
0.157974
41
0.0271004083327466
42
1.59789673512676
0
ELLIPSE
5
FB
100
AcDbEntity
8
1
62
256
6
ByLayer
370
18
48
1
60
0
100
AcDbEllipse
10
14.06204
20
-9.463387
30
0
11
-0.641795334447672
21
-0.478081033869881
31
0
210
0
220
0
230
1
40
0.038384
41
1.32957021857702
42
2.90036654535951
0
ELLIPSE
5
FC
100
AcDbEntity
8
1
62
256
6
ByLayer
370
18
48
1
60
0
100
AcDbEllipse
10
41.071939
20
5.560864
30
0
11
7.28147521519374
21
-7.14283687973618
31
0
210
0
220
0
230
1
40
0.970308
41
-2.80765339478967
42
-2.20006264120506
0
ELLIPSE
5
FD
100
AcDbEntity
8
SK1
62
256
6
ByLayer
370
18
48
1
60
0
100
AcDbEllipse
10
-1.207307
20
26.163437
30
0
11
7.36140864789547
21
7.50428933504406
31
0
210
0
220
0
230
-1
40
0.970308
41
2.41877358755504
42
2.53435609681626
0
ELLIPSE
5
FE
100
AcDbEntity
8
1
62
256
6
ByLayer
370
18
48
1
60
0
100
AcDbEllipse
10
16.014145
20
4.421462
30
0
11
0.838797389985553
21
-0.822826797420589
31
0
210
0
220
0
230
1
40
0.970308
41
-1.24218008713041
42
-1.11569238373301
0
ELLIPSE
5
FF
100
AcDbEntity
8
1
62
256
6
ByLayer
370
18
48
1
60
0
100
AcDbEllipse
10
16.579544
20
5.865574
30
0
11
0.303394800633073
21
-0.297618203322341
31
0
210
0
220
0
230
1
40
0.970308
41
-2.07280840442593
42
-1.35457195398015
0
ELLIPSE
5
100
100
AcDbEntity
8
1
62
256
6
ByLayer
370
18
48
1
60
0
100
AcDbEllipse
10
16.204767
20
3.194894
30
0
11
-0.271270645271924
21
0.266105687676446
31
0
210
0
220
0
230
1
40
0.970308
41
1.06878424916385
42
-2.37945916883073
0
ELLIPSE
5
101
100
AcDbEntity
8
1
62
256
6
ByLayer
370
18
48
1
60
0
100
AcDbEllipse
10
16.198446
20
5.477079
30
0
11
0.303394800633073
21
-0.297618203322341
31
0
210
0
220
0
230
1
40
0.970308
41
-2.07280840442586
42
-0.285064066437456
0
ELLIPSE
5
102
100
AcDbEntity
8
1
62
256
6
ByLayer
370
18
48
1
60
0
100
AcDbEllipse
10
16.998135
20
3.172122
30
0
11
0.303394800633073
21
-0.297618203322341
31
0
210
0
220
0
230
1
40
0.970308
41
-3.0976956192765
42
-2.37945916883076
0
ELLIPSE
5
103
100
AcDbEntity
8
1
62
256
6
ByLayer
370
18
48
1
60
0
100
AcDbEllipse
10
16.014145
20
4.421462
30
0
11
0.838797389985553
21
-0.822826797420589
31
0
210
0
220
0
230
1
40
0.970308
41
1.89941256645938
42
2.02590026985676
0
ELLIPSE
5
104
100
AcDbEntity
8
1
62
256
6
ByLayer
370
18
48
1
60
0
100
AcDbEllipse
10
15.051095
20
3.675132
30
0
11
-0.271270645271924
21
0.266105687676446
31
0
210
0
220
0
230
1
40
0.970308
41
0.0215866979672794
42
2.85652858715225
0
ELLIPSE
5
105
100
AcDbEntity
8
1
62
256
6
ByLayer
370
18
48
1
60
0
100
AcDbEllipse
10
15.448747
20
2.977349
30
0
11
0.303394800633073
21
-0.297618203322341
31
0
210
0
220
0
230
1
40
0.970308
41
1.06878424916386
42
1.78702069960965
0
ELLIPSE
5
106
100
AcDbEntity
8
1
62
256
6
ByLayer
370
18
48
1
60
0
100
AcDbEllipse
10
17.563534
20
4.616235
30
0
11
0.303394800633073
21
-0.297618203322341
31
0
210
0
220
0
230
1
40
0.970308
41
-2.05049806807993
42
-1.33226161763412
0
ELLIPSE
5
107
100
AcDbEntity
8
1
62
256
6
ByLayer
370
18
48
1
60
0
100
AcDbEllipse
10
17.182436
20
4.22774
30
0
11
0.303394800633073
21
-0.297618203322341
31
0
210
0
220
0
230
1
40
0.970308
41
-3.12000595562259
42
-1.33226161763405
0
ELLIPSE
5
108
100
AcDbEntity
8
1
62
256
6
ByLayer
370
18
48
1
60
0
100
AcDbEllipse
10
15.448747
20
2.977349
30
0
11
0.303394800633073
21
-0.297618203322341
31
0
210
0
220
0
230
1
40
0.970308
41
2.13829213670658
42
2.85652858715228
0
ELLIPSE
5
109
100
AcDbEntity
8
1
62
256
6
ByLayer
370
18
48
1
60
0
100
AcDbEllipse
10
16.014145
20
4.421462
30
0
11
0.838797389985553
21
-0.822826797420589
31
0
210
0
220
0
230
1
40
0.970308
41
2.94661011765597
42
3.07309782105337
0
ELLIPSE
5
10A
100
AcDbEntity
8
1
62
256
6
ByLayer
370
18
48
1
60
0
100
AcDbEllipse
10
14.464757
20
4.226688
30
0
11
0.303394800633073
21
-0.297618203322341
31
0
210
0
220
0
230
1
40
0.970308
41
1.0910945855099
42
1.80933103595562
0
ELLIPSE
5
10B
100
AcDbEntity
8
1
62
256
6
ByLayer
370
18
48
1
60
0
100
AcDbEllipse
10
17.563534
20
4.616235
30
0
11
0.303394800633073
21
-0.297618203322341
31
0
210
0
220
0
230
1
40
0.970308
41
-3.12000595562259
42
-2.40176950517682
0
ELLIPSE
5
10C
100
AcDbEntity
8
1
62
256
6
ByLayer
370
18
48
1
60
0
100
AcDbEllipse
10
17.167817
20
3.941224
30
0
11
-0.271270645271924
21
0.266105687676446
31
0
210
0
220
0
230
1
40
0.970308
41
2.11598180036058
42
-1.33226161763415
0
ELLIPSE
5
10D
100
AcDbEntity
8
1
62
256
6
ByLayer
370
18
48
1
60
0
100
AcDbEllipse
10
15.867331
20
4.271797
30
0
11
-2.85548047654657
21
2.80111250185732
31
0
210
0
220
0
230
1
40
0.970308
41
0
42
6.28318530717959
0
ELLIPSE
5
10E
100
AcDbEntity
8
1
62
256
6
ByLayer
370
18
48
1
60
0
100
AcDbEllipse
10
16.014145
20
4.421462
30
0
11
0.838797389985553
21
-0.822826797420589
31
0
210
0
220
0
230
1
40
0.970308
41
-0.194982535933816
42
-0.0684948325364239
0
ELLIPSE
5
10F
100
AcDbEntity
8
1
62
256
6
ByLayer
370
18
48
1
60
0
100
AcDbEllipse
10
16.977195
20
5.167791
30
0
11
-0.271270645271924
21
0.266105687676446
31
0
210
0
220
0
230
1
40
0.970308
41
-3.12000595562248
42
-0.285064066437483
0
ELLIPSE
5
110
100
AcDbEntity
8
1
62
256
6
ByLayer
370
18
48
1
60
0
100
AcDbEllipse
10
15.823524
20
5.648029
30
0
11
-0.271270645271924
21
0.266105687676446
31
0
210
0
220
0
230
1
40
0.970308
41
-2.07280840442592
42
0.762133484759067
0
ELLIPSE
5
111
100
AcDbEntity
8
1
62
256
6
ByLayer
370
18
48
1
60
0
100
AcDbEllipse
10
16.998135
20
3.172122
30
0
11
0.303394800633073
21
-0.297618203322341
31
0
210
0
220
0
230
1
40
0.970308
41
2.11598180036048
42
2.83421825080617
0
ELLIPSE
5
112
100
AcDbEntity
8
1
62
256
6
ByLayer
370
18
48
1
60
0
100
AcDbEllipse
10
16.014145
20
4.421462
30
0
11
-1.64190127401427
21
1.61063968856796
31
0
210
0
220
0
230
1
40
0.970308
41
0
42
6.28318530717959
0
ELLIPSE
5
113
100
AcDbEntity
8
1
62
256
6
ByLayer
370
18
48
1
60
0
100
AcDbEllipse
10
14.860474
20
4.901699
30
0
11
-0.271270645271924
21
0.266105687676446
31
0
210
0
220
0
230
1
40
0.970308
41
-1.02561085322929
42
1.80933103595561
0
ELLIPSE
5
114
100
AcDbEntity
8
1
62
256
6
ByLayer
370
18
48
1
60
0
100
AcDbEllipse
10
16.014145
20
4.421462
30
0
11
0.838797389985553
21
-0.822826797420589
31
0
210
0
220
0
230
1
40
0.970308
41
0.852215015262755
42
0.978702718660151
0
ELLIPSE
5
115
100
AcDbEntity
8
1
62
256
6
ByLayer
370
18
48
1
60
0
100
AcDbEllipse
10
15.030156
20
5.670801
30
0
11
0.303394800633073
21
-0.297618203322341
31
0
210
0
220
0
230
1
40
0.970308
41
-1.02561085322934
42
-0.307374402783599
0
ELLIPSE
5
116
100
AcDbEntity
8
1
62
256
6
ByLayer
370
18
48
1
60
0
100
AcDbEllipse
10
16.014145
20
4.421462
30
0
11
0.838797389985553
21
-0.822826797420589
31
0
210
0
220
0
230
1
40
0.970308
41
-2.289377638327
42
-2.16288993492961
0
ELLIPSE
5
117
100
AcDbEntity
8
1
62
256
6
ByLayer
370
18
48
1
60
0
100
AcDbEllipse
10
14.464757
20
4.226688
30
0
11
0.303394800633073
21
-0.297618203322341
31
0
210
0
220
0
230
1
40
0.970308
41
0.0215866979673002
42
0.739823148413011
0
ELLIPSE
5
118
100
AcDbEntity
8
1
62
256
6
ByLayer
370
18
48
1
60
0
100
AcDbEllipse
10
15.030156
20
5.670801
30
0
11
0.303394800633073
21
-0.297618203322341
31
0
210
0
220
0
230
1
40
0.970308
41
0.043897034313293
42
0.76213348475905
0
ELLIPSE
5
119
100
AcDbEntity
8
1
62
256
6
ByLayer
370
18
48
1
60
0
100
AcDbEllipse
10
16.579544
20
5.865574
30
0
11
0.303394800633073
21
-0.297618203322341
31
0
210
0
220
0
230
1
40
0.970308
41
-1.00330051688333
42
-0.285064066437588
0
ELLIPSE
5
11A
100
AcDbEntity
8
1
62
256
6
ByLayer
370
18
48
1
60
0
100
AcDbEllipse
10
16.596097
20
4.779296
30
0
11
-0.271270645271924
21
0.266105687676446
31
0
210
0
220
0
230
1
40
0.970308
41
-3.12000595562244
42
-0.285064066437558
0
ELLIPSE
5
11B
100
AcDbEntity
8
1
62
256
6
ByLayer
370
18
48
1
60
0
100
AcDbEllipse
10
26.492623
20
17.425454
30
0
11
-0.566634407064709
21
0.555845762087313
31
0
210
0
220
0
230
1
40
0.970308
41
-0.306271609434507
42
0.304593628763531
0
ELLIPSE
5
11C
100
AcDbEntity
8
1
62
256
6
ByLayer
370
18
48
1
60
0
100
AcDbEllipse
10
38.436746
20
23.643172
30
0
11
-0.566634407064709
21
0.555845762087313
31
0
210
0
220
0
230
1
40
0.970308
41
-2.83699902482638
42
-0.306271609434401
0
ELLIPSE
5
11D
100
AcDbEntity
8
1
62
256
6
ByLayer
370
18
48
1
60
0
100
AcDbEllipse
10
32.429203
20
11.592415
30
0
11
-0.566634407064709
21
0.555845762087313
31
0
210
0
220
0
230
1
40
0.970308
41
2.83532104415526
42
-2.83699902482633
0
POINT
5
6C
100
AcDbEntity
8
2
62
256
6
ByLayer
370
18
48
1
60
0
100
AcDbPoint
10
39.219028
20
24.425
30
0
39
0
210
0
220
0
230
1
50
360
0
POINT
5
6E
100
AcDbEntity
8
80
62
256
6
ByLayer
370
18
48
1
60
0
100
AcDbPoint
10
0
20
0
30
0
39
0
210
0
220
0
230
1
50
360
0
POINT
5
70
100
AcDbEntity
8
81
62
256
6
ByLayer
370
18
48
1
60
0
100
AcDbPoint
10
39.219028
20
24.425
30
0
39
0
210
0
220
0
230
1
50
360
0
SPLINE
5
11E
100
AcDbEntity
8
1
62
256
6
ByLayer
370
18
48
1
60
0
100
AcDbSpline
70
4
71
3
72
13
73
9
40
0
40
0
40
0
40
0
40
0.122204719963405
40
0.318863038147795
40
0.511790184127643
40
0.703732464203906
40
0.899091860344726
40
1
40
1
40
1
40
1
41
1
10
31.4356204290019
20
14.9018132910918
30
0
41
1
10
31.4135221044378
20
14.9790830425469
30
0
41
1
10
31.3461232601261
20
15.1765581283746
30
0
41
1
10
31.1903873713957
20
15.4767529416062
30
0
41
1
10
30.9720525315866
20
15.792466532266
30
0
41
1
10
30.7114827813886
20
16.0730378525484
30
0
41
1
10
30.4652248774487
20
16.2820541939093
30
0
41
1
10
30.2996128485144
20
16.3832217703556
30
0
41
1
10
30.2414971341484
20
16.4153054479773
30
0
0
SPLINE
5
11F
100
AcDbEntity
8
1
62
256
6
ByLayer
370
18
48
1
60
0
100
AcDbSpline
70
4
71
3
72
15
73
11
40
0
40
0
40
0
40
0
40
0.0648927211678674
40
0.260292194164828
40
0.427355350555204
40
0.559483907627101
40
0.658216705221981
40
0.744140034889256
40
0.901596184425818
40
1
40
1
40
1
40
1
41
1
10
30.2436166143161
20
16.4187104157134
30
0
41
1
10
30.2324986246872
20
16.4265701664906
30
0
41
1
10
30.1870612108407
20
16.4563378485155
30
0
41
1
10
30.1035415328362
20
16.4898544151469
30
0
41
1
10
30.0051920959351
20
16.5180827552988
30
0
41
1
10
29.9256059626051
20
16.5304739185747
30
0
41
1
10
29.872850293554
20
16.5346960359349
30
0
41
1
10
29.8317805880022
20
16.5363622329275
30
0
41
1
10
29.8019975710933
20
16.5369171325162
30
0
41
1
10
29.771038549361
20
16.5368692520284
30
0
41
1
10
29.758837203482
20
16.5367592041125
30
0
0
SPLINE
5
120
100
AcDbEntity
8
1
62
256
6
ByLayer
370
18
48
1
60
0
100
AcDbSpline
70
4
71
3
72
12
73
8
40
0
40
0
40
0
40
0
40
0.0790917761223292
40
0.279893858319885
40
0.549646556557996
40
0.857675901024586
40
1
40
1
40
1
40
1
41
1
10
31.3445379827302
20
13.7238415457193
30
0
41
1
10
31.3495515896475
20
13.7498988118197
30
0
41
1
10
31.3665663097988
20
13.839621675782
30
0
41
1
10
31.3932058083791
20
13.9932428300936
30
0
41
1
10
31.4245959928492
20
14.1871381435591
30
0
41
1
10
31.4483842005816
20
14.3433593224037
30
0
41
1
10
31.4614362138777
20
14.4327847417107
30
0
41
1
10
31.4653490638096
20
14.460097853857
30
0
0
SPLINE
5
121
100
AcDbEntity
8
1
62
256
6
ByLayer
370
18
48
1
60
0
100
AcDbSpline
70
4
71
1
72
4
73
2
40
0
40
0
40
1
40
1
41
1
10
31.2639854024985
20
13.2838186436767
30
0
41
1
10
31.3455632881699
20
13.7246882527769
30
0
0
SPLINE
5
122
100
AcDbEntity
8
1
62
256
6
ByLayer
370
18
48
1
60
0
100
AcDbSpline
70
4
71
3
72
12
73
8
40
0
40
0
40
0
40
0
40
0.204267351609369
40
0.468906315175406
40
0.722669642958137
40
0.994924083091204
40
1
40
1
40
1
40
1
41
1
10
31.4654077811684
20
14.4633773428768
30
0
41
1
10
31.4694759919324
20
14.4864828791219
30
0
41
1
10
31.4766152288909
20
14.5431094807488
30
0
41
1
10
31.4836082194387
20
14.6399432796086
30
0
41
1
10
31.4737628249478
20
14.7679371934406
30
0
41
1
10
31.4600297929244
20
14.8587624616912
30
0
41
1
10
31.4411842937807
20
14.9027394438333
30
0
41
1
10
31.4408370699897
20
14.9035439831836
30
0
0
SPLINE
5
123
100
AcDbEntity
8
1
62
256
6
ByLayer
370
18
48
1
60
0
100
AcDbSpline
70
4
71
3
72
8
73
4
40
0
40
0
40
0
40
0
40
1
40
1
40
1
40
1
41
1
10
13.2893735658517
20
-6.90289384478183
30
0
41
1
10
13.1893468147401
20
-6.93746730124596
30
0
41
1
10
13.0869783622079
20
-6.96818614638516
30
0
41
1
10
12.9827531766771
20
-6.99425669699789
30
0
0
SPLINE
5
124
100
AcDbEntity
8
1
62
256
6
ByLayer
370
18
48
1
60
0
100
AcDbSpline
70
4
71
3
72
8
73
4
40
0
40
0
40
0
40
0
40
1
40
1
40
1
40
1
41
1
10
4.71514973472216
20
3.98671081572599
30
0
41
1
10
4.65922415417231
20
3.89506737880831
30
0
41
1
10
4.60642091078074
20
3.80034328662347
30
0
41
1
10
4.55763744728751
20
3.70283655956013
30
0
0
SPLINE
5
125
100
AcDbEntity
8
1
62
256
6
ByLayer
370
18
48
1
60
0
100
AcDbSpline
70
4
71
3
72
10
73
6
40
0
40
0
40
0
40
0
40
0.483686724960288
40
0.483686724960288
40
1
40
1
40
1
40
1
41
1
10
31.3217648529442
20
14.836821352906
30
0
41
1
10
31.3523007356239
20
14.8745991518526
30
0
41
1
10
31.3784176162773
20
14.9014885896277
30
0
41
1
10
31.4194013100096
20
14.9281637104937
30
0
41
1
10
31.4337743208031
20
14.9260671709623
30
0
41
1
10
31.440456010294
20
14.9055602040682
30
0
0
SPLINE
5
126
100
AcDbEntity
8
1
62
256
6
ByLayer
370
18
48
1
60
0
100
AcDbSpline
70
4
71
3
72
10
73
6
40
0
40
0
40
0
40
0
40
0.443113497707858
40
0.443113497707858
40
1
40
1
40
1
40
1
41
1
10
30.25362872391
20
16.4155088249462
30
0
41
1
10
30.2605671765573
20
16.4109590198506
30
0
41
1
10
30.2545523310022
20
16.4044217697332
30
0
41
1
10
30.2150806378829
20
16.3849570223995
30
0
41
1
10
30.1747887039111
20
16.3705503806712
30
0
41
1
10
30.1209347691216
20
16.3537226132154
30
0
0
SPLINE
5
127
100
AcDbEntity
8
1
62
256
6
ByLayer
370
18
48
1
60
0
100
AcDbSpline
70
4
71
3
72
8
73
4
40
0
40
0
40
0
40
0
40
1
40
1
40
1
40
1
41
1
10
30.0613896978704
20
9.3805651085388
30
0
41
1
10
30.083593000578
20
9.40550829849468
30
0
41
1
10
30.1057961280175
20
9.43045139616851
30
0
41
1
10
30.1279990795004
20
9.45539440119782
30
0
0
SPLINE
5
128
100
AcDbEntity
8
1
62
256
6
ByLayer
370
18
48
1
60
0
100
AcDbSpline
70
4
71
3
72
8
73
4
40
0
40
0
40
0
40
0
40
1
40
1
40
1
40
1
41
1
10
31.3829341091317
20
14.3538316332498
30
0
41
1
10
31.4211480941269
20
14.5101502620696
30
0
41
1
10
31.3992067777587
20
14.6834205178926
30
0
41
1
10
31.3217759286769
20
14.8367968936401
30
0
0
SPLINE
5
129
100
AcDbEntity
8
1
62
256
6
ByLayer
370
18
48
1
60
0
100
AcDbSpline
70
4
71
3
72
10
73
6
40
0
40
0
40
0
40
0
40
0.5
40
0.5
40
1
40
1
40
1
40
1
41
1
10
14.6895195374146
20
-5.78924721168229
30
0
41
1
10
14.2973461161976
20
-5.84066387312527
30
0
41
1
10
14.061653894155
20
-5.69171348652048
30
0
41
1
10
13.3791979194957
20
-5.24612774393313
30
0
41
1
10
12.8715890535111
20
-4.88171037224373
30
0
41
1
10
12.3682412580446
20
-4.32315992388817
30
0
0
SPLINE
5
12A
100
AcDbEntity
8
1
62
256
6
ByLayer
370
18
48
1
60
0
100
AcDbSpline
70
4
71
3
72
8
73
4
40
0
40
0
40
0
40
0
40
1
40
1
40
1
40
1
41
1
10
12.1319670458569
20
-4.04607032020439
30
0
41
1
10
12.1372478968536
20
-4.05277524360264
30
0
41
1
10
12.1425847422564
20
-4.05943345505497
30
0
41
1
10
12.1479746213922
20
-4.06604141299553
30
0
0
SPLINE
5
12B
100
AcDbEntity
8
1
62
256
6
ByLayer
370
18
48
1
60
0
100
AcDbSpline
70
4
71
3
72
10
73
6
40
0
40
0
40
0
40
0
40
9.39711588055E-05
40
9.39711588055E-05
40
1
40
1
40
1
40
1
41
1
10
31.2424808999577
20
13.1904045617545
30
0
41
1
10
31.2424837611557
20
13.1904201341012
30
0
41
1
10
31.2424866223604
20
13.1904357064561
30
0
41
1
10
31.2729342827602
20
13.3561496978509
30
0
41
1
10
31.3034255615049
20
13.5207497197125
30
0
41
1
10
31.3340457143045
20
13.6832810603415
30
0
0
SPLINE
5
12C
100
AcDbEntity
8
1
62
256
6
ByLayer
370
18
48
1
60
0
100
AcDbSpline
70
4
71
3
72
8
73
4
40
0
40
0
40
0
40
0
40
1
40
1
40
1
40
1
41
1
10
10.5028992009518
20
3.48029655136187
30
0
41
1
10
9.09756553092922
20
3.23370029167415
30
0
41
1
10
7.78822894584732
20
2.92666665524212
30
0
41
1
10
6.92149236937286
20
2.56985177225474
30
0
0
SPLINE
5
12D
100
AcDbEntity
8
1
62
256
6
ByLayer
370
18
48
1
60
0
100
AcDbSpline
70
4
71
2
72
6
73
3
40
0
40
0
40
0
40
1
40
1
40
1
41
0.933477290296916
10
19.7149130173815
20
2.08766648943158
30
0
41
0.923463989330482
10
20.485908699095
20
0.738743511122471
30
0
41
1.02994816993494
10
20.5471995797056
20
0.0043003853540631
30
0
0
SPLINE
5
12E
100
AcDbEntity
8
1
62
256
6
ByLayer
370
18
48
1
60
0
100
AcDbSpline
70
4
71
3
72
14
73
10
40
0
40
0
40
0
40
0
40
0.332043805554358
40
0.332043805554358
40
0.667540490321298
40
0.667540490321298
40
0.999921783367892
40
0.999921783367892
40
1
40
1
40
1
40
1
41
1
10
31.4450238484078
20
14.37079355134
30
0
41
1
10
31.4506226903981
20
14.41053995942
30
0
41
1
10
31.4516266047752
20
14.4354300151904
30
0
41
1
10
31.4445662780236
20
14.454151046349
30
0
41
1
10
31.4363531648901
20
14.448227654895
30
0
41
1
10
31.4131846369918
20
14.4132463188992
30
0
41
1
10
31.3980978042795
20
14.3841968960449
30
0
41
1
10
31.3808464099315
20
14.3479333865028
30
0
41
1
10
31.3808421137394
20
14.3479243552939
30
0
41
1
10
31.3808378174514
20
14.3479153241306
30
0
0
SPLINE
5
12F
100
AcDbEntity
8
1
62
256
6
ByLayer
370
18
48
1
60
0
100
AcDbSpline
70
4
71
3
72
12
73
8
40
0
40
0
40
0
40
0
40
0.477932094760452
40
0.477932094760452
40
0.904102435462302
40
0.904102435462302
40
1
40
1
40
1
40
1
41
1
10
13.7960229491663
20
-0.700874719333797
30
0
41
1
10
13.9574889652532
20
-0.614479184007052
30
0
41
1
10
14.1311092707976
20
-0.539202370569797
30
0
41
1
10
14.4657015326395
20
-0.435910008462315
30
0
41
1
10
14.6295824415779
20
-0.402951003580881
30
0
41
1
10
14.8219557398688
20
-0.387758227365026
30
0
41
1
10
14.8574443073064
20
-0.385958343315565
30
0
41
1
10
14.8924979186293
20
-0.385187284819267
30
0
0
SPLINE
5
130
100
AcDbEntity
8
1
62
256
6
ByLayer
370
18
48
1
60
0
100
AcDbSpline
70
4
71
3
72
12
73
8
40
0
40
0
40
0
40
0
40
0.107029684965502
40
0.443706054186005
40
0.612044238796257
40
0.780382423406509
40
1
40
1
40
1
40
1
41
1.03017844338059
10
18.9132207756966
20
8.45940751682506
30
0
41
1.0302273658714
10
19.3878767741978
20
8.82952154390833
30
0
41
1.03047050932998
10
21.4885311053789
20
10.4448717178916
30
0
41
1.0311558410484
10
24.7641410562856
20
12.7244875235372
30
0
41
1.03077804826571
10
26.5631475426862
20
13.8127629625792
30
0
41
1.03322144497827
10
28.3007050816087
20
14.8672516508572
30
0
41
1.03463604371051
10
29.4035376512694
20
15.4458689443987
30
0
41
1.0353664121084
10
30.0201367937313
20
15.7402073886614
30
0
0
SPLINE
5
131
100
AcDbEntity
8
1
62
256
6
ByLayer
370
18
48
1
60
0
100
AcDbSpline
70
4
71
3
72
8
73
4
40
0
40
0
40
0
40
0
40
1
40
1
40
1
40
1
41
1
10
14.6763109644516
20
8.48501434450398
30
0
41
1
10
14.4392244554928
20
8.36321829710809
30
0
41
1
10
14.2130043510856
20
8.22038964228128
30
0
41
1
10
14.0071391352378
20
8.06085137157407
30
0
0
SPLINE
5
132
100
AcDbEntity
8
1
62
256
6
ByLayer
370
18
48
1
60
0
100
AcDbSpline
70
4
71
3
72
8
73
4
40
0
40
0
40
0
40
0
40
1
40
1
40
1
40
1
41
1
10
14.8924979186292
20
-0.385187284819267
30
0
41
1
10
14.9779792538384
20
-0.383306990398779
30
0
41
1
10
15.0631792492812
20
-0.386134532180392
30
0
41
1
10
15.1472102982005
20
-0.393644602757519
30
0
0
SPLINE
5
133
100
AcDbEntity
8
1
62
256
6
ByLayer
370
18
48
1
60
0
100
AcDbSpline
70
4
71
3
72
12
73
8
40
0
40
0
40
0
40
0
40
0.107029883295
40
0.44370617727831
40
0.612044324269965
40
0.78038247126162
40
1
40
1
40
1
40
1
41
1.03017844307583
10
20.6818901716872
20
6.21377990361056
30
0
41
1.03022736562783
10
21.1592255288464
20
6.58049380589119
30
0
41
1.03047050908112
10
23.2524962036412
20
8.20522071790634
30
0
41
1.0311558410484
10
26.3121198421804
20
10.7590696036106
30
0
41
1.03077804826571
10
27.849358975429
20
12.17970246993
30
0
41
1.03322144498364
10
29.3421521088321
20
13.5449605073719
30
0
41
1.03463604371943
10
30.2081298398544
20
14.424304630482
30
0
41
1.0353664121206
10
30.6660884386251
20
14.9200637781737
30
0
0
SPLINE
5
134
100
AcDbEntity
8
1
62
256
6
ByLayer
370
18
48
1
60
0
100
AcDbSpline
70
4
71
2
72
6
73
3
40
0
40
0
40
0
40
1
40
1
40
1
41
1.02994816993494
10
20.5471995797056
20
0.0043003853540631
30
0
41
1.02994816993494
10
20.608310075665
20
-0.727981207316001
30
0
41
1.02994816993494
10
20.6694205716245
20
-1.46026279998606
30
0
0
SPLINE
5
135
100
AcDbEntity
8
1
62
256
6
ByLayer
370
18
48
1
60
0
100
AcDbSpline
70
4
71
3
72
14
73
10
40
0
40
0
40
0
40
0
40
0.256006012600452
40
0.256006012600452
40
0.256006012600452
40
0.73752356543209
40
0.73752356543209
40
0.73752356543209
40
1
40
1
40
1
40
1
41
1
10
18.9132178184419
20
8.45940521089932
30
0
41
1
10
19.1238839249068
20
8.3262628713656
30
0
41
1
10
19.3238755985775
20
8.17374511041166
30
0
41
1
10
19.5084219171039
20
8.00565553709856
30
0
41
1
10
19.8520076260883
20
7.69270876210564
30
0
41
1
10
20.1484288388947
20
7.31803926559036
30
0
41
1
10
20.373144569023
20
6.91267939982149
30
0
41
1
10
20.4968683992207
20
6.68949664722689
30
0
41
1
10
20.6007033025095
20
6.45456021267071
30
0
41
1
10
20.6818901714457
20
6.21377990342515
30
0
0
SPLINE
5
136
100
AcDbEntity
8
1
62
256
6
ByLayer
370
18
48
1
60
0
100
AcDbSpline
70
4
71
3
72
8
73
4
40
0
40
0
40
0
40
0
40
1
40
1
40
1
40
1
41
1
10
28.5155158726774
20
7.27139278367429
30
0
41
1
10
29.1706613628615
20
8.41958639820268
30
0
41
1
10
29.7874704983493
20
9.480130215976
30
0
41
1
10
30.3135355880618
20
10.4840775639576
30
0
0
SPLINE
5
137
100
AcDbEntity
8
1
62
256
6
ByLayer
370
18
48
1
60
0
100
AcDbSpline
70
4
71
3
72
10
73
6
40
0
40
0
40
0
40
0
40
0.580414582160084
40
0.580414582160084
40
1
40
1
40
1
40
1
41
1
10
13.7960229491772
20
-0.700874719334621
30
0
41
1
10
13.6729999882962
20
-0.766700549563865
30
0
41
1
10
13.5543969259937
20
-0.839563840298325
30
0
41
1
10
13.3588629668286
20
-0.974274300287505
30
0
41
1
10
13.2791451494419
20
-1.03386546776213
30
0
41
1
10
13.2023012260802
20
-1.09558690332236
30
0
0
SPLINE
5
138
100
AcDbEntity
8
1
62
256
6
ByLayer
370
18
48
1
60
0
100
AcDbSpline
70
4
71
3
72
10
73
6
40
0
40
0
40
0
40
0
40
0.493880230204841
40
0.493880230204841
40
1
40
1
40
1
40
1
41
1
10
29.7392719557176
20
16.5365308129738
30
0
41
1
10
29.6542575451668
20
16.5367456664465
30
0
41
1
10
29.5624477034752
20
16.537190928954
30
0
41
1
10
29.3518878648226
20
16.5388522623471
30
0
41
1
10
29.2323007135382
20
16.5402124411793
30
0
41
1
10
29.0828264501048
20
16.5415803625886
30
0
0
SPLINE
5
139
100
AcDbEntity
8
1
62
256
6
ByLayer
370
18
48
1
60
0
100
AcDbSpline
70
4
71
3
72
8
73
4
40
0
40
0
40
0
40
0
40
1
40
1
40
1
40
1
41
1
10
6.92149236937286
20
2.56985177225471
30
0
41
1
10
6.85312958705185
20
2.65976357624152
30
0
41
1
10
6.78668508759654
20
2.75156836777779
30
0
41
1
10
6.72413007109327
20
2.84298302968475
30
0
0
SPLINE
5
13A
100
AcDbEntity
8
1
62
256
6
ByLayer
370
18
48
1
60
0
100
AcDbSpline
70
4
71
3
72
14
73
10
40
0
40
0
40
0
40
0
40
7.77085242593E-05
40
7.77085242593E-05
40
0.352643155046209
40
0.352643155046209
40
0.705732119373804
40
0.705732119373804
40
1
40
1
40
1
40
1
41
1
10
29.6728835971359
20
16.5164500016932
30
0
41
1
10
29.672893541252
20
16.516451066848
30
0
41
1
10
29.672903485374
20
16.5164521319484
30
0
41
1
10
29.7176528852074
20
16.5212453495867
30
0
41
1
10
29.754206054188
20
16.5252940462551
30
0
41
1
10
29.7996852055181
20
16.5314548090943
30
0
41
1
10
29.80889427169
20
16.5336245445823
30
0
41
1
10
29.7925616601406
20
16.5359639769267
30
0
41
1
10
29.7721669808634
20
16.5364476787106
30
0
41
1
10
29.7392719557177
20
16.5365308129738
30
0
0
SPLINE
5
13B
100
AcDbEntity
8
1
62
256
6
ByLayer
370
18
48
1
60
0
100
AcDbSpline
70
4
71
3
72
28
73
24
40
0
40
0
40
0
40
0
40
4.58207680505E-05
40
4.58207680505E-05
40
0.0262692706625046
40
0.0262692706625046
40
0.213495002074634
40
0.213495002074634
40
0.356578191350461
40
0.356578191350461
40
0.396506692896423
40
0.396506692896423
40
0.500669174647869
40
0.500669174647869
40
0.650604339303075
40
0.650604339303075
40
0.802246387468558
40
0.802246387468558
40
0.967086003134497
40
0.967086003134497
40
0.999954179231938
40
0.999954179231938
40
1
40
1
40
1
40
1
41
1
10
30.6660884309491
20
14.9200637698642
30
0
41
1
10
30.6660918779061
20
14.9200787447855
30
0
41
1
10
30.6660953241722
20
14.9200937197804
30
0
41
1
10
30.6680707837224
20
14.9286792157319
30
0
41
1
10
30.6698528523657
20
14.9373579009994
30
0
41
1
10
30.6826116652352
20
15.0080470849551
30
0
41
1
10
30.6839557876738
20
15.0761729523499
30
0
41
1
10
30.664363795879
20
15.1998320780672
30
0
41
1
10
30.6482796748065
20
15.2557814341043
30
0
41
1
10
30.6177872240252
20
15.3254226998075
30
0
41
1
10
30.6104450149996
20
15.3406911318562
30
0
41
1
10
30.581954739351
20
15.3948431963246
30
0
41
1
10
30.557076586114
20
15.4331392280369
30
0
41
1
10
30.4889959943498
20
15.5192109406468
30
0
41
1
10
30.4412673074929
20
15.565330508159
30
0
41
1
10
30.3401116383483
20
15.6408394736105
30
0
41
1
10
30.2852116812173
20
15.6712624562138
30
0
41
1
10
30.1717624418085
20
15.7169933807232
30
0
41
1
10
30.1118504002039
20
15.7314885607913
30
0
41
1
10
30.0430158780789
20
15.7387590389002
30
0
41
1
10
30.0315545100865
20
15.7396438550903
30
0
41
1
10
30.020168507085
20
15.7402058252712
30
0
41
1
10
30.0201526504516
20
15.7402066073129
30
0
41
1
10
30.0201367937312
20
15.7402073886614
30
0
0
SPLINE
5
13C
100
AcDbEntity
8
1
62
256
6
ByLayer
370
18
48
1
60
0
100
AcDbSpline
70
4
71
3
72
28
73
24
40
0
40
0
40
0
40
0
40
0.0002961516837071
40
0.0002961516837071
40
0.0005569094112582
40
0.0005569094112582
40
0.0008621321651507
40
0.0008621321651507
40
0.0052375575534563
40
0.0052375575534563
40
0.0234742370264108
40
0.0234742370264108
40
0.0971618665447892
40
0.0971618665447892
40
0.250932327314957
40
0.250932327314957
40
0.469025233948802
40
0.469025233948802
40
0.708581876191988
40
0.708581876191988
40
0.999960210398656
40
0.999960210398656
40
1
40
1
40
1
40
1
41
1
10
30.0200233385424
20
15.7404264402124
30
0
41
1
10
30.020127844749
20
15.740454283636
30
0
41
1
10
30.0202292412082
20
15.7404901973789
30
0
41
1
10
30.0203960386347
20
15.7405900098372
30
0
41
1
10
30.0204647012405
20
15.7406522501286
30
0
41
1
10
30.0205709816586
20
15.7408220637544
30
0
41
1
10
30.0206025412107
20
15.7409368213409
30
0
41
1
10
30.0208159935395
20
15.742724549845
30
0
41
1
10
30.0200485698655
20
15.7447272378363
30
0
41
1
10
30.0179635550016
20
15.7543024593556
30
0
41
1
10
30.0161924302388
20
15.7620040744857
30
0
41
1
10
30.0073179611168
20
15.8006235350987
30
0
41
1
10
29.99996321684
20
15.8310478094602
30
0
41
1
10
29.9768159769843
20
15.9228738256073
30
0
41
1
10
29.9604487648343
20
15.9823593840367
30
0
41
1
10
29.9203813438032
20
16.1174200246464
30
0
41
1
10
29.8962894402927
20
16.1901454573483
30
0
41
1
10
29.8458939587561
20
16.3230256594623
30
0
41
1
10
29.8193000503956
20
16.3822834283258
30
0
41
1
10
29.7583167905408
20
16.4805968530255
30
0
41
1
10
29.7222600887184
20
16.514307875368
30
0
41
1
10
29.679296227634
20
16.5169020879573
30
0
41
1
10
29.6792862447522
20
16.5169026896799
30
0
41
1
10
29.6792762618108
20
16.5169032904147
30
0
0
SPLINE
5
13D
100
AcDbEntity
8
1
62
256
6
ByLayer
370
18
48
1
60
0
100
AcDbSpline
70
4
71
3
72
10
73
6
40
0
40
0
40
0
40
0
40
0.5
40
0.5
40
1
40
1
40
1
40
1
41
1
10
6.7241300710935
20
2.84298302968492
30
0
41
1
10
6.30567309358696
20
3.45449438816007
30
0
41
1
10
6.09217932198032
20
4.00337346694536
30
0
41
1
10
5.86626676423123
20
4.71372683652365
30
0
41
1
10
5.80420301338552
20
4.93904620975141
30
0
41
1
10
5.97267684783139
20
5.27824220308608
30
0
0
SPLINE
5
13E
100
AcDbEntity
8
1
62
256
6
ByLayer
370
18
48
1
60
0
100
AcDbSpline
70
4
71
3
72
8
73
4
40
0
40
0
40
0
40
0
40
1
40
1
40
1
40
1
41
1
10
12.3682412580446
20
-4.32315992388817
30
0
41
1
10
12.2932981894478
20
-4.23999777448986
30
0
41
1
10
12.2192723179657
20
-4.15345194082889
30
0
41
1
10
12.1479746213922
20
-4.06604141299556
30
0
0
SPLINE
5
13F
100
AcDbEntity
8
1
62
256
6
ByLayer
370
18
48
1
60
0
100
AcDbSpline
70
4
71
3
72
12
73
8
40
0
40
0
40
0
40
0
40
0.40184334030564
40
0.40184334030564
40
0.816060128109928
40
0.816060128109928
40
1
40
1
40
1
40
1
41
1
10
11.0711712993155
20
4.46662585621277
30
0
41
1
10
11.0317758639955
20
4.3295834202381
30
0
41
1
10
10.9732834842167
20
4.18735429947699
30
0
41
1
10
10.8269949970401
20
3.91077672002129
30
0
41
1
10
10.7369870683215
20
3.77363897845152
30
0
41
1
10
10.5953402210967
20
3.58934341824698
30
0
41
1
10
10.5497389732221
20
3.53392398333003
30
0
41
1
10
10.5028992009445
20
3.48029655136784
30
0
0
SPLINE
5
140
100
AcDbEntity
8
1
62
256
6
ByLayer
370
18
48
1
60
0
100
AcDbSpline
70
4
71
3
72
10
73
6
40
0
40
0
40
0
40
0
40
0.5
40
0.5
40
1
40
1
40
1
40
1
41
1
10
28.5155158726773
20
7.27139278367417
30
0
41
1
10
27.5390784941657
20
5.5601100536675
30
0
41
1
10
26.3510287106614
20
3.97239191562679
30
0
41
1
10
23.7392039387691
20
1.0228576838787
30
0
41
1
10
22.2170518650291
20
-0.240423355683049
30
0
41
1
10
20.6694205716245
20
-1.46026279998608
30
0
0
SPLINE
5
141
100
AcDbEntity
8
1
62
256
6
ByLayer
370
18
48
1
60
0
100
AcDbSpline
70
4
71
3
72
8
73
4
40
0
40
0
40
0
40
0
40
1
40
1
40
1
40
1
41
1
10
25.7261572635966
20
16.3085214429615
30
0
41
1
10
24.5979403500853
20
16.0691065264332
30
0
41
1
10
23.4018612669807
20
15.7440427720004
30
0
41
1
10
22.1202176754438
20
15.3912932594224
30
0
0
SPLINE
5
142
100
AcDbEntity
8
1
62
256
6
ByLayer
370
18
48
1
60
0
100
AcDbSpline
70
4
71
1
72
4
73
2
40
0
40
0
40
1
40
1
41
1
10
12.947034655444
20
9.65398064748354
30
0
41
1
10
11.6807862639445
20
9.95231152263588
30
0
0
SPLINE
5
143
100
AcDbEntity
8
1
62
256
6
ByLayer
370
18
48
1
60
0
100
AcDbSpline
70
4
71
3
72
8
73
4
40
0
40
0
40
0
40
0
40
1
40
1
40
1
40
1
41
1
10
11.1269921101435
20
4.71069464321178
30
0
41
1
10
11.1130920159796
20
4.62916173950987
30
0
41
1
10
11.0944244710611
20
4.54751520987182
30
0
41
1
10
11.0711712993155
20
4.46662585621286
30
0
0
SPLINE
5
144
100
AcDbEntity
8
1
62
256
6
ByLayer
370
18
48
1
60
0
100
AcDbSpline
70
4
71
3
72
13
73
9
40
0
40
0
40
0
40
0
40
0.21907077297069
40
0.21907077297069
40
0.21907077297069
40
0.652376048528384
40
0.652376048528384
40
1
40
1
40
1
40
1
41
1
10
17.563855258806
20
0.322172821344054
30
0
41
1
10
17.4072993612417
20
0.200847530602005
30
0
41
1
10
17.2424793455956
20
0.0926804326975343
30
0
41
1
10
17.0729661106305
20
0.0003579129228228
30
0
41
1
10
16.7410174124325
20
-0.180432337820065
30
0
41
1
10
16.3846354548318
20
-0.302551718454311
30
0
41
1
10
15.7373459636022
20
-0.410527154091795
30
0
41
1
10
15.4417387086271
20
-0.419967362948171
30
0
41
1
10
15.1472102982005
20
-0.393644602757519
30
0
0
SPLINE
5
145
100
AcDbEntity
8
1
62
256
6
ByLayer
370
18
48
1
60
0
100
AcDbSpline
70
4
71
3
72
8
73
4
40
0
40
0
40
0
40
0
40
1
40
1
40
1
40
1
41
1
10
19.7149130180563
20
2.08766648825085
30
0
41
1
10
19.5396940646297
20
1.88731923368593
30
0
41
1
10
19.3459615019083
20
1.70324221215978
30
0
41
1
10
19.1400962860606
20
1.54370394145258
30
0
0
SPLINE
5
146
100
AcDbEntity
8
1
62
256
6
ByLayer
370
18
48
1
60
0
100
AcDbSpline
70
4
71
3
72
8
73
4
40
0
40
0
40
0
40
0
40
1
40
1
40
1
40
1
41
1.03548960590947
10
28.5981730265456
20
16.547801495683
30
0
41
1.03477250223163
10
27.6278186284175
20
16.5369927271729
30
0
41
1.03398726483063
10
26.6841858869294
20
16.4655437386411
30
0
41
1.03311206534555
10
25.7261810919028
20
16.308525348473
30
0
0
SPLINE
5
147
100
AcDbEntity
8
1
62
256
6
ByLayer
370
18
48
1
60
0
100
AcDbSpline
70
4
71
3
72
8
73
4
40
0
40
0
40
0
40
0
40
1
40
1
40
1
40
1
41
1
10
7.04810659807106
20
5.0825197650619
30
0
41
1
10
7.95123206703693
20
5.19632749975437
30
0
41
1
10
9.4825114774892
20
4.91795429436993
30
0
41
1
10
11.0711712993155
20
4.46662585621277
30
0
0
SPLINE
5
148
100
AcDbEntity
8
1
62
256
6
ByLayer
370
18
48
1
60
0
100
AcDbSpline
70
4
71
3
72
8
73
4
40
0
40
0
40
0
40
0
40
1
40
1
40
1
40
1
41
1
10
12.1479746213922
20
-4.06604141299556
30
0
41
1
10
12.6527636605849
20
-3.25550328647694
30
0
41
1
10
13.2365332179687
20
-2.0156408743371
30
0
41
1
10
13.7960229491637
20
-0.700874719328681
30
0
0
SPLINE
5
149
100
AcDbEntity
8
1
62
256
6
ByLayer
370
18
48
1
60
0
100
AcDbSpline
70
4
71
3
72
8
73
4
40
0
40
0
40
0
40
0
40
1
40
1
40
1
40
1
41
1
10
6.93716703779523
20
2.54959695847282
30
0
41
1
10
6.93188618679841
20
2.55630188187107
30
0
41
1
10
6.92666037832373
20
2.56305472579084
30
0
41
1
10
6.92149236937246
20
2.56985177225457
30
0
0
SPLINE
5
14A
100
AcDbEntity
8
1
62
256
6
ByLayer
370
18
48
1
60
0
100
AcDbSpline
70
4
71
3
72
19
73
15
40
0
40
0
40
0
40
0
40
0.24905337116666
40
0.24905337116666
40
0.24905337116666
40
0.403599292981678
40
0.403599292981678
40
0.403599292981678
40
0.717848378774914
40
0.717848378774914
40
0.717848378774914
40
0.857416780703741
40
0.857416780703741
40
1
40
1
40
1
40
1
41
1
10
20.6818901714457
20
6.21377990342515
30
0
41
1
10
20.7978786069665
20
5.86975165121316
30
0
41
1
10
20.8582050468064
20
5.4998930486509
30
0
41
1
10
20.8650359145545
20
5.13435562924778
30
0
41
1
10
20.8693109754667
20
4.90558605102649
30
0
41
1
10
20.8532555077499
20
4.67563443633836
30
0
41
1
10
20.8190785162846
20
4.44944746756337
30
0
41
1
10
20.7501672306646
20
3.99338524147069
30
0
41
1
10
20.6061944990633
20
3.54437774327312
30
0
41
1
10
20.4042526682917
20
3.12961905211111
30
0
41
1
10
20.3137639533668
20
2.94376859792959
30
0
41
1
10
20.2109969570938
20
2.76326085282258
30
0
41
1
10
19.9812371321047
20
2.41446893174444
30
0
41
1
10
19.8530329087587
20
2.24545597932158
30
0
41
1
10
19.7149130180563
20
2.08766648825085
30
0
0
SPLINE
5
14B
100
AcDbEntity
8
1
62
256
6
ByLayer
370
18
48
1
60
0
100
AcDbSpline
70
4
71
3
72
28
73
24
40
0
40
0
40
0
40
0
40
4.20487346493E-05
40
4.20487346493E-05
40
0.291419858702298
40
0.291419858702298
40
0.530976069930341
40
0.530976069930341
40
0.74906858416696
40
0.74906858416696
40
0.90283876827899
40
0.90283876827899
40
0.976526265230677
40
0.976526265230677
40
0.994762911886539
40
0.994762911886539
40
0.999138329414545
40
0.999138329414545
40
0.999456644382137
40
0.999456644382137
40
0.99970415135544
40
0.99970415135544
40
1
40
1
40
1
40
1
41
1
10
31.3829338921653
20
14.353827234832
30
0
41
1
10
31.3829343848984
20
14.3538372236865
30
0
41
1
10
31.3829348768099
20
14.3538472125815
30
0
41
1
10
31.3853384792654
20
14.4027517605142
30
0
41
1
10
31.3557710646511
20
14.4523615275654
30
0
41
1
10
31.2657659240033
20
14.5457531254083
30
0
41
1
10
31.2106580349522
20
14.5902294504382
30
0
41
1
10
31.0868737443886
20
14.6784995951449
30
0
41
1
10
31.0190328363609
20
14.7224982395896
30
0
41
1
10
30.8929524945528
20
14.79838996694
30
0
41
1
10
30.8373912095683
20
14.8302296634212
30
0
41
1
10
30.7514798060146
20
14.8768718317379
30
0
41
1
10
30.7229941181961
20
14.8919529791123
30
0
41
1
10
30.6867885463507
20
14.9105701687369
30
0
41
1
10
30.6795723521831
20
14.9142794578423
30
0
41
1
10
30.6705739782467
20
14.9187764517331
30
0
41
1
10
30.6687804969496
20
14.9200252608515
30
0
41
1
10
30.666935090358
20
14.92030383563
30
0
41
1
10
30.6668069962863
20
14.9203041264547
30
0
41
1
10
30.6666116376739
20
14.9202459926577
30
0
41
1
10
30.6665359426411
20
14.9202002806043
30
0
41
1
10
30.6663951904131
20
14.9200744791626
30
0
41
1
10
30.6663323427797
20
14.9199896270484
30
0
41
1
10
30.6662767151061
20
14.9198997292105
30
0
0
SPLINE
5
14C
100
AcDbEntity
8
1
62
256
6
ByLayer
370
18
48
1
60
0
100
AcDbSpline
70
4
71
3
72
8
73
4
40
0
40
0
40
0
40
0
40
1
40
1
40
1
40
1
41
1
10
14.8924979186293
20
-0.385187284817249
30
0
41
1
10
14.9693275301604
20
-2.05163668074917
30
0
41
1
10
14.9162718522779
20
-3.64314536534744
30
0
41
1
10
14.6482715223326
20
-4.56716049706762
30
0
0
SPLINE
5
14D
100
AcDbEntity
8
1
62
256
6
ByLayer
370
18
48
1
60
0
100
AcDbSpline
70
4
71
3
72
12
73
8
40
0
40
0
40
0
40
0
40
0.264973649150345
40
0.52994729830069
40
0.662434122875862
40
0.794920947451034
40
1
40
1
40
1
40
1
41
1.02994816993494
10
20.5471995797056
20
0.0043003853540631
30
0
41
1.03004363841634
10
21.3688045659159
20
0.667840439959441
30
0
41
1.03021336426305
10
24.3800825877408
20
3.11244897019531
30
0
41
1.0311558410484
10
27.9635698101064
20
7.7699927107261
30
0
41
1.03077804826571
10
29.1509059291375
20
9.74309755889739
30
0
41
1.03340133735626
10
30.4213042813692
20
11.9287678478749
30
0
41
1.03493149686168
10
31.0537370638172
20
13.4247010406984
30
0
41
1.03576782913892
10
31.3818864017236
20
14.3508739739084
30
0
0
SPLINE
5
14E
100
AcDbEntity
8
1
62
256
6
ByLayer
370
18
48
1
60
0
100
AcDbSpline
70
4
71
3
72
24
73
20
40
0
40
0
40
0
40
0
40
0.0001109191202513
40
0.0001109191202513
40
0.0009920216779514
40
0.0009920216779514
40
0.006632822613644
40
0.006632822613644
40
0.0295221595719272
40
0.0295221595719272
40
0.121312289845688
40
0.121312289845688
40
0.308399631015128
40
0.308399631015128
40
0.5577733676647
40
0.5577733676647
40
0.796812833993216
40
0.796812833993216
40
1
40
1
40
1
40
1
41
1
10
30.6661572024032
20
14.920362926395
30
0
41
1
10
30.6661821488813
20
14.9203774758406
30
0
41
1
10
30.6662075371164
20
14.920391411621
30
0
41
1
10
30.6664347862007
20
14.92050739659
30
0
41
1
10
30.6666775947198
20
14.920555027234
30
0
41
1
10
30.6685567650239
20
14.9204912038468
30
0
41
1
10
30.67033097296
20
14.9197403668151
30
0
41
1
10
30.6789639402759
20
14.9172053695157
30
0
41
1
10
30.6858657533345
20
14.9151196239617
30
0
41
1
10
30.7202703502215
20
14.9048312702903
30
0
41
1
10
30.7473253937641
20
14.8967694671569
30
0
41
1
10
30.8277269642829
20
14.8731192949925
30
0
41
1
10
30.8794870839555
20
14.8582992671197
30
0
41
1
10
30.993354451072
20
14.8281319612223
30
0
41
1
10
31.0537804868328
20
14.8140621618551
30
0
41
1
10
31.1591132816486
20
14.7976202432946
30
0
41
1
10
31.2052156457696
20
14.7946127993477
30
0
41
1
10
31.2757672875965
20
14.8045436012282
30
0
41
1
10
31.3033711074604
20
14.8144844590738
30
0
41
1
10
31.321775928677
20
14.83679689364
30
0
0
SPLINE
5
14F
100
AcDbEntity
8
1
62
256
6
ByLayer
370
18
48
1
60
0
100
AcDbSpline
70
4
71
3
72
10
73
6
40
0
40
0
40
0
40
0
40
0.999906028841236
40
0.999906028841236
40
1
40
1
40
1
40
1
41
1
10
29.0828264501048
20
16.5415803625886
30
0
41
1
10
28.9230436325219
20
16.5430426232614
30
0
41
1
10
28.761184926953
20
16.545235516788
30
0
41
1
10
28.5981990437051
20
16.5478009621124
30
0
41
1
10
28.5981837277127
20
16.5478012031978
30
0
41
1
10
28.5981684117302
20
16.5478014442781
30
0
0
SPLINE
5
150
100
AcDbEntity
8
1
62
256
6
ByLayer
370
18
48
1
60
0
100
AcDbSpline
70
4
71
3
72
24
73
20
40
0
40
0
40
0
40
0
40
0.19394721077935
40
0.19394721077935
40
0.435758612862351
40
0.435758612862351
40
0.68802412293863
40
0.68802412293863
40
0.877280955594955
40
0.877280955594955
40
0.970135497295969
40
0.970135497295969
40
0.993290262270396
40
0.993290262270396
40
0.998996474733363
40
0.998996474733363
40
0.999887794663927
40
0.999887794663927
40
1
40
1
40
1
40
1
41
1
10
30.1211034510552
20
16.3535946254119
30
0
41
1
10
30.0952058833659
20
16.3434958426484
30
0
41
1
10
30.0774656616319
20
16.3234644585948
30
0
41
1
10
30.0463921957597
20
16.2659329462801
30
0
41
1
10
30.0355284545705
20
16.2241990658528
30
0
41
1
10
30.0211574479932
20
16.1251497837176
30
0
41
1
10
30.0179674333562
20
16.0665488833256
30
0
41
1
10
30.016307238834
20
15.9542504204599
30
0
41
1
10
30.0168671548886
20
15.9026414140823
30
0
41
1
10
30.0186691408979
20
15.8219204252552
30
0
41
1
10
30.0194258969753
20
15.7946704981182
30
0
41
1
10
30.020482809827
20
15.7599345353487
30
0
41
1
10
30.0207194503359
20
15.7529568204118
30
0
41
1
10
30.0209452487845
20
15.7442441332369
30
0
41
1
10
30.0212211292869
20
15.7423920401734
30
0
41
1
10
30.0207838769482
20
15.7406251075896
30
0
41
1
10
30.0206716436784
20
15.740411689841
30
0
41
1
10
30.0204953738356
20
15.740230978214
30
0
41
1
10
30.020474705501
20
15.7402110497405
30
0
41
1
10
30.0204535427681
20
15.7401916962048
30
0
0
SPLINE
5
151
100
AcDbEntity
8
1
62
256
6
ByLayer
370
18
48
1
60
0
100
AcDbSpline
70
4
71
3
72
10
73
6
40
0
40
0
40
0
40
0
40
0.58041458215305
40
0.58041458215305
40
1
40
1
40
1
40
1
41
1
10
10.5028992009446
20
3.48029655136799
30
0
41
1
10
10.4109477667502
20
3.37502022227181
30
0
41
1
10
10.3134080020143
20
3.27541355310277
30
0
41
1
10
10.1388708248244
20
3.11404416734493
30
0
41
1
10
10.0633165730228
20
3.04916665713327
30
0
41
1
10
9.98647264966115
20
2.98744522157304
30
0
0
SPLINE
5
152
100
AcDbEntity
8
1
62
256
6
ByLayer
370
18
48
1
60
0
100
AcDbSpline
70
4
71
3
72
10
73
6
40
0
40
0
40
0
40
0
40
0.5
40
0.5
40
1
40
1
40
1
40
1
41
1
10
11.6807862639445
20
9.95231152263588
30
0
41
1
10
13.2522063727979
20
11.1495776756049
30
0
41
1
10
14.8494625778006
20
12.3035309461109
30
0
41
1
10
18.3505175194587
20
14.0975347455262
30
0
41
1
10
20.2022123506
20
14.8633965431057
30
0
41
1
10
22.1202176754439
20
15.3912932594224
30
0
0
SPLINE
5
153
100
AcDbEntity
8
1
62
256
6
ByLayer
370
18
48
1
60
0
100
AcDbSpline
70
4
71
3
72
8
73
4
40
0
40
0
40
0
40
0
40
1
40
1
40
1
40
1
41
1
10
14.6763109790012
20
8.48501433095055
30
0
41
1
10
13.9755978222083
20
9.13775149559345
30
0
41
1
10
13.3536459846887
20
9.5581821339259
30
0
41
1
10
12.947034655444
20
9.65398064748354
30
0
0
SPLINE
5
154
100
AcDbEntity
8
1
62
256
6
ByLayer
370
18
48
1
60
0
100
AcDbSpline
70
4
71
3
72
8
73
4
40
0
40
0
40
0
40
0
40
1
40
1
40
1
40
1
41
1.03311206816126
10
30.3135464145262
20
10.4841023996186
30
0
41
1.03398726653663
10
30.6989277533055
20
11.3681603579596
30
0
41
1.03477250303978
10
30.9971304436205
20
12.2590893623237
30
0
41
1.03548960596306
10
31.2424820851014
20
13.1904090603879
30
0
0
SPLINE
5
155
100
AcDbEntity
8
1
62
256
6
ByLayer
370
18
48
1
60
0
100
AcDbSpline
70
4
71
3
72
13
73
9
40
0
40
0
40
0
40
0
40
0.476351510225591
40
0.476351510225591
40
0.476351510225591
40
0.687543277835216
40
0.687543277835216
40
1
40
1
40
1
40
1
41
1
10
11.1269921101435
20
4.71069464321178
30
0
41
1
10
11.1933718335385
20
5.10005399081828
30
0
41
1
10
11.3265056648605
20
5.47643079262215
30
0
41
1
10
11.5264034561651
20
5.82023756975181
30
0
41
1
10
11.615961477257
20
5.97426955978412
30
0
41
1
10
11.7195079704904
20
6.12315064041414
30
0
41
1
10
12.0070544476824
20
6.47268580950694
30
0
41
1
10
12.2085132031404
20
6.66697980529597
30
0
41
1
10
12.4308981079832
20
6.83932025146555
30
0
0
SPLINE
5
156
100
AcDbEntity
8
1
62
256
6
ByLayer
370
18
48
1
60
0
100
AcDbSpline
70
4
71
3
72
15
73
11
40
0
40
0
40
0
40
0
40
0.284308369869424
40
0.284308369869424
40
0.604552312734216
40
0.604552312734216
40
0.883194505470756
40
0.883194505470756
40
0.883194505470756
40
1
40
1
40
1
40
1
41
1
10
14.6763109644516
20
8.48501434450398
30
0
41
1
10
15.0463700560419
20
8.67566363620492
30
0
41
1
10
15.4490214658814
20
8.82054300707884
30
0
41
1
10
16.3163070439995
20
9.01201657964293
30
0
41
1
10
16.7953159342474
20
9.04721789146575
30
0
41
1
10
17.6697296545189
20
8.96627625913655
30
0
41
1
10
18.077892984955
20
8.86714093317681
30
0
41
1
10
18.4531241148528
20
8.70311555567841
30
0
41
1
10
18.6122203105329
20
8.63356958394067
30
0
41
1
10
18.7666901848968
20
8.55200494313658
30
0
41
1
10
18.9132178184419
20
8.45940521089932
30
0
0
SPLINE
5
157
100
AcDbEntity
8
1
62
256
6
ByLayer
370
18
48
1
60
0
100
AcDbSpline
70
4
71
3
72
8
73
4
40
0
40
0
40
0
40
0
40
1
40
1
40
1
40
1
41
1
10
29.6728837212037
20
16.5164500149811
30
0
41
1
10
29.8310781598903
20
16.5219094772503
30
0
41
1
10
29.9920456589948
20
16.4634477840577
30
0
41
1
10
30.1209347691216
20
16.3537226132154
30
0
0
SPLINE
5
158
100
AcDbEntity
8
1
62
256
6
ByLayer
370
18
48
1
60
0
100
AcDbSpline
70
4
71
3
72
10
73
6
40
0
40
0
40
0
40
0
40
0.794724528922945
40
0.794724528922945
40
1
40
1
40
1
40
1
41
1
10
31.3340457143045
20
13.6832810603415
30
0
41
1
10
31.3789564427143
20
13.9216665754252
30
0
41
1
10
31.4051018762972
20
14.0965648180136
30
0
41
1
10
31.4340241473263
20
14.2934692781054
30
0
41
1
10
31.4396601043202
20
14.3327161128776
30
0
41
1
10
31.4450238484078
20
14.3707935513399
30
0
0
SPLINE
5
159
100
AcDbEntity
8
1
62
256
6
ByLayer
370
18
48
1
60
0
100
AcDbSpline
70
4
71
3
72
12
73
8
40
0
40
0
40
0
40
0
40
0.264973649149777
40
0.529947298299554
40
0.662434122874442
40
0.794920947449331
40
1
40
1
40
1
40
1
41
1.02994816993494
10
12.9470346554441
20
9.65398064748354
30
0
41
1.03004363841634
10
13.7933614140902
20
10.2861322779889
30
0
41
1.03021336426305
10
16.8973764893753
20
12.6129956114298
30
0
41
1.0311558410484
10
22.3355124949844
20
14.9157525895264
30
0
41
1.03077804826571
10
24.5756050679326
20
15.5522070786926
30
0
41
1.03340133735628
10
27.037399443503
20
16.2252008922913
30
0
41
1.0349314968617
10
28.6743256919772
20
16.4457616596826
30
0
41
1.03576782913895
10
29.6760829438893
20
16.5166767061373
30
0
0
SPLINE
5
15A
100
AcDbEntity
8
1
62
256
6
ByLayer
370
18
48
1
60
0
100
AcDbSpline
70
4
71
3
72
12
73
8
40
0
40
0
40
0
40
0
40
0.392678099449885
40
0.392678099449885
40
0.791279335966143
40
0.791279335966143
40
1
40
1
40
1
40
1
41
1
10
16.7963327104654
20
3.54486028961591
30
0
41
1
10
16.7790903938327
20
3.53526751579292
30
0
41
1
10
16.7617171094208
20
3.5243902708967
30
0
41
1
10
16.7294363557871
20
3.50118675974295
30
0
41
1
10
16.7141962483769
20
3.48854822416189
30
0
41
1
10
16.6944112726856
20
3.46958381290713
30
0
41
1
10
16.6880955742632
20
3.46300418166837
30
0
41
1
10
16.682359771237
20
3.45653528746809
30
0
0
SPLINE
5
15B
100
AcDbEntity
8
1
62
256
6
ByLayer
370
18
48
1
60
0
100
AcDbSpline
70
4
71
3
72
14
73
10
40
0
40
0
40
0
40
0
40
0.0829586012802611
40
0.0829586012802611
40
0.459195015075176
40
0.459195015075176
40
0.835474799669138
40
0.835474799669138
40
1
40
1
40
1
40
1
41
1
10
17.1447658935765
20
4.63758892620831
30
0
41
1
10
17.1444115514325
20
4.63343804005544
30
0
41
1
10
17.1441281373712
20
4.62925769417788
30
0
41
1
10
17.142990200439
20
4.60615578995831
30
0
41
1
10
17.1436663697274
20
4.58652074280616
30
0
41
1
10
17.1487064587566
20
4.54882832323815
30
0
41
1
10
17.1531363445523
20
4.53035309405303
30
0
41
1
10
17.161477463567
20
4.50628681089754
30
0
41
1
10
17.164296503758
20
4.49920251693248
30
0
41
1
10
17.1673251407033
20
4.49242983618637
30
0
0
SPLINE
5
15C
100
AcDbEntity
8
1
62
256
6
ByLayer
370
18
48
1
60
0
100
AcDbSpline
70
4
71
3
72
14
73
10
40
0
40
0
40
0
40
0
40
0.164525200330925
40
0.164525200330925
40
0.540804984924854
40
0.540804984924854
40
0.917041398719701
40
0.917041398719701
40
1
40
1
40
1
40
1
41
1
10
16.3625785960352
20
5.51419014342795
30
0
41
1
10
16.3685998384923
20
5.50947248896236
30
0
41
1
10
16.3749599431571
20
5.50490232360707
30
0
41
1
10
16.3967843582613
20
5.49066841695299
30
0
41
1
10
16.4138870556581
20
5.48180443112165
30
0
41
1
10
16.4494835022746
20
5.46790197349284
30
0
41
1
10
16.4683701251761
20
5.46269878469263
30
0
41
1
10
16.490933495192
20
5.45859751887616
30
0
41
1
10
16.4950301087704
20
5.45793637032793
30
0
41
1
10
16.499110782393
20
5.45735605555595
30
0
0
SPLINE
5
15D
100
AcDbEntity
8
1
62
256
6
ByLayer
370
18
48
1
60
0
100
AcDbSpline
70
4
71
3
72
14
73
10
40
0
40
0
40
0
40
0
40
0.0829586012803316
40
0.0829586012803316
40
0.459195015075164
40
0.459195015075164
40
0.835474799669047
40
0.835474799669047
40
1
40
1
40
1
40
1
41
1
10
14.883524932273
20
4.20533408746525
30
0
41
1
10
14.8833327672052
20
4.20892785901719
30
0
41
1
10
14.8831055111737
20
4.21258762299075
30
0
41
1
10
14.8816540584311
20
4.23304987897862
30
0
41
1
10
14.8796712542513
20
4.25135293021111
30
0
41
1
10
14.8741817216403
20
4.28858718275728
30
0
41
1
10
14.8706098539155
20
4.30793708364814
30
0
41
1
10
14.8647916024437
20
4.3345752017473
30
0
41
1
10
14.8629137617896
20
4.34261896338836
30
0
41
1
10
14.8609656851459
20
4.3504931774869
30
0
0
SPLINE
5
15E
100
AcDbEntity
8
1
62
256
6
ByLayer
370
18
48
1
60
0
100
AcDbSpline
70
4
71
3
72
12
73
8
40
0
40
0
40
0
40
0
40
0.39267809945252
40
0.39267809945252
40
0.79127933596869
40
0.79127933596869
40
1
40
1
40
1
40
1
41
1
10
15.2319581153847
20
5.2980627240583
30
0
41
1
10
15.2466348819825
20
5.30504015200296
30
0
41
1
10
15.2622332771263
20
5.31410805805624
30
0
41
1
10
15.2932704185403
20
5.33604381919579
30
0
41
1
10
15.3090805865332
20
5.34926347990626
30
0
41
1
10
15.3313506539418
20
5.37076121707216
30
0
41
1
10
15.3388177724721
20
5.37851461681771
30
0
41
1
10
15.3459310546131
20
5.38638772620612
30
0
0
SPLINE
5
15F
100
AcDbEntity
8
1
62
256
6
ByLayer
370
18
48
1
60
0
100
AcDbSpline
70
4
71
3
72
14
73
10
40
0
40
0
40
0
40
0
40
0.164525200330905
40
0.164525200330905
40
0.540804984924887
40
0.540804984924887
40
0.917041398719628
40
0.917041398719628
40
1
40
1
40
1
40
1
41
1
10
15.665712229814
20
3.32873287024532
30
0
41
1
10
15.6586104270554
20
3.33234899135849
30
0
41
1
10
15.6513091228536
20
3.33595968903779
30
0
41
1
10
15.6269618402066
20
3.34762176074821
30
0
41
1
10
15.6090011247389
20
3.35561107487379
30
0
41
1
10
15.5738541217041
20
3.36997169952443
30
0
41
1
10
15.5562741336942
20
3.37650688424429
30
0
41
1
10
15.5363001533529
20
3.38324779829244
30
0
41
1
10
15.5327142098672
20
3.3844295287447
30
0
41
1
10
15.5291800434564
20
3.38556695811764
30
0
0
LINE
5
72
100
AcDbEntity
8
1
62
256
6
ByLayer
370
18
48
1
60
0
100
AcDbLine
10
16.693706
20
3.468686
30
0
11
16.313642
21
3.081246
31
0
39
0
210
0
220
0
230
1
0
LINE
5
74
100
AcDbEntity
8
1
62
256
6
ByLayer
370
18
48
1
60
0
100
AcDbLine
10
14.952453
20
4.984688
30
0
11
15.332517
21
5.372128
31
0
39
0
210
0
220
0
230
1
0
LINE
5
75
100
AcDbEntity
8
1
62
256
6
ByLayer
370
18
48
1
60
0
100
AcDbLine
10
6.29815
20
5.690703
30
0
11
5.600202
21
5.040191
31
0
39
0
210
0
220
0
230
1
0
LINE
5
76
100
AcDbEntity
8
1
62
256
6
ByLayer
370
18
48
1
60
0
100
AcDbLine
10
32.18918
20
10.214255
30
0
11
32.995837
21
11.036569
31
0
39
0
210
0
220
0
230
1
0
LINE
5
77
100
AcDbEntity
8
1
62
256
6
ByLayer
370
18
48
1
60
0
100
AcDbLine
10
25.925988
20
17.9813
30
0
11
25.119331
21
17.158986
31
0
39
0
210
0
220
0
230
1
0
LINE
5
78
100
AcDbEntity
8
1
62
256
6
ByLayer
370
18
48
1
60
0
100
AcDbLine
10
18.310682
20
1.050556
30
0
11
18.722811
21
1.470685
31
0
39
0
210
0
220
0
230
1
0
LINE
5
79
100
AcDbEntity
8
1
62
256
6
ByLayer
370
18
48
1
60
0
100
AcDbLine
10
13.011851
20
7.07291
30
0
11
12.599721
21
6.652781
31
0
39
0
210
0
220
0
230
1
0
LINE
5
7A
100
AcDbEntity
8
1
62
256
6
ByLayer
370
18
48
1
60
0
100
AcDbLine
10
9.611002
20
2.621457
30
0
11
10.224297
21
3.193069
31
0
39
0
210
0
220
0
230
1
0
LINE
5
7B
100
AcDbEntity
8
80
62
256
6
ByLayer
370
18
48
1
60
0
100
AcDbLine
10
0
20
0
30
0
11
-5
21
0
31
0
39
0
210
0
220
0
230
1
0
LINE
5
7C
100
AcDbEntity
8
81
62
256
6
ByLayer
370
18
48
1
60
0
100
AcDbLine
10
39.219028
20
24.425
30
0
11
49.219028
21
24.425
31
0
39
0
210
0
220
0
230
1
0
LINE
5
7D
100
AcDbEntity
8
1
62
256
6
ByLayer
370
18
48
1
60
0
100
AcDbLine
10
16.222717
20
2.820665
30
0
11
16.579276
21
3.184145
31
0
39
0
210
0
220
0
230
1
0
LINE
5
7E
100
AcDbEntity
8
1
62
256
6
ByLayer
370
18
48
1
60
0
100
AcDbLine
10
18.310682
20
1.050556
30
0
11
18.310751
21
1.050627
31
0
39
0
210
0
220
0
230
1
0
LINE
5
7F
100
AcDbEntity
8
1
62
256
6
ByLayer
370
18
48
1
60
0
100
AcDbLine
10
11.956524
20
6.381113
30
0
11
13.421613
21
7.515121
31
0
39
0
210
0
220
0
230
1
0
LINE
5
80
100
AcDbEntity
8
1
62
256
6
ByLayer
370
18
48
1
60
0
100
AcDbLine
10
15.392822
20
-5.455934
30
0
11
14.784961
21
-6.022482
31
0
39
0
210
0
220
0
230
1
0
LINE
5
81
100
AcDbEntity
8
1
62
256
6
ByLayer
370
18
48
1
60
0
100
AcDbLine
10
16.456592
20
-4.639935
30
0
11
15.087598
21
-5.774573
31
0
39
0
210
0
220
0
230
1
0
LINE
5
82
100
AcDbEntity
8
1
62
256
6
ByLayer
370
18
48
1
60
0
100
AcDbLine
10
8.749366
20
7.603829
30
0
11
8.711836
21
7.65148
31
0
39
0
210
0
220
0
230
1
0
LINE
5
83
100
AcDbEntity
8
1
62
256
6
ByLayer
370
18
48
1
60
0
100
AcDbLine
10
13.926538
20
-9.601519
30
0
11
11.817948
21
-6.92431
31
0
39
0
210
0
220
0
230
1
0
LINE
5
84
100
AcDbEntity
8
1
62
256
6
ByLayer
370
18
48
1
60
0
100
AcDbLine
10
4.344206
20
2.564855
30
0
11
1.984077
21
5.561433
31
0
39
0
210
0
220
0
230
1
0
LINE
5
85
100
AcDbEntity
8
1
62
256
6
ByLayer
370
18
48
1
60
0
100
AcDbLine
10
17.585129
20
-6.733681
30
0
11
16.141524
21
-4.900783
31
0
39
0
210
0
220
0
230
1
0
LINE
5
86
100
AcDbEntity
8
1
62
256
6
ByLayer
370
18
48
1
60
0
100
AcDbLine
10
7.224061
20
6.421427
30
0
11
2.74086
21
12.113601
31
0
39
0
210
0
220
0
230
1
0
LINE
5
87
100
AcDbEntity
8
1
62
256
6
ByLayer
370
18
48
1
60
0
100
AcDbLine
10
14.723512
20
-8.970501
30
0
11
13.12657
21
-6.942916
31
0
39
0
210
0
220
0
230
1
0
LINE
5
88
100
AcDbEntity
8
1
62
256
6
ByLayer
370
18
48
1
60
0
100
AcDbLine
10
4.638937
20
3.833553
30
0
11
2.184651
21
6.94968
31
0
39
0
210
0
220
0
230
1
0
LINE
5
89
100
AcDbEntity
8
1
62
256
6
ByLayer
370
18
48
1
60
0
100
AcDbLine
10
29.455026
20
8.957464
30
0
11
31.809592
21
10.196587
31
0
39
0
210
0
220
0
230
1
0
LINE
5
8A
100
AcDbEntity
8
1
62
256
6
ByLayer
370
18
48
1
60
0
100
AcDbLine
10
24.755921
20
16.075369
30
0
11
25.092057
21
16.749637
31
0
39
0
210
0
220
0
230
1
0
LINE
5
8B
100
AcDbEntity
8
1
62
256
6
ByLayer
370
18
48
1
60
0
100
AcDbLine
10
24.918554
20
16.117308
30
0
11
25.142656
21
16.566844
31
0
39
0
210
0
220
0
230
1
0
LINE
5
8C
100
AcDbEntity
8
1
62
256
6
ByLayer
370
18
48
1
60
0
100
AcDbLine
10
14.689636
20
-9.005033
30
0
11
13.078778
21
-6.95978
31
0
39
0
210
0
220
0
230
1
0
LINE
5
8D
100
AcDbEntity
8
1
62
256
6
ByLayer
370
18
48
1
60
0
100
AcDbLine
10
4.612061
20
3.790133
30
0
11
2.1324
21
6.938479
31
0
39
0
210
0
220
0
230
1
0
LINE
5
8E
100
AcDbEntity
8
1
62
256
6
ByLayer
370
18
48
1
60
0
100
AcDbLine
10
29.655654
20
9.094389
30
0
11
29.480865
21
9.002404
31
0
39
0
210
0
220
0
230
1
0
LINE
5
8F
100
AcDbEntity
8
1
62
256
6
ByLayer
370
18
48
1
60
0
100
AcDbLine
10
32.806854
20
10.896665
30
0
11
29.61404
21
9.234591
31
0
39
0
210
0
220
0
230
1
0
LINE
5
90
100
AcDbEntity
8
1
62
256
6
ByLayer
370
18
48
1
60
0
100
AcDbLine
10
24.960997
20
16.127254
30
0
11
25.79032
21
17.790823
31
0
39
0
210
0
220
0
230
1
0
LINE
5
91
100
AcDbEntity
8
1
62
256
6
ByLayer
370
18
48
1
60
0
100
AcDbLine
10
32.000196
20
10.074351
30
0
11
31.903897
21
10.02422
31
0
39
0
210
0
220
0
230
1
0
LINE
5
92
100
AcDbEntity
8
1
62
256
6
ByLayer
370
18
48
1
60
0
100
AcDbLine
10
24.919269
20
16.839339
30
0
11
24.983662
21
16.968508
31
0
39
0
210
0
220
0
230
1
0
LINE
5
93
100
AcDbEntity
8
1
62
256
6
ByLayer
370
18
48
1
60
0
100
AcDbLine
10
17.712223
20
-3.658481
30
0
11
17.658839
21
-3.708236
31
0
39
0
210
0
220
0
230
1
0
LINE
5
94
100
AcDbEntity
8
1
62
256
6
ByLayer
370
18
48
1
60
0
100
AcDbLine
10
6.937167
20
2.549597
30
0
11
12.131967
21
-4.04607
31
0
39
0
210
0
220
0
230
1
0
LINE
5
95
100
AcDbEntity
8
1
62
256
6
ByLayer
370
18
48
1
60
0
100
AcDbLine
10
9.41568
20
2.455447
30
0
11
8.054823
21
1.402117
31
0
39
0
210
0
220
0
230
1
0
LINE
5
96
100
AcDbEntity
8
1
62
256
6
ByLayer
370
18
48
1
60
0
100
AcDbLine
10
15.392822
20
-5.455934
30
0
11
17.712223
21
-3.658481
31
0
39
0
210
0
220
0
230
1
0
LINE
5
97
100
AcDbEntity
8
1
62
256
6
ByLayer
370
18
48
1
60
0
100
AcDbLine
10
10.18944
20
-5.856573
30
0
11
4.99464
21
0.739094
31
0
39
0
210
0
220
0
230
1
0
LINE
5
98
100
AcDbEntity
8
1
62
256
6
ByLayer
370
18
48
1
60
0
100
AcDbLine
10
8.806851
20
7.648377
30
0
11
6.487451
21
5.850924
31
0
39
0
210
0
220
0
230
1
0
LINE
5
99
100
AcDbEntity
8
1
62
256
6
ByLayer
370
18
48
1
60
0
100
AcDbLine
10
6.462842
20
-0.257067
30
0
11
7.038435
21
0.279406
31
0
39
0
210
0
220
0
230
1
0
LINE
5
9A
100
AcDbEntity
8
1
62
256
6
ByLayer
370
18
48
1
60
0
100
AcDbLine
10
6.441984
20
-0.090483
30
0
11
6.462842
21
-0.257067
31
0
39
0
210
0
220
0
230
1
0
LINE
5
9B
100
AcDbEntity
8
1
62
256
6
ByLayer
370
18
48
1
60
0
100
AcDbLine
10
9.657812
20
-4.173515
30
0
11
9.493142
21
-4.104539
31
0
39
0
210
0
220
0
230
1
0
LINE
5
9C
100
AcDbEntity
8
1
62
256
6
ByLayer
370
18
48
1
60
0
100
AcDbLine
10
7.038435
20
0.279406
30
0
11
10.068735
21
-3.568067
31
0
39
0
210
0
220
0
230
1
0
LINE
5
9D
100
AcDbEntity
8
1
62
256
6
ByLayer
370
18
48
1
60
0
100
AcDbLine
10
6.441984
20
-0.090483
30
0
11
7.096067
21
0.519145
31
0
39
0
210
0
220
0
230
1
0
LINE
5
9E
100
AcDbEntity
8
1
62
256
6
ByLayer
370
18
48
1
60
0
100
AcDbLine
10
14.007139
20
8.060851
30
0
11
13.421613
21
7.515121
31
0
39
0
210
0
220
0
230
1
0
LINE
5
9F
100
AcDbEntity
8
1
62
256
6
ByLayer
370
18
48
1
60
0
100
AcDbLine
10
6.462842
20
-0.257067
30
0
11
9.493142
21
-4.104539
31
0
39
0
210
0
220
0
230
1
0
LINE
5
A0
100
AcDbEntity
8
1
62
256
6
ByLayer
370
18
48
1
60
0
100
AcDbLine
10
9.657812
20
-4.173515
30
0
11
10.311896
21
-3.563887
31
0
39
0
210
0
220
0
230
1
0
LINE
5
A1
100
AcDbEntity
8
1
62
256
6
ByLayer
370
18
48
1
60
0
100
AcDbLine
10
8.711836
20
7.65148
30
0
11
8.806851
21
7.648377
31
0
39
0
210
0
220
0
230
1
0
LINE
5
A2
100
AcDbEntity
8
1
62
256
6
ByLayer
370
18
48
1
60
0
100
AcDbLine
10
19.140096
20
1.543704
30
0
11
17.563855
21
0.322173
31
0
39
0
210
0
220
0
230
1
0
LINE
5
A3
100
AcDbEntity
8
1
62
256
6
ByLayer
370
18
48
1
60
0
100
AcDbLine
10
7.096067
20
0.519145
30
0
11
7.038435
21
0.279406
31
0
39
0
210
0
220
0
230
1
0
LINE
5
A4
100
AcDbEntity
8
1
62
256
6
ByLayer
370
18
48
1
60
0
100
AcDbLine
10
16.456592
20
-4.639935
30
0
11
17.658839
21
-3.708236
31
0
39
0
210
0
220
0
230
1
0
LINE
5
A5
100
AcDbEntity
8
1
62
256
6
ByLayer
370
18
48
1
60
0
100
AcDbLine
10
9.493142
20
-4.104539
30
0
11
10.068735
21
-3.568067
31
0
39
0
210
0
220
0
230
1
0
LINE
5
A6
100
AcDbEntity
8
1
62
256
6
ByLayer
370
18
48
1
60
0
100
AcDbLine
10
10.311896
20
-3.563887
30
0
11
10.068735
21
-3.568067
31
0
39
0
210
0
220
0
230
1
0
LINE
5
A7
100
AcDbEntity
8
1
62
256
6
ByLayer
370
18
48
1
60
0
100
AcDbLine
10
12.430898
20
6.83932
30
0
11
14.007139
21
8.060851
31
0
39
0
210
0
220
0
230
1
0
LINE
5
A8
100
AcDbEntity
8
1
62
256
6
ByLayer
370
18
48
1
60
0
100
AcDbLine
10
17.712223
20
-3.658481
30
0
11
17.70047
21
-3.761094
31
0
39
0
210
0
220
0
230
1
0
LINE
5
A9
100
AcDbEntity
8
1
62
256
6
ByLayer
370
18
48
1
60
0
100
AcDbLine
10
14.648272
20
-4.56716
30
0
11
20.5472
21
0.0043
31
0
39
0
210
0
220
0
230
1
0
LINE
5
AA
100
AcDbEntity
8
1
62
256
6
ByLayer
370
18
48
1
60
0
100
AcDbLine
10
20.669421
20
-1.460263
30
0
11
17.70047
21
-3.761094
31
0
39
0
210
0
220
0
230
1
0
LINE
5
AB
100
AcDbEntity
8
1
62
256
6
ByLayer
370
18
48
1
60
0
100
AcDbLine
10
12.430898
20
6.83932
30
0
11
11.854803
21
6.30238
31
0
39
0
210
0
220
0
230
1
0
LINE
5
AC
100
AcDbEntity
8
1
62
256
6
ByLayer
370
18
48
1
60
0
100
AcDbLine
10
12.131967
20
-4.04607
30
0
11
10.18944
21
-5.856573
31
0
39
0
210
0
220
0
230
1
0
LINE
5
AD
100
AcDbEntity
8
1
62
256
6
ByLayer
370
18
48
1
60
0
100
AcDbLine
10
7.048107
20
5.08252
30
0
11
12.947035
21
9.653981
31
0
39
0
210
0
220
0
230
1
0
LINE
5
AE
100
AcDbEntity
8
1
62
256
6
ByLayer
370
18
48
1
60
0
100
AcDbLine
10
7.096067
20
0.519145
30
0
11
10.311896
21
-3.563887
31
0
39
0
210
0
220
0
230
1
0
LINE
5
AF
100
AcDbEntity
8
1
62
256
6
ByLayer
370
18
48
1
60
0
100
AcDbLine
10
9.986473
20
2.987445
30
0
11
9.41568
21
2.455447
31
0
39
0
210
0
220
0
230
1
0
LINE
5
B0
100
AcDbEntity
8
1
62
256
6
ByLayer
370
18
48
1
60
0
100
AcDbLine
10
8.054823
20
1.402117
30
0
11
11.270652
21
-2.680915
31
0
39
0
210
0
220
0
230
1
0
LINE
5
B1
100
AcDbEntity
8
1
62
256
6
ByLayer
370
18
48
1
60
0
100
AcDbLine
10
6.937167
20
2.549597
30
0
11
4.99464
21
0.739094
31
0
39
0
210
0
220
0
230
1
0
LINE
5
B2
100
AcDbEntity
8
1
62
256
6
ByLayer
370
18
48
1
60
0
100
AcDbLine
10
17.658839
20
-3.708236
30
0
11
17.70047
21
-3.761094
31
0
39
0
210
0
220
0
230
1
0
LINE
5
B3
100
AcDbEntity
8
1
62
256
6
ByLayer
370
18
48
1
60
0
100
AcDbLine
10
11.680786
20
9.952312
30
0
11
8.711836
21
7.65148
31
0
39
0
210
0
220
0
230
1
0
LINE
5
B4
100
AcDbEntity
8
1
62
256
6
ByLayer
370
18
48
1
60
0
100
AcDbLine
10
2.512756
20
17.12132
30
0
11
19.929063
21
15.9371
31
0
39
0
210
0
220
0
230
1
0
LINE
5
B5
100
AcDbEntity
8
1
62
256
6
ByLayer
370
18
48
1
60
0
100
AcDbLine
10
14.723512
20
-8.970501
30
0
11
17.585129
21
-6.733681
31
0
39
0
210
0
220
0
230
1
0
LINE
5
B6
100
AcDbEntity
8
1
62
256
6
ByLayer
370
18
48
1
60
0
100
AcDbLine
10
8.100833
20
-15.786027
30
0
11
23.959805
21
-3.972321
31
0
39
0
210
0
220
0
230
1
0
LINE
5
B7
100
AcDbEntity
8
1
62
256
6
ByLayer
370
18
48
1
60
0
100
AcDbLine
10
2.74086
20
12.113601
30
0
11
2.512756
21
17.12132
31
0
39
0
210
0
220
0
230
1
0
LINE
5
B8
100
AcDbEntity
8
1
62
256
6
ByLayer
370
18
48
1
60
0
100
AcDbLine
10
25.092057
20
16.749637
30
0
11
25.142656
21
16.566844
31
0
39
0
210
0
220
0
230
1
0
LINE
5
B9
100
AcDbEntity
8
1
62
256
6
ByLayer
370
18
48
1
60
0
100
AcDbLine
10
30.127999
20
9.455394
30
0
11
31.625462
21
10.243455
31
0
39
0
210
0
220
0
230
1
0
LINE
5
BA
100
AcDbEntity
8
1
62
256
6
ByLayer
370
18
48
1
60
0
100
AcDbLine
10
31.809592
20
10.196587
30
0
11
31.921029
21
9.993354
31
0
39
0
210
0
220
0
230
1
0
LINE
5
BB
100
AcDbEntity
8
1
62
256
6
ByLayer
370
18
48
1
60
0
100
AcDbLine
10
30.512597
20
2.707658
30
0
11
23.959805
21
-3.972321
31
0
39
0
210
0
220
0
230
1
0
LINE
5
BC
100
AcDbEntity
8
1
62
256
6
ByLayer
370
18
48
1
60
0
100
AcDbLine
10
0
20
-15.925
30
0
11
0
21
15.738002
31
0
39
0
210
0
220
0
230
1
0
LINE
5
BD
100
AcDbEntity
8
1
62
256
6
ByLayer
370
18
48
1
60
0
100
AcDbLine
10
30.512597
20
2.707658
30
0
11
31.183179
21
4.052803
31
0
39
0
210
0
220
0
230
1
0
LINE
5
BE
100
AcDbEntity
8
1
62
256
6
ByLayer
370
18
48
1
60
0
100
AcDbLine
10
5.212572
20
-15.965604
30
0
11
13.926538
21
-9.601519
31
0
39
0
210
0
220
0
230
1
0
LINE
5
BF
100
AcDbEntity
8
1
62
256
6
ByLayer
370
18
48
1
60
0
100
AcDbLine
10
0.5
20
-15.927182
30
0
11
2.964722
21
-15.967318
31
0
39
0
210
0
220
0
230
1
0
LINE
5
C0
100
AcDbEntity
8
1
62
256
6
ByLayer
370
18
48
1
60
0
100
AcDbLine
10
0.5
20
-15.927182
30
0
11
0
21
-15.925
31
0
39
0
210
0
220
0
230
1
0
LINE
5
C1
100
AcDbEntity
8
1
62
256
6
ByLayer
370
18
48
1
60
0
100
AcDbLine
10
30.512597
20
2.707658
30
0
11
17.585129
21
-6.733681
31
0
39
0
210
0
220
0
230
1
0
LINE
5
C2
100
AcDbEntity
8
1
62
256
6
ByLayer
370
18
48
1
60
0
100
AcDbLine
10
2.964722
20
-15.967318
30
0
11
1.984077
21
5.561433
31
0
39
0
210
0
220
0
230
1
0
LINE
5
C3
100
AcDbEntity
8
1
62
256
6
ByLayer
370
18
48
1
60
0
100
AcDbLine
10
0.5
20
15.81129
30
0
11
2.512756
21
17.12132
31
0
39
0
210
0
220
0
230
1
0
LINE
5
C4
100
AcDbEntity
8
1
62
256
6
ByLayer
370
18
48
1
60
0
100
AcDbLine
10
2.184651
20
6.94968
30
0
11
2.74086
21
12.113601
31
0
39
0
210
0
220
0
230
1
0
LINE
5
C5
100
AcDbEntity
8
1
62
256
6
ByLayer
370
18
48
1
60
0
100
AcDbLine
10
14.689636
20
-9.005033
30
0
11
14.723512
21
-8.970501
31
0
39
0
210
0
220
0
230
1
0
LINE
5
C6
100
AcDbEntity
8
1
62
256
6
ByLayer
370
18
48
1
60
0
100
AcDbLine
10
5.212572
20
-15.965604
30
0
11
8.100833
21
-15.786027
31
0
39
0
210
0
220
0
230
1
0
LINE
5
C7
100
AcDbEntity
8
1
62
256
6
ByLayer
370
18
48
1
60
0
100
AcDbLine
10
31.809592
20
10.196587
30
0
11
31.625462
21
10.243455
31
0
39
0
210
0
220
0
230
1
0
LINE
5
C8
100
AcDbEntity
8
1
62
256
6
ByLayer
370
18
48
1
60
0
100
AcDbLine
10
0.5
20
15.81129
30
0
11
0
21
15.738002
31
0
39
0
210
0
220
0
230
1
0
LINE
5
C9
100
AcDbEntity
8
1
62
256
6
ByLayer
370
18
48
1
60
0
100
AcDbLine
10
0.5
20
15.81129
30
0
11
0.5
21
-15.927182
31
0
39
0
210
0
220
0
230
1
0
LINE
5
CA
100
AcDbEntity
8
1
62
256
6
ByLayer
370
18
48
1
60
0
100
AcDbLine
10
25.092057
20
16.749637
30
0
11
24.861434
21
16.869617
31
0
39
0
210
0
220
0
230
1
0
LINE
5
CB
100
AcDbEntity
8
1
62
256
6
ByLayer
370
18
48
1
60
0
100
AcDbLine
10
5.212572
20
-15.965604
30
0
11
2.964722
21
-15.967318
31
0
39
0
210
0
220
0
230
1
0
LINE
5
CC
100
AcDbEntity
8
1
62
256
6
ByLayer
370
18
48
1
60
0
100
AcDbLine
10
2.1324
20
6.938479
30
0
11
2.184651
21
6.94968
31
0
39
0
210
0
220
0
230
1
0
LINE
5
CD
100
AcDbEntity
8
SK1
62
256
6
ByLayer
370
18
48
1
60
0
100
AcDbLine
10
-132.130972
20
15.925
30
0
11
-132.130972
21
-15.925
31
0
39
0
210
0
220
0
230
1
0
LINE
5
CF
100
AcDbEntity
8
SK1
62
256
6
ByLayer
370
18
48
1
60
0
100
AcDbLine
10
-132.130972
20
-15.925
30
0
11
0
21
-15.925
31
0
39
0
210
0
220
0
230
1
0
LINE
5
D0
100
AcDbEntity
8
SK1
62
256
6
ByLayer
370
18
48
1
60
0
100
AcDbLine
10
0
20
15.738002
30
0
11
0
21
-15.925
31
0
39
0
210
0
220
0
230
1
0
LINE
5
D1
100
AcDbEntity
8
SK1
62
256
6
ByLayer
370
18
48
1
60
0
100
AcDbLine
10
-3.09789
20
15.925
30
0
11
-132.130972
21
15.925
31
0
39
0
210
0
220
0
230
1
0
LINE
5
D2
100
AcDbEntity
8
SK1
62
256
6
ByLayer
370
18
48
1
60
0
100
AcDbLine
10
-1.911244
20
15.810644
30
0
11
0
21
15.738002
31
0
39
0
210
0
220
0
230
1
0
LINE
5
D3
100
AcDbEntity
8
1
62
256
6
ByLayer
370
18
48
1
60
0
100
AcDbLine
10
26.114972
20
18.121204
30
0
11
38.059095
21
24.338922
31
0
39
0
210
0
220
0
230
1
0
LINE
5
D4
100
AcDbEntity
8
1
62
256
6
ByLayer
370
18
48
1
60
0
100
AcDbLine
10
16.872878
20
4.518934
30
0
11
17.253976
21
4.907429
31
0
39
0
210
0
220
0
230
1
0
LINE
5
D5
100
AcDbEntity
8
1
62
256
6
ByLayer
370
18
48
1
60
0
100
AcDbLine
10
16.973517
20
3.871368
30
0
11
17.354615
21
4.259863
31
0
39
0
210
0
220
0
230
1
0
LINE
5
D6
100
AcDbEntity
8
1
62
256
6
ByLayer
370
18
48
1
60
0
100
AcDbLine
10
14.559474
20
4.876258
30
0
11
14.940572
21
5.264753
31
0
39
0
210
0
220
0
230
1
0
LINE
5
D7
100
AcDbEntity
8
1
62
256
6
ByLayer
370
18
48
1
60
0
100
AcDbLine
10
15.799305
20
5.362226
30
0
11
16.180403
21
5.750721
31
0
39
0
210
0
220
0
230
1
0
LINE
5
D8
100
AcDbEntity
8
1
62
256
6
ByLayer
370
18
48
1
60
0
100
AcDbLine
10
16.408386
20
5.108684
30
0
11
16.789484
21
5.497179
31
0
39
0
210
0
220
0
230
1
0
LINE
5
D9
100
AcDbEntity
8
1
62
256
6
ByLayer
370
18
48
1
60
0
100
AcDbLine
10
24.983662
20
16.968508
30
0
11
25.79032
21
17.790823
31
0
39
0
210
0
220
0
230
1
0
LINE
5
DA
100
AcDbEntity
8
1
62
256
6
ByLayer
370
18
48
1
60
0
100
AcDbLine
10
32.000196
20
10.074351
30
0
11
32.806854
21
10.896665
31
0
39
0
210
0
220
0
230
1
0
LINE
5
DB
100
AcDbEntity
8
1
62
256
6
ByLayer
370
18
48
1
60
0
100
AcDbLine
10
39.13905
20
23.277803
30
0
11
33.131506
21
11.227047
31
0
39
0
210
0
220
0
230
1
0
MTEXT
5
160
100
AcDbEntity
8
SK6
62
256
6
ByLayer
370
18
48
1
60
0
100
AcDbMText
10
-60.580972
20
-26.821159
30
0
210
0
220
0
230
1
1
\W0.7687;DVPNR 3232P 16
40
3.5
41
0
44
1.084337
50
0
71
7
72
5
7
iso_b_vert
0
DIMENSION
5
171
100
AcDbEntity
8
2
62
256
6
ByLayer
370
13
48
1
60
0
100
AcDbDimension
2
DimnDraft3D1
10
37.171754
20
23.873566
30
0
11
17.765179
21
37.957825
31
0
70
34
71
5
72
1
41
1
210
0
220
0
230
1
3
Standard
100
AcDb2LineAngularDimension
13
39.219028
23
24.425
33
0
14
39.219028
24
22.8375
34
0
15
38.058765
25
24.335315
35
0
16
21.612282
26
35.623345
36
0
40
0
0
DIMENSION
5
187
100
AcDbEntity
8
SK2
62
256
6
ByLayer
370
13
48
1
60
0
100
AcDbDimension
2
DimnDraft3D2
10
-139.880972
20
15.925
30
0
11
-139.880972
21
-5.281579
31
0
70
32
71
5
72
1
41
1
210
0
220
0
230
1
3
Standard
100
AcDbAlignedDimension
13
-134.130972
23
-15.925
33
0
14
-134.130972
24
15.925
34
0
50
90
100
AcDbRotatedDimension
1001
ACAD
1000
DSTYLE
1002
{
1070
    74
1070
     0
1070
   279
1070
     0
1070
   172
1070
     1
1070
   173
1070
     1
1070
   340
1005
161
1070
    77
1070
     1
1070
    73
1070
     0
1070
   171
1070
     3
1070
   274
1070
     4
1070
   177
1070
     2
1070
   176
1070
     2
1070
   178
1070
     7
1070
    78
1070
     8
1070
    41
1041
3.175
1070
   147
1041
2.25
1070
    42
1041
2.0
1070
    44
1041
2.0
1070
   140
1041
4.5
1070
   343
1005
172
1070
   344
1005
172
1002
}
0
DIMENSION
5
195
100
AcDbEntity
8
2
62
256
6
ByLayer
370
13
48
1
60
0
100
AcDbDimension
2
DimnDraft3D3
10
61.469028
20
24.425
30
0
11
61.469028
21
-1.268421
31
0
70
32
71
5
72
1
41
1
210
0
220
0
230
1
3
Standard
100
AcDbAlignedDimension
13
2
23
-15.925
33
0
14
41.219028
24
24.425
34
0
50
90
100
AcDbRotatedDimension
1001
ACAD
1000
DSTYLE
1002
{
1070
    74
1070
     0
1070
   279
1070
     0
1070
   172
1070
     1
1070
   173
1070
     1
1070
   340
1005
161
1070
    77
1070
     1
1070
    73
1070
     0
1070
   171
1070
     3
1070
   274
1070
     4
1070
   177
1070
     2
1070
   176
1070
     2
1070
   178
1070
     7
1070
    78
1070
     8
1070
    41
1041
3.175
1070
   147
1041
2.25
1070
    42
1041
2.0
1070
    44
1041
2.0
1070
   140
1041
4.5
1070
   343
1005
172
1070
   344
1005
172
1002
}
0
DIMENSION
5
1A3
100
AcDbEntity
8
2
62
256
6
ByLayer
370
13
48
1
60
0
100
AcDbDimension
2
DimnDraft3D4
10
39.219028
20
54.175
30
0
11
14.327935
21
54.175
31
0
70
32
71
5
72
1
41
1
210
0
220
0
230
1
3
Standard
100
AcDbAlignedDimension
13
0
23
17.925
33
0
14
39.219028
24
26.425
34
0
50
0
100
AcDbRotatedDimension
1001
ACAD
1000
DSTYLE
1002
{
1070
   279
1070
     0
1070
   172
1070
     1
1070
   173
1070
     1
1070
   340
1005
161
1070
    77
1070
     1
1070
    73
1070
     0
1070
   171
1070
     3
1070
   274
1070
     4
1070
   177
1070
     2
1070
   176
1070
     2
1070
   178
1070
     7
1070
    78
1070
     8
1070
    41
1041
3.175
1070
   147
1041
2.25
1070
    42
1041
2.0
1070
    44
1041
2.0
1070
   140
1041
4.5
1070
   343
1005
172
1070
   344
1005
172
1002
}
0
DIMENSION
5
1B1
100
AcDbEntity
8
SK2
62
256
6
ByLayer
370
13
48
1
60
0
100
AcDbDimension
2
DimnDraft3D5
10
-132.130972
20
64.175
30
0
11
-52.85663
21
64.175
31
0
70
32
71
5
72
1
41
1
210
0
220
0
230
1
3
Standard
100
AcDbAlignedDimension
13
39.219028
23
26.425
33
0
14
-132.130972
24
17.925
34
0
50
0
100
AcDbRotatedDimension
1001
ACAD
1000
DSTYLE
1002
{
1070
   279
1070
     0
1070
   172
1070
     1
1070
   173
1070
     1
1070
   340
1005
161
1070
    77
1070
     1
1070
    73
1070
     0
1070
   171
1070
     3
1070
   274
1070
     4
1070
   177
1070
     2
1070
   176
1070
     2
1070
   178
1070
     7
1070
    78
1070
     8
1070
    41
1041
3.175
1070
   147
1041
2.25
1070
    42
1041
2.0
1070
    44
1041
2.0
1070
   140
1041
4.5
1070
   343
1005
172
1070
   344
1005
172
1002
}
0
ENDSEC
0
SECTION
2
OBJECTS
0
DICTIONARY
5
21b
330
0
100
AcDbDictionary
280
0
281
1
3
ACAD_GROUP
350
21c
3
ACAD_MLINESTYLE
350
21d
0
DICTIONARY
5
21c
330
0
100
AcDbDictionary
280
0
281
1
0
DICTIONARY
5
21d
330
0
100
AcDbDictionary
280
0
281
1
3
Standard
350
18
0
MLINESTYLE
5
18
330
21d
100
AcDbMlineStyle
2
Standard
70
0
3

62
256
51
90
52
90
71
2
49
-0.5
62
256
6
ByLayer
49
0.5
62
256
6
ByLayer
0
RASTERVARIABLES
5
20a
330

100
AcDbRasterVariables
90
0
70
1
71
1
72
1
0
ENDSEC
0
EOF
