0
SECTION
2
HEADER
9
$ACADVER
1
AC1015
9
$DWGCODEPAGE
3
ANSI_1252
9
$HANDSEED
5
228
9
$ANGBASE
50
0
9
$ANGDIR
70
0
9
$ATTMODE
70
1
9
$AUNITS
70
0
9
$AUPREC
70
0
9
$CECOLOR
62
256
9
$CELTSCALE
40
1
9
$CELTYPE
6
ByLayer
9
$CELWEIGHT
370
18
9
$CLAYER
8
0
9
$CMLJUST
70
0
9
$CMLSCALE
40
1
9
$CMLSTYLE
2
Standard
9
$DIMSTYLE
2
Standard
9
$TEXTSIZE
40
0.2
9
$TEXTSTYLE
7
Standard
9
$LUNITS
70
2
9
$LUPREC
70
4
9
$EXTNAMES
290
1
9
$INSUNITS
70
4
9
$LTSCALE
40
1
9
$LWDISPLAY
290
1
9
$PDMODE
70
0
9
$PDSIZE
40
0
9
$PLINEGEN
70
0
0
ENDSEC
0
SECTION
2
CLASSES
0
CLASS
1
RASTERVARIABLES
2
AcDbRasterVariables
3
ISM
90
0
280
0
281
0
0
ENDSEC
0
SECTION
2
TABLES
0
TABLE
2
VPORT
5
21e
100
AcDbSymbolTable
0
VPORT
5
1
100
AcDbSymbolTableRecord
100
AcDbViewportTableRecord
2
*Active
70
0
10
0
20
0
11
1
21
1
12
-1
22
1
13
0
23
0
14
0.5
24
0.5
15
10
25
10
16
0
26
0
36
1
17
0
27
0
37
0
0
ENDTAB
0
TABLE
2
LTYPE
5
21f
100
AcDbSymbolTable
0
LTYPE
5
14
100
AcDbSymbolTableRecord
100
AcDbLinetypeTableRecord
70
0
2
ByBlock
3

72
65
73
0
40
0
0
LTYPE
5
15
100
AcDbSymbolTableRecord
100
AcDbLinetypeTableRecord
70
0
2
ByLayer
3

72
65
73
0
40
0
0
LTYPE
5
16
100
AcDbSymbolTableRecord
100
AcDbLinetypeTableRecord
70
0
2
CONTINUOUS
3
Solid line
72
65
73
0
40
0
0
LTYPE
5
6A
100
AcDbSymbolTableRecord
100
AcDbLinetypeTableRecord
70
0
2
CENTER
3
____ _ ____ _ ____ _ ____
72
65
73
4
40
47.5
49
22
74
0
49
-8.5
74
0
49
8.5
74
0
49
-8.5
74
0
0
LTYPE
5
6B
100
AcDbSymbolTableRecord
100
AcDbLinetypeTableRecord
70
0
2
DASHED
3
__ __ __ __ __ __ __ __ __
72
65
73
2
40
25.72
49
12.86
74
0
49
-12.86
74
0
0
ENDTAB
0
TABLE
2
LAYER
5
220
100
AcDbSymbolTable
0
LAYER
5
10
100
AcDbSymbolTableRecord
100
AcDbLayerTableRecord
2
0
70
0
62
7
6
CONTINUOUS
290
1
370
-3
390
0
0
LAYER
5
6D
100
AcDbSymbolTableRecord
100
AcDbLayerTableRecord
2
2
70
0
62
7
6
CONTINUOUS
290
1
370
-3
390
0
0
LAYER
5
6F
100
AcDbSymbolTableRecord
100
AcDbLayerTableRecord
2
80
70
0
62
-6
6
CONTINUOUS
290
1
370
-3
390
0
0
LAYER
5
71
100
AcDbSymbolTableRecord
100
AcDbLayerTableRecord
2
81
70
0
62
-3
6
CONTINUOUS
290
1
370
-3
390
0
0
LAYER
5
73
100
AcDbSymbolTableRecord
100
AcDbLayerTableRecord
2
1
70
0
62
4
6
CONTINUOUS
290
1
370
-3
390
0
0
LAYER
5
20b
100
AcDbSymbolTableRecord
100
AcDbLayerTableRecord
2
SK1
70
0
62
4
6
CONTINUOUS
290
1
370
-3
390
0
0
LAYER
5
20c
100
AcDbSymbolTableRecord
100
AcDbLayerTableRecord
2
SK6
70
0
62
5
6
CONTINUOUS
290
1
370
-3
390
0
0
LAYER
5
20d
100
AcDbSymbolTableRecord
100
AcDbLayerTableRecord
2
SK2
70
0
62
7
6
CONTINUOUS
290
1
370
-3
390
0
0
ENDTAB
0
TABLE
2
STYLE
5
221
100
AcDbSymbolTable
0
STYLE
5
11
100
AcDbSymbolTableRecord
100
AcDbTextStyleTableRecord
2
Standard
3
txt
70
0
71
0
40
0
41
1
42
0
50
0
0
STYLE
5
161
100
AcDbSymbolTableRecord
100
AcDbTextStyleTableRecord
2
iso_b_vert
3
simplex.shx
70
0
71
0
40
0
41
1
42
0
50
0
0
STYLE
5
162
100
AcDbSymbolTableRecord
100
AcDbTextStyleTableRecord
2
DWGDirectTextStyle
3
simplex
70
0
71
0
40
0
41
1
42
0
50
0
0
ENDTAB
0
TABLE
2
DIMSTYLE
5
222
100
AcDbSymbolTable
100
AcDbDimStyleTable
0
DIMSTYLE
105
27
100
AcDbSymbolTableRecord
100
AcDbDimStyleTableRecord
2
Standard
70
0
3
<>
41
0.18
42
0.0625
44
0.18
140
0.18
147
0.09
73
0
74
0
77
1
271
2
275
0
278
52
280
0
340
11
0
ENDTAB
0
TABLE
2
VIEW
5
223
100
AcDbSymbolTable
0
ENDTAB
0
TABLE
2
UCS
5
224
100
AcDbSymbolTable
0
ENDTAB
0
TABLE
2
APPID
5
225
100
AcDbSymbolTable
0
APPID
5
12
100
AcDbSymbolTableRecord
100
AcDbRegAppTableRecord
2
ACAD
70
0
0
ENDTAB
0
TABLE
2
BLOCK_RECORD
5
226
100
AcDbSymbolTable
0
BLOCK_RECORD
5
1F
100
AcDbSymbolTableRecord
100
AcDbBlockTableRecord
2
*Model_Space
340
0
70
0
0
BLOCK_RECORD
5
1B
100
AcDbSymbolTableRecord
100
AcDbBlockTableRecord
2
*Paper_Space
340
0
70
0
0
BLOCK_RECORD
5
23
100
AcDbSymbolTableRecord
100
AcDbBlockTableRecord
2
*Paper_Space0
340
0
70
0
0
BLOCK_RECORD
5
164
100
AcDbSymbolTableRecord
100
AcDbBlockTableRecord
2
DimnDraft3D1
340
0
70
0
0
BLOCK_RECORD
5
172
100
AcDbSymbolTableRecord
100
AcDbBlockTableRecord
2
_CLOSED
340
0
70
0
0
BLOCK_RECORD
5
179
100
AcDbSymbolTableRecord
100
AcDbBlockTableRecord
2
DimnDraft3D2
340
0
70
0
0
BLOCK_RECORD
5
188
100
AcDbSymbolTableRecord
100
AcDbBlockTableRecord
2
DimnDraft3D3
340
0
70
0
0
BLOCK_RECORD
5
196
100
AcDbSymbolTableRecord
100
AcDbBlockTableRecord
2
DimnDraft3D4
340
0
70
0
0
BLOCK_RECORD
5
1A4
100
AcDbSymbolTableRecord
100
AcDbBlockTableRecord
2
DimnDraft3D5
340
0
70
0
0
ENDTAB
0
ENDSEC
0
SECTION
2
BLOCKS
0
BLOCK
5
20
100
AcDbEntity
8
0
100
AcDbBlockBegin
2
*Model_Space
70
0
10
0
20
0
30
0
3
*Model_Space
0
ENDBLK
5
21
100
AcDbEntity
8
0
100
AcDbBlockEnd
0
BLOCK
5
1C
100
AcDbEntity
8
0
100
AcDbBlockBegin
2
*Paper_Space
70
0
10
0
20
0
30
0
3
*Paper_Space
0
ENDBLK
5
1D
100
AcDbEntity
8
0
100
AcDbBlockEnd
0
BLOCK
5
24
100
AcDbEntity
8
0
100
AcDbBlockBegin
2
*Paper_Space0
70
0
10
0
20
0
30
0
3
*Paper_Space0
0
ENDBLK
5
25
100
AcDbEntity
8
0
100
AcDbBlockEnd
0
BLOCK
5
16F
100
AcDbEntity
8
0
100
AcDbBlockBegin
2
DimnDraft3D1
70
0
10
0
20
0
30
0
3
DimnDraft3D1
0
MTEXT
5
165
100
AcDbEntity
8
2
62
256
6
ByLayer
370
18
48
1
60
0
100
AcDbMText
10
16.684407
20
25.169575
30
0
210
0
220
0
230
1
1
\W0.6809;117%%d30'
40
4.5
41
0
44
1.084337
50
58.7500000000001
71
7
72
5
7
iso_b_vert
0
LINE
5
166
100
AcDbEntity
8
2
62
256
6
ByLayer
370
13
48
1
60
0
100
AcDbLine
10
39.212329
20
21.9125
30
0
11
39.212329
21
43.021617
31
0
39
0
210
0
220
0
230
1
0
LINE
5
167
100
AcDbEntity
8
2
62
256
6
ByLayer
370
13
48
1
60
0
100
AcDbLine
10
35.391034
20
18.437569
30
0
11
19.17049
21
9.993688
31
0
39
0
210
0
220
0
230
1
0
ARC
5
168
100
AcDbEntity
8
2
62
256
6
ByLayer
370
13
48
1
60
0
100
AcDbCircle
39
0
10
39.212329
20
20.42681
30
0
40
20.5948076629831
210
0
220
0
230
1
100
AcDbArc
50
90
51
207.5
0
LINE
5
169
100
AcDbEntity
8
2
62
256
6
ByLayer
370
13
48
1
60
0
100
AcDbLine
10
39.212329
20
41.021617
30
0
11
36.055753
21
40.481833
31
0
39
0
210
0
220
0
230
1
0
LINE
5
16A
100
AcDbEntity
8
2
62
256
6
ByLayer
370
13
48
1
60
0
100
AcDbLine
10
39.212329
20
41.021617
30
0
11
36.023602
21
41.317208
31
0
39
0
210
0
220
0
230
1
0
LINE
5
16B
100
AcDbEntity
8
2
62
256
6
ByLayer
370
13
48
1
60
0
100
AcDbLine
10
36.055753
20
40.481833
30
0
11
36.023602
21
41.317208
31
0
39
0
210
0
220
0
230
1
0
LINE
5
16C
100
AcDbEntity
8
2
62
256
6
ByLayer
370
13
48
1
60
0
100
AcDbLine
10
20.944511
20
10.917186
30
0
11
19.20993
21
13.60913
31
0
39
0
210
0
220
0
230
1
0
LINE
5
16D
100
AcDbEntity
8
2
62
256
6
ByLayer
370
13
48
1
60
0
100
AcDbLine
10
20.944511
20
10.917186
30
0
11
19.96576
21
13.96635
31
0
39
0
210
0
220
0
230
1
0
LINE
5
16E
100
AcDbEntity
8
2
62
256
6
ByLayer
370
13
48
1
60
0
100
AcDbLine
10
19.20993
20
13.60913
30
0
11
19.96576
21
13.96635
31
0
39
0
210
0
220
0
230
1
0
ENDBLK
5
170
100
AcDbEntity
8
0
100
AcDbBlockEnd
0
BLOCK
5
173
100
AcDbEntity
8
0
100
AcDbBlockBegin
2
_CLOSED
70
0
10
0
20
0
30
0
3
_CLOSED
0
LINE
5
175
100
AcDbEntity
8
0
62
256
6
ByLayer
370
-2
48
1
60
0
100
AcDbLine
10
-1
20
0.166667
30
0
11
0
21
0
31
0
39
0
210
0
220
0
230
1
0
LINE
5
176
100
AcDbEntity
8
0
62
256
6
ByLayer
370
-2
48
1
60
0
100
AcDbLine
10
0
20
0
30
0
11
-1
21
-0.166667
31
0
39
0
210
0
220
0
230
1
0
LINE
5
177
100
AcDbEntity
8
0
62
256
6
ByLayer
370
-2
48
1
60
0
100
AcDbLine
10
-1
20
0.166667
30
0
11
-1
21
-0.166667
31
0
39
0
210
0
220
0
230
1
0
LINE
5
178
100
AcDbEntity
8
0
62
256
6
ByLayer
370
-2
48
1
60
0
100
AcDbLine
10
0
20
0
30
0
11
-1
21
0
31
0
39
0
210
0
220
0
230
1
0
ENDBLK
5
174
100
AcDbEntity
8
0
100
AcDbBlockEnd
0
BLOCK
5
185
100
AcDbEntity
8
0
100
AcDbBlockBegin
2
DimnDraft3D2
70
0
10
0
20
0
30
0
3
DimnDraft3D2
0
MTEXT
5
17A
100
AcDbEntity
8
SK2
62
256
6
ByLayer
370
18
48
1
60
0
100
AcDbMText
10
-121.012671
20
-4.156579
30
0
210
0
220
0
230
1
1
\W0.7346;25.0
40
4.5
41
0
44
1.084337
50
90
71
7
72
5
7
iso_b_vert
0
LINE
5
17C
100
AcDbEntity
8
SK2
62
256
6
ByLayer
370
13
48
1
60
0
100
AcDbLine
10
-114.137671
20
-12.4375
30
0
11
-121.887671
21
-12.4375
31
0
39
0
210
0
220
0
230
1
0
LINE
5
17D
100
AcDbEntity
8
SK2
62
256
6
ByLayer
370
13
48
1
60
0
100
AcDbLine
10
-114.137671
20
12.4375
30
0
11
-121.887671
21
12.4375
31
0
39
0
210
0
220
0
230
1
0
LINE
5
17E
100
AcDbEntity
8
SK2
62
256
6
ByLayer
370
13
48
1
60
0
100
AcDbLine
10
-119.887671
20
-12.4375
30
0
11
-119.887671
21
12.4375
31
0
39
0
210
0
220
0
230
1
0
LINE
5
17F
100
AcDbEntity
8
SK2
62
256
6
ByLayer
370
13
48
1
60
0
100
AcDbLine
10
-119.887671
20
-12.4375
30
0
11
-120.305668
21
-9.262502
31
0
39
0
210
0
220
0
230
1
0
LINE
5
180
100
AcDbEntity
8
SK2
62
256
6
ByLayer
370
13
48
1
60
0
100
AcDbLine
10
-119.887671
20
-12.4375
30
0
11
-119.469674
21
-9.262498
31
0
39
0
210
0
220
0
230
1
0
LINE
5
181
100
AcDbEntity
8
SK2
62
256
6
ByLayer
370
13
48
1
60
0
100
AcDbLine
10
-120.305668
20
-9.262502
30
0
11
-119.469674
21
-9.262498
31
0
39
0
210
0
220
0
230
1
0
LINE
5
182
100
AcDbEntity
8
SK2
62
256
6
ByLayer
370
13
48
1
60
0
100
AcDbLine
10
-119.887671
20
12.4375
30
0
11
-119.469674
21
9.262502
31
0
39
0
210
0
220
0
230
1
0
LINE
5
183
100
AcDbEntity
8
SK2
62
256
6
ByLayer
370
13
48
1
60
0
100
AcDbLine
10
-119.887671
20
12.4375
30
0
11
-120.305668
21
9.262498
31
0
39
0
210
0
220
0
230
1
0
LINE
5
184
100
AcDbEntity
8
SK2
62
256
6
ByLayer
370
13
48
1
60
0
100
AcDbLine
10
-119.469674
20
9.262502
30
0
11
-120.305668
21
9.262498
31
0
39
0
210
0
220
0
230
1
0
ENDBLK
5
186
100
AcDbEntity
8
0
100
AcDbBlockEnd
0
BLOCK
5
193
100
AcDbEntity
8
0
100
AcDbBlockBegin
2
DimnDraft3D3
70
0
10
0
20
0
30
0
3
DimnDraft3D3
0
MTEXT
5
189
100
AcDbEntity
8
2
62
256
6
ByLayer
370
18
48
1
60
0
100
AcDbMText
10
60.337329
20
-0.419079
30
0
210
0
220
0
230
1
1
\W0.7346;32.0
40
4.5
41
0
44
1.084337
50
90
71
7
72
5
7
iso_b_vert
0
LINE
5
18A
100
AcDbEntity
8
2
62
256
6
ByLayer
370
13
48
1
60
0
100
AcDbLine
10
2
20
-12.4375
30
0
11
63.462329
21
-12.4375
31
0
39
0
210
0
220
0
230
1
0
LINE
5
18B
100
AcDbEntity
8
2
62
256
6
ByLayer
370
13
48
1
60
0
100
AcDbLine
10
41.212329
20
19.9125
30
0
11
63.462329
21
19.9125
31
0
39
0
210
0
220
0
230
1
0
LINE
5
18C
100
AcDbEntity
8
2
62
256
6
ByLayer
370
13
48
1
60
0
100
AcDbLine
10
61.462329
20
-12.4375
30
0
11
61.462329
21
19.9125
31
0
39
0
210
0
220
0
230
1
0
LINE
5
18D
100
AcDbEntity
8
2
62
256
6
ByLayer
370
13
48
1
60
0
100
AcDbLine
10
61.462329
20
-12.4375
30
0
11
61.044332
21
-9.262502
31
0
39
0
210
0
220
0
230
1
0
LINE
5
18E
100
AcDbEntity
8
2
62
256
6
ByLayer
370
13
48
1
60
0
100
AcDbLine
10
61.462329
20
-12.4375
30
0
11
61.880326
21
-9.262498
31
0
39
0
210
0
220
0
230
1
0
LINE
5
18F
100
AcDbEntity
8
2
62
256
6
ByLayer
370
13
48
1
60
0
100
AcDbLine
10
61.044332
20
-9.262502
30
0
11
61.880326
21
-9.262498
31
0
39
0
210
0
220
0
230
1
0
LINE
5
190
100
AcDbEntity
8
2
62
256
6
ByLayer
370
13
48
1
60
0
100
AcDbLine
10
61.462329
20
19.9125
30
0
11
61.880326
21
16.737502
31
0
39
0
210
0
220
0
230
1
0
LINE
5
191
100
AcDbEntity
8
2
62
256
6
ByLayer
370
13
48
1
60
0
100
AcDbLine
10
61.462329
20
19.9125
30
0
11
61.044332
21
16.737498
31
0
39
0
210
0
220
0
230
1
0
LINE
5
192
100
AcDbEntity
8
2
62
256
6
ByLayer
370
13
48
1
60
0
100
AcDbLine
10
61.880326
20
16.737502
30
0
11
61.044332
21
16.737498
31
0
39
0
210
0
220
0
230
1
0
ENDBLK
5
194
100
AcDbEntity
8
0
100
AcDbBlockEnd
0
BLOCK
5
1A1
100
AcDbEntity
8
0
100
AcDbBlockBegin
2
DimnDraft3D4
70
0
10
0
20
0
30
0
3
DimnDraft3D4
0
MTEXT
5
197
100
AcDbEntity
8
2
62
256
6
ByLayer
370
18
48
1
60
0
100
AcDbMText
10
15.449586
20
50.7875
30
0
210
0
220
0
230
1
1
\W0.7346;39.2
40
4.5
41
0
44
1.084337
50
0
71
7
72
5
7
iso_b_vert
0
LINE
5
198
100
AcDbEntity
8
2
62
256
6
ByLayer
370
13
48
1
60
0
100
AcDbLine
10
0
20
14.4375
30
0
11
0
21
51.6625
31
0
39
0
210
0
220
0
230
1
0
LINE
5
199
100
AcDbEntity
8
2
62
256
6
ByLayer
370
13
48
1
60
0
100
AcDbLine
10
39.212329
20
21.9125
30
0
11
39.212329
21
51.6625
31
0
39
0
210
0
220
0
230
1
0
LINE
5
19A
100
AcDbEntity
8
2
62
256
6
ByLayer
370
13
48
1
60
0
100
AcDbLine
10
0
20
49.6625
30
0
11
39.212329
21
49.6625
31
0
39
0
210
0
220
0
230
1
0
LINE
5
19B
100
AcDbEntity
8
2
62
256
6
ByLayer
370
13
48
1
60
0
100
AcDbLine
10
0
20
49.6625
30
0
11
3.174998
21
50.080497
31
0
39
0
210
0
220
0
230
1
0
LINE
5
19C
100
AcDbEntity
8
2
62
256
6
ByLayer
370
13
48
1
60
0
100
AcDbLine
10
0
20
49.6625
30
0
11
3.175002
21
49.244503
31
0
39
0
210
0
220
0
230
1
0
LINE
5
19D
100
AcDbEntity
8
2
62
256
6
ByLayer
370
13
48
1
60
0
100
AcDbLine
10
3.174998
20
50.080497
30
0
11
3.175002
21
49.244503
31
0
39
0
210
0
220
0
230
1
0
LINE
5
19E
100
AcDbEntity
8
2
62
256
6
ByLayer
370
13
48
1
60
0
100
AcDbLine
10
39.212329
20
49.6625
30
0
11
36.037331
21
49.244503
31
0
39
0
210
0
220
0
230
1
0
LINE
5
19F
100
AcDbEntity
8
2
62
256
6
ByLayer
370
13
48
1
60
0
100
AcDbLine
10
39.212329
20
49.6625
30
0
11
36.037327
21
50.080497
31
0
39
0
210
0
220
0
230
1
0
LINE
5
1A0
100
AcDbEntity
8
2
62
256
6
ByLayer
370
13
48
1
60
0
100
AcDbLine
10
36.037331
20
49.244503
30
0
11
36.037327
21
50.080497
31
0
39
0
210
0
220
0
230
1
0
ENDBLK
5
1A2
100
AcDbEntity
8
0
100
AcDbBlockEnd
0
BLOCK
5
1AF
100
AcDbEntity
8
0
100
AcDbBlockBegin
2
DimnDraft3D5
70
0
10
0
20
0
30
0
3
DimnDraft3D5
0
MTEXT
5
1A5
100
AcDbEntity
8
SK2
62
256
6
ByLayer
370
18
48
1
60
0
100
AcDbMText
10
-41.738329
20
60.7875
30
0
210
0
220
0
230
1
1
\W0.6864;150.0
40
4.5
41
0
44
1.084337
50
0
71
7
72
5
7
iso_b_vert
0
LINE
5
1A6
100
AcDbEntity
8
SK2
62
256
6
ByLayer
370
13
48
1
60
0
100
AcDbLine
10
39.212329
20
21.9125
30
0
11
39.212329
21
61.6625
31
0
39
0
210
0
220
0
230
1
0
LINE
5
1A7
100
AcDbEntity
8
SK2
62
256
6
ByLayer
370
13
48
1
60
0
100
AcDbLine
10
-112.137671
20
14.4375
30
0
11
-112.137671
21
61.6625
31
0
39
0
210
0
220
0
230
1
0
LINE
5
1A8
100
AcDbEntity
8
SK2
62
256
6
ByLayer
370
13
48
1
60
0
100
AcDbLine
10
39.212329
20
59.6625
30
0
11
-112.137671
21
59.6625
31
0
39
0
210
0
220
0
230
1
0
LINE
5
1A9
100
AcDbEntity
8
SK2
62
256
6
ByLayer
370
13
48
1
60
0
100
AcDbLine
10
39.212329
20
59.6625
30
0
11
36.037331
21
59.244503
31
0
39
0
210
0
220
0
230
1
0
LINE
5
1AA
100
AcDbEntity
8
SK2
62
256
6
ByLayer
370
13
48
1
60
0
100
AcDbLine
10
39.212329
20
59.6625
30
0
11
36.037327
21
60.080497
31
0
39
0
210
0
220
0
230
1
0
LINE
5
1AB
100
AcDbEntity
8
SK2
62
256
6
ByLayer
370
13
48
1
60
0
100
AcDbLine
10
36.037331
20
59.244503
30
0
11
36.037327
21
60.080497
31
0
39
0
210
0
220
0
230
1
0
LINE
5
1AC
100
AcDbEntity
8
SK2
62
256
6
ByLayer
370
13
48
1
60
0
100
AcDbLine
10
-112.137671
20
59.6625
30
0
11
-108.962673
21
60.080497
31
0
39
0
210
0
220
0
230
1
0
LINE
5
1AD
100
AcDbEntity
8
SK2
62
256
6
ByLayer
370
13
48
1
60
0
100
AcDbLine
10
-112.137671
20
59.6625
30
0
11
-108.962669
21
59.244503
31
0
39
0
210
0
220
0
230
1
0
LINE
5
1AE
100
AcDbEntity
8
SK2
62
256
6
ByLayer
370
13
48
1
60
0
100
AcDbLine
10
-108.962673
20
60.080497
30
0
11
-108.962669
21
59.244503
31
0
39
0
210
0
220
0
230
1
0
ENDBLK
5
1B0
100
AcDbEntity
8
0
100
AcDbBlockEnd
0
ENDSEC
0
SECTION
2
ENTITIES
0
ELLIPSE
5
DC
100
AcDbEntity
8
1
62
256
6
ByLayer
370
18
48
1
60
0
100
AcDbEllipse
10
31.615846
20
6.257601
30
0
11
-0.566634407064707
21
0.555845762087315
31
0
210
0
220
0
230
1
40
0.970308
41
2.83532104415525
42
3.14158399193962
0
ELLIPSE
5
DD
100
AcDbEntity
8
1
62
256
6
ByLayer
370
18
48
1
60
0
100
AcDbEllipse
10
25.679266
20
12.09064
30
0
11
-0.566634407064707
21
0.555845762087315
31
0
210
0
220
0
230
1
40
0.970308
41
-8.18707879353804E-06
42
0.304593628763461
0
ELLIPSE
5
DE
100
AcDbEntity
8
1
62
256
6
ByLayer
370
18
48
1
60
0
100
AcDbEllipse
10
7.553695
20
0.298542
30
0
11
2.12290441978203
21
-2.11973508355877
31
0
210
0
220
0
230
1
40
0.965976
41
-0.123156309823633
42
-0.0346820701947872
0
ELLIPSE
5
DF
100
AcDbEntity
8
1
62
256
6
ByLayer
370
18
48
1
60
0
100
AcDbEllipse
10
15.981393
20
-0.255952
30
0
11
-2.93668444736513
21
2.93230019892298
31
0
210
0
220
0
230
1
40
0.965976
41
-3.04311944675075
42
-0.123156309823613
0
ELLIPSE
5
E0
100
AcDbEntity
8
1
62
256
6
ByLayer
370
18
48
1
60
0
100
AcDbEllipse
10
14.353439
20
-1.51602
30
0
11
-1.83985049714442
21
1.83710373908428
31
0
210
0
220
0
230
1
40
0.965976
41
1.2422583628233
42
1.65832312639635
0
ELLIPSE
5
E1
100
AcDbEntity
8
1
62
256
6
ByLayer
370
18
48
1
60
0
100
AcDbEllipse
10
30.552405
20
9.361782
30
0
11
-0.786254706154955
21
0.147660208076466
31
0
210
0
220
0
230
1
40
0.633191
41
3.05326527656185
42
3.13575885596272
0
ELLIPSE
5
E2
100
AcDbEntity
8
1
62
256
6
ByLayer
370
18
48
1
60
0
100
AcDbEllipse
10
14.472677
20
0.000704
30
0
11
-0.271270645271923
21
0.266105687676447
31
0
210
0
220
0
230
1
40
0.970308
41
-1.02561085322934
42
-0.830043308272148
0
ELLIPSE
5
E3
100
AcDbEntity
8
1
62
256
6
ByLayer
370
18
48
1
60
0
100
AcDbEllipse
10
15.448503
20
-0.660831
30
0
11
2.85548047654656
21
-2.80111250185733
31
0
210
0
220
0
230
1
40
0.970308
41
3.14151969505637
42
-0.81007052407515
0
ELLIPSE
5
E4
100
AcDbEntity
8
1
62
256
6
ByLayer
370
18
48
1
60
0
100
AcDbEllipse
10
15.448503
20
-0.660831
30
0
11
2.85548047654656
21
-2.80111250185733
31
0
210
0
220
0
230
1
40
0.970308
41
-0.810070524075146
42
-2.57444214147116E-16
0
ELLIPSE
5
E5
100
AcDbEntity
8
1
62
256
6
ByLayer
370
18
48
1
60
0
100
AcDbEllipse
10
16.610338
20
-1.728873
30
0
11
0.303394800633073
21
-0.297618203322341
31
0
210
0
220
0
230
1
40
0.970308
41
3.14158889476163
42
-2.44012946644357
0
ELLIPSE
5
E6
100
AcDbEntity
8
1
62
256
6
ByLayer
370
18
48
1
60
0
100
AcDbEllipse
10
14.642359
20
0.769806
30
0
11
0.303394800633073
21
-0.297618203322341
31
0
210
0
220
0
230
1
40
0.970308
41
-1.0256108532293
42
-3.12314610973374E-06
0
ELLIPSE
5
E7
100
AcDbEntity
8
1
62
256
6
ByLayer
370
18
48
1
60
0
100
AcDbEllipse
10
16.78002
20
-0.959771
30
0
11
-0.271270645271923
21
0.266105687676447
31
0
210
0
220
0
230
1
40
0.970308
41
-2.31155769860292
42
-1.33226161763418
0
ELLIPSE
5
E8
100
AcDbEntity
8
1
62
256
6
ByLayer
370
18
48
1
60
0
100
AcDbEllipse
10
15.435727
20
0.747034
30
0
11
-0.271270645271923
21
0.266105687676447
31
0
210
0
220
0
230
1
40
0.970308
41
-2.07280840442592
42
-0.825698985757059
0
ELLIPSE
5
E9
100
AcDbEntity
8
1
62
256
6
ByLayer
370
18
48
1
60
0
100
AcDbEllipse
10
15.626349
20
-0.479533
30
0
11
0.820950637007137
21
-0.805319844283981
31
0
210
0
220
0
230
1
40
0.970308
41
-0.532572756201164
42
-2.48738371156634E-16
0
ELLIPSE
5
EA
100
AcDbEntity
8
1
62
256
6
ByLayer
370
18
48
1
60
0
100
AcDbEllipse
10
15.626349
20
-0.479533
30
0
11
0.820950637007137
21
-0.805319844283981
31
0
210
0
220
0
230
1
40
0.970308
41
0
42
-2.88189474160376
0
ELLIPSE
5
EB
100
AcDbEntity
8
1
62
256
6
ByLayer
370
18
48
1
60
0
100
AcDbEllipse
10
15.482378
20
-0.626298
30
0
11
0.820950637007137
21
-0.805319844283981
31
0
210
0
220
0
230
1
40
0.970308
41
0.0922114309060663
42
3.04943220526948
0
ELLIPSE
5
EC
100
AcDbEntity
8
1
62
256
6
ByLayer
370
18
48
1
60
0
100
AcDbEllipse
10
14.035867
20
-2.100886
30
0
11
1.39204673231645
21
-1.36554234465545
31
0
210
0
220
0
230
1
40
0.970308
41
-1.81100447655697
42
-1.72804701839771
0
ELLIPSE
5
ED
100
AcDbEntity
8
1
62
256
6
ByLayer
370
18
48
1
60
0
100
AcDbEllipse
10
30.667798
20
10.066785
30
0
11
-0.791510023912319
21
0.116240621326286
31
0
210
0
220
0
230
1
40
0.871401
41
3.00587637405938
42
-3.14150262725976
0
ELLIPSE
5
EE
100
AcDbEntity
8
1
62
256
6
ByLayer
370
18
48
1
60
0
100
AcDbEllipse
10
17.139676
20
-7.811494
30
0
11
-2.55109942042478
21
-2.41470234438741
31
0
210
0
220
0
230
1
40
0.351752
41
-0.700270969659571
42
0.0969927033304486
0
ELLIPSE
5
EF
100
AcDbEntity
8
1
62
256
6
ByLayer
370
18
48
1
60
0
100
AcDbEllipse
10
10.715063
20
1.200162
30
0
11
-4.81999647746521
21
-0.83523985432515
31
0
210
0
220
0
230
1
40
0.331453
41
-0.558497538661867
42
-0.238357795797571
0
ELLIPSE
5
F0
100
AcDbEntity
8
1
62
256
6
ByLayer
370
18
48
1
60
0
100
AcDbEllipse
10
7.307341
20
-1.975952
30
0
11
-2.22912711964521
21
2.00849719120371
31
0
210
0
220
0
230
1
40
0.977262
41
0.340275023269666
42
1.39663653410247
0
ELLIPSE
5
F1
100
AcDbEntity
8
1
62
256
6
ByLayer
370
18
48
1
60
0
100
AcDbEllipse
10
12.502141
20
-8.57162
30
0
11
-2.22912711964887
21
2.00849719120084
31
0
210
0
220
0
230
1
40
0.977262
41
1.39663653410101
42
2.45299804493354
0
ELLIPSE
5
F2
100
AcDbEntity
8
1
62
256
6
ByLayer
370
18
48
1
60
0
100
AcDbEllipse
10
11.327513
20
-0.676579
30
0
11
4.32077299985683
21
3.40307518043728
31
0
210
0
220
0
230
1
40
0.031772
41
1.86288922628205
42
2.40716127761667
0
ELLIPSE
5
F3
100
AcDbEntity
8
1
62
256
6
ByLayer
370
18
48
1
60
0
100
AcDbEllipse
10
14.543342
20
-4.759611
30
0
11
4.32077299985683
21
3.40307518043728
31
0
210
0
220
0
230
1
40
0.031772
41
1.86288922628205
42
2.40716127761667
0
ELLIPSE
5
F4
100
AcDbEntity
8
1
62
256
6
ByLayer
370
18
48
1
60
0
100
AcDbEllipse
10
13.361006
20
-7.698364
30
0
11
1.82824732396721
21
-0.810870965324783
31
0
210
0
220
0
230
1
40
0.741658
41
-1.79903922846756
42
-0.525024408520365
0
ELLIPSE
5
F5
100
AcDbEntity
8
1
62
256
6
ByLayer
370
18
48
1
60
0
100
AcDbEllipse
10
8.108267
20
-1.029133
30
0
11
0.486913215814112
21
-1.93982357967563
31
0
210
0
220
0
230
1
40
0.760068
41
-2.70308330237917
42
-1.42906848243265
0
ELLIPSE
5
F6
100
AcDbEntity
8
1
62
256
6
ByLayer
370
18
48
1
60
0
100
AcDbEllipse
10
15.909863
20
-5.395505
30
0
11
-1.5563158820977
21
-4.87993947653573
31
0
210
0
220
0
230
1
40
0.36839
41
0.171324173882513
42
0.491463916716744
0
ELLIPSE
5
F7
100
AcDbEntity
8
1
62
256
6
ByLayer
370
18
48
1
60
0
100
AcDbEllipse
10
8.944887
20
2.593161
30
0
11
-2.9370777996084
21
-1.92575261897764
31
0
210
0
220
0
230
1
40
0.288759
41
-0.103889717214923
42
0.693373955774093
0
ELLIPSE
5
F8
100
AcDbEntity
8
1
62
256
6
ByLayer
370
18
48
1
60
0
100
AcDbEllipse
10
12.519419
20
-12.025777
30
0
11
-0.700891971772447
21
-0.402987674902248
31
0
210
0
220
0
230
1
40
0.066362
41
1.33825005102181
42
2.90904637781617
0
ELLIPSE
5
F9
100
AcDbEntity
8
1
62
256
6
ByLayer
370
18
48
1
60
0
100
AcDbEllipse
10
41.06524
20
1.048364
30
0
11
7.28147521519374
21
-7.14283687973618
31
0
210
0
220
0
230
1
40
0.970308
41
-2.80765339478966
42
-2.20006264120507
0
ELLIPSE
5
FA
100
AcDbEntity
8
1
62
256
6
ByLayer
370
18
48
1
60
0
100
AcDbEllipse
10
20.303335
20
21.448158
30
0
11
7.28147521519375
21
-7.14283687973619
31
0
210
0
220
0
230
1
40
0.970308
41
-0.898839554901597
42
-0.340214977436964
0
ELLIPSE
5
FB
100
AcDbEntity
8
1
62
256
6
ByLayer
370
18
48
1
60
0
100
AcDbEllipse
10
27.535602
20
5.119818
30
0
11
-2.71078438212509
21
-0.16470001514355
31
0
210
0
220
0
230
1
40
0.380077
41
2.44141797905507
42
2.81268899791796
0
ELLIPSE
5
FC
100
AcDbEntity
8
1
62
256
6
ByLayer
370
18
48
1
60
0
100
AcDbEllipse
10
2.186385
20
1.093738
30
0
11
-0.0549984624151522
21
1.33296588373429
31
0
210
0
220
0
230
1
40
0.157974
41
0.0271004083329908
42
1.59789673512578
0
ELLIPSE
5
FD
100
AcDbEntity
8
SK1
62
256
6
ByLayer
370
18
48
1
60
0
100
AcDbEllipse
10
-0.646619
20
22.679655
30
0
11
7.36140864789547
21
7.50428933504403
31
0
210
0
220
0
230
-1
40
0.970308
41
2.46963588169753
42
2.53199051134871
0
ELLIPSE
5
FE
100
AcDbEntity
8
1
62
256
6
ByLayer
370
18
48
1
60
0
100
AcDbEllipse
10
16.007447
20
-0.091038
30
0
11
0.838797389985554
21
-0.82282679742059
31
0
210
0
220
0
230
1
40
0.970308
41
0.852215015262781
42
0.978702718660166
0
ELLIPSE
5
FF
100
AcDbEntity
8
1
62
256
6
ByLayer
370
18
48
1
60
0
100
AcDbEllipse
10
15.442048
20
-1.535151
30
0
11
0.303394800633073
21
-0.297618203322341
31
0
210
0
220
0
230
1
40
0.970308
41
1.06878424916389
42
1.78702069960965
0
ELLIPSE
5
100
100
AcDbEntity
8
1
62
256
6
ByLayer
370
18
48
1
60
0
100
AcDbEllipse
10
16.007447
20
-0.091038
30
0
11
0.838797389985554
21
-0.82282679742059
31
0
210
0
220
0
230
1
40
0.970308
41
-0.194982535933821
42
-0.0684948325364227
0
ELLIPSE
5
101
100
AcDbEntity
8
1
62
256
6
ByLayer
370
18
48
1
60
0
100
AcDbEllipse
10
16.572846
20
1.353074
30
0
11
0.303394800633073
21
-0.297618203322341
31
0
210
0
220
0
230
1
40
0.970308
41
-2.07280840442589
42
-1.35457195398018
0
ELLIPSE
5
102
100
AcDbEntity
8
1
62
256
6
ByLayer
370
18
48
1
60
0
100
AcDbEllipse
10
16.191747
20
0.964579
30
0
11
0.303394800633073
21
-0.297618203322341
31
0
210
0
220
0
230
1
40
0.970308
41
-2.07280840442588
42
-0.285064066437517
0
ELLIPSE
5
103
100
AcDbEntity
8
1
62
256
6
ByLayer
370
18
48
1
60
0
100
AcDbEllipse
10
17.556835
20
0.103735
30
0
11
0.303394800633073
21
-0.297618203322341
31
0
210
0
220
0
230
1
40
0.970308
41
-3.12000595562256
42
-2.40176950517679
0
ELLIPSE
5
104
100
AcDbEntity
8
1
62
256
6
ByLayer
370
18
48
1
60
0
100
AcDbEllipse
10
16.991436
20
-1.340378
30
0
11
0.303394800633073
21
-0.297618203322341
31
0
210
0
220
0
230
1
40
0.970308
41
-3.0976956192765
42
-2.37945916883075
0
ELLIPSE
5
105
100
AcDbEntity
8
1
62
256
6
ByLayer
370
18
48
1
60
0
100
AcDbEllipse
10
17.556835
20
0.103735
30
0
11
0.303394800633073
21
-0.297618203322341
31
0
210
0
220
0
230
1
40
0.970308
41
-2.05049806807996
42
-1.3322616176342
0
ELLIPSE
5
106
100
AcDbEntity
8
1
62
256
6
ByLayer
370
18
48
1
60
0
100
AcDbEllipse
10
16.007447
20
-0.091038
30
0
11
0.838797389985554
21
-0.82282679742059
31
0
210
0
220
0
230
1
40
0.970308
41
-2.28937763832702
42
-2.16288993492962
0
ELLIPSE
5
107
100
AcDbEntity
8
1
62
256
6
ByLayer
370
18
48
1
60
0
100
AcDbEllipse
10
16.970497
20
0.655291
30
0
11
-0.271270645271923
21
0.266105687676447
31
0
210
0
220
0
230
1
40
0.970308
41
-3.12000595562247
42
-0.285064066437531
0
ELLIPSE
5
108
100
AcDbEntity
8
1
62
256
6
ByLayer
370
18
48
1
60
0
100
AcDbEllipse
10
16.007447
20
-0.091038
30
0
11
-1.64190127401427
21
1.61063968856797
31
0
210
0
220
0
230
1
40
0.970308
41
0
42
6.28318530717959
0
ELLIPSE
5
109
100
AcDbEntity
8
1
62
256
6
ByLayer
370
18
48
1
60
0
100
AcDbEllipse
10
17.175737
20
-0.28476
30
0
11
0.303394800633073
21
-0.297618203322341
31
0
210
0
220
0
230
1
40
0.970308
41
-3.12000595562256
42
-1.33226161763413
0
ELLIPSE
5
10A
100
AcDbEntity
8
1
62
256
6
ByLayer
370
18
48
1
60
0
100
AcDbEllipse
10
16.589399
20
0.266796
30
0
11
-0.271270645271923
21
0.266105687676447
31
0
210
0
220
0
230
1
40
0.970308
41
-3.1200059556224
42
-0.285064066437531
0
ELLIPSE
5
10B
100
AcDbEntity
8
1
62
256
6
ByLayer
370
18
48
1
60
0
100
AcDbEllipse
10
15.044397
20
-0.837368
30
0
11
-0.271270645271923
21
0.266105687676447
31
0
210
0
220
0
230
1
40
0.970308
41
0.021586697967356
42
2.85652858715221
0
ELLIPSE
5
10C
100
AcDbEntity
8
1
62
256
6
ByLayer
370
18
48
1
60
0
100
AcDbEllipse
10
15.023457
20
1.158301
30
0
11
0.303394800633073
21
-0.297618203322341
31
0
210
0
220
0
230
1
40
0.970308
41
-1.02561085322937
42
-0.30737440278359
0
ELLIPSE
5
10D
100
AcDbEntity
8
1
62
256
6
ByLayer
370
18
48
1
60
0
100
AcDbEllipse
10
14.458058
20
-0.285812
30
0
11
0.303394800633073
21
-0.297618203322341
31
0
210
0
220
0
230
1
40
0.970308
41
0.0215866979673006
42
0.73982314841306
0
ELLIPSE
5
10E
100
AcDbEntity
8
1
62
256
6
ByLayer
370
18
48
1
60
0
100
AcDbEllipse
10
15.816825
20
1.135529
30
0
11
-0.271270645271923
21
0.266105687676447
31
0
210
0
220
0
230
1
40
0.970308
41
-2.07280840442587
42
0.762133484759015
0
ELLIPSE
5
10F
100
AcDbEntity
8
1
62
256
6
ByLayer
370
18
48
1
60
0
100
AcDbEllipse
10
14.458058
20
-0.285812
30
0
11
0.303394800633073
21
-0.297618203322341
31
0
210
0
220
0
230
1
40
0.970308
41
1.09109458550993
42
1.80933103595565
0
ELLIPSE
5
110
100
AcDbEntity
8
1
62
256
6
ByLayer
370
18
48
1
60
0
100
AcDbEllipse
10
16.572846
20
1.353074
30
0
11
0.303394800633073
21
-0.297618203322341
31
0
210
0
220
0
230
1
40
0.970308
41
-1.00330051688326
42
-0.285064066437517
0
ELLIPSE
5
111
100
AcDbEntity
8
1
62
256
6
ByLayer
370
18
48
1
60
0
100
AcDbEllipse
10
16.198068
20
-1.317606
30
0
11
-0.271270645271923
21
0.266105687676447
31
0
210
0
220
0
230
1
40
0.970308
41
1.06878424916384
42
-2.3794591688307
0
ELLIPSE
5
112
100
AcDbEntity
8
1
62
256
6
ByLayer
370
18
48
1
60
0
100
AcDbEllipse
10
16.007447
20
-0.091038
30
0
11
0.838797389985554
21
-0.82282679742059
31
0
210
0
220
0
230
1
40
0.970308
41
-1.24218008713046
42
-1.11569238373304
0
ELLIPSE
5
113
100
AcDbEntity
8
1
62
256
6
ByLayer
370
18
48
1
60
0
100
AcDbEllipse
10
14.853775
20
0.389199
30
0
11
-0.271270645271923
21
0.266105687676447
31
0
210
0
220
0
230
1
40
0.970308
41
-1.02561085322929
42
1.80933103595568
0
ELLIPSE
5
114
100
AcDbEntity
8
1
62
256
6
ByLayer
370
18
48
1
60
0
100
AcDbEllipse
10
17.161118
20
-0.571276
30
0
11
-0.271270645271923
21
0.266105687676447
31
0
210
0
220
0
230
1
40
0.970308
41
2.11598180036039
42
-1.33226161763407
0
ELLIPSE
5
115
100
AcDbEntity
8
1
62
256
6
ByLayer
370
18
48
1
60
0
100
AcDbEllipse
10
15.860632
20
-0.240703
30
0
11
-2.85548047654656
21
2.80111250185733
31
0
210
0
220
0
230
1
40
0.970308
41
0
42
6.28318530717959
0
ELLIPSE
5
116
100
AcDbEntity
8
1
62
256
6
ByLayer
370
18
48
1
60
0
100
AcDbEllipse
10
16.007447
20
-0.091038
30
0
11
0.838797389985554
21
-0.82282679742059
31
0
210
0
220
0
230
1
40
0.970308
41
2.946610117656
42
3.07309782105338
0
ELLIPSE
5
117
100
AcDbEntity
8
1
62
256
6
ByLayer
370
18
48
1
60
0
100
AcDbEllipse
10
16.991436
20
-1.340378
30
0
11
0.303394800633073
21
-0.297618203322341
31
0
210
0
220
0
230
1
40
0.970308
41
2.1159818003605
42
2.83421825080624
0
ELLIPSE
5
118
100
AcDbEntity
8
1
62
256
6
ByLayer
370
18
48
1
60
0
100
AcDbEllipse
10
15.023457
20
1.158301
30
0
11
0.303394800633073
21
-0.297618203322341
31
0
210
0
220
0
230
1
40
0.970308
41
0.0438970343132947
42
0.762133484759051
0
ELLIPSE
5
119
100
AcDbEntity
8
1
62
256
6
ByLayer
370
18
48
1
60
0
100
AcDbEllipse
10
15.442048
20
-1.535151
30
0
11
0.303394800633073
21
-0.297618203322341
31
0
210
0
220
0
230
1
40
0.970308
41
2.1382921367066
42
2.85652858715231
0
ELLIPSE
5
11A
100
AcDbEntity
8
1
62
256
6
ByLayer
370
18
48
1
60
0
100
AcDbEllipse
10
16.007447
20
-0.091038
30
0
11
0.838797389985554
21
-0.82282679742059
31
0
210
0
220
0
230
1
40
0.970308
41
1.89941256645937
42
2.02590026985677
0
ELLIPSE
5
11B
100
AcDbEntity
8
1
62
256
6
ByLayer
370
18
48
1
60
0
100
AcDbEllipse
10
26.485924
20
12.912954
30
0
11
-0.566634407064707
21
0.555845762087315
31
0
210
0
220
0
230
1
40
0.970308
41
-0.306271609434577
42
0.304593628763465
0
ELLIPSE
5
11C
100
AcDbEntity
8
1
62
256
6
ByLayer
370
18
48
1
60
0
100
AcDbEllipse
10
38.430048
20
19.130672
30
0
11
-0.566634407064707
21
0.555845762087315
31
0
210
0
220
0
230
1
40
0.970308
41
-2.83699902482633
42
-0.306271609434501
0
ELLIPSE
5
11D
100
AcDbEntity
8
1
62
256
6
ByLayer
370
18
48
1
60
0
100
AcDbEllipse
10
32.422504
20
7.079915
30
0
11
-0.566634407064707
21
0.555845762087315
31
0
210
0
220
0
230
1
40
0.970308
41
2.83532104415522
42
-2.83699902482634
0
POINT
5
6C
100
AcDbEntity
8
2
62
256
6
ByLayer
370
18
48
1
60
0
100
AcDbPoint
10
39.212329
20
19.9125
30
0
39
0
210
0
220
0
230
1
50
360
0
POINT
5
6E
100
AcDbEntity
8
80
62
256
6
ByLayer
370
18
48
1
60
0
100
AcDbPoint
10
0
20
0
30
0
39
0
210
0
220
0
230
1
50
360
0
POINT
5
70
100
AcDbEntity
8
81
62
256
6
ByLayer
370
18
48
1
60
0
100
AcDbPoint
10
39.212329
20
19.9125
30
0
39
0
210
0
220
0
230
1
50
360
0
SPLINE
5
11E
100
AcDbEntity
8
1
62
256
6
ByLayer
370
18
48
1
60
0
100
AcDbSpline
70
4
71
3
72
13
73
9
40
0
40
0
40
0
40
0
40
0.122204719962829
40
0.318863038147248
40
0.511790184126829
40
0.703732464204767
40
0.899091860344047
40
1
40
1
40
1
40
1
41
1
10
31.4289216991911
20
10.3893132910918
30
0
41
1
10
31.4068233746272
20
10.4665830425465
30
0
41
1
10
31.3394245303156
20
10.6640581283738
30
0
41
1
10
31.1836886415857
20
10.9642529416051
30
0
41
1
10
30.9653538017761
20
11.2799665322657
30
0
41
1
10
30.704784051578
20
11.5605378525481
30
0
41
1
10
30.4585261476378
20
11.7695541939094
30
0
41
1
10
30.292914118704
20
11.8707217703553
30
0
41
1
10
30.2347984043375
20
11.9028054479772
30
0
0
SPLINE
5
11F
100
AcDbEntity
8
1
62
256
6
ByLayer
370
18
48
1
60
0
100
AcDbSpline
70
4
71
3
72
15
73
11
40
0
40
0
40
0
40
0
40
0.0648927211228064
40
0.260292194133932
40
0.427355350532213
40
0.559483907607017
40
0.658216705208888
40
0.744140034873924
40
0.901596184382587
40
1
40
1
40
1
40
1
41
1
10
30.2369178845062
20
11.9062104157143
30
0
41
1
10
30.2257998948851
20
11.9140701664861
30
0
41
1
10
30.1803624810448
20
11.9438378485088
30
0
41
1
10
30.0968428030452
20
11.9773544151399
30
0
41
1
10
29.9984933661394
20
12.0055827552956
30
0
41
1
10
29.9189072328054
20
12.0179739185735
30
0
41
1
10
29.86615156375
20
12.0221960359345
30
0
41
1
10
29.825081858199
20
12.0238622329272
30
0
41
1
10
29.7952988412868
20
12.024417132516
30
0
41
1
10
29.764339819555
20
12.0243692520284
30
0
41
1
10
29.7521384736717
20
12.0242592041124
30
0
0
SPLINE
5
120
100
AcDbEntity
8
1
62
256
6
ByLayer
370
18
48
1
60
0
100
AcDbSpline
70
4
71
3
72
12
73
8
40
0
40
0
40
0
40
0
40
0.0790917761220482
40
0.279893858319781
40
0.549646556558326
40
0.857675901025201
40
1
40
1
40
1
40
1
41
1
10
31.3378392529194
20
9.21134154571922
30
0
41
1
10
31.3428528598367
20
9.23739881181956
30
0
41
1
10
31.3598675799881
20
9.32712167578183
30
0
41
1
10
31.3865070785681
20
9.48074283009367
30
0
41
1
10
31.4178972630384
20
9.67463814355904
30
0
41
1
10
31.4416854707709
20
9.83085932240419
30
0
41
1
10
31.454737484067
20
9.92028474171101
30
0
41
1
10
31.4586503339988
20
9.94759785385716
30
0
0
SPLINE
5
121
100
AcDbEntity
8
1
62
256
6
ByLayer
370
18
48
1
60
0
100
AcDbSpline
70
4
71
1
72
4
73
2
40
0
40
0
40
1
40
1
41
1
10
31.2572866726877
20
8.77131864367669
30
0
41
1
10
31.3388645583591
20
9.21218825277685
30
0
0
SPLINE
5
122
100
AcDbEntity
8
1
62
256
6
ByLayer
370
18
48
1
60
0
100
AcDbSpline
70
4
71
3
72
12
73
8
40
0
40
0
40
0
40
0
40
0.204267351595534
40
0.468906315162417
40
0.722669642962699
40
0.994924083061615
40
1
40
1
40
1
40
1
41
1
10
31.4587090513577
20
9.95087734287642
30
0
41
1
10
31.4627772621213
20
9.97398287912017
30
0
41
1
10
31.4699164990798
20
10.0306094807459
30
0
41
1
10
31.4769094896282
20
10.1274432796033
30
0
41
1
10
31.4670640951375
20
10.255437193435
30
0
41
1
10
31.4533310631145
20
10.346262461686
30
0
41
1
10
31.4344855639705
20
10.3902394438281
30
0
41
1
10
31.4341383401777
20
10.3910439831831
30
0
0
SPLINE
5
123
100
AcDbEntity
8
1
62
256
6
ByLayer
370
18
48
1
60
0
100
AcDbSpline
70
4
71
3
72
8
73
4
40
0
40
0
40
0
40
0
40
1
40
1
40
1
40
1
41
1
10
13.2826748360409
20
-11.4153938447818
30
0
41
1
10
13.1826480849293
20
-11.449967301246
30
0
41
1
10
13.0802796323971
20
-11.4806861463852
30
0
41
1
10
12.9760544468663
20
-11.5067566969979
30
0
0
SPLINE
5
124
100
AcDbEntity
8
1
62
256
6
ByLayer
370
18
48
1
60
0
100
AcDbSpline
70
4
71
3
72
8
73
4
40
0
40
0
40
0
40
0
40
1
40
1
40
1
40
1
41
1
10
4.70845100491135
20
-0.525789184274061
30
0
41
1
10
4.65252542436156
20
-0.617432621191711
30
0
41
1
10
4.59972218096993
20
-0.712156713376544
30
0
41
1
10
4.5509387174767
20
-0.809663440439891
30
0
0
SPLINE
5
125
100
AcDbEntity
8
1
62
256
6
ByLayer
370
18
48
1
60
0
100
AcDbSpline
70
4
71
3
72
10
73
6
40
0
40
0
40
0
40
0
40
0.483686724959876
40
0.483686724959876
40
1
40
1
40
1
40
1
41
1
10
31.3150661231334
20
10.324321352906
30
0
41
1
10
31.3456020058131
20
10.3620991518526
30
0
41
1
10
31.3717188864665
20
10.3889885896277
30
0
41
1
10
31.4127025801989
20
10.4156637104937
30
0
41
1
10
31.4270755909923
20
10.4135671709623
30
0
41
1
10
31.4337572804833
20
10.393060204068
30
0
0
SPLINE
5
126
100
AcDbEntity
8
1
62
256
6
ByLayer
370
18
48
1
60
0
100
AcDbSpline
70
4
71
3
72
10
73
6
40
0
40
0
40
0
40
0
40
0.443113497708219
40
0.443113497708219
40
1
40
1
40
1
40
1
41
1
10
30.2469299940993
20
11.9030088249462
30
0
41
1
10
30.2538684467466
20
11.8984590198506
30
0
41
1
10
30.2478536011915
20
11.8919217697332
30
0
41
1
10
30.2083819080722
20
11.8724570223995
30
0
41
1
10
30.1680899741003
20
11.8580503806712
30
0
41
1
10
30.1142360393109
20
11.8412226132154
30
0
0
SPLINE
5
127
100
AcDbEntity
8
1
62
256
6
ByLayer
370
18
48
1
60
0
100
AcDbSpline
70
4
71
3
72
8
73
4
40
0
40
0
40
0
40
0
40
1
40
1
40
1
40
1
41
1
10
30.0546909680595
20
4.8680651085387
30
0
41
1
10
30.0768942707671
20
4.89300829849458
30
0
41
1
10
30.0990973982066
20
4.91795139616843
30
0
41
1
10
30.1213003496896
20
4.9428944011978
30
0
0
SPLINE
5
128
100
AcDbEntity
8
1
62
256
6
ByLayer
370
18
48
1
60
0
100
AcDbSpline
70
4
71
3
72
24
73
20
40
0
40
0
40
0
40
0
40
0.193947210779302
40
0.193947210779302
40
0.435758612862266
40
0.435758612862266
40
0.688024122938511
40
0.688024122938511
40
0.877280955594793
40
0.877280955594793
40
0.970135497295778
40
0.970135497295778
40
0.993290262270189
40
0.993290262270189
40
0.998996474733123
40
0.998996474733123
40
0.999887794663966
40
0.999887794663966
40
1
40
1
40
1
40
1
41
1
10
30.1144047212445
20
11.8410946254119
30
0
41
1
10
30.0885071535552
20
11.8309958426484
30
0
41
1
10
30.0707669318211
20
11.8109644585948
30
0
41
1
10
30.0396934659489
20
11.7534329462801
30
0
41
1
10
30.0288297247597
20
11.7116990658528
30
0
41
1
10
30.0144587181825
20
11.6126497837176
30
0
41
1
10
30.0112687035453
20
11.5540488833256
30
0
41
1
10
30.0096085090232
20
11.4417504204599
30
0
41
1
10
30.0101684250776
20
11.3901414140823
30
0
41
1
10
30.0119704110872
20
11.3094204252552
30
0
41
1
10
30.0127271671645
20
11.2821704981182
30
0
41
1
10
30.0137840800163
20
11.2474345353487
30
0
41
1
10
30.014020720526
20
11.2404568204114
30
0
41
1
10
30.0142465189735
20
11.231744133237
30
0
41
1
10
30.0145223994748
20
11.2298920401741
30
0
41
1
10
30.0140851471376
20
11.2281251075895
30
0
41
1
10
30.0139729138676
20
11.227911689841
30
0
41
1
10
30.0137966440249
20
11.2277309782139
30
0
41
1
10
30.0137759756902
20
11.2277110497406
30
0
41
1
10
30.0137548129574
20
11.2276916962047
30
0
0
SPLINE
5
129
100
AcDbEntity
8
1
62
256
6
ByLayer
370
18
48
1
60
0
100
AcDbSpline
70
4
71
3
72
12
73
8
40
0
40
0
40
0
40
0
40
0.107029684965501
40
0.443706054186005
40
0.612044238796258
40
0.78038242340651
40
1
40
1
40
1
40
1
41
1.03017844338059
10
18.9065220458858
20
3.94690751682509
30
0
41
1.0302273658714
10
19.3811780443871
20
4.31702154390832
30
0
41
1.03047050932998
10
21.4818323755682
20
5.93237171789162
30
0
41
1.0311558410484
10
24.7574423264749
20
8.21198752353719
30
0
41
1.03077804826571
10
26.5564488128754
20
9.30026296257915
30
0
41
1.03322144497827
10
28.2940063517979
20
10.3547516508572
30
0
41
1.03463604371051
10
29.3968389214587
20
10.9333689443986
30
0
41
1.0353664121084
10
30.0134380639205
20
11.2277073886614
30
0
0
SPLINE
5
12A
100
AcDbEntity
8
1
62
256
6
ByLayer
370
18
48
1
60
0
100
AcDbSpline
70
4
71
3
72
14
73
10
40
0
40
0
40
0
40
0
40
0.332043805554369
40
0.332043805554369
40
0.667540490321296
40
0.667540490321296
40
0.999921783367877
40
0.999921783367877
40
1
40
1
40
1
40
1
41
1
10
31.438325118597
20
9.85829355134001
30
0
41
1
10
31.4439239605873
20
9.89803995941992
30
0
41
1
10
31.4449278749644
20
9.92293001519042
30
0
41
1
10
31.4378675482128
20
9.94165104634899
30
0
41
1
10
31.4296544350793
20
9.93572765489495
30
0
41
1
10
31.406485907181
20
9.90074631889917
30
0
41
1
10
31.3913990744687
20
9.87169689604491
30
0
41
1
10
31.3741476801207
20
9.83543338650281
30
0
41
1
10
31.3741433839286
20
9.83542435529387
30
0
41
1
10
31.3741390876407
20
9.83541532413057
30
0
0
SPLINE
5
12B
100
AcDbEntity
8
1
62
256
6
ByLayer
370
18
48
1
60
0
100
AcDbSpline
70
4
71
3
72
12
73
8
40
0
40
0
40
0
40
0
40
0.401843340305649
40
0.401843340305649
40
0.816060128109937
40
0.816060128109937
40
1
40
1
40
1
40
1
41
1
10
11.0644725695047
20
-0.0458741437872447
30
0
41
1
10
11.0250771341847
20
-0.182916579761922
30
0
41
1
10
10.9665847544059
20
-0.325145700523052
30
0
41
1
10
10.8202962672293
20
-0.601723279978728
30
0
41
1
10
10.7302883385108
20
-0.73886102154853
30
0
41
1
10
10.5886414912858
20
-0.923156581753034
30
0
41
1
10
10.5430402434114
20
-0.97857601666999
30
0
41
1
10
10.4962004711338
20
-1.03220344863217
30
0
0
SPLINE
5
12C
100
AcDbEntity
8
1
62
256
6
ByLayer
370
18
48
1
60
0
100
AcDbSpline
70
4
71
3
72
8
73
4
40
0
40
0
40
0
40
0
40
1
40
1
40
1
40
1
41
1.03311206816126
10
30.3068476847154
20
5.97160239961859
30
0
41
1.03398726653663
10
30.6922290234947
20
6.8556603579596
30
0
41
1.03477250303978
10
30.9904317138097
20
7.74658936232367
30
0
41
1.03548960596306
10
31.2357833552905
20
8.67790906038795
30
0
0
SPLINE
5
12D
100
AcDbEntity
8
1
62
256
6
ByLayer
370
18
48
1
60
0
100
AcDbSpline
70
4
71
3
72
28
73
24
40
0
40
0
40
0
40
0
40
0.0002961516837083
40
0.0002961516837083
40
0.0005569094112305
40
0.0005569094112305
40
0.0008621321651474
40
0.0008621321651474
40
0.0052375575524918
40
0.0052375575524918
40
0.0234742370214876
40
0.0234742370214876
40
0.0971618665238532
40
0.0971618665238532
40
0.250932327260625
40
0.250932327260625
40
0.469025233847113
40
0.469025233847113
40
0.708581876038282
40
0.708581876038282
40
0.999960210181687
40
0.999960210181687
40
1
40
1
40
1
40
1
41
1
10
30.0133246087317
20
11.2279264402124
30
0
41
1
10
30.0134291149383
20
11.227954283636
30
0
41
1
10
30.0135305113975
20
11.2279901973789
30
0
41
1
10
30.0136973088239
20
11.2280900098372
30
0
41
1
10
30.0137659714296
20
11.2281522501287
30
0
41
1
10
30.0138722518478
20
11.2283220637543
30
0
41
1
10
30.0139038114
20
11.2284368213409
30
0
41
1
10
30.0141172637275
20
11.2302245498455
30
0
41
1
10
30.0133498400546
20
11.2322272378363
30
0
41
1
10
30.0112648251914
20
11.2418024593554
30
0
41
1
10
30.0094937004279
20
11.2495040744857
30
0
41
1
10
30.0006192313065
20
11.2881235350986
30
0
41
1
10
29.9932644870294
20
11.3185478094601
30
0
41
1
10
29.9701172471733
20
11.4103738256073
30
0
41
1
10
29.9537500350236
20
11.4698593840366
30
0
41
1
10
29.9136826139925
20
11.6049200246463
30
0
41
1
10
29.889590710482
20
11.6776454573483
30
0
41
1
10
29.8391952289452
20
11.8105256594623
30
0
41
1
10
29.8126013205849
20
11.8697834283258
30
0
41
1
10
29.75161806073
20
11.9680968530255
30
0
41
1
10
29.7155613589076
20
12.0018078753679
30
0
41
1
10
29.6725974978233
20
12.0044020879573
30
0
41
1
10
29.6725875149414
20
12.0044026896799
30
0
41
1
10
29.6725775320001
20
12.0044032904147
30
0
0
SPLINE
5
12E
100
AcDbEntity
8
1
62
256
6
ByLayer
370
18
48
1
60
0
100
AcDbSpline
70
4
71
1
72
4
73
2
40
0
40
0
40
1
40
1
41
1
10
12.9403359256332
20
5.14148064748352
30
0
41
1
10
11.6740875341337
20
5.43981152263586
30
0
0
SPLINE
5
12F
100
AcDbEntity
8
1
62
256
6
ByLayer
370
18
48
1
60
0
100
AcDbSpline
70
4
71
3
72
8
73
4
40
0
40
0
40
0
40
0
40
1
40
1
40
1
40
1
41
1
10
14.8857991888185
20
-4.89768728481727
30
0
41
1
10
14.9626288003497
20
-6.56413668074919
30
0
41
1
10
14.9095731224671
20
-8.15564536534745
30
0
41
1
10
14.6415727925219
20
-9.07966049706764
30
0
0
SPLINE
5
130
100
AcDbEntity
8
1
62
256
6
ByLayer
370
18
48
1
60
0
100
AcDbSpline
70
4
71
3
72
14
73
10
40
0
40
0
40
0
40
0
40
7.77085242593E-05
40
7.77085242593E-05
40
0.352643155046205
40
0.352643155046205
40
0.705732119373794
40
0.705732119373794
40
1
40
1
40
1
40
1
41
1
10
29.6661848673251
20
12.0039500016932
30
0
41
1
10
29.6661948114412
20
12.003951066848
30
0
41
1
10
29.6662047555632
20
12.0039521319484
30
0
41
1
10
29.7109541553966
20
12.0087453495866
30
0
41
1
10
29.7475073243772
20
12.0127940462551
30
0
41
1
10
29.7929864757073
20
12.0189548090943
30
0
41
1
10
29.8021955418792
20
12.0211245445823
30
0
41
1
10
29.7858629303298
20
12.0234639769267
30
0
41
1
10
29.7654682510526
20
12.0239476787106
30
0
41
1
10
29.7325732259069
20
12.0240308129738
30
0
0
SPLINE
5
131
100
AcDbEntity
8
1
62
256
6
ByLayer
370
18
48
1
60
0
100
AcDbSpline
70
4
71
3
72
12
73
8
40
0
40
0
40
0
40
0
40
0.264973649150345
40
0.529947298300689
40
0.662434122875862
40
0.794920947451034
40
1
40
1
40
1
40
1
41
1.02994816993494
10
20.5405008498948
20
-4.50819961464598
30
0
41
1.03004363841634
10
21.3621058361051
20
-3.84465956004056
30
0
41
1.03021336426305
10
24.3733838579301
20
-1.40005102980472
30
0
41
1.0311558410484
10
27.9568710802955
20
3.25749271072609
30
0
41
1.03077804826571
10
29.1442071993266
20
5.23059755889736
30
0
41
1.03340133735626
10
30.4146055515584
20
7.41626784787486
30
0
41
1.03493149686168
10
31.0470383340064
20
8.91220104069836
30
0
41
1.03576782913892
10
31.3751876719129
20
9.83837397390842
30
0
0
SPLINE
5
132
100
AcDbEntity
8
1
62
256
6
ByLayer
370
18
48
1
60
0
100
AcDbSpline
70
4
71
3
72
8
73
4
40
0
40
0
40
0
40
0
40
1
40
1
40
1
40
1
41
1
10
14.6696122346408
20
3.97251434450396
30
0
41
1
10
14.432525725682
20
3.85071829710807
30
0
41
1
10
14.2063056212748
20
3.70788964228126
30
0
41
1
10
14.000440405427
20
3.54835137157406
30
0
0
SPLINE
5
133
100
AcDbEntity
8
1
62
256
6
ByLayer
370
18
48
1
60
0
100
AcDbSpline
70
4
71
3
72
8
73
4
40
0
40
0
40
0
40
0
40
1
40
1
40
1
40
1
41
1
10
6.93046830798443
20
-1.9629030415272
30
0
41
1
10
6.92518745698766
20
-1.95619811812898
30
0
41
1
10
6.91996164851298
20
-1.94944527420918
30
0
41
1
10
6.91479363956171
20
-1.94264822774545
30
0
0
SPLINE
5
134
100
AcDbEntity
8
1
62
256
6
ByLayer
370
18
48
1
60
0
100
AcDbSpline
70
4
71
3
72
8
73
4
40
0
40
0
40
0
40
0
40
1
40
1
40
1
40
1
41
1
10
12.1412758915814
20
-8.57854141299558
30
0
41
1
10
12.6460649307742
20
-7.76800328647695
30
0
41
1
10
13.229834488158
20
-6.52814087433711
30
0
41
1
10
13.7893242193529
20
-5.2133747193287
30
0
0
SPLINE
5
135
100
AcDbEntity
8
1
62
256
6
ByLayer
370
18
48
1
60
0
100
AcDbSpline
70
4
71
3
72
15
73
11
40
0
40
0
40
0
40
0
40
0.284308369869424
40
0.284308369869424
40
0.604552312734216
40
0.604552312734216
40
0.883194505470756
40
0.883194505470756
40
0.883194505470756
40
1
40
1
40
1
40
1
41
1
10
14.6696122346408
20
3.97251434450396
30
0
41
1
10
15.0396713262311
20
4.1631636362049
30
0
41
1
10
15.4423227360707
20
4.30804300707882
30
0
41
1
10
16.3096083141887
20
4.49951657964291
30
0
41
1
10
16.7886172044366
20
4.53471789146573
30
0
41
1
10
17.6630309247081
20
4.45377625913653
30
0
41
1
10
18.0711942551443
20
4.3546409331768
30
0
41
1
10
18.446425385042
20
4.19061555567839
30
0
41
1
10
18.6055215807221
20
4.12106958394065
30
0
41
1
10
18.759991455086
20
4.03950494313656
30
0
41
1
10
18.9065190886311
20
3.9469052108993
30
0
0
SPLINE
5
136
100
AcDbEntity
8
1
62
256
6
ByLayer
370
18
48
1
60
0
100
AcDbSpline
70
4
71
3
72
8
73
4
40
0
40
0
40
0
40
0
40
1
40
1
40
1
40
1
41
1
10
6.91479363956211
20
-1.94264822774531
30
0
41
1
10
6.84643085724105
20
-1.8527364237585
30
0
41
1
10
6.77998635778579
20
-1.76093163222225
30
0
41
1
10
6.71743134128246
20
-1.66951697031527
30
0
0
SPLINE
5
137
100
AcDbEntity
8
1
62
256
6
ByLayer
370
18
48
1
60
0
100
AcDbSpline
70
4
71
3
72
8
73
4
40
0
40
0
40
0
40
0
40
1
40
1
40
1
40
1
41
1
10
19.7082142882456
20
-2.42483351174917
30
0
41
1
10
19.5329953348189
20
-2.62518076631409
30
0
41
1
10
19.3392627720976
20
-2.80925778784024
30
0
41
1
10
19.1333975562498
20
-2.96879605854744
30
0
0
SPLINE
5
138
100
AcDbEntity
8
1
62
256
6
ByLayer
370
18
48
1
60
0
100
AcDbSpline
70
4
71
3
72
8
73
4
40
0
40
0
40
0
40
0
40
1
40
1
40
1
40
1
41
1
10
10.496200471141
20
-1.03220344863817
30
0
41
1
10
9.09086680111841
20
-1.27879970832586
30
0
41
1
10
7.78153021603657
20
-1.5858333447579
30
0
41
1
10
6.91479363956205
20
-1.94264822774528
30
0
0
SPLINE
5
139
100
AcDbEntity
8
1
62
256
6
ByLayer
370
18
48
1
60
0
100
AcDbSpline
70
4
71
3
72
8
73
4
40
0
40
0
40
0
40
0
40
1
40
1
40
1
40
1
41
1
10
31.376235379321
20
9.84133163324981
30
0
41
1
10
31.4144493643161
20
9.99765026206958
30
0
41
1
10
31.3925080479478
20
10.1709205178926
30
0
41
1
10
31.3150771988661
20
10.32429689364
30
0
0
SPLINE
5
13A
100
AcDbEntity
8
1
62
256
6
ByLayer
370
18
48
1
60
0
100
AcDbSpline
70
4
71
3
72
14
73
10
40
0
40
0
40
0
40
0
40
0.256006012600452
40
0.256006012600452
40
0.256006012600452
40
0.73752356543209
40
0.73752356543209
40
0.73752356543209
40
1
40
1
40
1
40
1
41
1
10
18.9065190886311
20
3.9469052108993
30
0
41
1
10
19.117185195096
20
3.81376287136558
30
0
41
1
10
19.3171768687667
20
3.66124511041164
30
0
41
1
10
19.5017231872931
20
3.49315553709855
30
0
41
1
10
19.8453088962775
20
3.18020876210562
30
0
41
1
10
20.1417301090839
20
2.80553926559034
30
0
41
1
10
20.3664458392123
20
2.40017939982147
30
0
41
1
10
20.4901696694098
20
2.1769966472269
30
0
41
1
10
20.5940045726987
20
1.9420602126707
30
0
41
1
10
20.675191441635
20
1.70127990342513
30
0
0
SPLINE
5
13B
100
AcDbEntity
8
1
62
256
6
ByLayer
370
18
48
1
60
0
100
AcDbSpline
70
4
71
3
72
19
73
15
40
0
40
0
40
0
40
0
40
0.249053371166661
40
0.249053371166661
40
0.249053371166661
40
0.403599292981679
40
0.403599292981679
40
0.403599292981679
40
0.717848378774914
40
0.717848378774914
40
0.717848378774914
40
0.857416780703741
40
0.857416780703741
40
1
40
1
40
1
40
1
41
1
10
20.675191441635
20
1.70127990342513
30
0
41
1
10
20.7911798771557
20
1.35725165121315
30
0
41
1
10
20.8515063169956
20
0.987393048650887
30
0
41
1
10
20.8583371847437
20
0.621855629247762
30
0
41
1
10
20.8626122456559
20
0.393086051026472
30
0
41
1
10
20.8465567779391
20
0.163134436338339
30
0
41
1
10
20.8123797864738
20
-0.0630525324366431
30
0
41
1
10
20.7434685008538
20
-0.519114758529327
30
0
41
1
10
20.5994957692525
20
-0.9681222567269
30
0
41
1
10
20.3975539384809
20
-1.38288094788891
30
0
41
1
10
20.307065223556
20
-1.56873140207043
30
0
41
1
10
20.2042982272831
20
-1.74923914717743
30
0
41
1
10
19.974538402294
20
-2.09803106825555
30
0
41
1
10
19.8463341789479
20
-2.26704402067844
30
0
41
1
10
19.7082142882456
20
-2.42483351174917
30
0
0
SPLINE
5
13C
100
AcDbEntity
8
1
62
256
6
ByLayer
370
18
48
1
60
0
100
AcDbSpline
70
4
71
3
72
8
73
4
40
0
40
0
40
0
40
0
40
1
40
1
40
1
40
1
41
1
10
7.04140786826031
20
0.570019765061886
30
0
41
1
10
7.94453333722618
20
0.683827499754358
30
0
41
1
10
9.47581274767845
20
0.405454294369917
30
0
41
1
10
11.0644725695047
20
-0.0458741437872447
30
0
0
SPLINE
5
13D
100
AcDbEntity
8
1
62
256
6
ByLayer
370
18
48
1
60
0
100
AcDbSpline
70
4
71
3
72
10
73
6
40
0
40
0
40
0
40
0
40
0.493880230204841
40
0.493880230204841
40
1
40
1
40
1
40
1
41
1
10
29.7325732259069
20
12.0240308129738
30
0
41
1
10
29.6475588153561
20
12.0242456664464
30
0
41
1
10
29.5557489736644
20
12.024690928954
30
0
41
1
10
29.3451891350119
20
12.0263522623471
30
0
41
1
10
29.2256019837274
20
12.0277124411792
30
0
41
1
10
29.076127720294
20
12.0290803625886
30
0
0
SPLINE
5
13E
100
AcDbEntity
8
1
62
256
6
ByLayer
370
18
48
1
60
0
100
AcDbSpline
70
4
71
2
72
6
73
3
40
0
40
0
40
0
40
1
40
1
40
1
41
1.02994816993494
10
20.5405008498948
20
-4.50819961464598
30
0
41
1.02994816993494
10
20.6016113458543
20
-5.24048120731604
30
0
41
1.02994816993494
10
20.6627218418137
20
-5.97276279998608
30
0
0
SPLINE
5
13F
100
AcDbEntity
8
1
62
256
6
ByLayer
370
18
48
1
60
0
100
AcDbSpline
70
4
71
3
72
10
73
6
40
0
40
0
40
0
40
0
40
0.580414582153075
40
0.580414582153075
40
1
40
1
40
1
40
1
41
1
10
10.4962004711339
20
-1.032203448632
30
0
41
1
10
10.4042490369394
20
-1.1374797777282
30
0
41
1
10
10.3067092722035
20
-1.23708644689725
30
0
41
1
10
10.1321720950136
20
-1.39845583265509
30
0
41
1
10
10.0566178432121
20
-1.46333334286675
30
0
41
1
10
9.9797739198504
20
-1.52505477842698
30
0
0
SPLINE
5
140
100
AcDbEntity
8
1
62
256
6
ByLayer
370
18
48
1
60
0
100
AcDbSpline
70
4
71
3
72
8
73
4
40
0
40
0
40
0
40
0
40
1
40
1
40
1
40
1
41
1
10
14.6696122491904
20
3.97251433095053
30
0
41
1
10
13.9688990923976
20
4.62525149559343
30
0
41
1
10
13.3469472548779
20
5.04568213392588
30
0
41
1
10
12.9403359256332
20
5.14148064748352
30
0
0
SPLINE
5
141
100
AcDbEntity
8
1
62
256
6
ByLayer
370
18
48
1
60
0
100
AcDbSpline
70
4
71
3
72
10
73
6
40
0
40
0
40
0
40
0
40
0.5
40
0.5
40
1
40
1
40
1
40
1
41
1
10
14.6828208076038
20
-10.3017472116823
30
0
41
1
10
14.2906473863869
20
-10.3531638731253
30
0
41
1
10
14.0549551643443
20
-10.2042134865205
30
0
41
1
10
13.372499189685
20
-9.75862774393315
30
0
41
1
10
12.8648903237003
20
-9.39421037224375
30
0
41
1
10
12.3615425282339
20
-8.83565992388819
30
0
0
SPLINE
5
142
100
AcDbEntity
8
1
62
256
6
ByLayer
370
18
48
1
60
0
100
AcDbSpline
70
4
71
3
72
10
73
6
40
0
40
0
40
0
40
0
40
0.580414582160083
40
0.580414582160083
40
1
40
1
40
1
40
1
41
1
10
13.7893242193664
20
-5.21337471933464
30
0
41
1
10
13.6663012584854
20
-5.27920054956388
30
0
41
1
10
13.5476981961829
20
-5.35206384029834
30
0
41
1
10
13.3521642370179
20
-5.48677430028752
30
0
41
1
10
13.2724464196311
20
-5.54636546776214
30
0
41
1
10
13.1956024962695
20
-5.60808690332237
30
0
0
SPLINE
5
143
100
AcDbEntity
8
1
62
256
6
ByLayer
370
18
48
1
60
0
100
AcDbSpline
70
4
71
3
72
28
73
24
40
0
40
0
40
0
40
0
40
4.58207680505E-05
40
4.58207680505E-05
40
0.0262692706625013
40
0.0262692706625013
40
0.213495002074607
40
0.213495002074607
40
0.356578191350414
40
0.356578191350414
40
0.396506692896375
40
0.396506692896375
40
0.500669174647829
40
0.500669174647829
40
0.650604339303048
40
0.650604339303048
40
0.802246387468573
40
0.802246387468573
40
0.967086003134556
40
0.967086003134556
40
0.999954179232006
40
0.999954179232006
40
1
40
1
40
1
40
1
41
1
10
30.6593897011384
20
10.4075637698641
30
0
41
1
10
30.6593931480953
20
10.4075787447855
30
0
41
1
10
30.6593965943613
20
10.4075937197804
30
0
41
1
10
30.6613720539117
20
10.4161792157318
30
0
41
1
10
30.6631541225549
20
10.4248579009994
30
0
41
1
10
30.6759129354244
20
10.4955470849551
30
0
41
1
10
30.677257057863
20
10.5636729523499
30
0
41
1
10
30.6576650660682
20
10.6873320780672
30
0
41
1
10
30.6415809449957
20
10.7432814341043
30
0
41
1
10
30.6110884942144
20
10.8129226998075
30
0
41
1
10
30.6037462851889
20
10.8281911318562
30
0
41
1
10
30.5752560095403
20
10.8823431963246
30
0
41
1
10
30.5503778563032
20
10.9206392280368
30
0
41
1
10
30.4822972645389
20
11.0067109406468
30
0
41
1
10
30.4345685776821
20
11.0528305081589
30
0
41
1
10
30.3334129085375
20
11.1283394736105
30
0
41
1
10
30.2785129514066
20
11.1587624562138
30
0
41
1
10
30.1650637119977
20
11.2044933807232
30
0
41
1
10
30.1051516703931
20
11.2189885607913
30
0
41
1
10
30.036317148268
20
11.2262590389001
30
0
41
1
10
30.0248557802757
20
11.2271438550903
30
0
41
1
10
30.0134697772742
20
11.2277058252712
30
0
41
1
10
30.0134539206408
20
11.2277066073129
30
0
41
1
10
30.0134380639204
20
11.2277073886614
30
0
0
SPLINE
5
144
100
AcDbEntity
8
1
62
256
6
ByLayer
370
18
48
1
60
0
100
AcDbSpline
70
4
71
3
72
28
73
24
40
0
40
0
40
0
40
0
40
4.20487346493E-05
40
4.20487346493E-05
40
0.291419858702296
40
0.291419858702296
40
0.530976069930356
40
0.530976069930356
40
0.749068584166981
40
0.749068584166981
40
0.902838768278998
40
0.902838768278998
40
0.976526265230687
40
0.976526265230687
40
0.99476291188655
40
0.99476291188655
40
0.999138329414564
40
0.999138329414564
40
0.999456644382138
40
0.999456644382138
40
0.999704151355506
40
0.999704151355506
40
1
40
1
40
1
40
1
41
1
10
31.3762351623546
20
9.84132723483194
30
0
41
1
10
31.3762356550877
20
9.84133722368648
30
0
41
1
10
31.3762361469991
20
9.8413472125815
30
0
41
1
10
31.3786397494547
20
9.89025176051416
30
0
41
1
10
31.3490723348403
20
9.93986152756543
30
0
41
1
10
31.2590671941925
20
10.0332531254082
30
0
41
1
10
31.2039593051414
20
10.0777294504381
30
0
41
1
10
31.0801750145779
20
10.1659995951449
30
0
41
1
10
31.0123341065501
20
10.2099982395895
30
0
41
1
10
30.886253764742
20
10.2858899669401
30
0
41
1
10
30.8306924797575
20
10.3177296634213
30
0
41
1
10
30.7447810762038
20
10.3643718317378
30
0
41
1
10
30.7162953883854
20
10.3794529791124
30
0
41
1
10
30.6800898165399
20
10.3980701687368
30
0
41
1
10
30.6728736223723
20
10.401779457842
30
0
41
1
10
30.6638752484359
20
10.4062764517331
30
0
41
1
10
30.6620817671388
20
10.4075252608517
30
0
41
1
10
30.6602363605472
20
10.40780383563
30
0
41
1
10
30.6601082664756
20
10.4078041264546
30
0
41
1
10
30.6599129078631
20
10.4077459926578
30
0
41
1
10
30.6598372128303
20
10.4077002806043
30
0
41
1
10
30.6596964606024
20
10.4075744791626
30
0
41
1
10
30.6596336129689
20
10.4074896270484
30
0
41
1
10
30.6595779852953
20
10.4073997292105
30
0
0
SPLINE
5
145
100
AcDbEntity
8
1
62
256
6
ByLayer
370
18
48
1
60
0
100
AcDbSpline
70
4
71
3
72
10
73
6
40
0
40
0
40
0
40
0
40
9.39711588055E-05
40
9.39711588055E-05
40
1
40
1
40
1
40
1
41
1
10
31.2357821701469
20
8.67790456175453
30
0
41
1
10
31.2357850313449
20
8.67792013410121
30
0
41
1
10
31.2357878925496
20
8.67793570645608
30
0
41
1
10
31.2662355529494
20
8.84364969785088
30
0
41
1
10
31.2967268316941
20
9.00824971971255
30
0
41
1
10
31.3273469844937
20
9.17078106034148
30
0
0
SPLINE
5
146
100
AcDbEntity
8
1
62
256
6
ByLayer
370
18
48
1
60
0
100
AcDbSpline
70
4
71
3
72
12
73
8
40
0
40
0
40
0
40
0
40
0.477932094760441
40
0.477932094760441
40
0.904102435462302
40
0.904102435462302
40
1
40
1
40
1
40
1
41
1
10
13.7893242193555
20
-5.21337471933381
30
0
41
1
10
13.9507902354425
20
-5.12697918400707
30
0
41
1
10
14.1244105409869
20
-5.05170237056981
30
0
41
1
10
14.4590028028287
20
-4.94841000846233
30
0
41
1
10
14.6228837117671
20
-4.9154510035809
30
0
41
1
10
14.815257010058
20
-4.90025822736507
30
0
41
1
10
14.8507455774957
20
-4.89845834331558
30
0
41
1
10
14.8857991888185
20
-4.89768728481928
30
0
0
SPLINE
5
147
100
AcDbEntity
8
1
62
256
6
ByLayer
370
18
48
1
60
0
100
AcDbSpline
70
4
71
3
72
12
73
8
40
0
40
0
40
0
40
0
40
0.264973649149777
40
0.529947298299554
40
0.662434122874442
40
0.794920947449331
40
1
40
1
40
1
40
1
41
1.02994816993494
10
12.9403359256333
20
5.14148064748353
30
0
41
1.03004363841634
10
13.7866626842795
20
5.77363227798892
30
0
41
1.03021336426305
10
16.8906777595646
20
8.1004956114298
30
0
41
1.0311558410484
10
22.3288137651736
20
10.4032525895264
30
0
41
1.03077804826571
10
24.5689063381218
20
11.0397070786926
30
0
41
1.03340133735628
10
27.0307007136922
20
11.7127008922913
30
0
41
1.0349314968617
10
28.6676269621664
20
11.9332616596826
30
0
41
1.03576782913895
10
29.6693842140784
20
12.0041767061372
30
0
0
SPLINE
5
148
100
AcDbEntity
8
1
62
256
6
ByLayer
370
18
48
1
60
0
100
AcDbSpline
70
4
71
3
72
10
73
6
40
0
40
0
40
0
40
0
40
0.5
40
0.5
40
1
40
1
40
1
40
1
41
1
10
28.5088171428665
20
2.75889278367416
30
0
41
1
10
27.5323797643548
20
1.04761005366751
30
0
41
1
10
26.3443299808506
20
-0.54010808437323
30
0
41
1
10
23.7325052089584
20
-3.48964231612129
30
0
41
1
10
22.2103531352183
20
-4.75292335568307
30
0
41
1
10
20.6627218418137
20
-5.9727627999861
30
0
0
SPLINE
5
149
100
AcDbEntity
8
1
62
256
6
ByLayer
370
18
48
1
60
0
100
AcDbSpline
70
4
71
3
72
10
73
6
40
0
40
0
40
0
40
0
40
0.794724528922951
40
0.794724528922951
40
1
40
1
40
1
40
1
41
1
10
31.3273469844937
20
9.17078106034148
30
0
41
1
10
31.3722577129036
20
9.40916657542513
30
0
41
1
10
31.3984031464864
20
9.58406481801367
30
0
41
1
10
31.4273254175156
20
9.78096927810543
30
0
41
1
10
31.4329613745094
20
9.8202161128776
30
0
41
1
10
31.438325118597
20
9.8582935513399
30
0
0
SPLINE
5
14A
100
AcDbEntity
8
1
62
256
6
ByLayer
370
18
48
1
60
0
100
AcDbSpline
70
4
71
3
72
10
73
6
40
0
40
0
40
0
40
0
40
0.5
40
0.5
40
1
40
1
40
1
40
1
41
1
10
11.6740875341337
20
5.43981152263586
30
0
41
1
10
13.2455076429871
20
6.63707767560481
30
0
41
1
10
14.8427638479899
20
7.79103094611094
30
0
41
1
10
18.3438187896478
20
9.5850347455262
30
0
41
1
10
20.1955136207891
20
10.3508965431056
30
0
41
1
10
22.1135189456331
20
10.8787932594224
30
0
0
SPLINE
5
14B
100
AcDbEntity
8
1
62
256
6
ByLayer
370
18
48
1
60
0
100
AcDbSpline
70
4
71
3
72
12
73
8
40
0
40
0
40
0
40
0
40
0.107029883294999
40
0.443706177278308
40
0.612044324269963
40
0.780382471261618
40
1
40
1
40
1
40
1
41
1.03017844307583
10
20.6751914418763
20
1.70127990361059
30
0
41
1.03022736562783
10
21.1525267990356
20
2.0679938058912
30
0
41
1.03047050908112
10
23.2457974738304
20
3.69272071790635
30
0
41
1.0311558410484
10
26.3054211123697
20
6.24656960361061
30
0
41
1.03077804826571
10
27.8426602456182
20
7.66720246992996
30
0
41
1.03322144498364
10
29.3354533790213
20
9.03246050737188
30
0
41
1.03463604371943
10
30.2014311100436
20
9.91180463048203
30
0
41
1.0353664121206
10
30.6593897088142
20
10.4075637781737
30
0
0
SPLINE
5
14C
100
AcDbEntity
8
1
62
256
6
ByLayer
370
18
48
1
60
0
100
AcDbSpline
70
4
71
3
72
8
73
4
40
0
40
0
40
0
40
0
40
1
40
1
40
1
40
1
41
1
10
14.8857991888184
20
-4.89768728481928
30
0
41
1
10
14.9712805240276
20
-4.8958069903988
30
0
41
1
10
15.0564805194705
20
-4.89863453218041
30
0
41
1
10
15.1405115683898
20
-4.90614460275754
30
0
0
SPLINE
5
14D
100
AcDbEntity
8
1
62
256
6
ByLayer
370
18
48
1
60
0
100
AcDbSpline
70
4
71
3
72
8
73
4
40
0
40
0
40
0
40
0
40
1
40
1
40
1
40
1
41
1
10
11.1202933803328
20
0.198194643211764
30
0
41
1
10
11.1063932861689
20
0.116661739509851
30
0
41
1
10
11.0877257412503
20
0.0350152098718013
30
0
41
1
10
11.0644725695048
20
-0.0458741437871595
30
0
0
SPLINE
5
14E
100
AcDbEntity
8
1
62
256
6
ByLayer
370
18
48
1
60
0
100
AcDbSpline
70
4
71
3
72
8
73
4
40
0
40
0
40
0
40
0
40
1
40
1
40
1
40
1
41
1
10
28.5088171428666
20
2.75889278367427
30
0
41
1
10
29.1639626330507
20
3.90708639820269
30
0
41
1
10
29.7807717685386
20
4.96763021597596
30
0
41
1
10
30.306836858251
20
5.97157756395757
30
0
0
SPLINE
5
14F
100
AcDbEntity
8
1
62
256
6
ByLayer
370
18
48
1
60
0
100
AcDbSpline
70
4
71
3
72
10
73
6
40
0
40
0
40
0
40
0
40
0.999906028841232
40
0.999906028841232
40
1
40
1
40
1
40
1
41
1
10
29.076127720294
20
12.0290803625886
30
0
41
1
10
28.9163449027111
20
12.0305426232614
30
0
41
1
10
28.7544861971423
20
12.032735516788
30
0
41
1
10
28.5915003138943
20
12.0353009621123
30
0
41
1
10
28.5914849979019
20
12.0353012031978
30
0
41
1
10
28.5914696819194
20
12.0353014442781
30
0
0
SPLINE
5
150
100
AcDbEntity
8
1
62
256
6
ByLayer
370
18
48
1
60
0
100
AcDbSpline
70
4
71
3
72
24
73
20
40
0
40
0
40
0
40
0
40
0.0001109191202379
40
0.0001109191202379
40
0.0009920216778348
40
0.0009920216778348
40
0.006632822613526
40
0.006632822613526
40
0.0295221595718165
40
0.0295221595718165
40
0.121312289845568
40
0.121312289845568
40
0.308399631015026
40
0.308399631015026
40
0.557773367664652
40
0.557773367664652
40
0.796812833993193
40
0.796812833993193
40
1
40
1
40
1
40
1
41
1
10
30.6594584725923
20
10.407862926395
30
0
41
1
10
30.6594834190705
20
10.4078774758406
30
0
41
1
10
30.6595088073057
20
10.407891411621
30
0
41
1
10
30.65973605639
20
10.4080073965899
30
0
41
1
10
30.659978864909
20
10.4080550272339
30
0
41
1
10
30.661858035213
20
10.4079912038473
30
0
41
1
10
30.6636322431491
20
10.4072403668151
30
0
41
1
10
30.6722652104651
20
10.4047053695158
30
0
41
1
10
30.6791670235237
20
10.4026196239615
30
0
41
1
10
30.7135716204108
20
10.3923312702908
30
0
41
1
10
30.7406266639533
20
10.384269467157
30
0
41
1
10
30.8210282344722
20
10.3606192949923
30
0
41
1
10
30.8727883541447
20
10.3457992671197
30
0
41
1
10
30.9866557212612
20
10.3156319612222
30
0
41
1
10
31.0470817570221
20
10.301562161855
30
0
41
1
10
31.1524145518378
20
10.2851202432946
30
0
41
1
10
31.1985169159589
20
10.2821127993477
30
0
41
1
10
31.2690685577858
20
10.2920436012282
30
0
41
1
10
31.2966723776495
20
10.3019844590738
30
0
41
1
10
31.3150771988662
20
10.32429689364
30
0
0
SPLINE
5
151
100
AcDbEntity
8
1
62
256
6
ByLayer
370
18
48
1
60
0
100
AcDbSpline
70
4
71
2
72
6
73
3
40
0
40
0
40
0
40
1
40
1
40
1
41
0.933477290296916
10
19.7082142875707
20
-2.4248335105685
30
0
41
0.923463989330483
10
20.4792099692842
20
-3.77375648887755
30
0
41
1.02994816993494
10
20.5405008498948
20
-4.50819961464598
30
0
0
SPLINE
5
152
100
AcDbEntity
8
1
62
256
6
ByLayer
370
18
48
1
60
0
100
AcDbSpline
70
4
71
3
72
13
73
9
40
0
40
0
40
0
40
0
40
0.21907077297069
40
0.21907077297069
40
0.21907077297069
40
0.652376048528383
40
0.652376048528383
40
1
40
1
40
1
40
1
41
1
10
17.5571565289952
20
-4.19032717865596
30
0
41
1
10
17.400600631431
20
-4.31165246939801
30
0
41
1
10
17.2357806157849
20
-4.41981956730248
30
0
41
1
10
17.0662673808197
20
-4.51214208707719
30
0
41
1
10
16.7343186826217
20
-4.69293233782008
30
0
41
1
10
16.377936725021
20
-4.81505171845433
30
0
41
1
10
15.7306472337915
20
-4.92302715409181
30
0
41
1
10
15.4350399788163
20
-4.93246736294819
30
0
41
1
10
15.1405115683898
20
-4.90614460275754
30
0
0
SPLINE
5
153
100
AcDbEntity
8
1
62
256
6
ByLayer
370
18
48
1
60
0
100
AcDbSpline
70
4
71
3
72
8
73
4
40
0
40
0
40
0
40
0
40
1
40
1
40
1
40
1
41
1
10
29.6661849913929
20
12.0039500149811
30
0
41
1
10
29.8243794300795
20
12.0094094772502
30
0
41
1
10
29.985346929184
20
11.9509477840576
30
0
41
1
10
30.1142360393108
20
11.8412226132154
30
0
0
SPLINE
5
154
100
AcDbEntity
8
1
62
256
6
ByLayer
370
18
48
1
60
0
100
AcDbSpline
70
4
71
3
72
13
73
9
40
0
40
0
40
0
40
0
40
0.476351510225593
40
0.476351510225593
40
0.476351510225593
40
0.687543277835219
40
0.687543277835219
40
1
40
1
40
1
40
1
41
1
10
11.1202933803328
20
0.198194643211764
30
0
41
1
10
11.1866731037278
20
0.587553990818265
30
0
41
1
10
11.3198069350498
20
0.963930792622136
30
0
41
1
10
11.5197047263543
20
1.30773756975179
30
0
41
1
10
11.6092627474462
20
1.4617695597841
30
0
41
1
10
11.7128092406797
20
1.61065064041412
30
0
41
1
10
12.0003557178717
20
1.96018580950692
30
0
41
1
10
12.2018144733296
20
2.15447980529595
30
0
41
1
10
12.4241993781724
20
2.32682025146553
30
0
0
SPLINE
5
155
100
AcDbEntity
8
1
62
256
6
ByLayer
370
18
48
1
60
0
100
AcDbSpline
70
4
71
3
72
8
73
4
40
0
40
0
40
0
40
0
40
1
40
1
40
1
40
1
41
1
10
25.7194585337858
20
11.7960214429615
30
0
41
1
10
24.5912416202746
20
11.5566065264331
30
0
41
1
10
23.3951625371699
20
11.2315427720004
30
0
41
1
10
22.113518945633
20
10.8787932594224
30
0
0
SPLINE
5
156
100
AcDbEntity
8
1
62
256
6
ByLayer
370
18
48
1
60
0
100
AcDbSpline
70
4
71
3
72
8
73
4
40
0
40
0
40
0
40
0
40
1
40
1
40
1
40
1
41
1
10
12.1252683160461
20
-8.55857032020441
30
0
41
1
10
12.1305491670429
20
-8.56527524360266
30
0
41
1
10
12.1358860124456
20
-8.57193345505499
30
0
41
1
10
12.1412758915814
20
-8.57854141299555
30
0
0
SPLINE
5
157
100
AcDbEntity
8
1
62
256
6
ByLayer
370
18
48
1
60
0
100
AcDbSpline
70
4
71
3
72
8
73
4
40
0
40
0
40
0
40
0
40
1
40
1
40
1
40
1
41
1.03548960590947
10
28.5914742967349
20
12.0353014956829
30
0
41
1.03477250223163
10
27.6211198986069
20
12.0244927271729
30
0
41
1.03398726483063
10
26.6774871571187
20
11.953043738641
30
0
41
1.03311206534555
10
25.719482362092
20
11.7960253484729
30
0
0
SPLINE
5
158
100
AcDbEntity
8
1
62
256
6
ByLayer
370
18
48
1
60
0
100
AcDbSpline
70
4
71
3
72
8
73
4
40
0
40
0
40
0
40
0
40
1
40
1
40
1
40
1
41
1
10
12.3615425282339
20
-8.83565992388819
30
0
41
1
10
12.286599459637
20
-8.75249777448988
30
0
41
1
10
12.2125735881549
20
-8.6659519408289
30
0
41
1
10
12.1412758915814
20
-8.57854141299558
30
0
0
SPLINE
5
159
100
AcDbEntity
8
1
62
256
6
ByLayer
370
18
48
1
60
0
100
AcDbSpline
70
4
71
3
72
10
73
6
40
0
40
0
40
0
40
0
40
0.5
40
0.5
40
1
40
1
40
1
40
1
41
1
10
6.71743134128275
20
-1.6695169703151
30
0
41
1
10
6.29897436377621
20
-1.05800561183992
30
0
41
1
10
6.08548059216957
20
-0.509126533054626
30
0
41
1
10
5.85956803442048
20
0.201226836523688
30
0
41
1
10
5.79750428357477
20
0.426546209751365
30
0
41
1
10
5.96597811802064
20
0.765742203086063
30
0
0
SPLINE
5
15A
100
AcDbEntity
8
1
62
256
6
ByLayer
370
18
48
1
60
0
100
AcDbSpline
70
4
71
3
72
12
73
8
40
0
40
0
40
0
40
0
40
0.392678099449868
40
0.392678099449868
40
0.791279335966144
40
0.791279335966144
40
1
40
1
40
1
40
1
41
1
10
16.7896339806546
20
-0.967639710384105
30
0
41
1
10
16.7723916640219
20
-0.977232484207093
30
0
41
1
10
16.7550183796101
20
-0.988109729103314
30
0
41
1
10
16.7227376259763
20
-1.01131324025707
30
0
41
1
10
16.7074975185662
20
-1.0239517758381
30
0
41
1
10
16.6877125428749
20
-1.04291618709288
30
0
41
1
10
16.6813968444525
20
-1.04949581833165
30
0
41
1
10
16.6756610414262
20
-1.05596471253193
30
0
0
SPLINE
5
15B
100
AcDbEntity
8
1
62
256
6
ByLayer
370
18
48
1
60
0
100
AcDbSpline
70
4
71
3
72
14
73
10
40
0
40
0
40
0
40
0
40
0.164525200330905
40
0.164525200330905
40
0.540804984924885
40
0.540804984924885
40
0.917041398719628
40
0.917041398719628
40
1
40
1
40
1
40
1
41
1
10
15.6590135000032
20
-1.1837671297547
30
0
41
1
10
15.6519116972445
20
-1.18015100864153
30
0
41
1
10
15.6446103930428
20
-1.17654031096222
30
0
41
1
10
15.6202631103958
20
-1.16487823925181
30
0
41
1
10
15.6023023949282
20
-1.1568889251262
30
0
41
1
10
15.5671553918933
20
-1.14252830047559
30
0
41
1
10
15.5495754038834
20
-1.13599311575572
30
0
41
1
10
15.5296014235421
20
-1.12925220170754
30
0
41
1
10
15.5260154800565
20
-1.12807047125531
30
0
41
1
10
15.5224813136457
20
-1.12693304188238
30
0
0
SPLINE
5
15C
100
AcDbEntity
8
1
62
256
6
ByLayer
370
18
48
1
60
0
100
AcDbSpline
70
4
71
3
72
14
73
10
40
0
40
0
40
0
40
0
40
0.164525200330947
40
0.164525200330947
40
0.540804984924874
40
0.540804984924874
40
0.917041398719704
40
0.917041398719704
40
1
40
1
40
1
40
1
41
1
10
16.3558798662244
20
1.00169014342794
30
0
41
1
10
16.3619011086815
20
0.996972488962371
30
0
41
1
10
16.3682612133463
20
0.992402323607052
30
0
41
1
10
16.3900856284505
20
0.978168416952968
30
0
41
1
10
16.4071883258473
20
0.969304431121628
30
0
41
1
10
16.4427847724638
20
0.955401973492826
30
0
41
1
10
16.4616713953653
20
0.950198784692617
30
0
41
1
10
16.4842347653813
20
0.946097518876144
30
0
41
1
10
16.4883313789596
20
0.945436370327911
30
0
41
1
10
16.4924120525822
20
0.944856055555931
30
0
0
SPLINE
5
15D
100
AcDbEntity
8
1
62
256
6
ByLayer
370
18
48
1
60
0
100
AcDbSpline
70
4
71
3
72
14
73
10
40
0
40
0
40
0
40
0
40
0.0829586012802712
40
0.0829586012802712
40
0.459195015075171
40
0.459195015075171
40
0.835474799669137
40
0.835474799669137
40
1
40
1
40
1
40
1
41
1
10
17.1380671637657
20
0.125088926208292
30
0
41
1
10
17.1377128216217
20
0.120938040055421
30
0
41
1
10
17.1374294075605
20
0.116757694177863
30
0
41
1
10
17.1362914706283
20
0.0936557899582908
30
0
41
1
10
17.1369676399166
20
0.074020742806141
30
0
41
1
10
17.1420077289458
20
0.0363283232381377
30
0
41
1
10
17.1464376147416
20
0.0178530940530095
30
0
41
1
10
17.1547787337562
20
-0.0062131891024819
30
0
41
1
10
17.1575977739473
20
-0.0132974830675323
30
0
41
1
10
17.1606264108925
20
-0.0200701638136422
30
0
0
SPLINE
5
15E
100
AcDbEntity
8
1
62
256
6
ByLayer
370
18
48
1
60
0
100
AcDbSpline
70
4
71
3
72
12
73
8
40
0
40
0
40
0
40
0
40
0.392678099452514
40
0.392678099452514
40
0.791279335968703
40
0.791279335968703
40
1
40
1
40
1
40
1
41
1
10
15.2252593855739
20
0.785562724058281
30
0
41
1
10
15.2399361521717
20
0.792540152002942
30
0
41
1
10
15.2555345473156
20
0.801608058056217
30
0
41
1
10
15.2865716887295
20
0.823543819195777
30
0
41
1
10
15.3023818567225
20
0.836763479906239
30
0
41
1
10
15.324651924131
20
0.85826121707214
30
0
41
1
10
15.3321190426614
20
0.866014616817694
30
0
41
1
10
15.3392323248023
20
0.873887726206107
30
0
0
SPLINE
5
15F
100
AcDbEntity
8
1
62
256
6
ByLayer
370
18
48
1
60
0
100
AcDbSpline
70
4
71
3
72
14
73
10
40
0
40
0
40
0
40
0
40
0.0829586012803246
40
0.0829586012803246
40
0.459195015075165
40
0.459195015075165
40
0.835474799669074
40
0.835474799669074
40
1
40
1
40
1
40
1
41
1
10
14.8768262024622
20
-0.307165912534771
30
0
41
1
10
14.8766340373944
20
-0.303572140982823
30
0
41
1
10
14.8764067813629
20
-0.299912377009264
30
0
41
1
10
14.8749553286204
20
-0.279450121021398
30
0
41
1
10
14.8729725244405
20
-0.261147069788905
30
0
41
1
10
14.8674829918296
20
-0.223912817242734
30
0
41
1
10
14.8639111241048
20
-0.204562916351847
30
0
41
1
10
14.8580928726329
20
-0.177924798252718
30
0
41
1
10
14.8562150319789
20
-0.169881036611656
30
0
41
1
10
14.8542669553352
20
-0.162006822513121
30
0
0
LINE
5
72
100
AcDbEntity
8
1
62
256
6
ByLayer
370
18
48
1
60
0
100
AcDbLine
10
32.182481
20
5.701755
30
0
11
32.989138
21
6.524069
31
0
39
0
210
0
220
0
230
1
0
LINE
5
74
100
AcDbEntity
8
1
62
256
6
ByLayer
370
18
48
1
60
0
100
AcDbLine
10
6.291452
20
1.178203
30
0
11
5.593503
21
0.527691
31
0
39
0
210
0
220
0
230
1
0
LINE
5
75
100
AcDbEntity
8
1
62
256
6
ByLayer
370
18
48
1
60
0
100
AcDbLine
10
16.687007
20
-1.043814
30
0
11
16.306943
21
-1.431254
31
0
39
0
210
0
220
0
230
1
0
LINE
5
76
100
AcDbEntity
8
1
62
256
6
ByLayer
370
18
48
1
60
0
100
AcDbLine
10
14.945754
20
0.472188
30
0
11
15.325818
21
0.859628
31
0
39
0
210
0
220
0
230
1
0
LINE
5
77
100
AcDbEntity
8
1
62
256
6
ByLayer
370
18
48
1
60
0
100
AcDbLine
10
25.91929
20
13.4688
30
0
11
25.112632
21
12.646486
31
0
39
0
210
0
220
0
230
1
0
LINE
5
78
100
AcDbEntity
8
1
62
256
6
ByLayer
370
18
48
1
60
0
100
AcDbLine
10
18.303983
20
-3.461944
30
0
11
18.716113
21
-3.041815
31
0
39
0
210
0
220
0
230
1
0
LINE
5
79
100
AcDbEntity
8
1
62
256
6
ByLayer
370
18
48
1
60
0
100
AcDbLine
10
13.005152
20
2.56041
30
0
11
12.593022
21
2.140281
31
0
39
0
210
0
220
0
230
1
0
LINE
5
7A
100
AcDbEntity
8
1
62
256
6
ByLayer
370
18
48
1
60
0
100
AcDbLine
10
9.604303
20
-1.891043
30
0
11
10.217599
21
-1.319431
31
0
39
0
210
0
220
0
230
1
0
LINE
5
7B
100
AcDbEntity
8
80
62
256
6
ByLayer
370
18
48
1
60
0
100
AcDbLine
10
0
20
0
30
0
11
-5
21
0
31
0
39
0
210
0
220
0
230
1
0
LINE
5
7C
100
AcDbEntity
8
81
62
256
6
ByLayer
370
18
48
1
60
0
100
AcDbLine
10
39.212329
20
19.9125
30
0
11
49.212329
21
19.9125
31
0
39
0
210
0
220
0
230
1
0
LINE
5
7D
100
AcDbEntity
8
1
62
256
6
ByLayer
370
18
48
1
60
0
100
AcDbLine
10
32.800155
20
6.384165
30
0
11
29.607342
21
4.722091
31
0
39
0
210
0
220
0
230
1
0
LINE
5
7E
100
AcDbEntity
8
1
62
256
6
ByLayer
370
18
48
1
60
0
100
AcDbLine
10
24.954298
20
11.614754
30
0
11
25.783621
21
13.278323
31
0
39
0
210
0
220
0
230
1
0
LINE
5
7F
100
AcDbEntity
8
1
62
256
6
ByLayer
370
18
48
1
60
0
100
AcDbLine
10
31.993497
20
5.561851
30
0
11
31.897198
21
5.51172
31
0
39
0
210
0
220
0
230
1
0
LINE
5
80
100
AcDbEntity
8
1
62
256
6
ByLayer
370
18
48
1
60
0
100
AcDbLine
10
24.91257
20
12.326839
30
0
11
24.976963
21
12.456008
31
0
39
0
210
0
220
0
230
1
0
LINE
5
81
100
AcDbEntity
8
1
62
256
6
ByLayer
370
18
48
1
60
0
100
AcDbLine
10
11.949825
20
1.868613
30
0
11
13.414915
21
3.002621
31
0
39
0
210
0
220
0
230
1
0
LINE
5
82
100
AcDbEntity
8
1
62
256
6
ByLayer
370
18
48
1
60
0
100
AcDbLine
10
15.386124
20
-9.968434
30
0
11
14.778262
21
-10.534982
31
0
39
0
210
0
220
0
230
1
0
LINE
5
83
100
AcDbEntity
8
1
62
256
6
ByLayer
370
18
48
1
60
0
100
AcDbLine
10
16.449894
20
-9.152435
30
0
11
15.080899
21
-10.287073
31
0
39
0
210
0
220
0
230
1
0
LINE
5
84
100
AcDbEntity
8
1
62
256
6
ByLayer
370
18
48
1
60
0
100
AcDbLine
10
8.742667
20
3.091329
30
0
11
8.705137
21
3.13898
31
0
39
0
210
0
220
0
230
1
0
LINE
5
85
100
AcDbEntity
8
1
62
256
6
ByLayer
370
18
48
1
60
0
100
AcDbLine
10
16.216018
20
-1.691835
30
0
11
16.572577
21
-1.328355
31
0
39
0
210
0
220
0
230
1
0
LINE
5
86
100
AcDbEntity
8
1
62
256
6
ByLayer
370
18
48
1
60
0
100
AcDbLine
10
18.303983
20
-3.461944
30
0
11
18.304052
21
-3.461873
31
0
39
0
210
0
220
0
230
1
0
LINE
5
87
100
AcDbEntity
8
1
62
256
6
ByLayer
370
18
48
1
60
0
100
AcDbLine
10
16.330323
20
-9.6615
30
0
11
16.134878
21
-9.41335
31
0
39
0
210
0
220
0
230
1
0
LINE
5
88
100
AcDbEntity
8
1
62
256
6
ByLayer
370
18
48
1
60
0
100
AcDbLine
10
7.217283
20
1.909028
30
0
11
2.734161
21
7.601101
31
0
39
0
210
0
220
0
230
1
0
LINE
5
89
100
AcDbEntity
8
1
62
256
6
ByLayer
370
18
48
1
60
0
100
AcDbLine
10
13.241484
20
-11.609823
30
0
11
13.119785
21
-11.455306
31
0
39
0
210
0
220
0
230
1
0
LINE
5
8A
100
AcDbEntity
8
1
62
256
6
ByLayer
370
18
48
1
60
0
100
AcDbLine
10
4.632328
20
-0.67906
30
0
11
2.177952
21
2.43718
31
0
39
0
210
0
220
0
230
1
0
LINE
5
8B
100
AcDbEntity
8
1
62
256
6
ByLayer
370
18
48
1
60
0
100
AcDbLine
10
29.448327
20
4.444964
30
0
11
31.802893
21
5.684087
31
0
39
0
210
0
220
0
230
1
0
LINE
5
8C
100
AcDbEntity
8
1
62
256
6
ByLayer
370
18
48
1
60
0
100
AcDbLine
10
24.749222
20
11.562869
30
0
11
25.085358
21
12.237137
31
0
39
0
210
0
220
0
230
1
0
LINE
5
8D
100
AcDbEntity
8
1
62
256
6
ByLayer
370
18
48
1
60
0
100
AcDbLine
10
12.383918
20
-12.163909
30
0
11
11.811233
21
-11.43679
31
0
39
0
210
0
220
0
230
1
0
LINE
5
8E
100
AcDbEntity
8
1
62
256
6
ByLayer
370
18
48
1
60
0
100
AcDbLine
10
4.337549
20
-1.947698
30
0
11
1.977379
21
1.048933
31
0
39
0
210
0
220
0
230
1
0
LINE
5
8F
100
AcDbEntity
8
1
62
256
6
ByLayer
370
18
48
1
60
0
100
AcDbLine
10
24.911855
20
11.604808
30
0
11
25.135958
21
12.054344
31
0
39
0
210
0
220
0
230
1
0
LINE
5
90
100
AcDbEntity
8
1
62
256
6
ByLayer
370
18
48
1
60
0
100
AcDbLine
10
13.207608
20
-11.644356
30
0
11
13.072201
21
-11.472434
31
0
39
0
210
0
220
0
230
1
0
LINE
5
91
100
AcDbEntity
8
1
62
256
6
ByLayer
370
18
48
1
60
0
100
AcDbLine
10
4.605451
20
-0.722479
30
0
11
2.125701
21
2.425979
31
0
39
0
210
0
220
0
230
1
0
LINE
5
92
100
AcDbEntity
8
1
62
256
6
ByLayer
370
18
48
1
60
0
100
AcDbLine
10
29.648955
20
4.581889
30
0
11
29.474166
21
4.489904
31
0
39
0
210
0
220
0
230
1
0
LINE
5
93
100
AcDbEntity
8
1
62
256
6
ByLayer
370
18
48
1
60
0
100
AcDbLine
10
6.456143
20
-4.769567
30
0
11
7.031736
21
-4.233094
31
0
39
0
210
0
220
0
230
1
0
LINE
5
94
100
AcDbEntity
8
1
62
256
6
ByLayer
370
18
48
1
60
0
100
AcDbLine
10
17.705524
20
-8.170981
30
0
11
17.65214
21
-8.220736
31
0
39
0
210
0
220
0
230
1
0
LINE
5
95
100
AcDbEntity
8
1
62
256
6
ByLayer
370
18
48
1
60
0
100
AcDbLine
10
8.705137
20
3.13898
30
0
11
8.800152
21
3.135877
31
0
39
0
210
0
220
0
230
1
0
LINE
5
96
100
AcDbEntity
8
1
62
256
6
ByLayer
370
18
48
1
60
0
100
AcDbLine
10
9.651113
20
-8.686015
30
0
11
9.486443
21
-8.617039
31
0
39
0
210
0
220
0
230
1
0
LINE
5
97
100
AcDbEntity
8
1
62
256
6
ByLayer
370
18
48
1
60
0
100
AcDbLine
10
10.305197
20
-8.076387
30
0
11
10.062036
21
-8.080567
31
0
39
0
210
0
220
0
230
1
0
LINE
5
98
100
AcDbEntity
8
1
62
256
6
ByLayer
370
18
48
1
60
0
100
AcDbLine
10
17.705524
20
-8.170981
30
0
11
17.693771
21
-8.273594
31
0
39
0
210
0
220
0
230
1
0
LINE
5
99
100
AcDbEntity
8
1
62
256
6
ByLayer
370
18
48
1
60
0
100
AcDbLine
10
9.979774
20
-1.525055
30
0
11
9.408981
21
-2.057053
31
0
39
0
210
0
220
0
230
1
0
LINE
5
9A
100
AcDbEntity
8
1
62
256
6
ByLayer
370
18
48
1
60
0
100
AcDbLine
10
14.641573
20
-9.07966
30
0
11
20.540501
21
-4.5082
31
0
39
0
210
0
220
0
230
1
0
LINE
5
9B
100
AcDbEntity
8
1
62
256
6
ByLayer
370
18
48
1
60
0
100
AcDbLine
10
17.65214
20
-8.220736
30
0
11
17.693771
21
-8.273594
31
0
39
0
210
0
220
0
230
1
0
LINE
5
9C
100
AcDbEntity
8
1
62
256
6
ByLayer
370
18
48
1
60
0
100
AcDbLine
10
7.089368
20
-3.993355
30
0
11
7.031736
21
-4.233094
31
0
39
0
210
0
220
0
230
1
0
LINE
5
9D
100
AcDbEntity
8
1
62
256
6
ByLayer
370
18
48
1
60
0
100
AcDbLine
10
6.930468
20
-1.962903
30
0
11
12.125268
21
-8.55857
31
0
39
0
210
0
220
0
230
1
0
LINE
5
9E
100
AcDbEntity
8
1
62
256
6
ByLayer
370
18
48
1
60
0
100
AcDbLine
10
7.089368
20
-3.993355
30
0
11
10.305197
21
-8.076387
31
0
39
0
210
0
220
0
230
1
0
LINE
5
9F
100
AcDbEntity
8
1
62
256
6
ByLayer
370
18
48
1
60
0
100
AcDbLine
10
19.133398
20
-2.968796
30
0
11
17.557157
21
-4.190327
31
0
39
0
210
0
220
0
230
1
0
LINE
5
A0
100
AcDbEntity
8
1
62
256
6
ByLayer
370
18
48
1
60
0
100
AcDbLine
10
6.435285
20
-4.602983
30
0
11
6.456143
21
-4.769567
31
0
39
0
210
0
220
0
230
1
0
LINE
5
A1
100
AcDbEntity
8
1
62
256
6
ByLayer
370
18
48
1
60
0
100
AcDbLine
10
9.651113
20
-8.686015
30
0
11
10.305197
21
-8.076387
31
0
39
0
210
0
220
0
230
1
0
LINE
5
A2
100
AcDbEntity
8
1
62
256
6
ByLayer
370
18
48
1
60
0
100
AcDbLine
10
10.182741
20
-10.369073
30
0
11
4.987941
21
-3.773406
31
0
39
0
210
0
220
0
230
1
0
LINE
5
A3
100
AcDbEntity
8
1
62
256
6
ByLayer
370
18
48
1
60
0
100
AcDbLine
10
15.386124
20
-9.968434
30
0
11
17.705524
21
-8.170981
31
0
39
0
210
0
220
0
230
1
0
LINE
5
A4
100
AcDbEntity
8
1
62
256
6
ByLayer
370
18
48
1
60
0
100
AcDbLine
10
12.424199
20
2.32682
30
0
11
14.00044
21
3.548351
31
0
39
0
210
0
220
0
230
1
0
LINE
5
A5
100
AcDbEntity
8
1
62
256
6
ByLayer
370
18
48
1
60
0
100
AcDbLine
10
8.800152
20
3.135877
30
0
11
6.480752
21
1.338424
31
0
39
0
210
0
220
0
230
1
0
LINE
5
A6
100
AcDbEntity
8
1
62
256
6
ByLayer
370
18
48
1
60
0
100
AcDbLine
10
6.435285
20
-4.602983
30
0
11
7.089368
21
-3.993355
31
0
39
0
210
0
220
0
230
1
0
LINE
5
A7
100
AcDbEntity
8
1
62
256
6
ByLayer
370
18
48
1
60
0
100
AcDbLine
10
8.048124
20
-3.110383
30
0
11
11.263953
21
-7.193415
31
0
39
0
210
0
220
0
230
1
0
LINE
5
A8
100
AcDbEntity
8
1
62
256
6
ByLayer
370
18
48
1
60
0
100
AcDbLine
10
9.486443
20
-8.617039
30
0
11
10.062036
21
-8.080567
31
0
39
0
210
0
220
0
230
1
0
LINE
5
A9
100
AcDbEntity
8
1
62
256
6
ByLayer
370
18
48
1
60
0
100
AcDbLine
10
12.424199
20
2.32682
30
0
11
11.848105
21
1.78988
31
0
39
0
210
0
220
0
230
1
0
LINE
5
AA
100
AcDbEntity
8
1
62
256
6
ByLayer
370
18
48
1
60
0
100
AcDbLine
10
7.031736
20
-4.233094
30
0
11
10.062036
21
-8.080567
31
0
39
0
210
0
220
0
230
1
0
LINE
5
AB
100
AcDbEntity
8
1
62
256
6
ByLayer
370
18
48
1
60
0
100
AcDbLine
10
6.930468
20
-1.962903
30
0
11
4.987941
21
-3.773406
31
0
39
0
210
0
220
0
230
1
0
LINE
5
AC
100
AcDbEntity
8
1
62
256
6
ByLayer
370
18
48
1
60
0
100
AcDbLine
10
7.041408
20
0.57002
30
0
11
12.940336
21
5.141481
31
0
39
0
210
0
220
0
230
1
0
LINE
5
AD
100
AcDbEntity
8
1
62
256
6
ByLayer
370
18
48
1
60
0
100
AcDbLine
10
11.674088
20
5.439812
30
0
11
8.705137
21
3.13898
31
0
39
0
210
0
220
0
230
1
0
LINE
5
AE
100
AcDbEntity
8
1
62
256
6
ByLayer
370
18
48
1
60
0
100
AcDbLine
10
14.00044
20
3.548351
30
0
11
13.414915
21
3.002621
31
0
39
0
210
0
220
0
230
1
0
LINE
5
AF
100
AcDbEntity
8
1
62
256
6
ByLayer
370
18
48
1
60
0
100
AcDbLine
10
16.449894
20
-9.152435
30
0
11
17.65214
21
-8.220736
31
0
39
0
210
0
220
0
230
1
0
LINE
5
B0
100
AcDbEntity
8
1
62
256
6
ByLayer
370
18
48
1
60
0
100
AcDbLine
10
12.125268
20
-8.55857
30
0
11
10.182741
21
-10.369073
31
0
39
0
210
0
220
0
230
1
0
LINE
5
B1
100
AcDbEntity
8
1
62
256
6
ByLayer
370
18
48
1
60
0
100
AcDbLine
10
9.408981
20
-2.057053
30
0
11
8.048124
21
-3.110383
31
0
39
0
210
0
220
0
230
1
0
LINE
5
B2
100
AcDbEntity
8
1
62
256
6
ByLayer
370
18
48
1
60
0
100
AcDbLine
10
20.662722
20
-5.972763
30
0
11
17.693771
21
-8.273594
31
0
39
0
210
0
220
0
230
1
0
LINE
5
B3
100
AcDbEntity
8
1
62
256
6
ByLayer
370
18
48
1
60
0
100
AcDbLine
10
6.456143
20
-4.769567
30
0
11
9.486443
21
-8.617039
31
0
39
0
210
0
220
0
230
1
0
LINE
5
B4
100
AcDbEntity
8
1
62
256
6
ByLayer
370
18
48
1
60
0
100
AcDbLine
10
30.1213
20
4.942894
30
0
11
31.618763
21
5.730955
31
0
39
0
210
0
220
0
230
1
0
LINE
5
B5
100
AcDbEntity
8
1
62
256
6
ByLayer
370
18
48
1
60
0
100
AcDbLine
10
0.5
20
-12.439682
30
0
11
0
21
-12.4375
31
0
39
0
210
0
220
0
230
1
0
LINE
5
B6
100
AcDbEntity
8
1
62
256
6
ByLayer
370
18
48
1
60
0
100
AcDbLine
10
30.505899
20
-1.804842
30
0
11
25.175025
21
-7.239185
31
0
39
0
210
0
220
0
230
1
0
LINE
5
B7
100
AcDbEntity
8
1
62
256
6
ByLayer
370
18
48
1
60
0
100
AcDbLine
10
0
20
-12.4375
30
0
11
0
21
12.192724
31
0
39
0
210
0
220
0
230
1
0
LINE
5
B8
100
AcDbEntity
8
1
62
256
6
ByLayer
370
18
48
1
60
0
100
AcDbLine
10
2.734161
20
7.601101
30
0
11
2.465954
21
13.489227
31
0
39
0
210
0
220
0
230
1
0
LINE
5
B9
100
AcDbEntity
8
1
62
256
6
ByLayer
370
18
48
1
60
0
100
AcDbLine
10
25.085358
20
12.237137
30
0
11
25.135958
21
12.054344
31
0
39
0
210
0
220
0
230
1
0
LINE
5
BA
100
AcDbEntity
8
1
62
256
6
ByLayer
370
18
48
1
60
0
100
AcDbLine
10
31.802893
20
5.684087
30
0
11
31.91433
21
5.480854
31
0
39
0
210
0
220
0
230
1
0
LINE
5
BB
100
AcDbEntity
8
1
62
256
6
ByLayer
370
18
48
1
60
0
100
AcDbLine
10
2.125701
20
2.425979
30
0
11
2.177952
21
2.43718
31
0
39
0
210
0
220
0
230
1
0
LINE
5
BC
100
AcDbEntity
8
1
62
256
6
ByLayer
370
18
48
1
60
0
100
AcDbLine
10
11.837556
20
-12.466724
30
0
11
12.383918
21
-12.163909
31
0
39
0
210
0
220
0
230
1
0
LINE
5
BD
100
AcDbEntity
8
1
62
256
6
ByLayer
370
18
48
1
60
0
100
AcDbLine
10
30.505899
20
-1.804842
30
0
11
31.17648
21
-0.459697
31
0
39
0
210
0
220
0
230
1
0
LINE
5
BE
100
AcDbEntity
8
1
62
256
6
ByLayer
370
18
48
1
60
0
100
AcDbLine
10
13.207608
20
-11.644356
30
0
11
13.241484
21
-11.609823
31
0
39
0
210
0
220
0
230
1
0
LINE
5
BF
100
AcDbEntity
8
1
62
256
6
ByLayer
370
18
48
1
60
0
100
AcDbLine
10
2.593344
20
-12.47377
30
0
11
1.977379
21
1.048933
31
0
39
0
210
0
220
0
230
1
0
LINE
5
C0
100
AcDbEntity
8
1
62
256
6
ByLayer
370
18
48
1
60
0
100
AcDbLine
10
0.5
20
12.244827
30
0
11
0
21
12.192724
31
0
39
0
210
0
220
0
230
1
0
LINE
5
C1
100
AcDbEntity
8
1
62
256
6
ByLayer
370
18
48
1
60
0
100
AcDbLine
10
31.802893
20
5.684087
30
0
11
31.618763
21
5.730955
31
0
39
0
210
0
220
0
230
1
0
LINE
5
C2
100
AcDbEntity
8
1
62
256
6
ByLayer
370
18
48
1
60
0
100
AcDbLine
10
16.329579
20
-12.328962
30
0
11
25.175025
21
-7.239185
31
0
39
0
210
0
220
0
230
1
0
LINE
5
C3
100
AcDbEntity
8
1
62
256
6
ByLayer
370
18
48
1
60
0
100
AcDbLine
10
25.085358
20
12.237137
30
0
11
24.854736
21
12.357117
31
0
39
0
210
0
220
0
230
1
0
LINE
5
C4
100
AcDbEntity
8
1
62
256
6
ByLayer
370
18
48
1
60
0
100
AcDbLine
10
11.837556
20
-12.466724
30
0
11
16.329579
21
-12.328962
31
0
39
0
210
0
220
0
230
1
0
LINE
5
C5
100
AcDbEntity
8
1
62
256
6
ByLayer
370
18
48
1
60
0
100
AcDbLine
10
2.177952
20
2.43718
30
0
11
2.734161
21
7.601101
31
0
39
0
210
0
220
0
230
1
0
LINE
5
C6
100
AcDbEntity
8
1
62
256
6
ByLayer
370
18
48
1
60
0
100
AcDbLine
10
13.241484
20
-11.609823
30
0
11
16.330323
21
-9.6615
31
0
39
0
210
0
220
0
230
1
0
LINE
5
C7
100
AcDbEntity
8
1
62
256
6
ByLayer
370
18
48
1
60
0
100
AcDbLine
10
0.5
20
12.244827
30
0
11
2.465954
21
13.489227
31
0
39
0
210
0
220
0
230
1
0
LINE
5
C8
100
AcDbEntity
8
1
62
256
6
ByLayer
370
18
48
1
60
0
100
AcDbLine
10
0.5
20
12.244827
30
0
11
0.5
21
-12.439682
31
0
39
0
210
0
220
0
230
1
0
LINE
5
C9
100
AcDbEntity
8
1
62
256
6
ByLayer
370
18
48
1
60
0
100
AcDbLine
10
30.505899
20
-1.804842
30
0
11
16.330323
21
-9.6615
31
0
39
0
210
0
220
0
230
1
0
LINE
5
CA
100
AcDbEntity
8
1
62
256
6
ByLayer
370
18
48
1
60
0
100
AcDbLine
10
0.5
20
-12.439682
30
0
11
2.593344
21
-12.47377
31
0
39
0
210
0
220
0
230
1
0
LINE
5
CB
100
AcDbEntity
8
1
62
256
6
ByLayer
370
18
48
1
60
0
100
AcDbLine
10
2.465954
20
13.489227
30
0
11
19.412145
21
11.472288
31
0
39
0
210
0
220
0
230
1
0
LINE
5
CC
100
AcDbEntity
8
1
62
256
6
ByLayer
370
18
48
1
60
0
100
AcDbLine
10
11.837556
20
-12.466724
30
0
11
2.593344
21
-12.47377
31
0
39
0
210
0
220
0
230
1
0
LINE
5
CD
100
AcDbEntity
8
SK1
62
256
6
ByLayer
370
18
48
1
60
0
100
AcDbLine
10
-112.137671
20
12.4375
30
0
11
-112.137671
21
-12.4375
31
0
39
0
210
0
220
0
230
1
0
LINE
5
CF
100
AcDbEntity
8
SK1
62
256
6
ByLayer
370
18
48
1
60
0
100
AcDbLine
10
-1.874841
20
12.360212
30
0
11
0
21
12.192724
31
0
39
0
210
0
220
0
230
1
0
LINE
5
D0
100
AcDbEntity
8
SK1
62
256
6
ByLayer
370
18
48
1
60
0
100
AcDbLine
10
-112.137671
20
-12.4375
30
0
11
0
21
-12.4375
31
0
39
0
210
0
220
0
230
1
0
LINE
5
D1
100
AcDbEntity
8
SK1
62
256
6
ByLayer
370
18
48
1
60
0
100
AcDbLine
10
0
20
12.192724
30
0
11
0
21
-12.4375
31
0
39
0
210
0
220
0
230
1
0
LINE
5
D2
100
AcDbEntity
8
SK1
62
256
6
ByLayer
370
18
48
1
60
0
100
AcDbLine
10
-2.513115
20
12.4375
30
0
11
-112.137671
21
12.4375
31
0
39
0
210
0
220
0
230
1
0
LINE
5
D3
100
AcDbEntity
8
1
62
256
6
ByLayer
370
18
48
1
60
0
100
AcDbLine
10
14.552775
20
0.363758
30
0
11
14.933874
21
0.752253
31
0
39
0
210
0
220
0
230
1
0
LINE
5
D4
100
AcDbEntity
8
1
62
256
6
ByLayer
370
18
48
1
60
0
100
AcDbLine
10
16.401688
20
0.596184
30
0
11
16.782786
21
0.984679
31
0
39
0
210
0
220
0
230
1
0
LINE
5
D5
100
AcDbEntity
8
1
62
256
6
ByLayer
370
18
48
1
60
0
100
AcDbLine
10
16.966818
20
-0.641132
30
0
11
17.347916
21
-0.252637
31
0
39
0
210
0
220
0
230
1
0
LINE
5
D6
100
AcDbEntity
8
1
62
256
6
ByLayer
370
18
48
1
60
0
100
AcDbLine
10
15.792606
20
0.849726
30
0
11
16.173704
21
1.238221
31
0
39
0
210
0
220
0
230
1
0
LINE
5
D7
100
AcDbEntity
8
1
62
256
6
ByLayer
370
18
48
1
60
0
100
AcDbLine
10
16.866179
20
0.006434
30
0
11
17.247278
21
0.394929
31
0
39
0
210
0
220
0
230
1
0
LINE
5
D8
100
AcDbEntity
8
1
62
256
6
ByLayer
370
18
48
1
60
0
100
AcDbLine
10
24.976963
20
12.456008
30
0
11
25.783621
21
13.278323
31
0
39
0
210
0
220
0
230
1
0
LINE
5
D9
100
AcDbEntity
8
1
62
256
6
ByLayer
370
18
48
1
60
0
100
AcDbLine
10
31.993497
20
5.561851
30
0
11
32.800155
21
6.384165
31
0
39
0
210
0
220
0
230
1
0
LINE
5
DA
100
AcDbEntity
8
1
62
256
6
ByLayer
370
18
48
1
60
0
100
AcDbLine
10
26.108273
20
13.608704
30
0
11
38.052397
21
19.826422
31
0
39
0
210
0
220
0
230
1
0
LINE
5
DB
100
AcDbEntity
8
1
62
256
6
ByLayer
370
18
48
1
60
0
100
AcDbLine
10
39.132351
20
18.765303
30
0
11
33.124807
21
6.714547
31
0
39
0
210
0
220
0
230
1
0
MTEXT
5
160
100
AcDbEntity
8
SK6
62
256
6
ByLayer
370
18
48
1
60
0
100
AcDbMText
10
-50.587671
20
-23.330635
30
0
210
0
220
0
230
1
1
\W0.7698;DVPNR 2525M 16
40
3.5
41
0
44
1.084337
50
0
71
7
72
5
7
iso_b_vert
0
DIMENSION
5
171
100
AcDbEntity
8
2
62
256
6
ByLayer
370
13
48
1
60
0
100
AcDbDimension
2
DimnDraft3D1
10
37.165055
20
19.361066
30
0
11
17.75848
21
33.445325
31
0
70
34
71
5
72
1
41
1
210
0
220
0
230
1
3
Standard
100
AcDb2LineAngularDimension
13
39.212329
23
19.9125
33
0
14
39.212329
24
18.325
34
0
15
38.052066
25
19.822815
35
0
16
21.605583
26
31.110845
36
0
40
0
0
DIMENSION
5
187
100
AcDbEntity
8
SK2
62
256
6
ByLayer
370
13
48
1
60
0
100
AcDbDimension
2
DimnDraft3D2
10
-119.887671
20
12.4375
30
0
11
-119.887671
21
-5.281579
31
0
70
32
71
5
72
1
41
1
210
0
220
0
230
1
3
Standard
100
AcDbAlignedDimension
13
-114.137671
23
-12.4375
33
0
14
-114.137671
24
12.4375
34
0
50
90
100
AcDbRotatedDimension
1001
ACAD
1000
DSTYLE
1002
{
1070
    74
1070
     0
1070
   279
1070
     0
1070
   172
1070
     1
1070
   173
1070
     1
1070
   340
1005
161
1070
    77
1070
     1
1070
    73
1070
     0
1070
   171
1070
     3
1070
   274
1070
     4
1070
   177
1070
     2
1070
   176
1070
     2
1070
   178
1070
     7
1070
    78
1070
     8
1070
    41
1041
3.175
1070
   147
1041
2.25
1070
    42
1041
2.0
1070
    44
1041
2.0
1070
   140
1041
4.5
1070
   343
1005
172
1070
   344
1005
172
1002
}
0
DIMENSION
5
195
100
AcDbEntity
8
2
62
256
6
ByLayer
370
13
48
1
60
0
100
AcDbDimension
2
DimnDraft3D3
10
61.462329
20
19.9125
30
0
11
61.462329
21
-1.544079
31
0
70
32
71
5
72
1
41
1
210
0
220
0
230
1
3
Standard
100
AcDbAlignedDimension
13
2
23
-12.4375
33
0
14
41.212329
24
19.9125
34
0
50
90
100
AcDbRotatedDimension
1001
ACAD
1000
DSTYLE
1002
{
1070
    74
1070
     0
1070
   279
1070
     0
1070
   172
1070
     1
1070
   173
1070
     1
1070
   340
1005
161
1070
    77
1070
     1
1070
    73
1070
     0
1070
   171
1070
     3
1070
   274
1070
     4
1070
   177
1070
     2
1070
   176
1070
     2
1070
   178
1070
     7
1070
    78
1070
     8
1070
    41
1041
3.175
1070
   147
1041
2.25
1070
    42
1041
2.0
1070
    44
1041
2.0
1070
   140
1041
4.5
1070
   343
1005
172
1070
   344
1005
172
1002
}
0
DIMENSION
5
1A3
100
AcDbEntity
8
2
62
256
6
ByLayer
370
13
48
1
60
0
100
AcDbDimension
2
DimnDraft3D4
10
39.212329
20
49.6625
30
0
11
14.324586
21
49.6625
31
0
70
32
71
5
72
1
41
1
210
0
220
0
230
1
3
Standard
100
AcDbAlignedDimension
13
0
23
14.4375
33
0
14
39.212329
24
21.9125
34
0
50
0
100
AcDbRotatedDimension
1001
ACAD
1000
DSTYLE
1002
{
1070
   279
1070
     0
1070
   172
1070
     1
1070
   173
1070
     1
1070
   340
1005
161
1070
    77
1070
     1
1070
    73
1070
     0
1070
   171
1070
     3
1070
   274
1070
     4
1070
   177
1070
     2
1070
   176
1070
     2
1070
   178
1070
     7
1070
    78
1070
     8
1070
    41
1041
3.175
1070
   147
1041
2.25
1070
    42
1041
2.0
1070
    44
1041
2.0
1070
   140
1041
4.5
1070
   343
1005
172
1070
   344
1005
172
1002
}
0
DIMENSION
5
1B1
100
AcDbEntity
8
SK2
62
256
6
ByLayer
370
13
48
1
60
0
100
AcDbDimension
2
DimnDraft3D5
10
-112.137671
20
59.6625
30
0
11
-42.863329
21
59.6625
31
0
70
32
71
5
72
1
41
1
210
0
220
0
230
1
3
Standard
100
AcDbAlignedDimension
13
39.212329
23
21.9125
33
0
14
-112.137671
24
14.4375
34
0
50
0
100
AcDbRotatedDimension
1001
ACAD
1000
DSTYLE
1002
{
1070
   279
1070
     0
1070
   172
1070
     1
1070
   173
1070
     1
1070
   340
1005
161
1070
    77
1070
     1
1070
    73
1070
     0
1070
   171
1070
     3
1070
   274
1070
     4
1070
   177
1070
     2
1070
   176
1070
     2
1070
   178
1070
     7
1070
    78
1070
     8
1070
    41
1041
3.175
1070
   147
1041
2.25
1070
    42
1041
2.0
1070
    44
1041
2.0
1070
   140
1041
4.5
1070
   343
1005
172
1070
   344
1005
172
1002
}
0
ENDSEC
0
SECTION
2
OBJECTS
0
DICTIONARY
5
21b
330
0
100
AcDbDictionary
280
0
281
1
3
ACAD_GROUP
350
21c
3
ACAD_MLINESTYLE
350
21d
0
DICTIONARY
5
21c
330
0
100
AcDbDictionary
280
0
281
1
0
DICTIONARY
5
21d
330
0
100
AcDbDictionary
280
0
281
1
3
Standard
350
18
0
MLINESTYLE
5
18
330
21d
100
AcDbMlineStyle
2
Standard
70
0
3

62
256
51
90
52
90
71
2
49
-0.5
62
256
6
ByLayer
49
0.5
62
256
6
ByLayer
0
RASTERVARIABLES
5
20a
330

100
AcDbRasterVariables
90
0
70
1
71
1
72
1
0
ENDSEC
0
EOF
