0
SECTION
2
HEADER
9
$ACADVER
1
AC1015
9
$DWGCODEPAGE
3
ANSI_1252
9
$HANDSEED
5
224
9
$ANGBASE
50
0
9
$ANGDIR
70
0
9
$ATTMODE
70
1
9
$AUNITS
70
0
9
$AUPREC
70
0
9
$CECOLOR
62
256
9
$CELTSCALE
40
1
9
$CELTYPE
6
ByLayer
9
$CELWEIGHT
370
18
9
$CLAYER
8
0
9
$CMLJUST
70
0
9
$CMLSCALE
40
1
9
$CMLSTYLE
2
Standard
9
$DIMSTYLE
2
Standard
9
$TEXTSIZE
40
0.2
9
$TEXTSTYLE
7
Standard
9
$LUNITS
70
2
9
$LUPREC
70
4
9
$EXTNAMES
290
1
9
$INSUNITS
70
4
9
$LTSCALE
40
1
9
$LWDISPLAY
290
1
9
$PDMODE
70
0
9
$PDSIZE
40
0
9
$PLINEGEN
70
0
0
ENDSEC
0
SECTION
2
CLASSES
0
CLASS
1
RASTERVARIABLES
2
AcDbRasterVariables
3
ISM
90
0
280
0
281
0
0
ENDSEC
0
SECTION
2
TABLES
0
TABLE
2
VPORT
5
21a
100
AcDbSymbolTable
0
VPORT
5
1
100
AcDbSymbolTableRecord
100
AcDbViewportTableRecord
2
*Active
70
0
10
0
20
0
11
1
21
1
12
-1
22
1
13
0
23
0
14
0.5
24
0.5
15
10
25
10
16
0
26
0
36
1
17
0
27
0
37
0
0
ENDTAB
0
TABLE
2
LTYPE
5
21b
100
AcDbSymbolTable
0
LTYPE
5
14
100
AcDbSymbolTableRecord
100
AcDbLinetypeTableRecord
70
0
2
ByBlock
3

72
65
73
0
40
0
0
LTYPE
5
15
100
AcDbSymbolTableRecord
100
AcDbLinetypeTableRecord
70
0
2
ByLayer
3

72
65
73
0
40
0
0
LTYPE
5
16
100
AcDbSymbolTableRecord
100
AcDbLinetypeTableRecord
70
0
2
CONTINUOUS
3
Solid line
72
65
73
0
40
0
0
LTYPE
5
6A
100
AcDbSymbolTableRecord
100
AcDbLinetypeTableRecord
70
0
2
CENTER
3
____ _ ____ _ ____ _ ____
72
65
73
4
40
47.5
49
22
74
0
49
-8.5
74
0
49
8.5
74
0
49
-8.5
74
0
0
LTYPE
5
6B
100
AcDbSymbolTableRecord
100
AcDbLinetypeTableRecord
70
0
2
DASHED
3
__ __ __ __ __ __ __ __ __
72
65
73
2
40
25.72
49
12.86
74
0
49
-12.86
74
0
0
ENDTAB
0
TABLE
2
LAYER
5
21c
100
AcDbSymbolTable
0
LAYER
5
10
100
AcDbSymbolTableRecord
100
AcDbLayerTableRecord
2
0
70
0
62
7
6
CONTINUOUS
290
1
370
-3
390
0
0
LAYER
5
6D
100
AcDbSymbolTableRecord
100
AcDbLayerTableRecord
2
2
70
0
62
7
6
CONTINUOUS
290
1
370
-3
390
0
0
LAYER
5
6F
100
AcDbSymbolTableRecord
100
AcDbLayerTableRecord
2
80
70
0
62
-6
6
CONTINUOUS
290
1
370
-3
390
0
0
LAYER
5
71
100
AcDbSymbolTableRecord
100
AcDbLayerTableRecord
2
81
70
0
62
-3
6
CONTINUOUS
290
1
370
-3
390
0
0
LAYER
5
73
100
AcDbSymbolTableRecord
100
AcDbLayerTableRecord
2
1
70
0
62
4
6
CONTINUOUS
290
1
370
-3
390
0
0
LAYER
5
207
100
AcDbSymbolTableRecord
100
AcDbLayerTableRecord
2
SK1
70
0
62
4
6
CONTINUOUS
290
1
370
-3
390
0
0
LAYER
5
208
100
AcDbSymbolTableRecord
100
AcDbLayerTableRecord
2
SK6
70
0
62
5
6
CONTINUOUS
290
1
370
-3
390
0
0
LAYER
5
209
100
AcDbSymbolTableRecord
100
AcDbLayerTableRecord
2
SK2
70
0
62
7
6
CONTINUOUS
290
1
370
-3
390
0
0
ENDTAB
0
TABLE
2
STYLE
5
21d
100
AcDbSymbolTable
0
STYLE
5
11
100
AcDbSymbolTableRecord
100
AcDbTextStyleTableRecord
2
Standard
3
txt
70
0
71
0
40
0
41
1
42
0
50
0
0
STYLE
5
15D
100
AcDbSymbolTableRecord
100
AcDbTextStyleTableRecord
2
iso_b_vert
3
simplex.shx
70
0
71
0
40
0
41
1
42
0
50
0
0
STYLE
5
15E
100
AcDbSymbolTableRecord
100
AcDbTextStyleTableRecord
2
DWGDirectTextStyle
3
simplex
70
0
71
0
40
0
41
1
42
0
50
0
0
ENDTAB
0
TABLE
2
DIMSTYLE
5
21e
100
AcDbSymbolTable
100
AcDbDimStyleTable
0
DIMSTYLE
105
27
100
AcDbSymbolTableRecord
100
AcDbDimStyleTableRecord
2
Standard
70
0
3
<>
41
0.18
42
0.0625
44
0.18
140
0.18
147
0.09
73
0
74
0
77
1
271
2
275
0
278
52
280
0
340
11
0
ENDTAB
0
TABLE
2
VIEW
5
21f
100
AcDbSymbolTable
0
ENDTAB
0
TABLE
2
UCS
5
220
100
AcDbSymbolTable
0
ENDTAB
0
TABLE
2
APPID
5
221
100
AcDbSymbolTable
0
APPID
5
12
100
AcDbSymbolTableRecord
100
AcDbRegAppTableRecord
2
ACAD
70
0
0
ENDTAB
0
TABLE
2
BLOCK_RECORD
5
222
100
AcDbSymbolTable
0
BLOCK_RECORD
5
1F
100
AcDbSymbolTableRecord
100
AcDbBlockTableRecord
2
*Model_Space
340
0
70
0
0
BLOCK_RECORD
5
1B
100
AcDbSymbolTableRecord
100
AcDbBlockTableRecord
2
*Paper_Space
340
0
70
0
0
BLOCK_RECORD
5
23
100
AcDbSymbolTableRecord
100
AcDbBlockTableRecord
2
*Paper_Space0
340
0
70
0
0
BLOCK_RECORD
5
160
100
AcDbSymbolTableRecord
100
AcDbBlockTableRecord
2
DimnDraft3D1
340
0
70
0
0
BLOCK_RECORD
5
16E
100
AcDbSymbolTableRecord
100
AcDbBlockTableRecord
2
_CLOSED
340
0
70
0
0
BLOCK_RECORD
5
175
100
AcDbSymbolTableRecord
100
AcDbBlockTableRecord
2
DimnDraft3D2
340
0
70
0
0
BLOCK_RECORD
5
184
100
AcDbSymbolTableRecord
100
AcDbBlockTableRecord
2
DimnDraft3D3
340
0
70
0
0
BLOCK_RECORD
5
192
100
AcDbSymbolTableRecord
100
AcDbBlockTableRecord
2
DimnDraft3D4
340
0
70
0
0
BLOCK_RECORD
5
1A0
100
AcDbSymbolTableRecord
100
AcDbBlockTableRecord
2
DimnDraft3D5
340
0
70
0
0
ENDTAB
0
ENDSEC
0
SECTION
2
BLOCKS
0
BLOCK
5
20
100
AcDbEntity
8
0
100
AcDbBlockBegin
2
*Model_Space
70
0
10
0
20
0
30
0
3
*Model_Space
0
ENDBLK
5
21
100
AcDbEntity
8
0
100
AcDbBlockEnd
0
BLOCK
5
1C
100
AcDbEntity
8
0
100
AcDbBlockBegin
2
*Paper_Space
70
0
10
0
20
0
30
0
3
*Paper_Space
0
ENDBLK
5
1D
100
AcDbEntity
8
0
100
AcDbBlockEnd
0
BLOCK
5
24
100
AcDbEntity
8
0
100
AcDbBlockBegin
2
*Paper_Space0
70
0
10
0
20
0
30
0
3
*Paper_Space0
0
ENDBLK
5
25
100
AcDbEntity
8
0
100
AcDbBlockEnd
0
BLOCK
5
16B
100
AcDbEntity
8
0
100
AcDbBlockBegin
2
DimnDraft3D1
70
0
10
0
20
0
30
0
3
DimnDraft3D1
0
MTEXT
5
161
100
AcDbEntity
8
2
62
256
6
ByLayer
370
18
48
1
60
0
100
AcDbMText
10
28.580327
20
33.016447
30
0
210
0
220
0
230
1
1
\W0.7399;93%%d
40
4.5
41
0
44
1.084337
50
46.5000000000004
71
7
72
5
7
iso_b_vert
0
LINE
5
162
100
AcDbEntity
8
2
62
256
6
ByLayer
370
13
48
1
60
0
100
AcDbLine
10
46.584684
20
21.9125
30
0
11
46.584684
21
42.880865
31
0
39
0
210
0
220
0
230
1
0
LINE
5
163
100
AcDbEntity
8
2
62
256
6
ByLayer
370
13
48
1
60
0
100
AcDbLine
10
42.753504
20
19.754404
30
0
11
23.690426
21
18.755351
31
0
39
0
210
0
220
0
230
1
0
ARC
5
164
100
AcDbEntity
8
2
62
256
6
ByLayer
370
13
48
1
60
0
100
AcDbCircle
39
0
10
46.584684
20
19.955188
30
0
40
20.9256770833572
210
0
220
0
230
1
100
AcDbArc
50
90
51
183
0
LINE
5
165
100
AcDbEntity
8
2
62
256
6
ByLayer
370
13
48
1
60
0
100
AcDbLine
10
46.584684
20
40.880865
30
0
11
43.427782
21
40.342993
31
0
39
0
210
0
220
0
230
1
0
LINE
5
166
100
AcDbEntity
8
2
62
256
6
ByLayer
370
13
48
1
60
0
100
AcDbLine
10
46.584684
20
40.880865
30
0
11
43.396136
21
41.178387
31
0
39
0
210
0
220
0
230
1
0
LINE
5
167
100
AcDbEntity
8
2
62
256
6
ByLayer
370
13
48
1
60
0
100
AcDbLine
10
43.427782
20
40.342993
30
0
11
43.396136
21
41.178387
31
0
39
0
210
0
220
0
230
1
0
LINE
5
168
100
AcDbEntity
8
2
62
256
6
ByLayer
370
13
48
1
60
0
100
AcDbLine
10
25.687685
20
18.860023
30
0
11
25.223695
21
22.028626
31
0
39
0
210
0
220
0
230
1
0
LINE
5
169
100
AcDbEntity
8
2
62
256
6
ByLayer
370
13
48
1
60
0
100
AcDbLine
10
25.687685
20
18.860023
30
0
11
26.0596
21
22.040751
31
0
39
0
210
0
220
0
230
1
0
LINE
5
16A
100
AcDbEntity
8
2
62
256
6
ByLayer
370
13
48
1
60
0
100
AcDbLine
10
25.223695
20
22.028626
30
0
11
26.0596
21
22.040751
31
0
39
0
210
0
220
0
230
1
0
ENDBLK
5
16C
100
AcDbEntity
8
0
100
AcDbBlockEnd
0
BLOCK
5
16F
100
AcDbEntity
8
0
100
AcDbBlockBegin
2
_CLOSED
70
0
10
0
20
0
30
0
3
_CLOSED
0
LINE
5
171
100
AcDbEntity
8
0
62
256
6
ByLayer
370
-2
48
1
60
0
100
AcDbLine
10
-1
20
0.166667
30
0
11
0
21
0
31
0
39
0
210
0
220
0
230
1
0
LINE
5
172
100
AcDbEntity
8
0
62
256
6
ByLayer
370
-2
48
1
60
0
100
AcDbLine
10
0
20
0
30
0
11
-1
21
-0.166667
31
0
39
0
210
0
220
0
230
1
0
LINE
5
173
100
AcDbEntity
8
0
62
256
6
ByLayer
370
-2
48
1
60
0
100
AcDbLine
10
-1
20
0.166667
30
0
11
-1
21
-0.166667
31
0
39
0
210
0
220
0
230
1
0
LINE
5
174
100
AcDbEntity
8
0
62
256
6
ByLayer
370
-2
48
1
60
0
100
AcDbLine
10
0
20
0
30
0
11
-1
21
0
31
0
39
0
210
0
220
0
230
1
0
ENDBLK
5
170
100
AcDbEntity
8
0
100
AcDbBlockEnd
0
BLOCK
5
181
100
AcDbEntity
8
0
100
AcDbBlockBegin
2
DimnDraft3D2
70
0
10
0
20
0
30
0
3
DimnDraft3D2
0
MTEXT
5
176
100
AcDbEntity
8
SK2
62
256
6
ByLayer
370
18
48
1
60
0
100
AcDbMText
10
-133.640316
20
-4.156579
30
0
210
0
220
0
230
1
1
\W0.7346;25.0
40
4.5
41
0
44
1.084337
50
90
71
7
72
5
7
iso_b_vert
0
LINE
5
178
100
AcDbEntity
8
SK2
62
256
6
ByLayer
370
13
48
1
60
0
100
AcDbLine
10
-126.765316
20
-12.4375
30
0
11
-134.515316
21
-12.4375
31
0
39
0
210
0
220
0
230
1
0
LINE
5
179
100
AcDbEntity
8
SK2
62
256
6
ByLayer
370
13
48
1
60
0
100
AcDbLine
10
-126.765316
20
12.4375
30
0
11
-134.515316
21
12.4375
31
0
39
0
210
0
220
0
230
1
0
LINE
5
17A
100
AcDbEntity
8
SK2
62
256
6
ByLayer
370
13
48
1
60
0
100
AcDbLine
10
-132.515316
20
-12.4375
30
0
11
-132.515316
21
12.4375
31
0
39
0
210
0
220
0
230
1
0
LINE
5
17B
100
AcDbEntity
8
SK2
62
256
6
ByLayer
370
13
48
1
60
0
100
AcDbLine
10
-132.515316
20
-12.4375
30
0
11
-132.933313
21
-9.262502
31
0
39
0
210
0
220
0
230
1
0
LINE
5
17C
100
AcDbEntity
8
SK2
62
256
6
ByLayer
370
13
48
1
60
0
100
AcDbLine
10
-132.515316
20
-12.4375
30
0
11
-132.097319
21
-9.262498
31
0
39
0
210
0
220
0
230
1
0
LINE
5
17D
100
AcDbEntity
8
SK2
62
256
6
ByLayer
370
13
48
1
60
0
100
AcDbLine
10
-132.933313
20
-9.262502
30
0
11
-132.097319
21
-9.262498
31
0
39
0
210
0
220
0
230
1
0
LINE
5
17E
100
AcDbEntity
8
SK2
62
256
6
ByLayer
370
13
48
1
60
0
100
AcDbLine
10
-132.515316
20
12.4375
30
0
11
-132.097319
21
9.262502
31
0
39
0
210
0
220
0
230
1
0
LINE
5
17F
100
AcDbEntity
8
SK2
62
256
6
ByLayer
370
13
48
1
60
0
100
AcDbLine
10
-132.515316
20
12.4375
30
0
11
-132.933313
21
9.262498
31
0
39
0
210
0
220
0
230
1
0
LINE
5
180
100
AcDbEntity
8
SK2
62
256
6
ByLayer
370
13
48
1
60
0
100
AcDbLine
10
-132.097319
20
9.262502
30
0
11
-132.933313
21
9.262498
31
0
39
0
210
0
220
0
230
1
0
ENDBLK
5
182
100
AcDbEntity
8
0
100
AcDbBlockEnd
0
BLOCK
5
18F
100
AcDbEntity
8
0
100
AcDbBlockBegin
2
DimnDraft3D3
70
0
10
0
20
0
30
0
3
DimnDraft3D3
0
MTEXT
5
185
100
AcDbEntity
8
2
62
256
6
ByLayer
370
18
48
1
60
0
100
AcDbMText
10
67.709684
20
-0.419079
30
0
210
0
220
0
230
1
1
\W0.7346;32.0
40
4.5
41
0
44
1.084337
50
90
71
7
72
5
7
iso_b_vert
0
LINE
5
186
100
AcDbEntity
8
2
62
256
6
ByLayer
370
13
48
1
60
0
100
AcDbLine
10
2
20
-12.4375
30
0
11
70.834684
21
-12.4375
31
0
39
0
210
0
220
0
230
1
0
LINE
5
187
100
AcDbEntity
8
2
62
256
6
ByLayer
370
13
48
1
60
0
100
AcDbLine
10
48.584684
20
19.9125
30
0
11
70.834684
21
19.9125
31
0
39
0
210
0
220
0
230
1
0
LINE
5
188
100
AcDbEntity
8
2
62
256
6
ByLayer
370
13
48
1
60
0
100
AcDbLine
10
68.834684
20
-12.4375
30
0
11
68.834684
21
19.9125
31
0
39
0
210
0
220
0
230
1
0
LINE
5
189
100
AcDbEntity
8
2
62
256
6
ByLayer
370
13
48
1
60
0
100
AcDbLine
10
68.834684
20
-12.4375
30
0
11
68.416687
21
-9.262502
31
0
39
0
210
0
220
0
230
1
0
LINE
5
18A
100
AcDbEntity
8
2
62
256
6
ByLayer
370
13
48
1
60
0
100
AcDbLine
10
68.834684
20
-12.4375
30
0
11
69.252681
21
-9.262498
31
0
39
0
210
0
220
0
230
1
0
LINE
5
18B
100
AcDbEntity
8
2
62
256
6
ByLayer
370
13
48
1
60
0
100
AcDbLine
10
68.416687
20
-9.262502
30
0
11
69.252681
21
-9.262498
31
0
39
0
210
0
220
0
230
1
0
LINE
5
18C
100
AcDbEntity
8
2
62
256
6
ByLayer
370
13
48
1
60
0
100
AcDbLine
10
68.834684
20
19.9125
30
0
11
69.252681
21
16.737502
31
0
39
0
210
0
220
0
230
1
0
LINE
5
18D
100
AcDbEntity
8
2
62
256
6
ByLayer
370
13
48
1
60
0
100
AcDbLine
10
68.834684
20
19.9125
30
0
11
68.416687
21
16.737498
31
0
39
0
210
0
220
0
230
1
0
LINE
5
18E
100
AcDbEntity
8
2
62
256
6
ByLayer
370
13
48
1
60
0
100
AcDbLine
10
69.252681
20
16.737502
30
0
11
68.416687
21
16.737498
31
0
39
0
210
0
220
0
230
1
0
ENDBLK
5
190
100
AcDbEntity
8
0
100
AcDbBlockEnd
0
BLOCK
5
19D
100
AcDbEntity
8
0
100
AcDbBlockBegin
2
DimnDraft3D4
70
0
10
0
20
0
30
0
3
DimnDraft3D4
0
MTEXT
5
193
100
AcDbEntity
8
2
62
256
6
ByLayer
370
18
48
1
60
0
100
AcDbMText
10
18.898921
20
50.7875
30
0
210
0
220
0
230
1
1
\W0.7640;46.6
40
4.5
41
0
44
1.084337
50
0
71
7
72
5
7
iso_b_vert
0
LINE
5
194
100
AcDbEntity
8
2
62
256
6
ByLayer
370
13
48
1
60
0
100
AcDbLine
10
0
20
14.4375
30
0
11
0
21
51.6625
31
0
39
0
210
0
220
0
230
1
0
LINE
5
195
100
AcDbEntity
8
2
62
256
6
ByLayer
370
13
48
1
60
0
100
AcDbLine
10
46.584684
20
21.9125
30
0
11
46.584684
21
51.6625
31
0
39
0
210
0
220
0
230
1
0
LINE
5
196
100
AcDbEntity
8
2
62
256
6
ByLayer
370
13
48
1
60
0
100
AcDbLine
10
0
20
49.6625
30
0
11
46.584684
21
49.6625
31
0
39
0
210
0
220
0
230
1
0
LINE
5
197
100
AcDbEntity
8
2
62
256
6
ByLayer
370
13
48
1
60
0
100
AcDbLine
10
0
20
49.6625
30
0
11
3.174998
21
50.080497
31
0
39
0
210
0
220
0
230
1
0
LINE
5
198
100
AcDbEntity
8
2
62
256
6
ByLayer
370
13
48
1
60
0
100
AcDbLine
10
0
20
49.6625
30
0
11
3.175002
21
49.244503
31
0
39
0
210
0
220
0
230
1
0
LINE
5
199
100
AcDbEntity
8
2
62
256
6
ByLayer
370
13
48
1
60
0
100
AcDbLine
10
3.174998
20
50.080497
30
0
11
3.175002
21
49.244503
31
0
39
0
210
0
220
0
230
1
0
LINE
5
19A
100
AcDbEntity
8
2
62
256
6
ByLayer
370
13
48
1
60
0
100
AcDbLine
10
46.584684
20
49.6625
30
0
11
43.409686
21
49.244503
31
0
39
0
210
0
220
0
230
1
0
LINE
5
19B
100
AcDbEntity
8
2
62
256
6
ByLayer
370
13
48
1
60
0
100
AcDbLine
10
46.584684
20
49.6625
30
0
11
43.409682
21
50.080497
31
0
39
0
210
0
220
0
230
1
0
LINE
5
19C
100
AcDbEntity
8
2
62
256
6
ByLayer
370
13
48
1
60
0
100
AcDbLine
10
43.409686
20
49.244503
30
0
11
43.409682
21
50.080497
31
0
39
0
210
0
220
0
230
1
0
ENDBLK
5
19E
100
AcDbEntity
8
0
100
AcDbBlockEnd
0
BLOCK
5
1AB
100
AcDbEntity
8
0
100
AcDbBlockBegin
2
DimnDraft3D5
70
0
10
0
20
0
30
0
3
DimnDraft3D5
0
MTEXT
5
1A1
100
AcDbEntity
8
SK2
62
256
6
ByLayer
370
18
48
1
60
0
100
AcDbMText
10
-44.365974
20
60.7875
30
0
210
0
220
0
230
1
1
\W0.6864;170.0
40
4.5
41
0
44
1.084337
50
0
71
7
72
5
7
iso_b_vert
0
LINE
5
1A2
100
AcDbEntity
8
SK2
62
256
6
ByLayer
370
13
48
1
60
0
100
AcDbLine
10
46.584684
20
21.9125
30
0
11
46.584684
21
61.6625
31
0
39
0
210
0
220
0
230
1
0
LINE
5
1A3
100
AcDbEntity
8
SK2
62
256
6
ByLayer
370
13
48
1
60
0
100
AcDbLine
10
-124.765316
20
14.4375
30
0
11
-124.765316
21
61.6625
31
0
39
0
210
0
220
0
230
1
0
LINE
5
1A4
100
AcDbEntity
8
SK2
62
256
6
ByLayer
370
13
48
1
60
0
100
AcDbLine
10
46.584684
20
59.6625
30
0
11
-124.765316
21
59.6625
31
0
39
0
210
0
220
0
230
1
0
LINE
5
1A5
100
AcDbEntity
8
SK2
62
256
6
ByLayer
370
13
48
1
60
0
100
AcDbLine
10
46.584684
20
59.6625
30
0
11
43.409686
21
59.244503
31
0
39
0
210
0
220
0
230
1
0
LINE
5
1A6
100
AcDbEntity
8
SK2
62
256
6
ByLayer
370
13
48
1
60
0
100
AcDbLine
10
46.584684
20
59.6625
30
0
11
43.409682
21
60.080497
31
0
39
0
210
0
220
0
230
1
0
LINE
5
1A7
100
AcDbEntity
8
SK2
62
256
6
ByLayer
370
13
48
1
60
0
100
AcDbLine
10
43.409686
20
59.244503
30
0
11
43.409682
21
60.080497
31
0
39
0
210
0
220
0
230
1
0
LINE
5
1A8
100
AcDbEntity
8
SK2
62
256
6
ByLayer
370
13
48
1
60
0
100
AcDbLine
10
-124.765316
20
59.6625
30
0
11
-121.590318
21
60.080497
31
0
39
0
210
0
220
0
230
1
0
LINE
5
1A9
100
AcDbEntity
8
SK2
62
256
6
ByLayer
370
13
48
1
60
0
100
AcDbLine
10
-124.765316
20
59.6625
30
0
11
-121.590314
21
59.244503
31
0
39
0
210
0
220
0
230
1
0
LINE
5
1AA
100
AcDbEntity
8
SK2
62
256
6
ByLayer
370
13
48
1
60
0
100
AcDbLine
10
-121.590318
20
60.080497
30
0
11
-121.590314
21
59.244503
31
0
39
0
210
0
220
0
230
1
0
ENDBLK
5
1AC
100
AcDbEntity
8
0
100
AcDbBlockEnd
0
ENDSEC
0
SECTION
2
ENTITIES
0
ELLIPSE
5
D8
100
AcDbEntity
8
1
62
256
6
ByLayer
370
18
48
1
60
0
100
AcDbEllipse
10
9.905579
20
14.789457
30
0
11
1.0527209884011
21
-2.80923094824541
31
0
210
0
220
0
230
1
40
0.965976
41
-0.123156309823624
42
-0.0346820701947778
0
ELLIPSE
5
D9
100
AcDbEntity
8
1
62
256
6
ByLayer
370
18
48
1
60
0
100
AcDbEllipse
10
17.344513
20
10.789979
30
0
11
-1.45626403395485
21
3.88610281173949
31
0
210
0
220
0
230
1
40
0.965976
41
-3.04311944675076
42
-0.123156309823624
0
ELLIPSE
5
DA
100
AcDbEntity
8
1
62
256
6
ByLayer
370
18
48
1
60
0
100
AcDbEllipse
10
15.340596
20
10.318468
30
0
11
-0.912358189947618
21
2.43466682181269
31
0
210
0
220
0
230
1
40
0.965976
41
1.2422583628233
42
1.65832312639636
0
ELLIPSE
5
DB
100
AcDbEntity
8
1
62
256
6
ByLayer
370
18
48
1
60
0
100
AcDbEllipse
10
34.989342
20
14.092918
30
0
11
-0.672039267084603
21
0.434008321920663
31
0
210
0
220
0
230
1
40
0.871401
41
3.00587637405942
42
-3.14150262725972
0
ELLIPSE
5
DC
100
AcDbEntity
8
1
62
256
6
ByLayer
370
18
48
1
60
0
100
AcDbEllipse
10
34.591979
20
13.499245
30
0
11
-0.654227641146902
21
0.460419584248282
31
0
210
0
220
0
230
1
40
0.633191
41
3.05326527656183
42
3.13575885596271
0
ELLIPSE
5
DD
100
AcDbEntity
8
1
62
256
6
ByLayer
370
18
48
1
60
0
100
AcDbEllipse
10
16.078073
20
11.649181
30
0
11
-0.136493550611334
21
0.354639973270797
31
0
210
0
220
0
230
1
40
0.970308
41
-1.02561085322926
42
-0.830043308272071
0
ELLIPSE
5
DE
100
AcDbEntity
8
1
62
256
6
ByLayer
370
18
48
1
60
0
100
AcDbEllipse
10
16.691702
20
10.642542
30
0
11
1.43677421696131
21
-3.73305235021895
31
0
210
0
220
0
230
1
40
0.970308
41
3.14149959835375
42
-0.377620699337204
0
ELLIPSE
5
DF
100
AcDbEntity
8
1
62
256
6
ByLayer
370
18
48
1
60
0
100
AcDbEllipse
10
16.691702
20
10.642542
30
0
11
1.43677421696131
21
-3.73305235021895
31
0
210
0
220
0
230
1
40
0.970308
41
-0.377620699337197
42
-1.37303580878462E-15
0
ELLIPSE
5
E0
100
AcDbEntity
8
1
62
256
6
ByLayer
370
18
48
1
60
0
100
AcDbEllipse
10
17.306018
20
9.18886
30
0
11
0.15265726055214
21
-0.396636812210763
31
0
210
0
220
0
230
1
40
0.970308
41
3.14158889476157
42
-2.44012946644364
0
ELLIPSE
5
E1
100
AcDbEntity
8
1
62
256
6
ByLayer
370
18
48
1
60
0
100
AcDbEllipse
10
16.551418
20
12.278668
30
0
11
0.15265726055214
21
-0.396636812210763
31
0
210
0
220
0
230
1
40
0.970308
41
-1.02561085322932
42
-3.12314613504069E-06
0
ELLIPSE
5
E2
100
AcDbEntity
8
1
62
256
6
ByLayer
370
18
48
1
60
0
100
AcDbEllipse
10
17.779363
20
9.818347
30
0
11
-0.136493550611334
21
0.354639973270797
31
0
210
0
220
0
230
1
40
0.970308
41
-2.31155769860282
42
-1.33226161763408
0
ELLIPSE
5
E3
100
AcDbEntity
8
1
62
256
6
ByLayer
370
18
48
1
60
0
100
AcDbEllipse
10
17.263909
20
11.928942
30
0
11
-0.136493550611334
21
0.354639973270797
31
0
210
0
220
0
230
1
40
0.970308
41
-2.07280840442594
42
-0.825698985757075
0
ELLIPSE
5
E4
100
AcDbEntity
8
1
62
256
6
ByLayer
370
18
48
1
60
0
100
AcDbEllipse
10
16.928718
20
10.733764
30
0
11
0.413072587376379
21
-1.07325255068795
31
0
210
0
220
0
230
1
40
0.970308
41
-0.53259320505831
42
-0.377620866664573
0
ELLIPSE
5
E5
100
AcDbEntity
8
1
62
256
6
ByLayer
370
18
48
1
60
0
100
AcDbEllipse
10
16.928718
20
10.733764
30
0
11
0.413072587376379
21
-1.07325255068795
31
0
210
0
220
0
230
1
40
0.970308
41
-0.377620866664574
42
0
0
ELLIPSE
5
E6
100
AcDbEntity
8
1
62
256
6
ByLayer
370
18
48
1
60
0
100
AcDbEllipse
10
16.928718
20
10.733764
30
0
11
0.413072587376379
21
-1.07325255068795
31
0
210
0
220
0
230
1
40
0.970308
41
0
42
-2.88191531151209
0
ELLIPSE
5
E7
100
AcDbEntity
8
1
62
256
6
ByLayer
370
18
48
1
60
0
100
AcDbEllipse
10
16.736848
20
10.659917
30
0
11
0.413072587376379
21
-1.07325255068795
31
0
210
0
220
0
230
1
40
0.970308
41
0.0921908243297254
42
3.04941159868957
0
ELLIPSE
5
E8
100
AcDbEntity
8
1
62
256
6
ByLayer
370
18
48
1
60
0
100
AcDbEllipse
10
14.809077
20
9.917958
30
0
11
0.700427430768642
21
-1.81986302073174
31
0
210
0
220
0
230
1
40
0.970308
41
-1.81102502342504
42
-1.72796901372946
0
ELLIPSE
5
E9
100
AcDbEntity
8
1
62
256
6
ByLayer
370
18
48
1
60
0
100
AcDbEllipse
10
34.272386
20
10.233558
30
0
11
-0.285109883678279
21
0.740777575746565
31
0
210
0
220
0
230
1
40
0.970308
41
2.83532104415521
42
3.14158399193958
0
ELLIPSE
5
EA
100
AcDbEntity
8
1
62
256
6
ByLayer
370
18
48
1
60
0
100
AcDbEllipse
10
31.28925
20
18.003258
30
0
11
-0.285109883678279
21
0.740777575746565
31
0
210
0
220
0
230
1
40
0.970308
41
-8.18707886503681E-06
42
0.30459362876339
0
ELLIPSE
5
EB
100
AcDbEntity
8
1
62
256
6
ByLayer
370
18
48
1
60
0
100
AcDbEllipse
10
32.364285
20
18.417017
30
0
11
-0.285109883678279
21
0.740777575746565
31
0
210
0
220
0
230
1
40
0.970308
41
-0.306271609434546
42
0.304593628763459
0
ELLIPSE
5
EC
100
AcDbEntity
8
1
62
256
6
ByLayer
370
18
48
1
60
0
100
AcDbEllipse
10
45.811421
20
19.121751
30
0
11
-0.285109883678279
21
0.740777575746565
31
0
210
0
220
0
230
1
40
0.970308
41
-2.83699902482626
42
-0.306271609434625
0
ELLIPSE
5
ED
100
AcDbEntity
8
1
62
256
6
ByLayer
370
18
48
1
60
0
100
AcDbEllipse
10
35.347421
20
10.647317
30
0
11
-0.285109883678279
21
0.740777575746565
31
0
210
0
220
0
230
1
40
0.970308
41
2.83532104415525
42
-2.8369990248263
0
ELLIPSE
5
EE
100
AcDbEntity
8
1
62
256
6
ByLayer
370
18
48
1
60
0
100
AcDbEllipse
10
18.549964
20
12.00886
30
0
11
0.15265726055214
21
-0.396636812210763
31
0
210
0
220
0
230
1
40
0.970308
41
-2.07280840442593
42
-1.35457195398019
0
ELLIPSE
5
EF
100
AcDbEntity
8
1
62
256
6
ByLayer
370
18
48
1
60
0
100
AcDbEllipse
10
17.436609
20
10.929241
30
0
11
0.422052426232386
21
-1.09658412787682
31
0
210
0
220
0
230
1
40
0.970308
41
-1.24218008713041
42
-1.11569238373302
0
ELLIPSE
5
F0
100
AcDbEntity
8
1
62
256
6
ByLayer
370
18
48
1
60
0
100
AcDbEllipse
10
16.585964
20
11.844658
30
0
11
-0.136493550611334
21
0.354639973270797
31
0
210
0
220
0
230
1
40
0.970308
41
-1.02561085322937
42
1.80933103595573
0
ELLIPSE
5
F1
100
AcDbEntity
8
1
62
256
6
ByLayer
370
18
48
1
60
0
100
AcDbEllipse
10
17.240949
20
10.853935
30
0
11
-1.43677421696141
21
3.73305235021891
31
0
210
0
220
0
230
1
40
0.970308
41
0
42
6.28318530717959
0
ELLIPSE
5
F2
100
AcDbEntity
8
1
62
256
6
ByLayer
370
18
48
1
60
0
100
AcDbEllipse
10
18.287254
20
10.013823
30
0
11
-0.136493550611334
21
0.354639973270797
31
0
210
0
220
0
230
1
40
0.970308
41
2.11598180036048
42
-1.33226161763411
0
ELLIPSE
5
F3
100
AcDbEntity
8
1
62
256
6
ByLayer
370
18
48
1
60
0
100
AcDbEllipse
10
17.059309
20
12.474145
30
0
11
0.15265726055214
21
-0.396636812210763
31
0
210
0
220
0
230
1
40
0.970308
41
-1.02561085322934
42
-0.307374402783624
0
ELLIPSE
5
F4
100
AcDbEntity
8
1
62
256
6
ByLayer
370
18
48
1
60
0
100
AcDbEllipse
10
17.7718
20
12.124419
30
0
11
-0.136493550611334
21
0.354639973270797
31
0
210
0
220
0
230
1
40
0.970308
41
-2.07280840442589
42
0.762133484759074
0
ELLIPSE
5
F5
100
AcDbEntity
8
1
62
256
6
ByLayer
370
18
48
1
60
0
100
AcDbEllipse
10
18.042073
20
11.813383
30
0
11
0.15265726055214
21
-0.396636812210763
31
0
210
0
220
0
230
1
40
0.970308
41
-2.07280840442598
42
-0.285064066437527
0
ELLIPSE
5
F6
100
AcDbEntity
8
1
62
256
6
ByLayer
370
18
48
1
60
0
100
AcDbEllipse
10
16.323254
20
9.849621
30
0
11
0.15265726055214
21
-0.396636812210763
31
0
210
0
220
0
230
1
40
0.970308
41
2.13829213670653
42
2.85652858715228
0
ELLIPSE
5
F7
100
AcDbEntity
8
1
62
256
6
ByLayer
370
18
48
1
60
0
100
AcDbEllipse
10
18.927263
20
10.463956
30
0
11
0.15265726055214
21
-0.396636812210763
31
0
210
0
220
0
230
1
40
0.970308
41
-2.05049806807992
42
-1.33226161763416
0
ELLIPSE
5
F8
100
AcDbEntity
8
1
62
256
6
ByLayer
370
18
48
1
60
0
100
AcDbEllipse
10
17.813909
20
9.384337
30
0
11
0.15265726055214
21
-0.396636812210763
31
0
210
0
220
0
230
1
40
0.970308
41
2.11598180036054
42
2.83421825080631
0
ELLIPSE
5
F9
100
AcDbEntity
8
1
62
256
6
ByLayer
370
18
48
1
60
0
100
AcDbEllipse
10
17.813909
20
9.384337
30
0
11
0.15265726055214
21
-0.396636812210763
31
0
210
0
220
0
230
1
40
0.970308
41
-3.09769561927643
42
-2.37945916883072
0
ELLIPSE
5
FA
100
AcDbEntity
8
1
62
256
6
ByLayer
370
18
48
1
60
0
100
AcDbEllipse
10
18.419373
20
10.268479
30
0
11
0.15265726055214
21
-0.396636812210763
31
0
210
0
220
0
230
1
40
0.970308
41
-3.1200059556226
42
-1.33226161763409
0
ELLIPSE
5
FB
100
AcDbEntity
8
1
62
256
6
ByLayer
370
18
48
1
60
0
100
AcDbEllipse
10
18.549964
20
12.00886
30
0
11
0.15265726055214
21
-0.396636812210763
31
0
210
0
220
0
230
1
40
0.970308
41
-1.0033005168833
42
-0.285064066437523
0
ELLIPSE
5
FC
100
AcDbEntity
8
1
62
256
6
ByLayer
370
18
48
1
60
0
100
AcDbEllipse
10
16.323254
20
9.849621
30
0
11
0.15265726055214
21
-0.396636812210763
31
0
210
0
220
0
230
1
40
0.970308
41
1.06878424916393
42
1.78702069960962
0
ELLIPSE
5
FD
100
AcDbEntity
8
1
62
256
6
ByLayer
370
18
48
1
60
0
100
AcDbEllipse
10
18.622445
20
11.209001
30
0
11
-0.136493550611334
21
0.354639973270797
31
0
210
0
220
0
230
1
40
0.970308
41
-3.12000595562248
42
-0.285064066437572
0
ELLIPSE
5
FE
100
AcDbEntity
8
1
62
256
6
ByLayer
370
18
48
1
60
0
100
AcDbEllipse
10
18.114554
20
11.013525
30
0
11
-0.136493550611334
21
0.354639973270797
31
0
210
0
220
0
230
1
40
0.970308
41
-3.12000595562255
42
-0.285064066437654
0
ELLIPSE
5
FF
100
AcDbEntity
8
1
62
256
6
ByLayer
370
18
48
1
60
0
100
AcDbEllipse
10
17.436609
20
10.929241
30
0
11
0.422052426232386
21
-1.09658412787682
31
0
210
0
220
0
230
1
40
0.970308
41
0.852215015262792
42
0.978702718660165
0
ELLIPSE
5
100
100
AcDbEntity
8
1
62
256
6
ByLayer
370
18
48
1
60
0
100
AcDbEllipse
10
15.945954
20
11.394526
30
0
11
0.15265726055214
21
-0.396636812210763
31
0
210
0
220
0
230
1
40
0.970308
41
1.09109458550994
42
1.80933103595566
0
ELLIPSE
5
101
100
AcDbEntity
8
1
62
256
6
ByLayer
370
18
48
1
60
0
100
AcDbEllipse
10
17.436609
20
10.929241
30
0
11
0.422052426232386
21
-1.09658412787682
31
0
210
0
220
0
230
1
40
0.970308
41
-2.28937763832703
42
-2.16288993492962
0
ELLIPSE
5
102
100
AcDbEntity
8
1
62
256
6
ByLayer
370
18
48
1
60
0
100
AcDbEllipse
10
17.101418
20
9.734063
30
0
11
-0.136493550611334
21
0.354639973270797
31
0
210
0
220
0
230
1
40
0.970308
41
1.06878424916387
42
-2.37945916883068
0
ELLIPSE
5
103
100
AcDbEntity
8
1
62
256
6
ByLayer
370
18
48
1
60
0
100
AcDbEllipse
10
18.927263
20
10.463956
30
0
11
0.15265726055214
21
-0.396636812210763
31
0
210
0
220
0
230
1
40
0.970308
41
-3.12000595562246
42
-2.40176950517673
0
ELLIPSE
5
104
100
AcDbEntity
8
1
62
256
6
ByLayer
370
18
48
1
60
0
100
AcDbEllipse
10
17.436609
20
10.929241
30
0
11
0.422052426232386
21
-1.09658412787682
31
0
210
0
220
0
230
1
40
0.970308
41
-0.194982535933822
42
-0.0684948325364095
0
ELLIPSE
5
105
100
AcDbEntity
8
1
62
256
6
ByLayer
370
18
48
1
60
0
100
AcDbEllipse
10
17.436609
20
10.929241
30
0
11
-0.826145174752807
21
2.14650510137587
31
0
210
0
220
0
230
1
40
0.970308
41
0
42
6.28318530717959
0
ELLIPSE
5
106
100
AcDbEntity
8
1
62
256
6
ByLayer
370
18
48
1
60
0
100
AcDbEllipse
10
17.436609
20
10.929241
30
0
11
0.422052426232386
21
-1.09658412787682
31
0
210
0
220
0
230
1
40
0.970308
41
2.94661011765595
42
3.07309782105336
0
ELLIPSE
5
107
100
AcDbEntity
8
1
62
256
6
ByLayer
370
18
48
1
60
0
100
AcDbEllipse
10
15.945954
20
11.394526
30
0
11
0.15265726055214
21
-0.396636812210763
31
0
210
0
220
0
230
1
40
0.970308
41
0.0215866979672658
42
0.739823148413029
0
ELLIPSE
5
108
100
AcDbEntity
8
1
62
256
6
ByLayer
370
18
48
1
60
0
100
AcDbEllipse
10
17.059309
20
12.474145
30
0
11
0.15265726055214
21
-0.396636812210763
31
0
210
0
220
0
230
1
40
0.970308
41
0.0438970343132932
42
0.762133484758973
0
ELLIPSE
5
109
100
AcDbEntity
8
1
62
256
6
ByLayer
370
18
48
1
60
0
100
AcDbEllipse
10
16.250773
20
10.64948
30
0
11
-0.136493550611334
21
0.354639973270797
31
0
210
0
220
0
230
1
40
0.970308
41
0.0215866979672386
42
2.85652858715229
0
ELLIPSE
5
10A
100
AcDbEntity
8
1
62
256
6
ByLayer
370
18
48
1
60
0
100
AcDbEllipse
10
17.436609
20
10.929241
30
0
11
0.422052426232386
21
-1.09658412787682
31
0
210
0
220
0
230
1
40
0.970308
41
1.89941256645937
42
2.02590026985676
0
ELLIPSE
5
10B
100
AcDbEntity
8
1
62
256
6
ByLayer
370
18
48
1
60
0
100
AcDbEllipse
10
15.148086
20
6.142849
30
0
11
-3.43986510337273
21
-3.79516224801906
31
0
210
0
220
0
230
1
40
0.36839
41
0.171324173885686
42
0.491463916724091
0
ELLIPSE
5
10C
100
AcDbEntity
8
1
62
256
6
ByLayer
370
18
48
1
60
0
100
AcDbEllipse
10
8.738189
20
12.821917
30
0
11
-1.19550913364672
21
2.75205861019965
31
0
210
0
220
0
230
1
40
0.977262
41
0.340275023271425
42
1.39663653410431
0
ELLIPSE
5
10D
100
AcDbEntity
8
1
62
256
6
ByLayer
370
18
48
1
60
0
100
AcDbEllipse
10
12.935231
20
12.337159
30
0
11
5.34296837169728
21
1.30487124998697
31
0
210
0
220
0
230
1
40
0.031772
41
1.86288922628205
42
2.40716127761665
0
ELLIPSE
5
10E
100
AcDbEntity
8
1
62
256
6
ByLayer
370
18
48
1
60
0
100
AcDbEllipse
10
11.873744
20
5.104331
30
0
11
1.32737154840751
21
-1.49602298527738
31
0
210
0
220
0
230
1
40
0.741658
41
-1.79903922846756
42
-0.525024408520368
0
ELLIPSE
5
10F
100
AcDbEntity
8
1
62
256
6
ByLayer
370
18
48
1
60
0
100
AcDbEllipse
10
15.265273
20
3.434398
30
0
11
-3.3227624159541
21
-1.13936192308651
31
0
210
0
220
0
230
1
40
0.351752
41
-0.700270969663319
42
0.0969927033305492
0
ELLIPSE
5
110
100
AcDbEntity
8
1
62
256
6
ByLayer
370
18
48
1
60
0
100
AcDbEllipse
10
12.123072
20
16.300553
30
0
11
-3.47122364527907
21
-0.534373983897161
31
0
210
0
220
0
230
1
40
0.288759
41
-0.103889717215211
42
0.693373955777889
0
ELLIPSE
5
111
100
AcDbEntity
8
1
62
256
6
ByLayer
370
18
48
1
60
0
100
AcDbEllipse
10
13.156197
20
14.298899
30
0
11
-4.73237844440798
21
1.23878404974914
31
0
210
0
220
0
230
1
40
0.331453
41
-0.558497538620516
42
-0.23835779577812
0
ELLIPSE
5
112
100
AcDbEntity
8
1
62
256
6
ByLayer
370
18
48
1
60
0
100
AcDbEllipse
10
10.730077
20
4.665867
30
0
11
-1.19550913366037
21
2.75205861019491
31
0
210
0
220
0
230
1
40
0.977262
41
1.39663653409932
42
2.452998044932
0
ELLIPSE
5
113
100
AcDbEntity
8
1
62
256
6
ByLayer
370
18
48
1
60
0
100
AcDbEllipse
10
14.168305
20
7.288175
30
0
11
5.34296837169728
21
1.30487124998697
31
0
210
0
220
0
230
1
40
0.031772
41
1.86288922628205
42
2.40716127761669
0
ELLIPSE
5
114
100
AcDbEntity
8
1
62
256
6
ByLayer
370
18
48
1
60
0
100
AcDbEllipse
10
9.85964
20
13.351347
30
0
11
-0.361359561767926
21
-1.96708395019605
31
0
210
0
220
0
230
1
40
0.760068
41
-2.70308330237915
42
-1.42906848243265
0
ELLIPSE
5
115
100
AcDbEntity
8
1
62
256
6
ByLayer
370
18
48
1
60
0
100
AcDbEllipse
10
5.405248
20
17.517932
30
0
11
-0.8097440398422
21
-0.0561177487331864
31
0
210
0
220
0
230
1
40
0.071934
41
1.34090986810266
42
2.91170619489758
0
ELLIPSE
5
116
100
AcDbEntity
8
1
62
256
6
ByLayer
370
18
48
1
60
0
100
AcDbEllipse
10
40.710733
20
1.574755
30
0
11
3.66377425325136
21
-9.51928349305834
31
0
210
0
220
0
230
1
40
0.970308
41
-2.80765339478976
42
-2.20006264120504
0
ELLIPSE
5
117
100
AcDbEntity
8
1
62
256
6
ByLayer
370
18
48
1
60
0
100
AcDbEllipse
10
12.277798
20
-10.622635
30
0
11
-0.690508613519577
21
-0.543065164659402
31
0
210
0
220
0
230
1
40
0.066376
41
-2.92951759627398
42
-1.35872126947566
0
ELLIPSE
5
118
100
AcDbEntity
8
1
62
256
6
ByLayer
370
18
48
1
60
0
100
AcDbEllipse
10
30.27786
20
28.747599
30
0
11
3.66377425325137
21
-9.51928349305835
31
0
210
0
220
0
230
1
40
0.970308
41
-0.620677124368738
42
-0.340214977436946
0
ELLIPSE
5
119
100
AcDbEntity
8
1
62
256
6
ByLayer
370
18
48
1
60
0
100
AcDbEllipse
10
30.087691
20
10.89027
30
0
11
-2.53500878508381
21
0.974273330679356
31
0
210
0
220
0
230
1
40
0.380077
41
2.4414179791131
42
2.81268899794727
0
POINT
5
6C
100
AcDbEntity
8
2
62
256
6
ByLayer
370
18
48
1
60
0
100
AcDbPoint
10
46.584684
20
19.9125
30
0
39
0
210
0
220
0
230
1
50
360
0
POINT
5
6E
100
AcDbEntity
8
80
62
256
6
ByLayer
370
18
48
1
60
0
100
AcDbPoint
10
0
20
0
30
0
39
0
210
0
220
0
230
1
50
360
0
POINT
5
70
100
AcDbEntity
8
81
62
256
6
ByLayer
370
18
48
1
60
0
100
AcDbPoint
10
46.584684
20
19.9125
30
0
39
0
210
0
220
0
230
1
50
360
0
SPLINE
5
11A
100
AcDbEntity
8
1
62
256
6
ByLayer
370
18
48
1
60
0
100
AcDbSpline
70
4
71
3
72
13
73
9
40
0
40
0
40
0
40
0
40
0.122204719964253
40
0.318863038148241
40
0.511790184127573
40
0.703732464204339
40
0.899091860346559
40
1
40
1
40
1
40
1
41
1
10
35.815684961933
20
14.070773351337
30
0
41
1
10
35.8276195862186
20
14.1502498584427
30
0
41
1
10
35.8481808318788
20
14.3578943838081
30
0
41
1
10
35.8309559651761
20
14.6956426582624
30
0
41
1
10
35.7632040095281
20
15.0734717811572
30
0
41
1
10
35.64244665909
20
15.4368373309816
30
0
41
1
10
35.5050391682242
20
15.7291555953148
30
0
41
1
10
35.396292146231
20
15.8898923610506
30
0
41
1
10
35.3567139812385
20
15.9431874591524
30
0
0
SPLINE
5
11B
100
AcDbEntity
8
1
62
256
6
ByLayer
370
18
48
1
60
0
100
AcDbSpline
70
4
71
3
72
15
73
11
40
0
40
0
40
0
40
0
40
0.0648927211702414
40
0.260292194180156
40
0.427355350566292
40
0.559483907629187
40
0.658216705227541
40
0.744140034894635
40
0.90159618442236
40
1
40
1
40
1
40
1
41
1
10
35.3600546432173
20
15.9454069138174
30
0
41
1
10
35.3531970887809
20
15.9571695377948
30
0
41
1
10
35.324195258515
20
16.0030995640497
30
0
41
1
10
35.2620946798721
20
16.0682333877156
30
0
41
1
10
35.1843066031907
20
16.1347049308962
30
0
41
1
10
35.1170248358438
20
16.1789842412773
30
0
41
1
10
35.0707701037271
20
16.2047036240232
30
0
41
1
10
35.0340892229029
20
16.223251128126
30
0
41
1
10
35.0072179440971
20
16.2361068811183
30
0
41
1
10
34.9790265776213
20
16.2489018088407
30
0
41
1
10
34.9678781892907
20
16.2538614851869
30
0
0
SPLINE
5
11C
100
AcDbEntity
8
1
62
256
6
ByLayer
370
18
48
1
60
0
100
AcDbSpline
70
4
71
3
72
12
73
8
40
0
40
0
40
0
40
0
40
0.0790917761183191
40
0.279893858312862
40
0.549646556550564
40
0.857675901015567
40
1
40
1
40
1
40
1
41
1
10
35.2443065405231
20
13.0366359598547
30
0
41
1
10
35.2596745008184
20
13.0582679539199
30
0
41
1
10
35.3123647025867
20
13.1328563957636
30
0
41
1
10
35.4003112691914
20
13.2615984765242
30
0
41
1
10
35.5092821976218
20
13.4250184049962
30
0
41
1
10
35.5957124125894
20
13.5573088184357
30
0
41
1
10
35.6446733563052
20
13.6332699049215
30
0
41
1
10
35.659560461246
20
13.656501146737
30
0
0
SPLINE
5
11D
100
AcDbEntity
8
1
62
256
6
ByLayer
370
18
48
1
60
0
100
AcDbSpline
70
4
71
1
72
4
73
2
40
0
40
0
40
1
40
1
41
1
10
34.988532288152
20
12.6696367713978
30
0
41
1
10
35.2455906524594
20
13.0369812432473
30
0
0
SPLINE
5
11E
100
AcDbEntity
8
1
62
256
6
ByLayer
370
18
48
1
60
0
100
AcDbSpline
70
4
71
3
72
12
73
8
40
0
40
0
40
0
40
0
40
0.204267351621459
40
0.468906315180546
40
0.722669642956308
40
0.994924083097428
40
1
40
1
40
1
40
1
41
1
10
35.6609738737042
20
13.6594610050412
30
0
41
1
10
35.6742574976908
20
13.6787990886546
30
0
41
1
10
35.7042365958762
20
13.7273665097129
30
0
41
1
10
35.7507562684904
20
13.8125815704615
30
0
41
1
10
35.7948755519723
20
13.9331338935224
30
0
41
1
10
35.82004364971
20
14.0214763656271
30
0
41
1
10
35.8211319326819
20
14.0693088173372
30
0
41
1
10
35.821149609512
20
14.0701849083455
30
0
0
SPLINE
5
11F
100
AcDbEntity
8
1
62
256
6
ByLayer
370
18
48
1
60
0
100
AcDbSpline
70
4
71
3
72
8
73
4
40
0
40
0
40
0
40
0
40
1
40
1
40
1
40
1
41
1
10
10.2610383973563
20
1.75446028860699
30
0
41
1
10
10.1556805490222
20
1.76448019999509
30
0
41
1
10
10.0497903243569
20
1.77897874615869
30
0
41
1
10
9.94413816090253
20
1.79847703494488
30
0
0
SPLINE
5
120
100
AcDbEntity
8
1
62
256
6
ByLayer
370
18
48
1
60
0
100
AcDbSpline
70
4
71
3
72
8
73
4
40
0
40
0
40
0
40
0
40
1
40
1
40
1
40
1
41
1
10
6.97467225111228
20
15.2192514686173
30
0
41
1
10
6.88577822473712
20
15.1590514506379
30
0
41
1
10
6.79844787732827
20
15.0947533435555
30
0
41
1
10
6.7136214340635
20
15.026256170942
30
0
0
SPLINE
5
121
100
AcDbEntity
8
1
62
256
6
ByLayer
370
18
48
1
60
0
100
AcDbSpline
70
4
71
3
72
10
73
6
40
0
40
0
40
0
40
0
40
0.483686724960213
40
0.483686724960213
40
1
40
1
40
1
40
1
41
1
10
35.6851290796544
20
14.0588483426986
30
0
41
1
10
35.7285817482106
20
14.0805616524332
30
0
41
1
10
35.7634979662654
20
14.094199505478
30
0
41
1
10
35.8118535326694
20
14.101477171512
30
0
41
1
10
35.8240629950607
20
14.093609011283
30
0
41
1
10
35.8216389731231
20
14.0721776141447
30
0
0
SPLINE
5
122
100
AcDbEntity
8
1
62
256
6
ByLayer
370
18
48
1
60
0
100
AcDbSpline
70
4
71
3
72
10
73
6
40
0
40
0
40
0
40
0
40
0.443113497709128
40
0.443113497709128
40
1
40
1
40
1
40
1
41
1
10
35.3678375971304
20
15.9383416360207
30
0
41
1
10
35.3722645468908
20
15.9313241601663
30
0
41
1
10
35.3640803169362
20
15.9278698315487
30
0
41
1
10
35.3200907057124
20
15.9265263097404
30
0
41
1
10
35.2774522692951
20
15.9301256164759
30
0
41
1
10
35.2214689128996
20
15.9371458626635
30
0
0
SPLINE
5
123
100
AcDbEntity
8
1
62
256
6
ByLayer
370
18
48
1
60
0
100
AcDbSpline
70
4
71
3
72
8
73
4
40
0
40
0
40
0
40
0
40
1
40
1
40
1
40
1
41
1
10
32.2755639070222
20
9.616535536367
30
0
41
1
10
32.3061118248967
20
9.63002531360149
30
0
41
1
10
32.3366595450152
20
9.64351507954541
30
0
41
1
10
32.367207066601
20
9.65700483415438
30
0
0
SPLINE
5
124
100
AcDbEntity
8
1
62
256
6
ByLayer
370
18
48
1
60
0
100
AcDbSpline
70
4
71
3
72
12
73
8
40
0
40
0
40
0
40
0
40
0.392678099449947
40
0.392678099449947
40
0.791279335966177
40
0.791279335966177
40
1
40
1
40
1
40
1
41
1
10
17.7848484379697
20
9.80719965900639
30
0
41
1
10
17.7651805391311
20
9.8056208785425
30
0
41
1
10
17.7448608032111
20
9.80292759060148
30
0
41
1
10
17.7058642283283
20
9.79519990450297
30
0
41
1
10
17.6867552055186
20
9.79001929616393
30
0
41
1
10
17.6608872306959
20
9.78096711212243
30
0
41
1
10
17.6524116611191
20
9.77759897997694
30
0
41
1
10
17.6445096957956
20
9.77409113554546
30
0
0
SPLINE
5
125
100
AcDbEntity
8
1
62
256
6
ByLayer
370
18
48
1
60
0
100
AcDbSpline
70
4
71
3
72
14
73
10
40
0
40
0
40
0
40
0
40
0.1645252003309
40
0.1645252003309
40
0.540804984924828
40
0.540804984924828
40
0.917041398719599
40
0.917041398719599
40
1
40
1
40
1
40
1
41
1
10
16.6664010081514
20
10.0793927511395
30
0
41
1
10
16.6614382236778
20
10.085628350918
30
0
41
1
10
16.6562916515562
20
10.0919417474821
30
0
41
1
10
16.6389727496301
20
10.1126504346675
30
0
41
1
10
16.6259423087386
20
10.1273685884404
30
0
41
1
10
16.5999151511925
20
10.1550114253562
30
0
41
1
10
16.5866281399038
20
10.168248492583
30
0
41
1
10
16.5712480028731
20
10.1826655379736
30
0
41
1
10
16.5684749888148
20
10.1852279334498
30
0
41
1
10
16.5657307185311
20
10.1877285450565
30
0
0
SPLINE
5
126
100
AcDbEntity
8
1
62
256
6
ByLayer
370
18
48
1
60
0
100
AcDbSpline
70
4
71
3
72
14
73
10
40
0
40
0
40
0
40
0
40
0.0829586012802549
40
0.0829586012802549
40
0.45919501507515
40
0.45919501507515
40
0.835474799669045
40
0.835474799669045
40
1
40
1
40
1
40
1
41
1
10
16.3181614621028
20
11.2014336955947
30
0
41
1
10
16.3194769121117
20
11.2047835780785
30
0
41
1
10
16.320787797314
20
11.2082080630955
30
0
41
1
10
16.3279525908195
20
11.2274298312036
30
0
41
1
10
16.3337384674742
20
11.244907154459
30
0
41
1
10
16.3441839983293
20
11.2810653543051
30
0
41
1
10
16.3489580101805
20
11.3001542441203
30
0
41
1
10
16.3547102742497
20
11.326806689489
30
0
41
1
10
16.3563372055797
20
11.3349049288845
30
0
41
1
10
16.3578299146592
20
11.3428780129731
30
0
0
SPLINE
5
127
100
AcDbEntity
8
1
62
256
6
ByLayer
370
18
48
1
60
0
100
AcDbSpline
70
4
71
3
72
14
73
10
40
0
40
0
40
0
40
0
40
0.0829586012802134
40
0.0829586012802134
40
0.459195015075168
40
0.459195015075168
40
0.835474799669149
40
0.835474799669149
40
1
40
1
40
1
40
1
41
1
10
18.5550563217408
20
10.6570475113298
30
0
41
1
10
18.5530125396745
20
10.6534173089836
30
0
41
1
10
18.5510210826678
20
10.6497308860322
30
0
41
1
10
18.5404054005585
20
10.6291809426652
30
0
41
1
10
18.5328781670501
20
10.6110334073702
30
0
41
1
10
18.5218336611744
20
10.5746446744949
30
0
41
1
10
18.5182031329832
20
10.5559958877606
30
0
41
1
10
18.5158131032419
20
10.5306374964636
30
0
41
1
10
18.5154405118004
20
10.523022026406
30
0
41
1
10
18.5153878691841
20
10.5156031939513
30
0
0
SPLINE
5
128
100
AcDbEntity
8
1
62
256
6
ByLayer
370
18
48
1
60
0
100
AcDbSpline
70
4
71
3
72
14
73
10
40
0
40
0
40
0
40
0
40
0.16452520033089
40
0.16452520033089
40
0.540804984924839
40
0.540804984924839
40
0.917041398719612
40
0.917041398719612
40
1
40
1
40
1
40
1
41
1
10
18.2068167756919
20
11.7790884557849
30
0
41
1
10
18.2103394937024
20
11.7722986043725
30
0
41
1
10
18.2142317259354
20
11.7655024384705
30
0
41
1
10
18.2281883935337
20
11.7434996972134
30
0
41
1
10
18.240075350765
20
11.7283414403597
30
0
41
1
10
18.2667014833319
20
11.700929136473
30
0
41
1
10
18.2817298514742
20
11.6883622812859
30
0
41
1
10
18.3005608771088
20
11.6752734111542
30
0
41
1
10
18.3040144629714
20
11.6729729536123
30
0
41
1
10
18.3074870653126
20
11.6707526618681
30
0
0
SPLINE
5
129
100
AcDbEntity
8
1
62
256
6
ByLayer
370
18
48
1
60
0
100
AcDbSpline
70
4
71
3
72
12
73
8
40
0
40
0
40
0
40
0
40
0.392678099452522
40
0.392678099452522
40
0.79127933596869
40
0.79127933596869
40
1
40
1
40
1
40
1
41
1
10
17.0883693458747
20
12.0512815479185
30
0
41
1
10
17.1046181272802
20
12.0515443811863
30
0
41
1
10
17.1225724621143
20
12.0533272754403
30
0
41
1
10
17.1599116706768
20
12.0604170757088
30
0
41
1
10
17.1797804152034
20
12.0658900851375
30
0
41
1
10
17.20896028038
20
12.0762169469021
30
0
41
1
10
17.2189703515298
20
12.0801756767915
30
0
41
1
10
17.2287080880489
20
12.0843900713794
30
0
0
SPLINE
5
12A
100
AcDbEntity
8
1
62
256
6
ByLayer
370
18
48
1
60
0
100
AcDbSpline
70
4
71
3
72
8
73
4
40
0
40
0
40
0
40
0
40
1
40
1
40
1
40
1
41
1
10
10.3925487006047
20
4.8340277165496
30
0
41
1
10
10.3945735840633
20
4.82573656270915
30
0
41
1
10
10.396668791391
20
4.81746469442859
30
0
41
1
10
10.3988330971536
20
4.80921656216677
30
0
0
SPLINE
5
12B
100
AcDbEntity
8
1
62
256
6
ByLayer
370
18
48
1
60
0
100
AcDbSpline
70
4
71
3
72
14
73
10
40
0
40
0
40
0
40
0
40
0.256006012600457
40
0.256006012600457
40
0.256006012600457
40
0.73752356543209
40
0.73752356543209
40
0.73752356543209
40
1
40
1
40
1
40
1
41
1
10
21.7491604707103
20
13.4013872515998
30
0
41
1
10
21.8856452401637
20
13.1928710683025
30
0
41
1
10
22.0043818328492
20
12.9711506170549
30
0
41
1
10
22.1026062251772
20
12.7416655040518
30
0
41
1
10
22.285479000679
20
12.3144133871735
30
0
41
1
10
22.3998379157648
20
11.850554782035
30
0
41
1
10
22.4362205299599
20
11.3885049086148
30
0
41
1
10
22.4562520443458
20
11.1341098110876
30
0
41
1
10
22.4533112330397
20
10.8772671217779
30
0
41
1
10
22.4273381722666
20
10.6244987196345
30
0
0
SPLINE
5
12C
100
AcDbEntity
8
1
62
256
6
ByLayer
370
18
48
1
60
0
100
AcDbSpline
70
4
71
2
72
6
73
3
40
0
40
0
40
0
40
1
40
1
40
1
41
1.02994816993494
10
19.7297457536752
20
5.02996812413265
30
0
41
1.02994816993494
10
19.4816817100405
20
4.33827812569735
30
0
41
1.02994816993494
10
19.2336176664058
20
3.64658812726205
30
0
0
SPLINE
5
12D
100
AcDbEntity
8
1
62
256
6
ByLayer
370
18
48
1
60
0
100
AcDbSpline
70
4
71
3
72
19
73
15
40
0
40
0
40
0
40
0
40
0.24905337116666
40
0.24905337116666
40
0.24905337116666
40
0.403599292981679
40
0.403599292981679
40
0.403599292981679
40
0.717848378774914
40
0.717848378774914
40
0.717848378774914
40
0.857416780703738
40
0.857416780703738
40
1
40
1
40
1
40
1
41
1
10
22.4273381722666
20
10.6244987196345
30
0
41
1
10
22.3902169649849
20
10.2633467135975
30
0
41
1
10
22.2917338256282
20
9.90177274261023
30
0
41
1
10
22.146363752961
20
9.56631513320062
30
0
41
1
10
22.0553846946081
20
9.35637083819225
30
0
41
1
10
21.9454154600508
20
9.1537818686204
30
0
41
1
10
21.8205175139345
20
8.96213345447313
30
0
41
1
10
21.5686849895026
20
8.57571153610843
30
0
41
1
10
21.2514750042786
20
8.22683662133727
30
0
41
1
10
20.8957181327487
20
7.93316618825102
30
0
41
1
10
20.736305979222
20
7.80157453138699
30
0
41
1
10
20.5679366505462
20
7.67993625316888
30
0
41
1
10
20.2142224554387
20
7.45782896025
30
0
41
1
10
20.0274730481398
20
7.35719914437027
30
0
41
1
10
19.8363550611538
20
7.2708942038953
30
0
0
SPLINE
5
12E
100
AcDbEntity
8
1
62
256
6
ByLayer
370
18
48
1
60
0
100
AcDbSpline
70
4
71
3
72
10
73
6
40
0
40
0
40
0
40
0
40
0.79472452892295
40
0.79472452892295
40
1
40
1
40
1
40
1
41
1
10
35.2179388234071
20
13.0040785618492
30
0
41
1
10
35.3576627091592
20
13.202375972519
30
0
41
1
10
35.4539831604837
20
13.3506842649857
30
0
41
1
10
35.5619562560351
20
13.517865827374
30
0
41
1
10
35.5833601557994
20
13.55124173374
30
0
41
1
10
35.6040314116141
20
13.5836664196064
30
0
0
SPLINE
5
12F
100
AcDbEntity
8
1
62
256
6
ByLayer
370
18
48
1
60
0
100
AcDbSpline
70
4
71
3
72
10
73
6
40
0
40
0
40
0
40
0
40
0.580414582153072
40
0.580414582153072
40
1
40
1
40
1
40
1
41
1
10
12.0312935374972
20
12.3582935072024
30
0
41
1
10
11.9039639112908
20
12.3006277633978
30
0
41
1
10
11.7739002903828
20
12.2504386334592
30
0
41
1
10
11.5481594249665
20
12.1759781300874
30
0
41
1
10
11.4525037168919
20
12.1482739461199
30
0
41
1
10
11.3569832604767
20
12.1239764859345
30
0
0
SPLINE
5
130
100
AcDbEntity
8
1
62
256
6
ByLayer
370
18
48
1
60
0
100
AcDbSpline
70
4
71
3
72
8
73
4
40
0
40
0
40
0
40
0
40
1
40
1
40
1
40
1
41
1
10
35.5404981607396
20
13.5939799263806
30
0
41
1
10
35.6400956861638
20
13.7203767431707
30
0
41
1
10
35.6919839422798
20
13.8871448809974
30
0
41
1
10
35.6851290150498
20
14.0588214926822
30
0
0
SPLINE
5
131
100
AcDbEntity
8
1
62
256
6
ByLayer
370
18
48
1
60
0
100
AcDbSpline
70
4
71
3
72
28
73
24
40
0
40
0
40
0
40
0
40
4.58207680505E-05
40
4.58207680505E-05
40
0.0262692706625121
40
0.0262692706625121
40
0.213495002074624
40
0.213495002074624
40
0.356578191350431
40
0.356578191350431
40
0.396506692896389
40
0.396506692896389
40
0.500669174647826
40
0.500669174647826
40
0.650604339303028
40
0.650604339303028
40
0.802246387468537
40
0.802246387468537
40
0.967086003134498
40
0.967086003134498
40
0.999954179231951
40
0.999954179231951
40
1
40
1
40
1
40
1
41
1
10
35.1230089972269
20
14.4065002997951
30
0
41
1
10
35.123018343823
20
14.4065124969637
30
0
41
1
10
35.1230276898208
20
14.4065246944859
30
0
41
1
10
35.1283856286597
20
14.4135179535664
30
0
41
1
10
35.1336062342427
20
14.4206762092176
30
0
41
1
10
35.1745305867316
20
14.4797096354059
30
0
41
1
10
35.2040050229527
20
14.5411441377875
30
0
41
1
10
35.2374576730278
20
14.6617938195881
30
0
41
1
10
35.2460235656554
20
14.7193755430351
30
0
41
1
10
35.2471563786874
20
14.795391410971
30
0
41
1
10
35.246806968428
20
14.8123298572713
30
0
41
1
10
35.2433384162022
20
14.8734208634685
30
0
41
1
10
35.2365813658371
20
14.9185855711921
30
0
41
1
10
35.2103240216366
20
15.0251400575459
30
0
41
1
10
35.1860182380884
20
15.0868998417318
30
0
41
1
10
35.1252835545699
20
15.1975586483473
30
0
41
1
10
35.0879429251152
20
15.2480090255052
30
0
41
1
10
35.0036728164171
20
15.3366690286575
30
0
41
1
10
34.9551662321231
20
15.374704199941
30
0
41
1
10
34.8955445010327
20
15.4098652646275
30
0
41
1
10
34.8854820273434
20
15.4154233649504
30
0
41
1
10
34.8753542508186
20
15.420656434556
30
0
41
1
10
34.8753401462037
20
15.4206637218224
30
0
41
1
10
34.8753260412221
20
15.4206710084941
30
0
0
SPLINE
5
132
100
AcDbEntity
8
1
62
256
6
ByLayer
370
18
48
1
60
0
100
AcDbSpline
70
4
71
3
72
14
73
10
40
0
40
0
40
0
40
0
40
7.77085242593E-05
40
7.77085242593E-05
40
0.3526431550462
40
0.3526431550462
40
0.7057321193738
40
0.7057321193738
40
1
40
1
40
1
40
1
41
1
10
34.8812416474184
20
16.2710252772759
30
0
41
1
10
34.8812511378915
20
16.2710221227678
30
0
41
1
10
34.8812606283474
20
16.2710189682077
30
0
41
1
10
34.9239685640558
20
16.2568233368975
30
0
41
1
10
34.958909499306
20
16.2453491418894
30
0
41
1
10
35.0028485923677
20
16.2320953007339
30
0
41
1
10
35.0121282605703
20
16.2302507384833
30
0
41
1
10
34.9982363633929
20
16.239152554957
30
0
41
1
10
34.9798785829801
20
16.2480502405294
30
0
41
1
10
34.9499798593101
20
16.2617672341341
30
0
0
SPLINE
5
133
100
AcDbEntity
8
1
62
256
6
ByLayer
370
18
48
1
60
0
100
AcDbSpline
70
4
71
3
72
8
73
4
40
0
40
0
40
0
40
0
40
1
40
1
40
1
40
1
41
1
10
14.4226683388165
20
7.0205159968782
30
0
41
1
10
13.8015150060448
20
5.47225086596669
30
0
41
1
10
13.09324849684
20
4.04604143182101
30
0
41
1
10
12.4661957447712
20
3.3163613741097
30
0
0
SPLINE
5
134
100
AcDbEntity
8
1
62
256
6
ByLayer
370
18
48
1
60
0
100
AcDbSpline
70
4
71
3
72
8
73
4
40
0
40
0
40
0
40
0
40
1
40
1
40
1
40
1
41
1
10
9.5519972099172
20
15.2489337261536
30
0
41
1
10
10.4210017079574
20
14.9779743277991
30
0
41
1
10
11.6989671791502
20
14.0896542679163
30
0
41
1
10
12.9574232360873
20
13.0201563757572
30
0
0
SPLINE
5
135
100
AcDbEntity
8
1
62
256
6
ByLayer
370
18
48
1
60
0
100
AcDbSpline
70
4
71
3
72
12
73
8
40
0
40
0
40
0
40
0
40
0.264973649149777
40
0.529947298299554
40
0.662434122874443
40
0.794920947449332
40
1
40
1
40
1
40
1
41
1.02994816993494
10
16.8155472188211
20
16.9625404761765
30
0
41
1.03004363841634
10
17.8478208012004
20
17.1868079893682
30
0
41
1.03021336426305
10
21.6372888048893
20
18.0169494285982
30
0
41
1.0311558410484
10
27.540719714049
20
17.8572108407352
30
0
41
1.03077804826571
10
29.8430505745255
20
17.5074085236259
30
0
41
1.03340133735628
10
32.3622741000051
20
17.098917337182
30
0
41
1.0349314968617
10
33.9432786492301
20
16.6207968394141
30
0
41
1.03576782913895
10
34.8842469418571
20
16.2699048220604
30
0
0
SPLINE
5
136
100
AcDbEntity
8
1
62
256
6
ByLayer
370
18
48
1
60
0
100
AcDbSpline
70
4
71
3
72
10
73
6
40
0
40
0
40
0
40
0
40
0.49388023020483
40
0.49388023020483
40
1
40
1
40
1
40
1
41
1
10
34.9499798593101
20
16.2617672341341
30
0
41
1
10
34.8727091365257
20
16.2972176440569
30
0
41
1
10
34.7893503836541
20
16.3356957366531
30
0
41
1
10
34.5984380290102
20
16.4245252279628
30
0
41
1
10
34.4901824098174
20
16.4753549215677
30
0
41
1
10
34.3547338868651
20
16.5385856440687
30
0
0
SPLINE
5
137
100
AcDbEntity
8
1
62
256
6
ByLayer
370
18
48
1
60
0
100
AcDbSpline
70
4
71
3
72
10
73
6
40
0
40
0
40
0
40
0
40
9.39711588055E-05
40
9.39711588055E-05
40
1
40
1
40
1
40
1
41
1
10
34.9302258351485
20
12.5935513465845
30
0
41
1
10
34.9302348964748
20
12.5935643302974
30
0
41
1
10
34.9302439578106
20
12.593577314015
30
0
41
1
10
35.0266706220082
20
12.7317441892041
30
0
41
1
10
35.1226750215725
20
12.8688793070283
30
0
41
1
10
35.2179388234071
20
13.0040785618492
30
0
0
SPLINE
5
138
100
AcDbEntity
8
1
62
256
6
ByLayer
370
18
48
1
60
0
100
AcDbSpline
70
4
71
3
72
13
73
9
40
0
40
0
40
0
40
0
40
0.219070772970694
40
0.219070772970694
40
0.219070772970694
40
0.652376048528384
40
0.652376048528384
40
1
40
1
40
1
40
1
41
1
10
17.1468375151988
20
6.55639246035668
30
0
41
1
10
16.954064933454
20
6.51091381742145
30
0
41
1
10
16.759228937972
20
6.48083569428823
30
0
41
1
10
16.5666929341572
20
6.46712176994433
30
0
41
1
10
16.189659979558
20
6.44026652566751
30
0
41
1
10
15.8147241185558
20
6.4769318084885
30
0
41
1
10
15.1809390669598
20
6.64710492190767
30
0
41
1
10
14.9080331227202
20
6.76110102857774
30
0
41
1
10
14.6509395468383
20
6.90719266246796
30
0
0
SPLINE
5
139
100
AcDbEntity
8
1
62
256
6
ByLayer
370
18
48
1
60
0
100
AcDbSpline
70
4
71
1
72
4
73
2
40
0
40
0
40
1
40
1
41
1
10
16.8155472188212
20
16.9625404761765
30
0
41
1
10
15.7870260212483
20
17.7591146699511
30
0
0
SPLINE
5
13A
100
AcDbEntity
8
1
62
256
6
ByLayer
370
18
48
1
60
0
100
AcDbSpline
70
4
71
3
72
10
73
6
40
0
40
0
40
0
40
0
40
0.5
40
0.5
40
1
40
1
40
1
40
1
41
1
10
15.7870260212483
20
17.7591146699511
30
0
41
1
10
17.7134556438788
20
18.1969231995685
30
0
41
1
10
19.6454335537185
20
18.584604629125
30
0
41
1
10
23.5752192107553
20
18.7652147799245
30
0
41
1
10
25.577787504841
20
18.6942340206298
30
0
41
1
10
27.542013268861
20
18.3792157399095
30
0
0
SPLINE
5
13B
100
AcDbEntity
8
1
62
256
6
ByLayer
370
18
48
1
60
0
100
AcDbSpline
70
4
71
3
72
12
73
8
40
0
40
0
40
0
40
0
40
0.477932094760439
40
0.477932094760439
40
0.904102435462302
40
0.904102435462302
40
1
40
1
40
1
40
1
41
1
10
13.2940051362342
20
7.18795341834377
30
0
41
1
10
13.4767606021317
20
7.19961114367788
30
0
41
1
10
13.665965141876
20
7.1961109610036
30
0
41
1
10
14.013265786271
20
7.15134986006788
30
0
41
1
10
14.1760589430501
20
7.1133809724995
30
0
41
1
10
14.3574115356794
20
7.04742990358429
30
0
41
1
10
14.3904511573595
20
7.03435085925344
30
0
41
1
10
14.4226683388157
20
7.02051599687636
30
0
0
SPLINE
5
13C
100
AcDbEntity
8
1
62
256
6
ByLayer
370
18
48
1
60
0
100
AcDbSpline
70
4
71
3
72
8
73
4
40
0
40
0
40
0
40
0
40
1
40
1
40
1
40
1
41
1
10
19.8363550611538
20
7.2708942038953
30
0
41
1
10
19.5938299469592
20
7.16124807748611
30
0
41
1
10
19.3412053210199
20
7.07408470168201
30
0
41
1
10
19.0877165047705
20
7.0142819680259
30
0
0
SPLINE
5
13D
100
AcDbEntity
8
1
62
256
6
ByLayer
370
18
48
1
60
0
100
AcDbSpline
70
4
71
3
72
10
73
6
40
0
40
0
40
0
40
0
40
0.580414582160081
40
0.580414582160081
40
1
40
1
40
1
40
1
41
1
10
13.2940051362438
20
7.18795341833851
30
0
41
1
10
13.1547614794252
20
7.17907125277551
30
0
41
1
10
13.0166213718173
20
7.16195236863371
30
0
41
1
10
12.7828295243633
20
7.12045767883717
30
0
41
1
10
12.6855773434688
20
7.09929046453854
30
0
41
1
10
12.5900568870537
20
7.0749930043531
30
0
0
SPLINE
5
13E
100
AcDbEntity
8
1
62
256
6
ByLayer
370
18
48
1
60
0
100
AcDbSpline
70
4
71
3
72
8
73
4
40
0
40
0
40
0
40
0
40
1
40
1
40
1
40
1
41
1
10
10.3988330971536
20
4.80921656216674
30
0
41
1
10
11.1942962567645
20
5.33744226234737
30
0
41
1
10
12.2396665092383
20
6.22358374789468
30
0
41
1
10
13.2940051362339
20
7.18795341834954
30
0
0
SPLINE
5
13F
100
AcDbEntity
8
1
62
256
6
ByLayer
370
18
48
1
60
0
100
AcDbSpline
70
4
71
3
72
8
73
4
40
0
40
0
40
0
40
0
40
1
40
1
40
1
40
1
41
1
10
14.4226683388156
20
7.02051599687638
30
0
41
1
10
14.5012327886292
20
6.98677845989238
30
0
41
1
10
14.5775889222909
20
6.94887364399486
30
0
41
1
10
14.6509395468384
20
6.90719266246796
30
0
0
SPLINE
5
140
100
AcDbEntity
8
1
62
256
6
ByLayer
370
18
48
1
60
0
100
AcDbSpline
70
4
71
3
72
8
73
4
40
0
40
0
40
0
40
0
40
1
40
1
40
1
40
1
41
1
10
34.8812417658258
20
16.2710252379172
30
0
41
1
10
35.0274565804102
20
16.2103909723928
30
0
41
1
10
35.1496871013439
20
16.0904409615918
30
0
41
1
10
35.2214689128995
20
15.9371458626635
30
0
0
SPLINE
5
141
100
AcDbEntity
8
1
62
256
6
ByLayer
370
18
48
1
60
0
100
AcDbSpline
70
4
71
3
72
24
73
20
40
0
40
0
40
0
40
0
40
0.193947210779305
40
0.193947210779305
40
0.435758612862257
40
0.435758612862257
40
0.688024122938489
40
0.688024122938489
40
0.877280955594782
40
0.877280955594782
40
0.970135497295777
40
0.970135497295777
40
0.993290262270192
40
0.993290262270192
40
0.99899647473314
40
0.99899647473314
40
0.999887794664004
40
0.999887794664004
40
1
40
1
40
1
40
1
41
1
10
35.2215693312489
20
15.9369594474612
30
0
41
1
10
35.1938156506707
20
15.9385094925853
30
0
41
1
10
35.1693658563479
20
15.9276384589709
30
0
41
1
10
35.1172322764555
20
15.8881729672327
30
0
41
1
10
35.0900399345135
20
15.8547018724216
30
0
41
1
10
35.0358878071133
20
15.7705304210881
30
0
41
1
10
35.0086836199339
20
15.7185287488069
30
0
41
1
10
34.9606034935055
20
15.61702996827
30
0
41
1
10
34.9397110892251
20
15.5698355778337
30
0
41
1
10
34.9078763780972
20
15.4956353328327
30
0
41
1
10
34.8972646361723
20
15.4705251328723
30
0
41
1
10
34.8838216168966
20
15.4384784574276
30
0
41
1
10
34.8811433393615
20
15.4320308738556
30
0
41
1
10
34.8777357147077
20
15.4240090288707
30
0
41
1
10
34.8772187048012
20
15.4222092901339
30
0
41
1
10
34.8760880871057
20
15.4207827755032
30
0
41
1
10
34.8758974562785
20
15.4206351159962
30
0
41
1
10
34.8756621176577
20
15.420543773327
30
0
41
1
10
34.8756350460705
20
15.4205342102067
30
0
41
1
10
34.8756077630227
20
15.420525375281
30
0
0
SPLINE
5
142
100
AcDbEntity
8
1
62
256
6
ByLayer
370
18
48
1
60
0
100
AcDbSpline
70
4
71
3
72
12
73
8
40
0
40
0
40
0
40
0
40
0.107029883295003
40
0.44370617727831
40
0.612044324269964
40
0.780382471261618
40
1
40
1
40
1
40
1
41
1.03017844307583
10
22.4273381725632
20
10.6244987197031
30
0
41
1.03022736562783
10
23.0137686380619
20
10.7602464211756
30
0
41
1.03047050908112
10
25.5923271531613
20
11.3706197829724
30
0
41
1.0311558410484
10
29.435530043357
20
12.425718112661
30
0
41
1.03077804826571
10
31.423484968647
20
13.0809563202411
30
0
41
1.03322144498364
10
33.3480321880836
20
13.7042370339602
30
0
41
1.03463604371943
10
34.5006964505786
20
14.1452910164176
30
0
41
1.0353664121206
10
35.1230090076576
20
14.4065003041732
30
0
0
SPLINE
5
143
100
AcDbEntity
8
1
62
256
6
ByLayer
370
18
48
1
60
0
100
AcDbSpline
70
4
71
3
72
13
73
9
40
0
40
0
40
0
40
0
40
0.476351510225594
40
0.476351510225594
40
0.476351510225594
40
0.687543277835218
40
0.687543277835218
40
1
40
1
40
1
40
1
41
1
10
13.1094316887616
20
13.2191010063062
30
0
41
1
10
13.33129935664
20
13.5458757103405
30
0
41
1
10
13.608526903387
20
13.8331543230203
30
0
41
1
10
13.9330004988631
20
14.0631089115972
30
0
41
1
10
14.0783708549723
20
14.1661329508302
30
0
41
1
10
14.2343341316464
20
14.2586689371251
30
0
41
1
10
14.6409401621617
20
14.4574888227677
30
0
41
1
10
14.9048322344497
20
14.5507452495372
30
0
41
1
10
15.1786623035471
20
14.61534686365
30
0
0
SPLINE
5
144
100
AcDbEntity
8
1
62
256
6
ByLayer
370
18
48
1
60
0
100
AcDbSpline
70
4
71
3
72
8
73
4
40
0
40
0
40
0
40
0
40
1
40
1
40
1
40
1
41
1
10
8.40066053459577
20
12.9900779560273
30
0
41
1
10
8.39863565113717
20
12.9983691098677
30
0
41
1
10
8.39668072655843
20
13.0066810437648
30
0
41
1
10
8.39479672780374
20
13.0150092311932
30
0
0
SPLINE
5
145
100
AcDbEntity
8
1
62
256
6
ByLayer
370
18
48
1
60
0
100
AcDbSpline
70
4
71
3
72
8
73
4
40
0
40
0
40
0
40
0
40
1
40
1
40
1
40
1
41
1
10
31.2036469688878
20
17.718499082853
30
0
41
1
10
30.0777295243693
20
17.9685047114257
30
0
41
1
10
28.8545421394429
20
18.1687151977721
30
0
41
1
10
27.5420132688608
20
18.3792157399096
30
0
0
SPLINE
5
146
100
AcDbEntity
8
1
62
256
6
ByLayer
370
18
48
1
60
0
100
AcDbSpline
70
4
71
3
72
24
73
20
40
0
40
0
40
0
40
0
40
0.0001109191202389
40
0.0001109191202389
40
0.0009920216779298
40
0.0009920216779298
40
0.0066328226135993
40
0.0066328226135993
40
0.0295221595719076
40
0.0295221595719076
40
0.121312289845668
40
0.121312289845668
40
0.308399631015107
40
0.308399631015107
40
0.557773367664674
40
0.557773367664674
40
0.796812833993202
40
0.796812833993202
40
1
40
1
40
1
40
1
41
1
10
35.1231956347784
20
14.4067440015948
30
0
41
1
10
35.1232243686642
20
14.4067468958909
30
0
41
1
10
35.1232532500488
20
14.4067490485818
30
0
41
1
10
35.1235081360973
20
14.4067603517519
30
0
41
1
10
35.1237488345521
20
14.4067030027411
30
0
41
1
10
35.1254323396229
20
14.4058656467038
30
0
41
1
10
35.1267354330877
20
14.4044466620419
30
0
41
1
10
35.1335398527478
20
14.398559879468
30
0
41
1
10
35.1389552907428
20
14.3937997965553
30
0
41
1
10
35.1659956307045
20
14.3701704393274
30
0
41
1
10
35.1872714972271
20
14.351614966966
30
0
41
1
10
35.2506262459327
20
14.2967522382539
30
0
41
1
10
35.2915801847959
20
14.2618020149889
30
0
41
1
10
35.3826849009837
20
14.1871309072734
30
0
41
1
10
35.4318356025555
20
14.1492696660497
30
0
41
1
10
35.5208660138677
20
14.0906273587005
30
0
41
1
10
35.5615702130314
20
14.0687723623131
30
0
41
1
10
35.6298877111245
20
14.0485517182892
30
0
41
1
10
35.6591285247036
20
14.0461503963589
30
0
41
1
10
35.6851290150499
20
14.0588214926823
30
0
0
SPLINE
5
147
100
AcDbEntity
8
1
62
256
6
ByLayer
370
18
48
1
60
0
100
AcDbSpline
70
4
71
3
72
15
73
11
40
0
40
0
40
0
40
0
40
0.284308369869422
40
0.284308369869422
40
0.60455231273422
40
0.60455231273422
40
0.883194505470757
40
0.883194505470757
40
0.883194505470757
40
1
40
1
40
1
40
1
41
1
10
17.9043592599239
20
15.1817072134745
30
0
41
1
10
18.3201596741925
20
15.2017296805763
30
0
41
1
10
18.7466373589119
20
15.1665874782141
30
0
41
1
10
19.6152364424788
20
14.981163544945
30
0
41
1
10
20.0657137271554
20
14.8145536254298
30
0
41
1
10
20.8278303993491
20
14.3782864137262
30
0
41
1
10
21.158132472454
20
14.1188145314951
30
0
41
1
10
21.4315580526154
20
13.8139519765279
30
0
41
1
10
21.5474891844945
20
13.6846917184202
30
0
41
1
10
21.6542264823017
20
13.5464134411228
30
0
41
1
10
21.7491604707103
20
13.4013872515998
30
0
0
SPLINE
5
148
100
AcDbEntity
8
1
62
256
6
ByLayer
370
18
48
1
60
0
100
AcDbSpline
70
4
71
3
72
8
73
4
40
0
40
0
40
0
40
0
40
1
40
1
40
1
40
1
41
1.03548960590947
10
33.9162979034845
20
16.7452291340257
30
0
41
1.03477250223163
10
33.0288306589007
20
17.1377929851811
30
0
41
1.03398726483063
10
32.1405319974767
20
17.4640952942182
30
0
41
1.03311206534555
10
31.2036702713129
20
17.7184927552796
30
0
0
SPLINE
5
149
100
AcDbEntity
8
1
62
256
6
ByLayer
370
18
48
1
60
0
100
AcDbSpline
70
4
71
2
72
6
73
3
40
0
40
0
40
0
40
1
40
1
40
1
41
0.933477290296916
10
19.8363550610292
20
7.27089420524956
30
0
41
0.923463989330483
10
19.9785420274331
20
5.72369983826911
30
0
41
1.02994816993494
10
19.7297457536752
20
5.02996812413265
30
0
0
SPLINE
5
14A
100
AcDbEntity
8
1
62
256
6
ByLayer
370
18
48
1
60
0
100
AcDbSpline
70
4
71
3
72
10
73
6
40
0
40
0
40
0
40
0
40
0.5
40
0.5
40
1
40
1
40
1
40
1
41
1
10
11.9969387385057
20
2.18720452103011
30
0
41
1
10
11.6187539716707
20
2.30304901816729
30
0
41
1
10
11.4660518965812
20
2.53632807308742
30
0
41
1
10
11.0298247870377
20
3.22480372279833
30
0
41
1
10
10.7190417997843
20
3.76691138410646
30
0
41
1
10
10.4926418967445
20
4.48390558942663
30
0
0
SPLINE
5
14B
100
AcDbEntity
8
1
62
256
6
ByLayer
370
18
48
1
60
0
100
AcDbSpline
70
4
71
3
72
12
73
8
40
0
40
0
40
0
40
0
40
0.264973649150344
40
0.529947298300689
40
0.662434122875861
40
0.794920947451034
40
1
40
1
40
1
40
1
41
1.02994816993494
10
19.7297457536752
20
5.02996812413265
30
0
41
1.03004363841634
10
20.7525400479622
20
5.29304983958476
30
0
41
1.03021336426305
10
24.5064490620933
20
6.2687922771438
30
0
41
1.0311558410484
10
29.6987355657008
20
9.02092876218038
30
0
41
1.03077804826571
10
31.5973986971209
20
10.3239974920711
30
0
41
1.03340133735626
10
33.6597946957507
20
11.786047193794
30
0
41
1.03493149686168
10
34.8556374207401
20
12.8850228617666
30
0
41
1.03576782913892
10
35.5383182662321
20
13.59172304811
30
0
0
SPLINE
5
14C
100
AcDbEntity
8
1
62
256
6
ByLayer
370
18
48
1
60
0
100
AcDbSpline
70
4
71
3
72
28
73
24
40
0
40
0
40
0
40
0
40
0.000296151683711
40
0.000296151683711
40
0.0005569094112435
40
0.0005569094112435
40
0.00086213216513
40
0.00086213216513
40
0.0052375575516842
40
0.0052375575516842
40
0.0234742370173025
40
0.0234742370173025
40
0.0971618665060102
40
0.0971618665060102
40
0.250932327214261
40
0.250932327214261
40
0.469025233760325
40
0.469025233760325
40
0.708581875907094
40
0.708581875907094
40
0.9999602099965
40
0.9999602099965
40
1
40
1
40
1
40
1
41
1
10
34.8753136405925
20
15.4209173860219
30
0
41
1
10
34.8754202836726
20
15.4208993844414
30
0
41
1
10
34.87552744371
20
15.42089001613
30
0
41
1
10
34.8757206144601
20
15.4209116718358
30
0
41
1
10
34.8758089054004
20
15.4209398341719
30
0
41
1
10
34.8759760370278
20
15.4210502842234
30
0
41
1
10
34.8760523441938
20
15.4211416216496
30
0
41
1
10
34.8769879364753
20
15.4226798681141
30
0
41
1
10
34.8771201118319
20
15.4248204820344
30
0
41
1
10
34.8791936087174
20
15.434398204352
30
0
41
1
10
34.8807757615293
20
15.4421408493146
30
0
41
1
10
34.8887155676806
20
15.4809632451513
30
0
41
1
10
34.8946397762214
20
15.5116981192681
30
0
41
1
10
34.9116563128214
20
15.6048552415752
30
0
41
1
10
34.9214310427691
20
15.665772168202
30
0
41
1
10
34.9409799764162
20
15.805287809129
30
0
41
1
10
34.9492160227908
20
15.8814558858839
30
0
41
1
10
34.9584626082648
20
16.0232703891276
30
0
41
1
10
34.9588369779382
20
16.0882209778848
30
0
41
1
10
34.9441144861838
20
16.2029717325457
30
0
41
1
10
34.9252840171383
20
16.2485999278772
30
0
41
1
10
34.8872643699351
20
16.2687773837321
30
0
41
1
10
34.8872555354296
20
16.26878207111
30
0
41
1
10
34.8872467004602
20
16.2687867576137
30
0
0
SPLINE
5
14D
100
AcDbEntity
8
1
62
256
6
ByLayer
370
18
48
1
60
0
100
AcDbSpline
70
4
71
3
72
14
73
10
40
0
40
0
40
0
40
0
40
0.332043805554359
40
0.332043805554359
40
0.667540490321299
40
0.667540490321299
40
0.999921783367902
40
0.999921783367902
40
1
40
1
40
1
40
1
41
1
10
35.6040314116141
20
13.5836664196065
30
0
41
1
10
35.6256087078376
20
13.6175123096756
30
0
41
1
10
35.6368439689774
20
13.6397449799483
30
0
41
1
10
35.6381828301908
20
13.6597082630483
30
0
41
1
10
35.6282528249164
20
13.6577241287505
30
0
41
1
10
35.5926638381691
20
13.6355002997525
30
0
41
1
10
35.56688880534
20
13.6153228575927
30
0
41
1
10
35.5361524722526
20
13.5894785050259
30
0
41
1
10
35.5361448177029
20
13.5894720685774
30
0
41
1
10
35.5361371630849
20
13.5894656322101
30
0
0
SPLINE
5
14E
100
AcDbEntity
8
1
62
256
6
ByLayer
370
18
48
1
60
0
100
AcDbSpline
70
4
71
3
72
8
73
4
40
0
40
0
40
0
40
0
40
1
40
1
40
1
40
1
41
1
10
13.1094316887616
20
13.2191010063062
30
0
41
1
10
13.0629719971915
20
13.1506734967573
30
0
41
1
10
13.0121269901661
20
13.0841196216199
30
0
41
1
10
12.9574232360874
20
13.0201563757573
30
0
0
SPLINE
5
14F
100
AcDbEntity
8
1
62
256
6
ByLayer
370
18
48
1
60
0
100
AcDbSpline
70
4
71
3
72
10
73
6
40
0
40
0
40
0
40
0
40
0.5
40
0.5
40
1
40
1
40
1
40
1
41
1
10
29.9942190857158
20
8.33833383644233
30
0
41
1
10
28.396041503426
20
7.18605481136211
30
0
41
1
10
26.6565462294756
20
6.23396901383532
30
0
41
1
10
23.0567349258486
20
4.63311317972583
30
0
41
1
10
21.1477613796786
20
4.11480253876715
30
0
41
1
10
19.2336176664058
20
3.64658812726205
30
0
0
SPLINE
5
150
100
AcDbEntity
8
1
62
256
6
ByLayer
370
18
48
1
60
0
100
AcDbSpline
70
4
71
3
72
28
73
24
40
0
40
0
40
0
40
0
40
4.20487346493E-05
40
4.20487346493E-05
40
0.291419858702299
40
0.291419858702299
40
0.53097606993036
40
0.53097606993036
40
0.749068584167005
40
0.749068584167005
40
0.902838768279015
40
0.902838768279015
40
0.976526265230705
40
0.976526265230705
40
0.99476291188657
40
0.99476291188657
40
0.999138329414579
40
0.999138329414579
40
0.9994566443822
40
0.9994566443822
40
0.999704151355574
40
0.999704151355574
40
1
40
1
40
1
40
1
41
1
10
35.5404961393144
20
13.5939760139652
30
0
41
1
10
35.5405007299929
20
13.5939848991029
30
0
41
1
10
35.5405053199406
20
13.5939937846182
30
0
41
1
10
35.5629728906486
20
13.6374982715102
30
0
41
1
10
35.5566405236354
20
13.6949026452276
30
0
41
1
10
35.5134681960124
20
13.8172099059207
30
0
41
1
10
35.4817661827042
20
13.8805345083754
30
0
41
1
10
35.4057323048867
20
14.0121894302769
30
0
41
1
10
35.3622456465375
20
14.0803596588273
30
0
41
1
10
35.278989204979
20
14.2017028572759
30
0
41
1
10
35.241634294462
20
14.2537166373865
30
0
41
1
10
35.1828004365252
20
14.3317860826653
30
0
41
1
10
35.1631336137436
20
14.3573221649467
30
0
41
1
10
35.1379083683091
20
14.389277292469
30
0
41
1
10
35.1328801282204
20
14.395645108856
30
0
41
1
10
35.1265568294164
20
14.4034687639986
30
0
41
1
10
35.1254427035987
20
14.4053488765054
30
0
41
1
10
35.1238789781495
20
14.4063676464088
30
0
41
1
10
35.1237625381083
20
14.4064210307939
30
0
41
1
10
35.1235606616443
20
14.4064491451866
30
0
41
1
10
35.1234728256164
20
14.406438939207
30
0
41
1
10
35.1232925775324
20
14.406382833765
30
0
41
1
10
35.1232002010216
20
14.4063316841162
30
0
41
1
10
35.1231123019671
20
14.4062729489858
30
0
0
SPLINE
5
151
100
AcDbEntity
8
1
62
256
6
ByLayer
370
18
48
1
60
0
100
AcDbSpline
70
4
71
3
72
10
73
6
40
0
40
0
40
0
40
0
40
0.5
40
0.5
40
1
40
1
40
1
40
1
41
1
10
8.32847036685331
20
13.3453929087721
30
0
41
1
10
8.20128035196149
20
14.0753758425999
30
0
41
1
10
8.23462573323371
20
14.6633689711234
30
0
41
1
10
8.32363279733954
20
15.403447437206
30
0
41
1
10
8.36059560926174
20
15.634216758511
30
0
41
1
10
8.6545625601355
20
15.873007014973
30
0
0
SPLINE
5
152
100
AcDbEntity
8
1
62
256
6
ByLayer
370
18
48
1
60
0
100
AcDbSpline
70
4
71
3
72
8
73
4
40
0
40
0
40
0
40
0
40
1
40
1
40
1
40
1
41
1
10
17.9043592599239
20
15.1817072134745
30
0
41
1
10
17.6381117210868
20
15.1691957005885
30
0
41
1
10
17.3730301093682
20
15.1330391049754
30
0
41
1
10
17.1195412931188
20
15.0732363713193
30
0
0
SPLINE
5
153
100
AcDbEntity
8
1
62
256
6
ByLayer
370
18
48
1
60
0
100
AcDbSpline
70
4
71
3
72
8
73
4
40
0
40
0
40
0
40
0
40
1
40
1
40
1
40
1
41
1
10
8.39479672780419
20
13.0150092311932
30
0
41
1
10
8.36987506107107
20
13.1251750744936
30
0
41
1
10
8.34748396659757
20
13.2362679642083
30
0
41
1
10
8.32847036685303
20
13.345392908772
30
0
0
SPLINE
5
154
100
AcDbEntity
8
1
62
256
6
ByLayer
370
18
48
1
60
0
100
AcDbSpline
70
4
71
3
72
8
73
4
40
0
40
0
40
0
40
0
40
1
40
1
40
1
40
1
41
1.03311206816126
10
32.9626462110005
20
10.5161440457302
30
0
41
1.03398726653663
10
33.6799411652487
20
11.1607875119931
30
0
41
1.03477250303978
10
34.3207563021027
20
11.8478357604494
30
0
41
1.03548960596306
10
34.9302287791361
20
12.5935549486957
30
0
0
SPLINE
5
155
100
AcDbEntity
8
1
62
256
6
ByLayer
370
18
48
1
60
0
100
AcDbSpline
70
4
71
3
72
8
73
4
40
0
40
0
40
0
40
0
40
1
40
1
40
1
40
1
41
1
10
17.904359267543
20
15.1817071951077
30
0
41
1
10
17.5374231242759
20
16.0662537461569
30
0
41
1
10
17.1458207845046
20
16.7067485684063
30
0
41
1
10
16.8155472188212
20
16.9625404761765
30
0
0
SPLINE
5
156
100
AcDbEntity
8
1
62
256
6
ByLayer
370
18
48
1
60
0
100
AcDbSpline
70
4
71
3
72
10
73
6
40
0
40
0
40
0
40
0
40
0.999906028841225
40
0.999906028841225
40
1
40
1
40
1
40
1
41
1
10
34.3547338868651
20
16.5385856440687
30
0
41
1
10
34.2099441007332
20
16.606177099393
30
0
41
1
10
34.0635683254387
20
16.6752942590379
30
0
41
1
10
33.9163213568238
20
16.7452178593569
30
0
41
1
10
33.9163075198405
20
16.7452244301739
30
0
41
1
10
33.9162936828639
20
16.7452310009821
30
0
0
SPLINE
5
157
100
AcDbEntity
8
1
62
256
6
ByLayer
370
18
48
1
60
0
100
AcDbSpline
70
4
71
3
72
12
73
8
40
0
40
0
40
0
40
0
40
0.401843340305634
40
0.401843340305634
40
0.816060128109927
40
0.816060128109927
40
1
40
1
40
1
40
1
41
1
10
12.9574232360873
20
13.0201563757572
30
0
41
1
10
12.8647443435409
20
12.9117900873724
30
0
41
1
10
12.7525370880122
20
12.8066234905301
30
0
41
1
10
12.5047253770359
20
12.6156134519432
30
0
41
1
10
12.3659515530881
20
12.5281490981643
30
0
41
1
10
12.1606322845033
20
12.4191872663714
30
0
41
1
10
12.096154849862
20
12.3876682562934
30
0
41
1
10
12.0312935374969
20
12.3582935072023
30
0
0
SPLINE
5
158
100
AcDbEntity
8
1
62
256
6
ByLayer
370
18
48
1
60
0
100
AcDbSpline
70
4
71
3
72
12
73
8
40
0
40
0
40
0
40
0
40
0.1070296849655
40
0.443706054186006
40
0.612044238796258
40
0.780382423406511
40
1
40
1
40
1
40
1
41
1.03017844338059
10
21.7491641179495
20
13.4013881235494
30
0
41
1.0302273658714
10
22.3345664796185
20
13.5413409188386
30
0
41
1.03047050932998
10
24.9159553661669
20
14.1401198597698
30
0
41
1.0311558410484
10
28.8419748304434
20
14.8561086431667
30
0
41
1.03077804826571
10
30.930301529843
20
15.100361311336
30
0
41
1.03322144497827
10
32.9487009296683
20
15.3393518081289
30
0
41
1.03463604371051
10
34.1921845380366
20
15.4085339214915
30
0
41
1.0353664121084
10
34.8753260412222
20
15.4206710084941
30
0
0
SPLINE
5
159
100
AcDbEntity
8
1
62
256
6
ByLayer
370
18
48
1
60
0
100
AcDbSpline
70
4
71
3
72
8
73
4
40
0
40
0
40
0
40
0
40
1
40
1
40
1
40
1
41
1
10
10.4926418967445
20
4.48390558942663
30
0
41
1
10
10.458933388201
20
4.59065830871296
30
0
41
1
10
10.4274626845085
20
4.70010969418558
30
0
41
1
10
10.3988330971536
20
4.80921656216674
30
0
0
SPLINE
5
15A
100
AcDbEntity
8
1
62
256
6
ByLayer
370
18
48
1
60
0
100
AcDbSpline
70
4
71
3
72
8
73
4
40
0
40
0
40
0
40
0
40
1
40
1
40
1
40
1
41
1
10
29.9942190857159
20
8.33833383644242
30
0
41
1
10
31.0665242417789
20
9.11146114939498
30
0
41
1
10
32.0675970213672
20
9.82072836914074
30
0
41
1
10
32.9626260601563
20
10.5161259359021
30
0
0
SPLINE
5
15B
100
AcDbEntity
8
1
62
256
6
ByLayer
370
18
48
1
60
0
100
AcDbSpline
70
4
71
3
72
8
73
4
40
0
40
0
40
0
40
0
40
1
40
1
40
1
40
1
41
1
10
12.0312935375011
20
12.3582935071938
30
0
41
1
10
10.6502325225649
20
12.7166828379707
30
0
41
1
10
9.33146216530213
20
12.9802671541572
30
0
41
1
10
8.39479672780419
20
13.0150092311933
30
0
0
LINE
5
72
100
AcDbEntity
8
1
62
256
6
ByLayer
370
18
48
1
60
0
100
AcDbLine
10
9.121775
20
16.113359
30
0
11
8.216907
21
15.810852
31
0
39
0
210
0
220
0
230
1
0
LINE
5
74
100
AcDbEntity
8
1
62
256
6
ByLayer
370
18
48
1
60
0
100
AcDbLine
10
18.128477
20
6.909489
30
0
11
18.677723
21
7.120883
31
0
39
0
210
0
220
0
230
1
0
LINE
5
75
100
AcDbEntity
8
1
62
256
6
ByLayer
370
18
48
1
60
0
100
AcDbLine
10
17.659873
20
9.780443
30
0
11
17.153361
21
9.585497
31
0
39
0
210
0
220
0
230
1
0
LINE
5
76
100
AcDbEntity
8
1
62
256
6
ByLayer
370
18
48
1
60
0
100
AcDbLine
10
16.704076
20
11.882031
30
0
11
17.210588
21
12.076977
31
0
39
0
210
0
220
0
230
1
0
LINE
5
77
100
AcDbEntity
8
1
62
256
6
ByLayer
370
18
48
1
60
0
100
AcDbLine
10
34.557496
20
9.492781
30
0
11
35.632531
21
9.90654
31
0
39
0
210
0
220
0
230
1
0
LINE
5
78
100
AcDbEntity
8
1
62
256
6
ByLayer
370
18
48
1
60
0
100
AcDbLine
10
32.079176
20
19.157794
30
0
11
31.00414
21
18.744036
31
0
39
0
210
0
220
0
230
1
0
LINE
5
79
100
AcDbEntity
8
1
62
256
6
ByLayer
370
18
48
1
60
0
100
AcDbLine
10
15.804175
20
14.586987
30
0
11
15.254928
21
14.375594
31
0
39
0
210
0
220
0
230
1
0
LINE
5
7A
100
AcDbEntity
8
1
62
256
6
ByLayer
370
18
48
1
60
0
100
AcDbLine
10
10.863547
20
11.946647
30
0
11
11.658666
21
12.212462
31
0
39
0
210
0
220
0
230
1
0
LINE
5
7B
100
AcDbEntity
8
80
62
256
6
ByLayer
370
18
48
1
60
0
100
AcDbLine
10
0
20
0
30
0
11
-5
21
0
31
0
39
0
210
0
220
0
230
1
0
LINE
5
7C
100
AcDbEntity
8
81
62
256
6
ByLayer
370
18
48
1
60
0
100
AcDbLine
10
46.584684
20
19.9125
30
0
11
56.584684
21
19.9125
31
0
39
0
210
0
220
0
230
1
0
LINE
5
7D
100
AcDbEntity
8
1
62
256
6
ByLayer
370
18
48
1
60
0
100
AcDbLine
10
14.556985
20
14.395116
30
0
11
16.360425
21
14.819457
31
0
39
0
210
0
220
0
230
1
0
LINE
5
7E
100
AcDbEntity
8
1
62
256
6
ByLayer
370
18
48
1
60
0
100
AcDbLine
10
12.77514
20
2.198852
30
0
11
11.987066
21
1.935391
31
0
39
0
210
0
220
0
230
1
0
LINE
5
7F
100
AcDbEntity
8
1
62
256
6
ByLayer
370
18
48
1
60
0
100
AcDbLine
10
14.081519
20
2.500241
30
0
11
12.36526
21
2.035477
31
0
39
0
210
0
220
0
230
1
0
LINE
5
80
100
AcDbEntity
8
1
62
256
6
ByLayer
370
18
48
1
60
0
100
AcDbLine
10
12.145647
20
16.837727
30
0
11
12.131257
21
16.896651
31
0
39
0
210
0
220
0
230
1
0
LINE
5
81
100
AcDbEntity
8
1
62
256
6
ByLayer
370
18
48
1
60
0
100
AcDbLine
10
31.548339
20
9.482984
30
0
11
34.204759
21
9.634116
31
0
39
0
210
0
220
0
230
1
0
LINE
5
82
100
AcDbEntity
8
1
62
256
6
ByLayer
370
18
48
1
60
0
100
AcDbLine
10
16.170525
20
-7.777031
30
0
11
13.686666
21
2.393456
31
0
39
0
210
0
220
0
230
1
0
LINE
5
83
100
AcDbEntity
8
1
62
256
6
ByLayer
370
18
48
1
60
0
100
AcDbLine
10
10.267342
20
16.394334
30
0
11
9.877048
21
17.992444
31
0
39
0
210
0
220
0
230
1
0
LINE
5
84
100
AcDbEntity
8
1
62
256
6
ByLayer
370
18
48
1
60
0
100
AcDbLine
10
27.886383
20
18.936273
30
0
11
23.221121
21
18.691777
31
0
39
0
210
0
220
0
230
1
0
LINE
5
85
100
AcDbEntity
8
1
62
256
6
ByLayer
370
18
48
1
60
0
100
AcDbLine
10
19.822703
20
18.513674
30
0
11
9.877048
21
17.992444
31
0
39
0
210
0
220
0
230
1
0
LINE
5
86
100
AcDbEntity
8
1
62
256
6
ByLayer
370
18
48
1
60
0
100
AcDbLine
10
30.224083
20
17.90869
30
0
11
30.809568
21
18.382855
31
0
39
0
210
0
220
0
230
1
0
LINE
5
87
100
AcDbEntity
8
1
62
256
6
ByLayer
370
18
48
1
60
0
100
AcDbLine
10
12.990395
20
-10.064713
30
0
11
10.096269
21
1.785668
31
0
39
0
210
0
220
0
230
1
0
LINE
5
88
100
AcDbEntity
8
1
62
256
6
ByLayer
370
18
48
1
60
0
100
AcDbLine
10
6.841828
20
15.11141
30
0
11
6.239755
21
17.576676
31
0
39
0
210
0
220
0
230
1
0
LINE
5
89
100
AcDbEntity
8
1
62
256
6
ByLayer
370
18
48
1
60
0
100
AcDbLine
10
12.097214
20
-10.692138
30
0
11
8.913183
21
2.345299
31
0
39
0
210
0
220
0
230
1
0
LINE
5
8A
100
AcDbEntity
8
1
62
256
6
ByLayer
370
18
48
1
60
0
100
AcDbLine
10
6.047545
20
14.079036
30
0
11
5.224665
21
17.448429
31
0
39
0
210
0
220
0
230
1
0
LINE
5
8B
100
AcDbEntity
8
1
62
256
6
ByLayer
370
18
48
1
60
0
100
AcDbLine
10
12.945249
20
-10.082089
30
0
11
10.045849
21
1.789888
31
0
39
0
210
0
220
0
230
1
0
LINE
5
8C
100
AcDbEntity
8
1
62
256
6
ByLayer
370
18
48
1
60
0
100
AcDbLine
10
6.799319
20
15.083236
30
0
11
6.194609
21
17.5593
31
0
39
0
210
0
220
0
230
1
0
LINE
5
8D
100
AcDbEntity
8
1
62
256
6
ByLayer
370
18
48
1
60
0
100
AcDbLine
10
30.389464
20
17.87941
30
0
11
30.779808
21
18.195536
31
0
39
0
210
0
220
0
230
1
0
LINE
5
8E
100
AcDbEntity
8
1
62
256
6
ByLayer
370
18
48
1
60
0
100
AcDbLine
10
31.787685
20
9.524382
30
0
11
31.590488
21
9.513163
31
0
39
0
210
0
220
0
230
1
0
LINE
5
8F
100
AcDbEntity
8
1
62
256
6
ByLayer
370
18
48
1
60
0
100
AcDbLine
10
16.962562
20
9.386085
30
0
11
17.437749
21
9.568975
31
0
39
0
210
0
220
0
230
1
0
LINE
5
90
100
AcDbEntity
8
1
62
256
6
ByLayer
370
18
48
1
60
0
100
AcDbLine
10
35.402546
20
9.857602
30
0
11
31.807959
21
9.669218
31
0
39
0
210
0
220
0
230
1
0
LINE
5
91
100
AcDbEntity
8
1
62
256
6
ByLayer
370
18
48
1
60
0
100
AcDbLine
10
30.43221
20
17.870859
30
0
11
31.876733
21
19.040728
31
0
39
0
210
0
220
0
230
1
0
LINE
5
92
100
AcDbEntity
8
1
62
256
6
ByLayer
370
18
48
1
60
0
100
AcDbLine
10
34.327511
20
9.443843
30
0
11
34.219093
21
9.438162
31
0
39
0
210
0
220
0
230
1
0
LINE
5
93
100
AcDbEntity
8
1
62
256
6
ByLayer
370
18
48
1
60
0
100
AcDbLine
10
30.689536
20
18.536134
30
0
11
30.801697
21
18.62697
31
0
39
0
210
0
220
0
230
1
0
LINE
5
94
100
AcDbEntity
8
1
62
256
6
ByLayer
370
18
48
1
60
0
100
AcDbLine
10
30.801697
20
18.62697
30
0
11
31.876733
21
19.040728
31
0
39
0
210
0
220
0
230
1
0
LINE
5
95
100
AcDbEntity
8
1
62
256
6
ByLayer
370
18
48
1
60
0
100
AcDbLine
10
34.327511
20
9.443843
30
0
11
35.402546
21
9.857602
31
0
39
0
210
0
220
0
230
1
0
LINE
5
96
100
AcDbEntity
8
1
62
256
6
ByLayer
370
18
48
1
60
0
100
AcDbLine
10
18.080339
20
11.391098
30
0
11
18.58823
21
11.586574
31
0
39
0
210
0
220
0
230
1
0
LINE
5
97
100
AcDbEntity
8
1
62
256
6
ByLayer
370
18
48
1
60
0
100
AcDbLine
10
16.301516
20
11.94633
30
0
11
16.809406
21
12.141807
31
0
39
0
210
0
220
0
230
1
0
LINE
5
98
100
AcDbEntity
8
1
62
256
6
ByLayer
370
18
48
1
60
0
100
AcDbLine
10
17.631241
20
11.874393
30
0
11
18.139132
21
12.069869
31
0
39
0
210
0
220
0
230
1
0
LINE
5
99
100
AcDbEntity
8
1
62
256
6
ByLayer
370
18
48
1
60
0
100
AcDbLine
10
18.081479
20
10.030832
30
0
11
18.58937
21
10.226308
31
0
39
0
210
0
220
0
230
1
0
LINE
5
9A
100
AcDbEntity
8
1
62
256
6
ByLayer
370
18
48
1
60
0
100
AcDbLine
10
18.258444
20
10.661826
30
0
11
18.766334
21
10.857303
31
0
39
0
210
0
220
0
230
1
0
LINE
5
9B
100
AcDbEntity
8
1
62
256
6
ByLayer
370
18
48
1
60
0
100
AcDbLine
10
12.77514
20
2.198852
30
0
11
15.631096
21
2.872625
31
0
39
0
210
0
220
0
230
1
0
LINE
5
9C
100
AcDbEntity
8
1
62
256
6
ByLayer
370
18
48
1
60
0
100
AcDbLine
10
12.21643
20
16.854425
30
0
11
9.360474
21
16.180652
31
0
39
0
210
0
220
0
230
1
0
LINE
5
9D
100
AcDbEntity
8
1
62
256
6
ByLayer
370
18
48
1
60
0
100
AcDbLine
10
8.400661
20
12.990078
30
0
11
10.392549
21
4.834028
31
0
39
0
210
0
220
0
230
1
0
LINE
5
9E
100
AcDbEntity
8
1
62
256
6
ByLayer
370
18
48
1
60
0
100
AcDbLine
10
10.392549
20
4.834028
30
0
11
7.874121
21
3.992094
31
0
39
0
210
0
220
0
230
1
0
LINE
5
9F
100
AcDbEntity
8
1
62
256
6
ByLayer
370
18
48
1
60
0
100
AcDbLine
10
15.787026
20
17.759115
30
0
11
12.131257
21
16.896651
31
0
39
0
210
0
220
0
230
1
0
LINE
5
A0
100
AcDbEntity
8
1
62
256
6
ByLayer
370
18
48
1
60
0
100
AcDbLine
10
11.356983
20
12.123976
30
0
11
10.616968
21
11.876582
31
0
39
0
210
0
220
0
230
1
0
LINE
5
A1
100
AcDbEntity
8
1
62
256
6
ByLayer
370
18
48
1
60
0
100
AcDbLine
10
19.233618
20
3.646588
30
0
11
15.577848
21
2.784124
31
0
39
0
210
0
220
0
230
1
0
LINE
5
A2
100
AcDbEntity
8
1
62
256
6
ByLayer
370
18
48
1
60
0
100
AcDbLine
10
6.805138
20
10.632822
30
0
11
7.967073
21
5.875126
31
0
39
0
210
0
220
0
230
1
0
LINE
5
A3
100
AcDbEntity
8
1
62
256
6
ByLayer
370
18
48
1
60
0
100
AcDbLine
10
7.967073
20
5.875126
30
0
11
8.713312
21
6.124601
31
0
39
0
210
0
220
0
230
1
0
LINE
5
A4
100
AcDbEntity
8
1
62
256
6
ByLayer
370
18
48
1
60
0
100
AcDbLine
10
8.088313
20
5.744073
30
0
11
8.936312
21
6.027567
31
0
39
0
210
0
220
0
230
1
0
LINE
5
A5
100
AcDbEntity
8
1
62
256
6
ByLayer
370
18
48
1
60
0
100
AcDbLine
10
14.081519
20
2.500241
30
0
11
15.561885
21
2.849487
31
0
39
0
210
0
220
0
230
1
0
LINE
5
A6
100
AcDbEntity
8
1
62
256
6
ByLayer
370
18
48
1
60
0
100
AcDbLine
10
15.561885
20
2.849487
30
0
11
15.577848
21
2.784124
31
0
39
0
210
0
220
0
230
1
0
LINE
5
A7
100
AcDbEntity
8
1
62
256
6
ByLayer
370
18
48
1
60
0
100
AcDbLine
10
17.119541
20
15.073236
30
0
11
16.360425
21
14.819457
31
0
39
0
210
0
220
0
230
1
0
LINE
5
A8
100
AcDbEntity
8
1
62
256
6
ByLayer
370
18
48
1
60
0
100
AcDbLine
10
12.466196
20
3.316361
30
0
11
19.729746
21
5.029968
31
0
39
0
210
0
220
0
230
1
0
LINE
5
A9
100
AcDbEntity
8
1
62
256
6
ByLayer
370
18
48
1
60
0
100
AcDbLine
10
10.616968
20
11.876582
30
0
11
8.941832
21
11.482432
31
0
39
0
210
0
220
0
230
1
0
LINE
5
AA
100
AcDbEntity
8
1
62
256
6
ByLayer
370
18
48
1
60
0
100
AcDbLine
10
7.874121
20
3.992094
30
0
11
5.882233
21
12.148144
31
0
39
0
210
0
220
0
230
1
0
LINE
5
AB
100
AcDbEntity
8
1
62
256
6
ByLayer
370
18
48
1
60
0
100
AcDbLine
10
7.703239
20
11.07655
30
0
11
8.936312
21
6.027567
31
0
39
0
210
0
220
0
230
1
0
LINE
5
AC
100
AcDbEntity
8
1
62
256
6
ByLayer
370
18
48
1
60
0
100
AcDbLine
10
6.855239
20
10.793056
30
0
11
7.703239
21
11.07655
31
0
39
0
210
0
220
0
230
1
0
LINE
5
AD
100
AcDbEntity
8
1
62
256
6
ByLayer
370
18
48
1
60
0
100
AcDbLine
10
9.551997
20
15.248934
30
0
11
16.815547
21
16.96254
31
0
39
0
210
0
220
0
230
1
0
LINE
5
AE
100
AcDbEntity
8
1
62
256
6
ByLayer
370
18
48
1
60
0
100
AcDbLine
10
15.631096
20
2.872625
30
0
11
15.577848
21
2.784124
31
0
39
0
210
0
220
0
230
1
0
LINE
5
AF
100
AcDbEntity
8
1
62
256
6
ByLayer
370
18
48
1
60
0
100
AcDbLine
10
7.703239
20
11.07655
30
0
11
7.551378
21
10.882297
31
0
39
0
210
0
220
0
230
1
0
LINE
5
B0
100
AcDbEntity
8
1
62
256
6
ByLayer
370
18
48
1
60
0
100
AcDbLine
10
8.088313
20
5.744073
30
0
11
7.967073
21
5.875126
31
0
39
0
210
0
220
0
230
1
0
LINE
5
B1
100
AcDbEntity
8
1
62
256
6
ByLayer
370
18
48
1
60
0
100
AcDbLine
10
6.805138
20
10.632822
30
0
11
7.551378
21
10.882297
31
0
39
0
210
0
220
0
230
1
0
LINE
5
B2
100
AcDbEntity
8
1
62
256
6
ByLayer
370
18
48
1
60
0
100
AcDbLine
10
8.936312
20
6.027567
30
0
11
8.713312
21
6.124601
31
0
39
0
210
0
220
0
230
1
0
LINE
5
B3
100
AcDbEntity
8
1
62
256
6
ByLayer
370
18
48
1
60
0
100
AcDbLine
10
6.855239
20
10.793056
30
0
11
6.805138
21
10.632822
31
0
39
0
210
0
220
0
230
1
0
LINE
5
B4
100
AcDbEntity
8
1
62
256
6
ByLayer
370
18
48
1
60
0
100
AcDbLine
10
15.631096
20
2.872625
30
0
11
15.561885
21
2.849487
31
0
39
0
210
0
220
0
230
1
0
LINE
5
B5
100
AcDbEntity
8
1
62
256
6
ByLayer
370
18
48
1
60
0
100
AcDbLine
10
19.087717
20
7.014282
30
0
11
17.146838
21
6.556392
31
0
39
0
210
0
220
0
230
1
0
LINE
5
B6
100
AcDbEntity
8
1
62
256
6
ByLayer
370
18
48
1
60
0
100
AcDbLine
10
15.178662
20
14.615347
30
0
11
14.431773
21
14.365655
31
0
39
0
210
0
220
0
230
1
0
LINE
5
B7
100
AcDbEntity
8
1
62
256
6
ByLayer
370
18
48
1
60
0
100
AcDbLine
10
7.551378
20
10.882297
30
0
11
8.713312
21
6.124601
31
0
39
0
210
0
220
0
230
1
0
LINE
5
B8
100
AcDbEntity
8
1
62
256
6
ByLayer
370
18
48
1
60
0
100
AcDbLine
10
8.400661
20
12.990078
30
0
11
5.882233
21
12.148144
31
0
39
0
210
0
220
0
230
1
0
LINE
5
B9
100
AcDbEntity
8
1
62
256
6
ByLayer
370
18
48
1
60
0
100
AcDbLine
10
12.131257
20
16.896651
30
0
11
12.21643
21
16.854425
31
0
39
0
210
0
220
0
230
1
0
LINE
5
BA
100
AcDbEntity
8
1
62
256
6
ByLayer
370
18
48
1
60
0
100
AcDbLine
10
15.178662
20
14.615347
30
0
11
17.119541
21
15.073236
31
0
39
0
210
0
220
0
230
1
0
LINE
5
BB
100
AcDbEntity
8
1
62
256
6
ByLayer
370
18
48
1
60
0
100
AcDbLine
10
8.941832
20
11.482432
30
0
11
10.174906
21
6.433448
31
0
39
0
210
0
220
0
230
1
0
LINE
5
BC
100
AcDbEntity
8
1
62
256
6
ByLayer
370
18
48
1
60
0
100
AcDbLine
10
2.174309
20
17.288566
30
0
11
1.614347
21
17.0963
31
0
39
0
210
0
220
0
230
1
0
LINE
5
BD
100
AcDbEntity
8
1
62
256
6
ByLayer
370
18
48
1
60
0
100
AcDbLine
10
0.5
20
12.9375
30
0
11
0.5
21
-12.439682
31
0
39
0
210
0
220
0
230
1
0
LINE
5
BE
100
AcDbEntity
8
1
62
256
6
ByLayer
370
18
48
1
60
0
100
AcDbLine
10
0.5
20
-12.439682
30
0
11
2.846543
21
-12.477893
31
0
39
0
210
0
220
0
230
1
0
LINE
5
BF
100
AcDbEntity
8
1
62
256
6
ByLayer
370
18
48
1
60
0
100
AcDbLine
10
12.990395
20
-10.064713
30
0
11
12.945249
21
-10.082089
31
0
39
0
210
0
220
0
230
1
0
LINE
5
C0
100
AcDbEntity
8
1
62
256
6
ByLayer
370
18
48
1
60
0
100
AcDbLine
10
1.614347
20
17.0963
30
0
11
0.5
21
12.9375
31
0
39
0
210
0
220
0
230
1
0
LINE
5
C1
100
AcDbEntity
8
1
62
256
6
ByLayer
370
18
48
1
60
0
100
AcDbLine
10
9.901058
20
-12.47073
30
0
11
2.846543
21
-12.477893
31
0
39
0
210
0
220
0
230
1
0
LINE
5
C2
100
AcDbEntity
8
1
62
256
6
ByLayer
370
18
48
1
60
0
100
AcDbLine
10
34.204759
20
9.634116
30
0
11
34.056644
21
9.753122
31
0
39
0
210
0
220
0
230
1
0
LINE
5
C3
100
AcDbEntity
8
1
62
256
6
ByLayer
370
18
48
1
60
0
100
AcDbLine
10
30.809568
20
18.382855
30
0
11
30.779808
21
18.195536
31
0
39
0
210
0
220
0
230
1
0
LINE
5
C4
100
AcDbEntity
8
1
62
256
6
ByLayer
370
18
48
1
60
0
100
AcDbLine
10
34.204759
20
9.634116
30
0
11
34.221883
21
9.40297
31
0
39
0
210
0
220
0
230
1
0
LINE
5
C5
100
AcDbEntity
8
1
62
256
6
ByLayer
370
18
48
1
60
0
100
AcDbLine
10
16.170525
20
-7.777031
30
0
11
31.086962
21
4.30328
31
0
39
0
210
0
220
0
230
1
0
LINE
5
C6
100
AcDbEntity
8
1
62
256
6
ByLayer
370
18
48
1
60
0
100
AcDbLine
10
0.5
20
12.9375
30
0
11
0
21
12.4375
31
0
39
0
210
0
220
0
230
1
0
LINE
5
C7
100
AcDbEntity
8
1
62
256
6
ByLayer
370
18
48
1
60
0
100
AcDbLine
10
0
20
-12.4375
30
0
11
0
21
12.4375
31
0
39
0
210
0
220
0
230
1
0
LINE
5
C8
100
AcDbEntity
8
1
62
256
6
ByLayer
370
18
48
1
60
0
100
AcDbLine
10
2.174309
20
17.288566
30
0
11
5.224665
21
17.448429
31
0
39
0
210
0
220
0
230
1
0
LINE
5
C9
100
AcDbEntity
8
1
62
256
6
ByLayer
370
18
48
1
60
0
100
AcDbLine
10
6.239755
20
17.576676
30
0
11
9.877048
21
17.992444
31
0
39
0
210
0
220
0
230
1
0
LINE
5
CA
100
AcDbEntity
8
1
62
256
6
ByLayer
370
18
48
1
60
0
100
AcDbLine
10
0.5
20
-12.439682
30
0
11
0
21
-12.4375
31
0
39
0
210
0
220
0
230
1
0
LINE
5
CB
100
AcDbEntity
8
1
62
256
6
ByLayer
370
18
48
1
60
0
100
AcDbLine
10
2.846543
20
-12.477893
30
0
11
2.174309
21
17.288566
31
0
39
0
210
0
220
0
230
1
0
LINE
5
CC
100
AcDbEntity
8
1
62
256
6
ByLayer
370
18
48
1
60
0
100
AcDbLine
10
6.194609
20
17.5593
30
0
11
6.239755
21
17.576676
31
0
39
0
210
0
220
0
230
1
0
LINE
5
CD
100
AcDbEntity
8
1
62
256
6
ByLayer
370
18
48
1
60
0
100
AcDbLine
10
30.809568
20
18.382855
30
0
11
30.649465
21
18.587669
31
0
39
0
210
0
220
0
230
1
0
LINE
5
CE
100
AcDbEntity
8
1
62
256
6
ByLayer
370
18
48
1
60
0
100
AcDbLine
10
16.170525
20
-7.777031
30
0
11
12.990395
21
-10.064713
31
0
39
0
210
0
220
0
230
1
0
LINE
5
CF
100
AcDbEntity
8
1
62
256
6
ByLayer
370
18
48
1
60
0
100
AcDbLine
10
12.097214
20
-10.692138
30
0
11
9.901058
21
-12.47073
31
0
39
0
210
0
220
0
230
1
0
LINE
5
D0
100
AcDbEntity
8
1
62
256
6
ByLayer
370
18
48
1
60
0
100
AcDbLine
10
32.367207
20
9.657005
30
0
11
34.056644
21
9.753122
31
0
39
0
210
0
220
0
230
1
0
LINE
5
D1
100
AcDbEntity
8
SK1
62
256
6
ByLayer
370
18
48
1
60
0
100
AcDbLine
10
-124.765316
20
-12.4375
30
0
11
0
21
-12.4375
31
0
39
0
210
0
220
0
230
1
0
LINE
5
D3
100
AcDbEntity
8
SK1
62
256
6
ByLayer
370
18
48
1
60
0
100
AcDbLine
10
-124.765316
20
12.4375
30
0
11
-124.765316
21
-12.4375
31
0
39
0
210
0
220
0
230
1
0
LINE
5
D4
100
AcDbEntity
8
SK1
62
256
6
ByLayer
370
18
48
1
60
0
100
AcDbLine
10
0
20
12.4375
30
0
11
0
21
-12.4375
31
0
39
0
210
0
220
0
230
1
0
LINE
5
D5
100
AcDbEntity
8
SK1
62
256
6
ByLayer
370
18
48
1
60
0
100
AcDbLine
10
0
20
12.4375
30
0
11
-124.765316
21
12.4375
31
0
39
0
210
0
220
0
230
1
0
LINE
5
D6
100
AcDbEntity
8
1
62
256
6
ByLayer
370
18
48
1
60
0
100
AcDbLine
10
32.309161
20
19.206732
30
0
11
45.756296
21
19.911466
31
0
39
0
210
0
220
0
230
1
0
LINE
5
D7
100
AcDbEntity
8
1
62
256
6
ByLayer
370
18
48
1
60
0
100
AcDbLine
10
46.298973
20
18.49804
30
0
11
35.834974
21
10.023606
31
0
39
0
210
0
220
0
230
1
0
MTEXT
5
15C
100
AcDbEntity
8
SK6
62
256
6
ByLayer
370
18
48
1
60
0
100
AcDbMText
10
-53.215316
20
-23.2427
30
0
210
0
220
0
230
1
1
\W0.7660;DVJNR 3225P 16
40
3.5
41
0
44
1.084337
50
0
71
7
72
5
7
iso_b_vert
0
DIMENSION
5
16D
100
AcDbEntity
8
2
62
256
6
ByLayer
370
13
48
1
60
0
100
AcDbDimension
2
DimnDraft3D1
10
44.750763
20
19.859076
30
0
11
28.141549
21
37.457069
31
0
70
34
71
5
72
1
41
1
210
0
220
0
230
1
3
Standard
100
AcDb2LineAngularDimension
13
46.584684
23
19.9125
33
0
14
46.584684
24
18.325
34
0
15
45.749392
25
19.911412
35
0
16
31.405734
26
34.359474
36
0
40
0
0
DIMENSION
5
183
100
AcDbEntity
8
SK2
62
256
6
ByLayer
370
13
48
1
60
0
100
AcDbDimension
2
DimnDraft3D2
10
-132.515316
20
12.4375
30
0
11
-132.515316
21
-5.281579
31
0
70
32
71
5
72
1
41
1
210
0
220
0
230
1
3
Standard
100
AcDbAlignedDimension
13
-126.765316
23
-12.4375
33
0
14
-126.765316
24
12.4375
34
0
50
90
100
AcDbRotatedDimension
1001
ACAD
1000
DSTYLE
1002
{
1070
    74
1070
     0
1070
   279
1070
     0
1070
   172
1070
     1
1070
   173
1070
     1
1070
   340
1005
15D
1070
    77
1070
     1
1070
    73
1070
     0
1070
   171
1070
     3
1070
   274
1070
     4
1070
   177
1070
     2
1070
   176
1070
     2
1070
   178
1070
     7
1070
    78
1070
     8
1070
    41
1041
3.175
1070
   147
1041
2.25
1070
    42
1041
2.0
1070
    44
1041
2.0
1070
   140
1041
4.5
1070
   343
1005
16E
1070
   344
1005
16E
1002
}
0
DIMENSION
5
191
100
AcDbEntity
8
2
62
256
6
ByLayer
370
13
48
1
60
0
100
AcDbDimension
2
DimnDraft3D3
10
68.834684
20
19.9125
30
0
11
68.834684
21
-1.544079
31
0
70
32
71
5
72
1
41
1
210
0
220
0
230
1
3
Standard
100
AcDbAlignedDimension
13
2
23
-12.4375
33
0
14
48.584684
24
19.9125
34
0
50
90
100
AcDbRotatedDimension
1001
ACAD
1000
DSTYLE
1002
{
1070
    74
1070
     0
1070
   279
1070
     0
1070
   172
1070
     1
1070
   173
1070
     1
1070
   340
1005
15D
1070
    77
1070
     1
1070
    73
1070
     0
1070
   171
1070
     3
1070
   274
1070
     4
1070
   177
1070
     2
1070
   176
1070
     2
1070
   178
1070
     7
1070
    78
1070
     8
1070
    41
1041
3.175
1070
   147
1041
2.25
1070
    42
1041
2.0
1070
    44
1041
2.0
1070
   140
1041
4.5
1070
   343
1005
16E
1070
   344
1005
16E
1002
}
0
DIMENSION
5
19F
100
AcDbEntity
8
2
62
256
6
ByLayer
370
13
48
1
60
0
100
AcDbDimension
2
DimnDraft3D4
10
46.584684
20
49.6625
30
0
11
17.773921
21
49.6625
31
0
70
32
71
5
72
1
41
1
210
0
220
0
230
1
3
Standard
100
AcDbAlignedDimension
13
0
23
14.4375
33
0
14
46.584684
24
21.9125
34
0
50
0
100
AcDbRotatedDimension
1001
ACAD
1000
DSTYLE
1002
{
1070
   279
1070
     0
1070
   172
1070
     1
1070
   173
1070
     1
1070
   340
1005
15D
1070
    77
1070
     1
1070
    73
1070
     0
1070
   171
1070
     3
1070
   274
1070
     4
1070
   177
1070
     2
1070
   176
1070
     2
1070
   178
1070
     7
1070
    78
1070
     8
1070
    41
1041
3.175
1070
   147
1041
2.25
1070
    42
1041
2.0
1070
    44
1041
2.0
1070
   140
1041
4.5
1070
   343
1005
16E
1070
   344
1005
16E
1002
}
0
DIMENSION
5
1AD
100
AcDbEntity
8
SK2
62
256
6
ByLayer
370
13
48
1
60
0
100
AcDbDimension
2
DimnDraft3D5
10
-124.765316
20
59.6625
30
0
11
-45.490974
21
59.6625
31
0
70
32
71
5
72
1
41
1
210
0
220
0
230
1
3
Standard
100
AcDbAlignedDimension
13
46.584684
23
21.9125
33
0
14
-124.765316
24
14.4375
34
0
50
0
100
AcDbRotatedDimension
1001
ACAD
1000
DSTYLE
1002
{
1070
   279
1070
     0
1070
   172
1070
     1
1070
   173
1070
     1
1070
   340
1005
15D
1070
    77
1070
     1
1070
    73
1070
     0
1070
   171
1070
     3
1070
   274
1070
     4
1070
   177
1070
     2
1070
   176
1070
     2
1070
   178
1070
     7
1070
    78
1070
     8
1070
    41
1041
3.175
1070
   147
1041
2.25
1070
    42
1041
2.0
1070
    44
1041
2.0
1070
   140
1041
4.5
1070
   343
1005
16E
1070
   344
1005
16E
1002
}
0
ENDSEC
0
SECTION
2
OBJECTS
0
DICTIONARY
5
217
330
0
100
AcDbDictionary
280
0
281
1
3
ACAD_GROUP
350
218
3
ACAD_MLINESTYLE
350
219
0
DICTIONARY
5
218
330
0
100
AcDbDictionary
280
0
281
1
0
DICTIONARY
5
219
330
0
100
AcDbDictionary
280
0
281
1
3
Standard
350
18
0
MLINESTYLE
5
18
330
219
100
AcDbMlineStyle
2
Standard
70
0
3

62
256
51
90
52
90
71
2
49
-0.5
62
256
6
ByLayer
49
0.5
62
256
6
ByLayer
0
RASTERVARIABLES
5
206
330

100
AcDbRasterVariables
90
0
70
1
71
1
72
1
0
ENDSEC
0
EOF
