0
SECTION
2
HEADER
9
$ACADVER
1
AC1015
9
$DWGCODEPAGE
3
ANSI_1252
9
$HANDSEED
5
226
9
$ANGBASE
50
0
9
$ANGDIR
70
0
9
$ATTMODE
70
1
9
$AUNITS
70
0
9
$AUPREC
70
0
9
$CECOLOR
62
256
9
$CELTSCALE
40
1
9
$CELTYPE
6
ByLayer
9
$CELWEIGHT
370
18
9
$CLAYER
8
0
9
$CMLJUST
70
0
9
$CMLSCALE
40
1
9
$CMLSTYLE
2
Standard
9
$DIMSTYLE
2
Standard
9
$TEXTSIZE
40
0.2
9
$TEXTSTYLE
7
Standard
9
$LUNITS
70
2
9
$LUPREC
70
4
9
$EXTNAMES
290
1
9
$INSUNITS
70
4
9
$LTSCALE
40
1
9
$LWDISPLAY
290
1
9
$PDMODE
70
0
9
$PDSIZE
40
0
9
$PLINEGEN
70
0
0
ENDSEC
0
SECTION
2
CLASSES
0
CLASS
1
RASTERVARIABLES
2
AcDbRasterVariables
3
ISM
90
0
280
0
281
0
0
ENDSEC
0
SECTION
2
TABLES
0
TABLE
2
VPORT
5
21c
100
AcDbSymbolTable
0
VPORT
5
1
100
AcDbSymbolTableRecord
100
AcDbViewportTableRecord
2
*Active
70
0
10
0
20
0
11
1
21
1
12
-1
22
1
13
0
23
0
14
0.5
24
0.5
15
10
25
10
16
0
26
0
36
1
17
0
27
0
37
0
0
ENDTAB
0
TABLE
2
LTYPE
5
21d
100
AcDbSymbolTable
0
LTYPE
5
14
100
AcDbSymbolTableRecord
100
AcDbLinetypeTableRecord
70
0
2
ByBlock
3

72
65
73
0
40
0
0
LTYPE
5
15
100
AcDbSymbolTableRecord
100
AcDbLinetypeTableRecord
70
0
2
ByLayer
3

72
65
73
0
40
0
0
LTYPE
5
16
100
AcDbSymbolTableRecord
100
AcDbLinetypeTableRecord
70
0
2
CONTINUOUS
3
Solid line
72
65
73
0
40
0
0
LTYPE
5
6A
100
AcDbSymbolTableRecord
100
AcDbLinetypeTableRecord
70
0
2
CENTER
3
____ _ ____ _ ____ _ ____
72
65
73
4
40
47.5
49
22
74
0
49
-8.5
74
0
49
8.5
74
0
49
-8.5
74
0
0
LTYPE
5
6B
100
AcDbSymbolTableRecord
100
AcDbLinetypeTableRecord
70
0
2
DASHED
3
__ __ __ __ __ __ __ __ __
72
65
73
2
40
25.72
49
12.86
74
0
49
-12.86
74
0
0
ENDTAB
0
TABLE
2
LAYER
5
21e
100
AcDbSymbolTable
0
LAYER
5
10
100
AcDbSymbolTableRecord
100
AcDbLayerTableRecord
2
0
70
0
62
7
6
CONTINUOUS
290
1
370
-3
390
0
0
LAYER
5
6D
100
AcDbSymbolTableRecord
100
AcDbLayerTableRecord
2
2
70
0
62
7
6
CONTINUOUS
290
1
370
-3
390
0
0
LAYER
5
6F
100
AcDbSymbolTableRecord
100
AcDbLayerTableRecord
2
80
70
0
62
-6
6
CONTINUOUS
290
1
370
-3
390
0
0
LAYER
5
71
100
AcDbSymbolTableRecord
100
AcDbLayerTableRecord
2
81
70
0
62
-3
6
CONTINUOUS
290
1
370
-3
390
0
0
LAYER
5
73
100
AcDbSymbolTableRecord
100
AcDbLayerTableRecord
2
1
70
0
62
4
6
CONTINUOUS
290
1
370
-3
390
0
0
LAYER
5
209
100
AcDbSymbolTableRecord
100
AcDbLayerTableRecord
2
SK1
70
0
62
4
6
CONTINUOUS
290
1
370
-3
390
0
0
LAYER
5
20a
100
AcDbSymbolTableRecord
100
AcDbLayerTableRecord
2
SK6
70
0
62
5
6
CONTINUOUS
290
1
370
-3
390
0
0
LAYER
5
20b
100
AcDbSymbolTableRecord
100
AcDbLayerTableRecord
2
SK2
70
0
62
7
6
CONTINUOUS
290
1
370
-3
390
0
0
ENDTAB
0
TABLE
2
STYLE
5
21f
100
AcDbSymbolTable
0
STYLE
5
11
100
AcDbSymbolTableRecord
100
AcDbTextStyleTableRecord
2
Standard
3
txt
70
0
71
0
40
0
41
1
42
0
50
0
0
STYLE
5
15F
100
AcDbSymbolTableRecord
100
AcDbTextStyleTableRecord
2
iso_b_vert
3
simplex.shx
70
0
71
0
40
0
41
1
42
0
50
0
0
STYLE
5
160
100
AcDbSymbolTableRecord
100
AcDbTextStyleTableRecord
2
DWGDirectTextStyle
3
simplex
70
0
71
0
40
0
41
1
42
0
50
0
0
ENDTAB
0
TABLE
2
DIMSTYLE
5
220
100
AcDbSymbolTable
100
AcDbDimStyleTable
0
DIMSTYLE
105
27
100
AcDbSymbolTableRecord
100
AcDbDimStyleTableRecord
2
Standard
70
0
3
<>
41
0.18
42
0.0625
44
0.18
140
0.18
147
0.09
73
0
74
0
77
1
271
2
275
0
278
52
280
0
340
11
0
ENDTAB
0
TABLE
2
VIEW
5
221
100
AcDbSymbolTable
0
ENDTAB
0
TABLE
2
UCS
5
222
100
AcDbSymbolTable
0
ENDTAB
0
TABLE
2
APPID
5
223
100
AcDbSymbolTable
0
APPID
5
12
100
AcDbSymbolTableRecord
100
AcDbRegAppTableRecord
2
ACAD
70
0
0
ENDTAB
0
TABLE
2
BLOCK_RECORD
5
224
100
AcDbSymbolTable
0
BLOCK_RECORD
5
1F
100
AcDbSymbolTableRecord
100
AcDbBlockTableRecord
2
*Model_Space
340
0
70
0
0
BLOCK_RECORD
5
1B
100
AcDbSymbolTableRecord
100
AcDbBlockTableRecord
2
*Paper_Space
340
0
70
0
0
BLOCK_RECORD
5
23
100
AcDbSymbolTableRecord
100
AcDbBlockTableRecord
2
*Paper_Space0
340
0
70
0
0
BLOCK_RECORD
5
162
100
AcDbSymbolTableRecord
100
AcDbBlockTableRecord
2
DimnDraft3D11
340
0
70
0
0
BLOCK_RECORD
5
171
100
AcDbSymbolTableRecord
100
AcDbBlockTableRecord
2
DimnDraft3D2
340
0
70
0
0
BLOCK_RECORD
5
17F
100
AcDbSymbolTableRecord
100
AcDbBlockTableRecord
2
_CLOSED
340
0
70
0
0
BLOCK_RECORD
5
186
100
AcDbSymbolTableRecord
100
AcDbBlockTableRecord
2
DimnDraft3D3
340
0
70
0
0
BLOCK_RECORD
5
194
100
AcDbSymbolTableRecord
100
AcDbBlockTableRecord
2
DimnDraft3D4
340
0
70
0
0
BLOCK_RECORD
5
1A2
100
AcDbSymbolTableRecord
100
AcDbBlockTableRecord
2
DimnDraft3D5
340
0
70
0
0
ENDTAB
0
ENDSEC
0
SECTION
2
BLOCKS
0
BLOCK
5
20
100
AcDbEntity
8
0
100
AcDbBlockBegin
2
*Model_Space
70
0
10
0
20
0
30
0
3
*Model_Space
0
ENDBLK
5
21
100
AcDbEntity
8
0
100
AcDbBlockEnd
0
BLOCK
5
1C
100
AcDbEntity
8
0
100
AcDbBlockBegin
2
*Paper_Space
70
0
10
0
20
0
30
0
3
*Paper_Space
0
ENDBLK
5
1D
100
AcDbEntity
8
0
100
AcDbBlockEnd
0
BLOCK
5
24
100
AcDbEntity
8
0
100
AcDbBlockBegin
2
*Paper_Space0
70
0
10
0
20
0
30
0
3
*Paper_Space0
0
ENDBLK
5
25
100
AcDbEntity
8
0
100
AcDbBlockEnd
0
BLOCK
5
163
100
AcDbEntity
8
0
100
AcDbBlockBegin
2
DimnDraft3D11
70
0
10
0
20
0
30
0
3
DimnDraft3D11
0
LINE
5
165
100
AcDbEntity
8
SK2
62
256
6
ByLayer
370
25
48
1
60
0
100
AcDbLine
10
46.584684
20
-32.425
30
0
11
46.584684
21
-70.675
31
0
39
0
210
0
220
0
230
1
0
LINE
5
167
100
AcDbEntity
8
SK2
62
256
6
ByLayer
370
25
48
1
60
0
100
AcDbLine
10
-204.765316
20
-21.925
30
0
11
-204.765316
21
-70.675
31
0
39
0
210
0
220
0
230
1
0
LINE
5
168
100
AcDbEntity
8
SK2
62
256
6
ByLayer
370
25
48
1
60
0
100
AcDbLine
10
46.584684
20
-68.675
30
0
11
-204.765316
21
-68.675
31
0
39
0
210
0
220
0
230
1
0
LINE
5
169
100
AcDbEntity
8
SK2
62
256
6
ByLayer
370
25
48
1
60
0
100
AcDbLine
10
46.584684
20
-68.675
30
0
11
43.409686
21
-69.092997
31
0
39
0
210
0
220
0
230
1
0
LINE
5
16A
100
AcDbEntity
8
SK2
62
256
6
ByLayer
370
25
48
1
60
0
100
AcDbLine
10
46.584684
20
-68.675
30
0
11
43.409682
21
-68.257003
31
0
39
0
210
0
220
0
230
1
0
LINE
5
16B
100
AcDbEntity
8
SK2
62
256
6
ByLayer
370
25
48
1
60
0
100
AcDbLine
10
43.409686
20
-69.092997
30
0
11
43.409682
21
-68.257003
31
0
39
0
210
0
220
0
230
1
0
LINE
5
16C
100
AcDbEntity
8
SK2
62
256
6
ByLayer
370
25
48
1
60
0
100
AcDbLine
10
-204.765316
20
-68.675
30
0
11
-201.590318
21
-68.257003
31
0
39
0
210
0
220
0
230
1
0
LINE
5
16D
100
AcDbEntity
8
SK2
62
256
6
ByLayer
370
25
48
1
60
0
100
AcDbLine
10
-204.765316
20
-68.675
30
0
11
-201.590314
21
-69.092997
31
0
39
0
210
0
220
0
230
1
0
LINE
5
16E
100
AcDbEntity
8
SK2
62
256
6
ByLayer
370
25
48
1
60
0
100
AcDbLine
10
-201.590318
20
-68.257003
30
0
11
-201.590314
21
-69.092997
31
0
39
0
210
0
220
0
230
1
0
MTEXT
5
16F
100
AcDbEntity
8
SK2
62
256
6
ByLayer
370
18
48
1
60
0
100
AcDbMText
10
-84.928474
20
-67.55
30
0
210
0
220
0
230
1
1
\W0.7468;250.0
40
4.5
41
0
44
1.084337
50
0
71
7
72
5
7
iso_b_vert
0
ENDBLK
5
164
100
AcDbEntity
8
0
100
AcDbBlockEnd
0
BLOCK
5
17C
100
AcDbEntity
8
0
100
AcDbBlockBegin
2
DimnDraft3D2
70
0
10
0
20
0
30
0
3
DimnDraft3D2
0
MTEXT
5
172
100
AcDbEntity
8
2
62
256
6
ByLayer
370
18
48
1
60
0
100
AcDbMText
10
29.839049
20
-42.334465
30
0
210
0
220
0
230
1
1
\W0.7399;93%%d
40
4.5
41
0
44
1.084337
50
313.5
71
7
72
5
7
iso_b_vert
0
LINE
5
173
100
AcDbEntity
8
2
62
256
6
ByLayer
370
13
48
1
60
0
100
AcDbLine
10
46.584684
20
-32.425
30
0
11
46.584684
21
-53.908093
31
0
39
0
210
0
220
0
230
1
0
LINE
5
174
100
AcDbEntity
8
2
62
256
6
ByLayer
370
13
48
1
60
0
100
AcDbLine
10
42.753504
20
-30.266904
30
0
11
23.176404
21
-29.240912
31
0
39
0
210
0
220
0
230
1
0
ARC
5
175
100
AcDbEntity
8
2
62
256
6
ByLayer
370
13
48
1
60
0
100
AcDbCircle
39
0
10
46.584684
20
-30.467688
30
0
40
21.440404685267
210
0
220
0
230
1
100
AcDbArc
50
177
51
270
0
LINE
5
176
100
AcDbEntity
8
2
62
256
6
ByLayer
370
13
48
1
60
0
100
AcDbLine
10
46.584684
20
-51.908093
30
0
11
43.39641
21
-52.208502
31
0
39
0
210
0
220
0
230
1
0
LINE
5
177
100
AcDbEntity
8
2
62
256
6
ByLayer
370
13
48
1
60
0
100
AcDbLine
10
46.584684
20
-51.908093
30
0
11
43.427293
21
-51.37308
31
0
39
0
210
0
220
0
230
1
0
LINE
5
178
100
AcDbEntity
8
2
62
256
6
ByLayer
370
13
48
1
60
0
100
AcDbLine
10
43.39641
20
-52.208502
30
0
11
43.427293
21
-51.37308
31
0
39
0
210
0
220
0
230
1
0
LINE
5
179
100
AcDbEntity
8
2
62
256
6
ByLayer
370
13
48
1
60
0
100
AcDbLine
10
25.173663
20
-29.345584
30
0
11
25.542697
21
-32.526645
31
0
39
0
210
0
220
0
230
1
0
LINE
5
17A
100
AcDbEntity
8
2
62
256
6
ByLayer
370
13
48
1
60
0
100
AcDbLine
10
25.173663
20
-29.345584
30
0
11
24.706803
21
-32.513769
31
0
39
0
210
0
220
0
230
1
0
LINE
5
17B
100
AcDbEntity
8
2
62
256
6
ByLayer
370
13
48
1
60
0
100
AcDbLine
10
25.542697
20
-32.526645
30
0
11
24.706803
21
-32.513769
31
0
39
0
210
0
220
0
230
1
0
ENDBLK
5
17D
100
AcDbEntity
8
0
100
AcDbBlockEnd
0
BLOCK
5
180
100
AcDbEntity
8
0
100
AcDbBlockBegin
2
_CLOSED
70
0
10
0
20
0
30
0
3
_CLOSED
0
LINE
5
182
100
AcDbEntity
8
0
62
256
6
ByLayer
370
-2
48
1
60
0
100
AcDbLine
10
-1
20
0.166667
30
0
11
0
21
0
31
0
39
0
210
0
220
0
230
1
0
LINE
5
183
100
AcDbEntity
8
0
62
256
6
ByLayer
370
-2
48
1
60
0
100
AcDbLine
10
0
20
0
30
0
11
-1
21
-0.166667
31
0
39
0
210
0
220
0
230
1
0
LINE
5
184
100
AcDbEntity
8
0
62
256
6
ByLayer
370
-2
48
1
60
0
100
AcDbLine
10
-1
20
0.166667
30
0
11
-1
21
-0.166667
31
0
39
0
210
0
220
0
230
1
0
LINE
5
185
100
AcDbEntity
8
0
62
256
6
ByLayer
370
-2
48
1
60
0
100
AcDbLine
10
0
20
0
30
0
11
-1
21
0
31
0
39
0
210
0
220
0
230
1
0
ENDBLK
5
181
100
AcDbEntity
8
0
100
AcDbBlockEnd
0
BLOCK
5
191
100
AcDbEntity
8
0
100
AcDbBlockBegin
2
DimnDraft3D3
70
0
10
0
20
0
30
0
3
DimnDraft3D3
0
MTEXT
5
187
100
AcDbEntity
8
2
62
256
6
ByLayer
370
18
48
1
60
0
100
AcDbMText
10
18.898921
20
-57.55
30
0
210
0
220
0
230
1
1
\W0.7640;46.6
40
4.5
41
0
44
1.084337
50
0
71
7
72
5
7
iso_b_vert
0
LINE
5
188
100
AcDbEntity
8
2
62
256
6
ByLayer
370
13
48
1
60
0
100
AcDbLine
10
0
20
-21.925
30
0
11
0
21
-60.675
31
0
39
0
210
0
220
0
230
1
0
LINE
5
189
100
AcDbEntity
8
2
62
256
6
ByLayer
370
13
48
1
60
0
100
AcDbLine
10
46.584684
20
-32.425
30
0
11
46.584684
21
-60.675
31
0
39
0
210
0
220
0
230
1
0
LINE
5
18A
100
AcDbEntity
8
2
62
256
6
ByLayer
370
13
48
1
60
0
100
AcDbLine
10
0
20
-58.675
30
0
11
46.584684
21
-58.675
31
0
39
0
210
0
220
0
230
1
0
LINE
5
18B
100
AcDbEntity
8
2
62
256
6
ByLayer
370
13
48
1
60
0
100
AcDbLine
10
0
20
-58.675
30
0
11
3.174998
21
-58.257003
31
0
39
0
210
0
220
0
230
1
0
LINE
5
18C
100
AcDbEntity
8
2
62
256
6
ByLayer
370
13
48
1
60
0
100
AcDbLine
10
0
20
-58.675
30
0
11
3.175002
21
-59.092997
31
0
39
0
210
0
220
0
230
1
0
LINE
5
18D
100
AcDbEntity
8
2
62
256
6
ByLayer
370
13
48
1
60
0
100
AcDbLine
10
3.174998
20
-58.257003
30
0
11
3.175002
21
-59.092997
31
0
39
0
210
0
220
0
230
1
0
LINE
5
18E
100
AcDbEntity
8
2
62
256
6
ByLayer
370
13
48
1
60
0
100
AcDbLine
10
46.584684
20
-58.675
30
0
11
43.409686
21
-59.092997
31
0
39
0
210
0
220
0
230
1
0
LINE
5
18F
100
AcDbEntity
8
2
62
256
6
ByLayer
370
13
48
1
60
0
100
AcDbLine
10
46.584684
20
-58.675
30
0
11
43.409682
21
-58.257003
31
0
39
0
210
0
220
0
230
1
0
LINE
5
190
100
AcDbEntity
8
2
62
256
6
ByLayer
370
13
48
1
60
0
100
AcDbLine
10
43.409686
20
-59.092997
30
0
11
43.409682
21
-58.257003
31
0
39
0
210
0
220
0
230
1
0
ENDBLK
5
192
100
AcDbEntity
8
0
100
AcDbBlockEnd
0
BLOCK
5
19F
100
AcDbEntity
8
0
100
AcDbBlockBegin
2
DimnDraft3D4
70
0
10
0
20
0
30
0
3
DimnDraft3D4
0
MTEXT
5
195
100
AcDbEntity
8
2
62
256
6
ByLayer
370
18
48
1
60
0
100
AcDbMText
10
67.709684
20
-9.406579
30
0
210
0
220
0
230
1
1
\W0.7346;50.0
40
4.5
41
0
44
1.084337
50
90
71
7
72
5
7
iso_b_vert
0
LINE
5
196
100
AcDbEntity
8
2
62
256
6
ByLayer
370
13
48
1
60
0
100
AcDbLine
10
2
20
19.925
30
0
11
70.834684
21
19.925
31
0
39
0
210
0
220
0
230
1
0
LINE
5
197
100
AcDbEntity
8
2
62
256
6
ByLayer
370
13
48
1
60
0
100
AcDbLine
10
48.584684
20
-30.425
30
0
11
70.834684
21
-30.425
31
0
39
0
210
0
220
0
230
1
0
LINE
5
198
100
AcDbEntity
8
2
62
256
6
ByLayer
370
13
48
1
60
0
100
AcDbLine
10
68.834684
20
19.925
30
0
11
68.834684
21
-30.425
31
0
39
0
210
0
220
0
230
1
0
LINE
5
199
100
AcDbEntity
8
2
62
256
6
ByLayer
370
13
48
1
60
0
100
AcDbLine
10
68.834684
20
19.925
30
0
11
69.252681
21
16.750002
31
0
39
0
210
0
220
0
230
1
0
LINE
5
19A
100
AcDbEntity
8
2
62
256
6
ByLayer
370
13
48
1
60
0
100
AcDbLine
10
68.834684
20
19.925
30
0
11
68.416687
21
16.749998
31
0
39
0
210
0
220
0
230
1
0
LINE
5
19B
100
AcDbEntity
8
2
62
256
6
ByLayer
370
13
48
1
60
0
100
AcDbLine
10
69.252681
20
16.750002
30
0
11
68.416687
21
16.749998
31
0
39
0
210
0
220
0
230
1
0
LINE
5
19C
100
AcDbEntity
8
2
62
256
6
ByLayer
370
13
48
1
60
0
100
AcDbLine
10
68.834684
20
-30.425
30
0
11
68.416687
21
-27.250002
31
0
39
0
210
0
220
0
230
1
0
LINE
5
19D
100
AcDbEntity
8
2
62
256
6
ByLayer
370
13
48
1
60
0
100
AcDbLine
10
68.834684
20
-30.425
30
0
11
69.252681
21
-27.249998
31
0
39
0
210
0
220
0
230
1
0
LINE
5
19E
100
AcDbEntity
8
2
62
256
6
ByLayer
370
13
48
1
60
0
100
AcDbLine
10
68.416687
20
-27.250002
30
0
11
69.252681
21
-27.249998
31
0
39
0
210
0
220
0
230
1
0
ENDBLK
5
1A0
100
AcDbEntity
8
0
100
AcDbBlockEnd
0
BLOCK
5
1AD
100
AcDbEntity
8
0
100
AcDbBlockBegin
2
DimnDraft3D5
70
0
10
0
20
0
30
0
3
DimnDraft3D5
0
MTEXT
5
1A3
100
AcDbEntity
8
SK2
62
256
6
ByLayer
370
18
48
1
60
0
100
AcDbMText
10
-213.640316
20
-4.393421
30
0
210
0
220
0
230
1
1
\W0.7640;40.0
40
4.5
41
0
44
1.084337
50
90
71
7
72
5
7
iso_b_vert
0
LINE
5
1A4
100
AcDbEntity
8
SK2
62
256
6
ByLayer
370
13
48
1
60
0
100
AcDbLine
10
-206.765316
20
19.925
30
0
11
-214.515316
21
19.925
31
0
39
0
210
0
220
0
230
1
0
LINE
5
1A5
100
AcDbEntity
8
SK2
62
256
6
ByLayer
370
13
48
1
60
0
100
AcDbLine
10
-206.765316
20
-19.925
30
0
11
-214.515316
21
-19.925
31
0
39
0
210
0
220
0
230
1
0
LINE
5
1A6
100
AcDbEntity
8
SK2
62
256
6
ByLayer
370
13
48
1
60
0
100
AcDbLine
10
-212.515316
20
19.925
30
0
11
-212.515316
21
-19.925
31
0
39
0
210
0
220
0
230
1
0
LINE
5
1A7
100
AcDbEntity
8
SK2
62
256
6
ByLayer
370
13
48
1
60
0
100
AcDbLine
10
-212.515316
20
19.925
30
0
11
-212.097319
21
16.750002
31
0
39
0
210
0
220
0
230
1
0
LINE
5
1A8
100
AcDbEntity
8
SK2
62
256
6
ByLayer
370
13
48
1
60
0
100
AcDbLine
10
-212.515316
20
19.925
30
0
11
-212.933313
21
16.749998
31
0
39
0
210
0
220
0
230
1
0
LINE
5
1A9
100
AcDbEntity
8
SK2
62
256
6
ByLayer
370
13
48
1
60
0
100
AcDbLine
10
-212.097319
20
16.750002
30
0
11
-212.933313
21
16.749998
31
0
39
0
210
0
220
0
230
1
0
LINE
5
1AA
100
AcDbEntity
8
SK2
62
256
6
ByLayer
370
13
48
1
60
0
100
AcDbLine
10
-212.515316
20
-19.925
30
0
11
-212.933313
21
-16.750002
31
0
39
0
210
0
220
0
230
1
0
LINE
5
1AB
100
AcDbEntity
8
SK2
62
256
6
ByLayer
370
13
48
1
60
0
100
AcDbLine
10
-212.515316
20
-19.925
30
0
11
-212.097319
21
-16.749998
31
0
39
0
210
0
220
0
230
1
0
LINE
5
1AC
100
AcDbEntity
8
SK2
62
256
6
ByLayer
370
13
48
1
60
0
100
AcDbLine
10
-212.933313
20
-16.750002
30
0
11
-212.097319
21
-16.749998
31
0
39
0
210
0
220
0
230
1
0
ENDBLK
5
1AE
100
AcDbEntity
8
0
100
AcDbBlockEnd
0
ENDSEC
0
SECTION
2
ENTITIES
0
ELLIPSE
5
D9
100
AcDbEntity
8
1
62
256
6
ByLayer
370
18
48
1
60
0
100
AcDbEllipse
10
30.087691
20
-21.40277
30
0
11
-2.53500878512064
21
-0.974273330703919
31
0
210
0
220
0
230
1
40
0.380077
41
-2.81268899795074
42
-2.44141797912001
0
ELLIPSE
5
DA
100
AcDbEntity
8
1
62
256
6
ByLayer
370
18
48
1
60
0
100
AcDbEllipse
10
30.27786
20
-39.260099
30
0
11
3.66377425325135
21
9.51928349305833
31
0
210
0
220
0
230
1
40
0.970308
41
0.340214977436959
42
0.620677124368714
0
ELLIPSE
5
DB
100
AcDbEntity
8
1
62
256
6
ByLayer
370
18
48
1
60
0
100
AcDbEllipse
10
12.277798
20
0.110135
30
0
11
-0.690508613524517
21
0.543065164663823
31
0
210
0
220
0
230
1
40
0.066376
41
1.35872126948491
42
2.92951759627405
0
ELLIPSE
5
DC
100
AcDbEntity
8
1
62
256
6
ByLayer
370
18
48
1
60
0
100
AcDbEllipse
10
40.710733
20
-12.087255
30
0
11
3.66377425325134
21
9.51928349305832
31
0
210
0
220
0
230
1
40
0.970308
41
2.20006264120504
42
2.80765339478974
0
ELLIPSE
5
DD
100
AcDbEntity
8
1
62
256
6
ByLayer
370
18
48
1
60
0
100
AcDbEllipse
10
5.405248
20
-28.030432
30
0
11
-0.809744039840812
21
0.0561177487331959
31
0
210
0
220
0
230
1
40
0.071934
41
-2.91170619489799
42
-1.34090986810063
0
ELLIPSE
5
DE
100
AcDbEntity
8
1
62
256
6
ByLayer
370
18
48
1
60
0
100
AcDbEllipse
10
16.323254
20
-20.362121
30
0
11
0.152657260552139
21
0.396636812210763
31
0
210
0
220
0
230
1
40
0.970308
41
-2.8565285871522
42
-2.13829213670655
0
ELLIPSE
5
DF
100
AcDbEntity
8
1
62
256
6
ByLayer
370
18
48
1
60
0
100
AcDbEllipse
10
18.287254
20
-20.526323
30
0
11
-0.136493550611321
21
-0.354639973270801
31
0
210
0
220
0
230
1
40
0.970308
41
1.33226161763416
42
-2.11598180036048
0
ELLIPSE
5
E0
100
AcDbEntity
8
1
62
256
6
ByLayer
370
18
48
1
60
0
100
AcDbEllipse
10
17.240949
20
-21.366435
30
0
11
-1.43677421696128
21
-3.73305235021896
31
0
210
0
220
0
230
1
40
0.970308
41
0
42
6.28318530717959
0
ELLIPSE
5
E1
100
AcDbEntity
8
1
62
256
6
ByLayer
370
18
48
1
60
0
100
AcDbEllipse
10
17.263909
20
-22.441442
30
0
11
-0.136493550611321
21
-0.354639973270801
31
0
210
0
220
0
230
1
40
0.970308
41
0.825698985757008
42
2.07280840442589
0
ELLIPSE
5
E2
100
AcDbEntity
8
1
62
256
6
ByLayer
370
18
48
1
60
0
100
AcDbEllipse
10
16.250773
20
-21.16198
30
0
11
-0.136493550611321
21
-0.354639973270801
31
0
210
0
220
0
230
1
40
0.970308
41
-2.8565285871523
42
-0.0215866979673205
0
ELLIPSE
5
E3
100
AcDbEntity
8
1
62
256
6
ByLayer
370
18
48
1
60
0
100
AcDbEllipse
10
18.622445
20
-21.721501
30
0
11
-0.136493550611321
21
-0.354639973270801
31
0
210
0
220
0
230
1
40
0.970308
41
0.285064066437654
42
3.12000595562247
0
ELLIPSE
5
E4
100
AcDbEntity
8
1
62
256
6
ByLayer
370
18
48
1
60
0
100
AcDbEllipse
10
17.436609
20
-21.441741
30
0
11
0.422052426232385
21
1.09658412787682
31
0
210
0
220
0
230
1
40
0.970308
41
0.0684948325364361
42
0.194982535933844
0
ELLIPSE
5
E5
100
AcDbEntity
8
1
62
256
6
ByLayer
370
18
48
1
60
0
100
AcDbEllipse
10
17.306018
20
-19.70136
30
0
11
0.152657260552139
21
0.396636812210763
31
0
210
0
220
0
230
1
40
0.970308
41
2.44013123299221
42
-3.14158710550223
0
ELLIPSE
5
E6
100
AcDbEntity
8
1
62
256
6
ByLayer
370
18
48
1
60
0
100
AcDbEllipse
10
17.101418
20
-20.246563
30
0
11
-0.136493550611321
21
-0.354639973270801
31
0
210
0
220
0
230
1
40
0.970308
41
2.37945916883058
42
-1.0687842491638
0
ELLIPSE
5
E7
100
AcDbEntity
8
1
62
256
6
ByLayer
370
18
48
1
60
0
100
AcDbEllipse
10
17.436609
20
-21.441741
30
0
11
-0.826145174752733
21
-2.1465051013759
31
0
210
0
220
0
230
1
40
0.970308
41
0
42
6.28318530717959
0
ELLIPSE
5
E8
100
AcDbEntity
8
1
62
256
6
ByLayer
370
18
48
1
60
0
100
AcDbEllipse
10
18.114554
20
-21.526025
30
0
11
-0.136493550611321
21
-0.354639973270801
31
0
210
0
220
0
230
1
40
0.970308
41
0.285064066437733
42
3.1200059556224
0
ELLIPSE
5
E9
100
AcDbEntity
8
1
62
256
6
ByLayer
370
18
48
1
60
0
100
AcDbEllipse
10
17.059309
20
-22.986645
30
0
11
0.152657260552139
21
0.396636812210763
31
0
210
0
220
0
230
1
40
0.970308
41
0.307374402783484
42
1.02561085322936
0
ELLIPSE
5
EA
100
AcDbEntity
8
1
62
256
6
ByLayer
370
18
48
1
60
0
100
AcDbEllipse
10
17.436609
20
-21.441741
30
0
11
0.422052426232385
21
1.09658412787682
31
0
210
0
220
0
230
1
40
0.970308
41
-0.978702718660168
42
-0.852215015262776
0
ELLIPSE
5
EB
100
AcDbEntity
8
1
62
256
6
ByLayer
370
18
48
1
60
0
100
AcDbEllipse
10
16.078073
20
-22.161681
30
0
11
-0.136493550611321
21
-0.354639973270801
31
0
210
0
220
0
230
1
40
0.970308
41
0.830043308272028
42
1.02561085322923
0
ELLIPSE
5
EC
100
AcDbEntity
8
1
62
256
6
ByLayer
370
18
48
1
60
0
100
AcDbEllipse
10
14.809077
20
-20.430458
30
0
11
0.700427430768639
21
1.81986302073174
31
0
210
0
220
0
230
1
40
0.970308
41
1.72799925854859
42
1.81095718544871
0
ELLIPSE
5
ED
100
AcDbEntity
8
1
62
256
6
ByLayer
370
18
48
1
60
0
100
AcDbEllipse
10
18.927263
20
-20.976456
30
0
11
0.152657260552139
21
0.396636812210763
31
0
210
0
220
0
230
1
40
0.970308
41
2.40176950517673
42
3.12000595562246
0
ELLIPSE
5
EE
100
AcDbEntity
8
1
62
256
6
ByLayer
370
18
48
1
60
0
100
AcDbEllipse
10
17.813909
20
-19.896837
30
0
11
0.152657260552139
21
0.396636812210763
31
0
210
0
220
0
230
1
40
0.970308
41
-2.83421825080624
42
-2.11598180036055
0
ELLIPSE
5
EF
100
AcDbEntity
8
1
62
256
6
ByLayer
370
18
48
1
60
0
100
AcDbEllipse
10
15.945954
20
-21.907026
30
0
11
0.152657260552139
21
0.396636812210763
31
0
210
0
220
0
230
1
40
0.970308
41
-0.739823148412996
42
-0.0215866979672658
0
ELLIPSE
5
F0
100
AcDbEntity
8
1
62
256
6
ByLayer
370
18
48
1
60
0
100
AcDbEllipse
10
18.549964
20
-22.52136
30
0
11
0.152657260552139
21
0.396636812210763
31
0
210
0
220
0
230
1
40
0.970308
41
1.35457195398019
42
2.07280840442592
0
ELLIPSE
5
F1
100
AcDbEntity
8
1
62
256
6
ByLayer
370
18
48
1
60
0
100
AcDbEllipse
10
15.945954
20
-21.907026
30
0
11
0.152657260552139
21
0.396636812210763
31
0
210
0
220
0
230
1
40
0.970308
41
-1.80933103595568
42
-1.09109458550995
0
ELLIPSE
5
F2
100
AcDbEntity
8
1
62
256
6
ByLayer
370
18
48
1
60
0
100
AcDbEllipse
10
18.419373
20
-20.780979
30
0
11
0.152657260552139
21
0.396636812210763
31
0
210
0
220
0
230
1
40
0.970308
41
1.33226161763413
42
3.12000595562253
0
ELLIPSE
5
F3
100
AcDbEntity
8
1
62
256
6
ByLayer
370
18
48
1
60
0
100
AcDbEllipse
10
18.042073
20
-22.325883
30
0
11
0.152657260552139
21
0.396636812210763
31
0
210
0
220
0
230
1
40
0.970308
41
0.285064066437606
42
2.07280840442592
0
ELLIPSE
5
F4
100
AcDbEntity
8
1
62
256
6
ByLayer
370
18
48
1
60
0
100
AcDbEllipse
10
17.779363
20
-20.330847
30
0
11
-0.136493550611321
21
-0.354639973270801
31
0
210
0
220
0
230
1
40
0.970308
41
1.33226161763408
42
2.31155769860282
0
ELLIPSE
5
F5
100
AcDbEntity
8
1
62
256
6
ByLayer
370
18
48
1
60
0
100
AcDbEllipse
10
16.551418
20
-22.791168
30
0
11
0.152657260552139
21
0.396636812210763
31
0
210
0
220
0
230
1
40
0.970308
41
3.12314607042724E-06
42
1.02561085322927
0
ELLIPSE
5
F6
100
AcDbEntity
8
1
62
256
6
ByLayer
370
18
48
1
60
0
100
AcDbEllipse
10
17.813909
20
-19.896837
30
0
11
0.152657260552139
21
0.396636812210763
31
0
210
0
220
0
230
1
40
0.970308
41
2.37945916883072
42
3.0976956192765
0
ELLIPSE
5
F7
100
AcDbEntity
8
1
62
256
6
ByLayer
370
18
48
1
60
0
100
AcDbEllipse
10
17.059309
20
-22.986645
30
0
11
0.152657260552139
21
0.396636812210763
31
0
210
0
220
0
230
1
40
0.970308
41
-0.762133484759075
42
-0.0438970343132932
0
ELLIPSE
5
F8
100
AcDbEntity
8
1
62
256
6
ByLayer
370
18
48
1
60
0
100
AcDbEllipse
10
18.927263
20
-20.976456
30
0
11
0.152657260552139
21
0.396636812210763
31
0
210
0
220
0
230
1
40
0.970308
41
1.33226161763415
42
2.05049806807994
0
ELLIPSE
5
F9
100
AcDbEntity
8
1
62
256
6
ByLayer
370
18
48
1
60
0
100
AcDbEllipse
10
16.736848
20
-21.172417
30
0
11
0.413072587376377
21
1.07325255068795
31
0
210
0
220
0
230
1
40
0.970308
41
-3.0493814926996
42
-0.0921607183362641
0
ELLIPSE
5
FA
100
AcDbEntity
8
1
62
256
6
ByLayer
370
18
48
1
60
0
100
AcDbEllipse
10
17.436609
20
-21.441741
30
0
11
0.422052426232385
21
1.09658412787682
31
0
210
0
220
0
230
1
40
0.970308
41
-3.07309782105333
42
-2.946610117656
0
ELLIPSE
5
FB
100
AcDbEntity
8
1
62
256
6
ByLayer
370
18
48
1
60
0
100
AcDbEllipse
10
16.928718
20
-21.246264
30
0
11
0.413072587376377
21
1.07325255068795
31
0
210
0
220
0
230
1
40
0.970308
41
0.377620512158686
42
0.514558866662785
0
ELLIPSE
5
FC
100
AcDbEntity
8
1
62
256
6
ByLayer
370
18
48
1
60
0
100
AcDbEllipse
10
16.928718
20
-21.246264
30
0
11
0.413072587376377
21
1.07325255068795
31
0
210
0
220
0
230
1
40
0.970308
41
2.88184734140494
42
0
0
ELLIPSE
5
FD
100
AcDbEntity
8
1
62
256
6
ByLayer
370
18
48
1
60
0
100
AcDbEllipse
10
16.928718
20
-21.246264
30
0
11
0.413072587376377
21
1.07325255068795
31
0
210
0
220
0
230
1
40
0.970308
41
0
42
0.377620866664581
0
ELLIPSE
5
FE
100
AcDbEntity
8
1
62
256
6
ByLayer
370
18
48
1
60
0
100
AcDbEllipse
10
18.549964
20
-22.52136
30
0
11
0.152657260552139
21
0.396636812210763
31
0
210
0
220
0
230
1
40
0.970308
41
0.285064066437661
42
1.00330051688331
0
ELLIPSE
5
FF
100
AcDbEntity
8
1
62
256
6
ByLayer
370
18
48
1
60
0
100
AcDbEllipse
10
17.7718
20
-22.636919
30
0
11
-0.136493550611321
21
-0.354639973270801
31
0
210
0
220
0
230
1
40
0.970308
41
-0.762133484759034
42
2.07280840442588
0
ELLIPSE
5
100
100
AcDbEntity
8
1
62
256
6
ByLayer
370
18
48
1
60
0
100
AcDbEllipse
10
16.585964
20
-22.357158
30
0
11
-0.136493550611321
21
-0.354639973270801
31
0
210
0
220
0
230
1
40
0.970308
41
-1.80933103595565
42
1.02561085322936
0
ELLIPSE
5
101
100
AcDbEntity
8
1
62
256
6
ByLayer
370
18
48
1
60
0
100
AcDbEllipse
10
17.436609
20
-21.441741
30
0
11
0.422052426232385
21
1.09658412787682
31
0
210
0
220
0
230
1
40
0.970308
41
2.16288993492961
42
2.289377638327
0
ELLIPSE
5
102
100
AcDbEntity
8
1
62
256
6
ByLayer
370
18
48
1
60
0
100
AcDbEllipse
10
16.323254
20
-20.362121
30
0
11
0.152657260552139
21
0.396636812210763
31
0
210
0
220
0
230
1
40
0.970308
41
-1.78702069960963
42
-1.06878424916385
0
ELLIPSE
5
103
100
AcDbEntity
8
1
62
256
6
ByLayer
370
18
48
1
60
0
100
AcDbEllipse
10
17.436609
20
-21.441741
30
0
11
0.422052426232385
21
1.09658412787682
31
0
210
0
220
0
230
1
40
0.970308
41
-2.0259002698568
42
-1.89941256645939
0
ELLIPSE
5
104
100
AcDbEntity
8
1
62
256
6
ByLayer
370
18
48
1
60
0
100
AcDbEllipse
10
17.436609
20
-21.441741
30
0
11
0.422052426232385
21
1.09658412787682
31
0
210
0
220
0
230
1
40
0.970308
41
1.11569238373303
42
1.24218008713043
0
ELLIPSE
5
105
100
AcDbEntity
8
1
62
256
6
ByLayer
370
18
48
1
60
0
100
AcDbEllipse
10
16.691702
20
-21.155042
30
0
11
1.43677421696131
21
3.73305235021895
31
0
210
0
220
0
230
1
40
0.970308
41
0.377620869123772
42
3.14151943740633
0
ELLIPSE
5
106
100
AcDbEntity
8
1
62
256
6
ByLayer
370
18
48
1
60
0
100
AcDbEllipse
10
16.691702
20
-21.155042
30
0
11
1.43677421696131
21
3.73305235021895
31
0
210
0
220
0
230
1
40
0.970308
41
-1.17296728569842
42
0
0
ELLIPSE
5
107
100
AcDbEntity
8
1
62
256
6
ByLayer
370
18
48
1
60
0
100
AcDbEllipse
10
16.691702
20
-21.155042
30
0
11
1.43677421696131
21
3.73305235021895
31
0
210
0
220
0
230
1
40
0.970308
41
2.49049054095888E-05
42
0.377620612555114
0
ELLIPSE
5
108
100
AcDbEntity
8
1
62
256
6
ByLayer
370
18
48
1
60
0
100
AcDbEllipse
10
15.340596
20
-20.830968
30
0
11
-0.912358189947621
21
-2.43466682181269
31
0
210
0
220
0
230
1
40
0.965976
41
-1.65832324518519
42
-1.24225848199745
0
ELLIPSE
5
109
100
AcDbEntity
8
1
62
256
6
ByLayer
370
18
48
1
60
0
100
AcDbEllipse
10
17.344513
20
-21.302479
30
0
11
-1.45626403395486
21
-3.88610281173949
31
0
210
0
220
0
230
1
40
0.965976
41
0.123156309823618
42
2.95648030662535
0
ELLIPSE
5
10A
100
AcDbEntity
8
1
62
256
6
ByLayer
370
18
48
1
60
0
100
AcDbEllipse
10
14.168305
20
-17.800675
30
0
11
5.34296837169728
21
-1.30487124998697
31
0
210
0
220
0
230
1
40
0.031772
41
-2.40716127761668
42
-1.86288922628206
0
ELLIPSE
5
10B
100
AcDbEntity
8
1
62
256
6
ByLayer
370
18
48
1
60
0
100
AcDbEllipse
10
9.85964
20
-23.863847
30
0
11
-0.361359561767925
21
1.96708395019605
31
0
210
0
220
0
230
1
40
0.760068
41
1.42906848243266
42
2.70308330237917
0
ELLIPSE
5
10C
100
AcDbEntity
8
1
62
256
6
ByLayer
370
18
48
1
60
0
100
AcDbEllipse
10
15.265273
20
-13.946898
30
0
11
-3.32276241593003
21
1.13936192308077
31
0
210
0
220
0
230
1
40
0.351752
41
-0.0969927033306175
42
0.700270969666127
0
ELLIPSE
5
10D
100
AcDbEntity
8
1
62
256
6
ByLayer
370
18
48
1
60
0
100
AcDbEllipse
10
12.935231
20
-22.849659
30
0
11
5.34296837169728
21
-1.30487124998697
31
0
210
0
220
0
230
1
40
0.031772
41
-2.40716127761668
42
-1.86288922628206
0
ELLIPSE
5
10E
100
AcDbEntity
8
1
62
256
6
ByLayer
370
18
48
1
60
0
100
AcDbEllipse
10
34.591979
20
-24.011745
30
0
11
-0.654227641146902
21
-0.460419584248282
31
0
210
0
220
0
230
1
40
0.633191
41
-3.13421316552498
42
-3.05326527656184
0
ELLIPSE
5
10F
100
AcDbEntity
8
1
62
256
6
ByLayer
370
18
48
1
60
0
100
AcDbEllipse
10
34.989342
20
-24.605418
30
0
11
-0.672039267084603
21
-0.434008321920663
31
0
210
0
220
0
230
1
40
0.871401
41
-3.14120069729748
42
-3.00587637405938
0
ELLIPSE
5
110
100
AcDbEntity
8
1
62
256
6
ByLayer
370
18
48
1
60
0
100
AcDbEllipse
10
10.730077
20
-15.178367
30
0
11
-1.19550913360455
21
-2.75205861022378
31
0
210
0
220
0
230
1
40
0.977262
41
-2.45299804495218
42
-1.39663653412094
0
ELLIPSE
5
111
100
AcDbEntity
8
1
62
256
6
ByLayer
370
18
48
1
60
0
100
AcDbEllipse
10
9.905579
20
-25.301957
30
0
11
1.0527209884011
21
2.80923094824541
31
0
210
0
220
0
230
1
40
0.965976
41
0.034923266549828
42
0.123156309823624
0
ELLIPSE
5
112
100
AcDbEntity
8
1
62
256
6
ByLayer
370
18
48
1
60
0
100
AcDbEllipse
10
8.738189
20
-23.334417
30
0
11
-1.19550913371107
21
-2.7520586101763
31
0
210
0
220
0
230
1
40
0.977262
41
-1.3966365340809
42
-0.340275023249022
0
ELLIPSE
5
113
100
AcDbEntity
8
1
62
256
6
ByLayer
370
18
48
1
60
0
100
AcDbEllipse
10
12.123072
20
-26.813053
30
0
11
-3.47122364531621
21
0.534373983906232
31
0
210
0
220
0
230
1
40
0.288759
41
-0.693373955773682
42
0.103889717214891
0
ELLIPSE
5
114
100
AcDbEntity
8
1
62
256
6
ByLayer
370
18
48
1
60
0
100
AcDbEllipse
10
15.148086
20
-16.655349
30
0
11
-3.43986510286158
21
3.7951622472735
31
0
210
0
220
0
230
1
40
0.36839
41
-0.491463916776316
42
-0.171324173908373
0
ELLIPSE
5
115
100
AcDbEntity
8
1
62
256
6
ByLayer
370
18
48
1
60
0
100
AcDbEllipse
10
13.156197
20
-24.811399
30
0
11
-4.73237844454108
21
-1.23878404980246
31
0
210
0
220
0
230
1
40
0.331453
41
0.238357795773544
42
0.558497538611015
0
ELLIPSE
5
116
100
AcDbEntity
8
1
62
256
6
ByLayer
370
18
48
1
60
0
100
AcDbEllipse
10
11.873744
20
-15.616831
30
0
11
1.32737154840751
21
1.49602298527738
31
0
210
0
220
0
230
1
40
0.741658
41
0.525024408520355
42
1.79903922846757
0
ELLIPSE
5
117
100
AcDbEntity
8
1
62
256
6
ByLayer
370
18
48
1
60
0
100
AcDbEllipse
10
35.347421
20
-21.159817
30
0
11
-0.285109883678253
21
-0.740777575746575
31
0
210
0
220
0
230
1
40
0.970308
41
2.83699902482633
42
-2.83532104415525
0
ELLIPSE
5
118
100
AcDbEntity
8
1
62
256
6
ByLayer
370
18
48
1
60
0
100
AcDbEllipse
10
31.28925
20
-28.515758
30
0
11
-0.285109883678253
21
-0.740777575746575
31
0
210
0
220
0
230
1
40
0.970308
41
-0.304593628763453
42
8.18707880045728E-06
0
ELLIPSE
5
119
100
AcDbEntity
8
1
62
256
6
ByLayer
370
18
48
1
60
0
100
AcDbEllipse
10
34.272386
20
-20.746058
30
0
11
-0.285109883678253
21
-0.740777575746575
31
0
210
0
220
0
230
1
40
0.970308
41
-3.14158399193962
42
-2.83532104415525
0
ELLIPSE
5
11A
100
AcDbEntity
8
1
62
256
6
ByLayer
370
18
48
1
60
0
100
AcDbEllipse
10
32.364285
20
-28.929517
30
0
11
-0.285109883678253
21
-0.740777575746575
31
0
210
0
220
0
230
1
40
0.970308
41
-0.304593628763421
42
0.30627160943455
0
ELLIPSE
5
11B
100
AcDbEntity
8
1
62
256
6
ByLayer
370
18
48
1
60
0
100
AcDbEllipse
10
45.811421
20
-29.634251
30
0
11
-0.285109883678253
21
-0.740777575746575
31
0
210
0
220
0
230
1
40
0.970308
41
0.306271609434546
42
2.83699902482632
0
POINT
5
6C
100
AcDbEntity
8
2
62
256
6
ByLayer
370
18
48
1
60
0
100
AcDbPoint
10
46.584684
20
70.275
30
0
39
0
210
0
220
0
230
1
50
360
0
POINT
5
6E
100
AcDbEntity
8
80
62
256
6
ByLayer
370
18
48
1
60
0
100
AcDbPoint
10
0
20
0
30
0
39
0
210
0
220
0
230
1
50
360
0
POINT
5
70
100
AcDbEntity
8
81
62
256
6
ByLayer
370
18
48
1
60
0
100
AcDbPoint
10
46.584684
20
-30.425
30
0
39
0
210
0
220
0
230
1
50
360
0
SPLINE
5
11C
100
AcDbEntity
8
1
62
256
6
ByLayer
370
18
48
1
60
0
100
AcDbSpline
70
4
71
3
72
12
73
8
40
0
40
0
40
0
40
0
40
0.181094552028933
40
0.423632917611038
40
0.671833001110875
40
0.916205494473137
40
1
40
1
40
1
40
1
41
1
10
35.3557485025417
20
-26.4549862912057
30
0
41
1
10
35.4257509970985
20
-26.3579000252709
30
0
41
1
10
35.5715282886302
20
-26.1221429497757
30
0
41
1
10
35.7346729180445
20
-25.7070216002988
30
0
41
1
10
35.8316134178563
20
-25.2324559129062
30
0
41
1
10
35.8540713601128
20
-24.8501204167907
30
0
41
1
10
35.8221881734913
20
-24.6380792180628
30
0
41
1
10
35.8118124642455
20
-24.5840393282336
30
0
0
SPLINE
5
11D
100
AcDbEntity
8
1
62
256
6
ByLayer
370
18
48
1
60
0
100
AcDbSpline
70
4
71
3
72
12
73
8
40
0
40
0
40
0
40
0
40
0.188394186064553
40
0.326204074086831
40
0.437042013187806
40
0.663031947685691
40
1
40
1
40
1
40
1
41
1
10
34.9756084372689
20
-26.7625474716437
30
0
41
1
10
34.9932133816069
20
-26.7549952134019
30
0
41
1
10
35.0262996547283
20
-26.7395635242542
30
0
41
1
10
35.0656410653955
20
-26.7201064018284
30
0
41
1
10
35.1349721217665
20
-26.6813615025833
30
0
41
1
10
35.2474129909488
20
-26.6012442910694
30
0
41
1
10
35.3196427265499
20
-26.5169656520533
30
0
41
1
10
35.3593345751289
20
-26.4584867952569
30
0
0
SPLINE
5
11E
100
AcDbEntity
8
1
62
256
6
ByLayer
370
18
48
1
60
0
100
AcDbSpline
70
4
71
3
72
11
73
7
40
0
40
0
40
0
40
0
40
0.221940578734057
40
0.581612626429674
40
0.881026681053535
40
1
40
1
40
1
40
1
41
1
10
35.658296031045
20
-24.1673432932738
30
0
41
1
10
35.6354617686145
20
-24.1316282998935
30
0
41
1
10
35.5716569126561
20
-24.0327998330846
30
0
41
1
10
35.4604744122488
20
-23.8636324944662
30
0
41
1
10
35.3445689735188
20
-23.6913091252244
30
0
41
1
10
35.2662564262215
20
-23.5803607421302
30
0
41
1
10
35.2430298783474
20
-23.5476855149608
30
0
0
SPLINE
5
11F
100
AcDbEntity
8
1
62
256
6
ByLayer
370
18
48
1
60
0
100
AcDbSpline
70
4
71
2
72
6
73
3
40
0
40
0
40
0
40
1
40
1
40
1
41
1
10
35.2450170316059
20
-23.5477653450738
30
0
41
1
10
35.1192067833503
20
-23.371908922359
30
0
41
1
10
34.9891362414232
20
-23.1833744579894
30
0
0
SPLINE
5
120
100
AcDbEntity
8
1
62
256
6
ByLayer
370
18
48
1
60
0
100
AcDbSpline
70
4
71
3
72
12
73
8
40
0
40
0
40
0
40
0
40
0.0711672058613417
40
0.357448892315282
40
0.603706945811599
40
0.841367499777747
40
1
40
1
40
1
40
1
41
1
10
35.8184064205109
20
-24.5827790458489
30
0
41
1
10
35.8181171659404
20
-24.5704181145252
30
0
41
1
10
35.8148110468054
20
-24.5090639717525
30
0
41
1
10
35.7841052360607
20
-24.4099283003233
30
0
41
1
10
35.7373592171724
20
-24.2992931350283
30
0
41
1
10
35.697084910833
20
-24.227662900222
30
0
41
1
10
35.6711005501537
20
-24.1870378808495
30
0
41
1
10
35.6605458344312
20
-24.1717590010276
30
0
0
SPLINE
5
121
100
AcDbEntity
8
1
62
256
6
ByLayer
370
18
48
1
60
0
100
AcDbSpline
70
4
71
3
72
8
73
4
40
0
40
0
40
0
40
0
40
1
40
1
40
1
40
1
41
1
10
32.2739584738983
20
-20.1283265868028
30
0
41
1
10
32.3050415431365
20
-20.1420526809577
30
0
41
1
10
32.3361244076435
20
-20.1557787634238
30
0
41
1
10
32.367207066601
20
-20.1695048341544
30
0
0
SPLINE
5
122
100
AcDbEntity
8
1
62
256
6
ByLayer
370
18
48
1
60
0
100
AcDbSpline
70
4
71
3
72
14
73
10
40
0
40
0
40
0
40
0
40
0.164525200330886
40
0.164525200330886
40
0.54080498492482
40
0.54080498492482
40
0.917041398719597
40
0.917041398719597
40
1
40
1
40
1
40
1
41
1
10
16.6664010081514
20
-20.5918927511396
30
0
41
1
10
16.6614382236778
20
-20.598128350918
30
0
41
1
10
16.6562916515562
20
-20.6044417474821
30
0
41
1
10
16.6389727496301
20
-20.6251504346675
30
0
41
1
10
16.6259423087386
20
-20.6398685884404
30
0
41
1
10
16.5999151511925
20
-20.6675114253562
30
0
41
1
10
16.5866281399038
20
-20.680748492583
30
0
41
1
10
16.5712480028731
20
-20.6951655379736
30
0
41
1
10
16.5684749888147
20
-20.6977279334498
30
0
41
1
10
16.5657307185311
20
-20.7002285450565
30
0
0
SPLINE
5
123
100
AcDbEntity
8
1
62
256
6
ByLayer
370
18
48
1
60
0
100
AcDbSpline
70
4
71
3
72
12
73
8
40
0
40
0
40
0
40
0
40
0.392678099449949
40
0.392678099449949
40
0.79127933596618
40
0.79127933596618
40
1
40
1
40
1
40
1
41
1
10
17.7848484379697
20
-20.3196996590064
30
0
41
1
10
17.7651805391311
20
-20.3181208785425
30
0
41
1
10
17.7448608032111
20
-20.3154275906015
30
0
41
1
10
17.7058642283283
20
-20.307699904503
30
0
41
1
10
17.6867552055186
20
-20.302519296164
30
0
41
1
10
17.6608872306959
20
-20.2934671121224
30
0
41
1
10
17.6524116611192
20
-20.290098979977
30
0
41
1
10
17.6445096957956
20
-20.2865911355455
30
0
0
SPLINE
5
124
100
AcDbEntity
8
1
62
256
6
ByLayer
370
18
48
1
60
0
100
AcDbSpline
70
4
71
3
72
14
73
10
40
0
40
0
40
0
40
0
40
0.164525200330941
40
0.164525200330941
40
0.540804984924857
40
0.540804984924857
40
0.917041398719615
40
0.917041398719615
40
1
40
1
40
1
40
1
41
1
10
18.2068167756919
20
-22.2915884557849
30
0
41
1
10
18.2103394937024
20
-22.2847986043724
30
0
41
1
10
18.2142317259354
20
-22.2780024384705
30
0
41
1
10
18.2281883935336
20
-22.2559996972134
30
0
41
1
10
18.240075350765
20
-22.2408414403597
30
0
41
1
10
18.2667014833319
20
-22.213429136473
30
0
41
1
10
18.2817298514742
20
-22.2008622812859
30
0
41
1
10
18.3005608771088
20
-22.1877734111542
30
0
41
1
10
18.3040144629714
20
-22.1854729536123
30
0
41
1
10
18.3074870653126
20
-22.1832526618681
30
0
0
SPLINE
5
125
100
AcDbEntity
8
1
62
256
6
ByLayer
370
18
48
1
60
0
100
AcDbSpline
70
4
71
3
72
14
73
10
40
0
40
0
40
0
40
0
40
0.0829586012802368
40
0.0829586012802368
40
0.45919501507515
40
0.45919501507515
40
0.835474799669023
40
0.835474799669023
40
1
40
1
40
1
40
1
41
1
10
16.3181614621028
20
-21.7139336955947
30
0
41
1
10
16.3194769121117
20
-21.7172835780785
30
0
41
1
10
16.320787797314
20
-21.7207080630955
30
0
41
1
10
16.3279525908195
20
-21.7399298312037
30
0
41
1
10
16.3337384674742
20
-21.757407154459
30
0
41
1
10
16.3441839983293
20
-21.7935653543051
30
0
41
1
10
16.3489580101805
20
-21.8126542441203
30
0
41
1
10
16.3547102742497
20
-21.839306689489
30
0
41
1
10
16.3563372055797
20
-21.8474049288845
30
0
41
1
10
16.3578299146592
20
-21.8553780129731
30
0
0
SPLINE
5
126
100
AcDbEntity
8
1
62
256
6
ByLayer
370
18
48
1
60
0
100
AcDbSpline
70
4
71
3
72
14
73
10
40
0
40
0
40
0
40
0
40
0.0829586012801927
40
0.0829586012801927
40
0.459195015075139
40
0.459195015075139
40
0.835474799669119
40
0.835474799669119
40
1
40
1
40
1
40
1
41
1
10
18.5550563217408
20
-21.1695475113298
30
0
41
1
10
18.5530125396745
20
-21.1659173089836
30
0
41
1
10
18.5510210826678
20
-21.1622308860322
30
0
41
1
10
18.5404054005585
20
-21.1416809426652
30
0
41
1
10
18.5328781670501
20
-21.1235334073703
30
0
41
1
10
18.5218336611743
20
-21.0871446744949
30
0
41
1
10
18.5182031329832
20
-21.0684958877606
30
0
41
1
10
18.515813103242
20
-21.0431374964636
30
0
41
1
10
18.5154405118004
20
-21.0355220264059
30
0
41
1
10
18.5153878691841
20
-21.0281031939513
30
0
0
SPLINE
5
127
100
AcDbEntity
8
1
62
256
6
ByLayer
370
18
48
1
60
0
100
AcDbSpline
70
4
71
3
72
12
73
8
40
0
40
0
40
0
40
0
40
0.392678099452591
40
0.392678099452591
40
0.791279335968831
40
0.791279335968831
40
1
40
1
40
1
40
1
41
1
10
17.0883693458747
20
-22.5637815479185
30
0
41
1
10
17.1046181272802
20
-22.5640443811863
30
0
41
1
10
17.1225724621143
20
-22.5658272754403
30
0
41
1
10
17.1599116706768
20
-22.5729170757088
30
0
41
1
10
17.1797804152034
20
-22.5783900851375
30
0
41
1
10
17.20896028038
20
-22.5887169469021
30
0
41
1
10
17.2189703515297
20
-22.5926756767915
30
0
41
1
10
17.2287080880489
20
-22.5968900713794
30
0
0
SPLINE
5
128
100
AcDbEntity
8
1
62
256
6
ByLayer
370
18
48
1
60
0
100
AcDbSpline
70
4
71
3
72
8
73
4
40
0
40
0
40
0
40
0
40
1
40
1
40
1
40
1
41
1
10
19.8363550610293
20
-17.7833942052496
30
0
41
1
10
19.9274030372457
20
-16.7926640455891
30
0
41
1
10
19.8890599143803
20
-15.9866921638371
30
0
41
1
10
19.7297457536752
20
-15.5424681241327
30
0
0
SPLINE
5
129
100
AcDbEntity
8
1
62
256
6
ByLayer
370
18
48
1
60
0
100
AcDbSpline
70
4
71
3
72
8
73
4
40
0
40
0
40
0
40
0
40
1
40
1
40
1
40
1
41
1
10
34.8812326546897
20
-26.7835018748788
30
0
41
1
10
35.030746349181
20
-26.7213523450996
30
0
41
1
10
35.1504738718999
20
-26.5986291142051
30
0
41
1
10
35.2214688969647
20
-26.4496458523473
30
0
0
SPLINE
5
12A
100
AcDbEntity
8
1
62
256
6
ByLayer
370
18
48
1
60
0
100
AcDbSpline
70
4
71
3
72
8
73
4
40
0
40
0
40
0
40
0
40
1
40
1
40
1
40
1
41
1
10
29.9942190857159
20
-18.8508338364424
30
0
41
1
10
31.0665242417789
20
-19.623961149395
30
0
41
1
10
32.0675970213672
20
-20.3332283691407
30
0
41
1
10
32.9626260601563
20
-21.0286259359021
30
0
0
SPLINE
5
12B
100
AcDbEntity
8
1
62
256
6
ByLayer
370
18
48
1
60
0
100
AcDbSpline
70
4
71
3
72
8
73
4
40
0
40
0
40
0
40
0
40
1
40
1
40
1
40
1
41
1
10
8.39479672780419
20
-23.5275092311933
30
0
41
1
10
8.36987506107107
20
-23.6376750744936
30
0
41
1
10
8.34748396659751
20
-23.7487679642083
30
0
41
1
10
8.32847036685303
20
-23.857892908772
30
0
0
SPLINE
5
12C
100
AcDbEntity
8
1
62
256
6
ByLayer
370
18
48
1
60
0
100
AcDbSpline
70
4
71
3
72
8
73
4
40
0
40
0
40
0
40
0
40
1
40
1
40
1
40
1
41
1
10
10.3925487006047
20
-15.3465277165496
30
0
41
1
10
10.3945735840633
20
-15.3382365627091
30
0
41
1
10
10.396668791391
20
-15.3299646944286
30
0
41
1
10
10.3988330971536
20
-15.3217165621668
30
0
0
SPLINE
5
12D
100
AcDbEntity
8
1
62
256
6
ByLayer
370
18
48
1
60
0
100
AcDbSpline
70
4
71
3
72
12
73
8
40
0
40
0
40
0
40
0
40
0.477932094760451
40
0.477932094760451
40
0.904102435462304
40
0.904102435462304
40
1
40
1
40
1
40
1
41
1
10
13.2940051362342
20
-17.7004534183438
30
0
41
1
10
13.4767606021317
20
-17.7121111436779
30
0
41
1
10
13.665965141876
20
-17.7086109610036
30
0
41
1
10
14.013265786271
20
-17.6638498600679
30
0
41
1
10
14.1760589430501
20
-17.6258809724995
30
0
41
1
10
14.3574115356794
20
-17.5599299035843
30
0
41
1
10
14.3904511573594
20
-17.5468508592535
30
0
41
1
10
14.4226683388157
20
-17.5330159968764
30
0
0
SPLINE
5
12E
100
AcDbEntity
8
1
62
256
6
ByLayer
370
18
48
1
60
0
100
AcDbSpline
70
4
71
2
72
6
73
3
40
0
40
0
40
0
40
1
40
1
40
1
41
1
10
33.9154184013045
20
-27.255554846775
30
0
41
1
10
32.5047123630704
20
-27.8762485498854
30
0
41
1
10
31.2036483558824
20
-28.2309022741907
30
0
0
SPLINE
5
12F
100
AcDbEntity
8
1
62
256
6
ByLayer
370
18
48
1
60
0
100
AcDbSpline
70
4
71
3
72
12
73
8
40
0
40
0
40
0
40
0
40
0.107029684965502
40
0.443706054186004
40
0.612044238796255
40
0.780382423406506
40
1
40
1
40
1
40
1
41
1.03017844338059
10
21.7491641179495
20
-23.9138881235495
30
0
41
1.0302273658714
10
22.3345664796185
20
-24.0538409188386
30
0
41
1.03047050932998
10
24.9159553661669
20
-24.6526198597697
30
0
41
1.0311558410484
10
28.8419748304433
20
-25.3686086431667
30
0
41
1.03077804826571
10
30.930301529843
20
-25.612861311336
30
0
41
1.03322144497827
10
32.9487009296683
20
-25.8518518081289
30
0
41
1.03463604371051
10
34.1921845380366
20
-25.9210339214915
30
0
41
1.0353664121084
10
34.8753260412222
20
-25.9331710084941
30
0
0
SPLINE
5
130
100
AcDbEntity
8
1
62
256
6
ByLayer
370
18
48
1
60
0
100
AcDbSpline
70
4
71
3
72
13
73
9
40
0
40
0
40
0
40
0
40
0.219070772970694
40
0.219070772970694
40
0.219070772970694
40
0.652376048528384
40
0.652376048528384
40
1
40
1
40
1
40
1
41
1
10
17.1468375151987
20
-17.0688924603567
30
0
41
1
10
16.954064933454
20
-17.0234138174214
30
0
41
1
10
16.759228937972
20
-16.9933356942882
30
0
41
1
10
16.5666929341572
20
-16.9796217699443
30
0
41
1
10
16.189659979558
20
-16.9527665256675
30
0
41
1
10
15.8147241185557
20
-16.9894318084885
30
0
41
1
10
15.1809390669598
20
-17.1596049219077
30
0
41
1
10
14.9080331227202
20
-17.2736010285778
30
0
41
1
10
14.6509395468383
20
-17.419692662468
30
0
0
SPLINE
5
131
100
AcDbEntity
8
1
62
256
6
ByLayer
370
18
48
1
60
0
100
AcDbSpline
70
4
71
3
72
10
73
6
40
0
40
0
40
0
40
0
40
0.999906028841225
40
0.999906028841225
40
1
40
1
40
1
40
1
41
1
10
34.3547338868651
20
-27.0510856440687
30
0
41
1
10
34.2099441007331
20
-27.1186770993931
30
0
41
1
10
34.0635683254386
20
-27.1877942590379
30
0
41
1
10
33.9163213568238
20
-27.2577178593569
30
0
41
1
10
33.9163075198384
20
-27.2577244301697
30
0
41
1
10
33.9162936828639
20
-27.2577310009821
30
0
0
SPLINE
5
132
100
AcDbEntity
8
1
62
256
6
ByLayer
370
18
48
1
60
0
100
AcDbSpline
70
4
71
3
72
10
73
6
40
0
40
0
40
0
40
0
40
0.5
40
0.5
40
1
40
1
40
1
40
1
41
1
10
11.9969387385056
20
-12.6997045210301
30
0
41
1
10
11.6187539716707
20
-12.8155490181673
30
0
41
1
10
11.4660518965812
20
-13.0488280730874
30
0
41
1
10
11.0298247870378
20
-13.7373037227983
30
0
41
1
10
10.7190417997844
20
-14.2794113841065
30
0
41
1
10
10.4926418967445
20
-14.9964055894266
30
0
0
SPLINE
5
133
100
AcDbEntity
8
1
62
256
6
ByLayer
370
18
48
1
60
0
100
AcDbSpline
70
4
71
3
72
10
73
6
40
0
40
0
40
0
40
0
40
0.5
40
0.5
40
1
40
1
40
1
40
1
41
1
10
15.7870260212483
20
-28.2716146699511
30
0
41
1
10
17.7134556438787
20
-28.7094231995686
30
0
41
1
10
19.6454335537185
20
-29.0971046291251
30
0
41
1
10
23.5752192107553
20
-29.2777147799245
30
0
41
1
10
25.5777875048409
20
-29.2067340206299
30
0
41
1
10
27.5420132688608
20
-28.8917157399096
30
0
0
SPLINE
5
134
100
AcDbEntity
8
1
62
256
6
ByLayer
370
18
48
1
60
0
100
AcDbSpline
70
4
71
3
72
19
73
15
40
0
40
0
40
0
40
0
40
0.24905337116666
40
0.24905337116666
40
0.24905337116666
40
0.403599292981679
40
0.403599292981679
40
0.403599292981679
40
0.717848378774912
40
0.717848378774912
40
0.717848378774912
40
0.857416780703738
40
0.857416780703738
40
1
40
1
40
1
40
1
41
1
10
22.4273381722666
20
-21.1369987196345
30
0
41
1
10
22.3902169649849
20
-20.7758467135975
30
0
41
1
10
22.2917338256282
20
-20.4142727426103
30
0
41
1
10
22.146363752961
20
-20.0788151332006
30
0
41
1
10
22.0553846946081
20
-19.8688708381923
30
0
41
1
10
21.9454154600508
20
-19.6662818686204
30
0
41
1
10
21.8205175139345
20
-19.4746334544732
30
0
41
1
10
21.5686849895025
20
-19.0882115361085
30
0
41
1
10
21.2514750042786
20
-18.7393366213373
30
0
41
1
10
20.8957181327487
20
-18.445666188251
30
0
41
1
10
20.736305979222
20
-18.314074531387
30
0
41
1
10
20.5679366505462
20
-18.1924362531689
30
0
41
1
10
20.2142224554386
20
-17.97032896025
30
0
41
1
10
20.0274730481398
20
-17.8696991443703
30
0
41
1
10
19.8363550611538
20
-17.7833942038953
30
0
0
SPLINE
5
135
100
AcDbEntity
8
1
62
256
6
ByLayer
370
18
48
1
60
0
100
AcDbSpline
70
4
71
3
72
10
73
6
40
0
40
0
40
0
40
0
40
0.5
40
0.5
40
1
40
1
40
1
40
1
41
1
10
8.32847036685331
20
-23.8578929087721
30
0
41
1
10
8.20128035196149
20
-24.5878758425999
30
0
41
1
10
8.23462573323366
20
-25.1758689711234
30
0
41
1
10
8.32363279733954
20
-25.9159474372061
30
0
41
1
10
8.36059560926174
20
-26.1467167585111
30
0
41
1
10
8.6545625601355
20
-26.385507014973
30
0
0
SPLINE
5
136
100
AcDbEntity
8
1
62
256
6
ByLayer
370
18
48
1
60
0
100
AcDbSpline
70
4
71
3
72
10
73
6
40
0
40
0
40
0
40
0
40
0.484290600090133
40
0.484290600090133
40
1
40
1
40
1
40
1
41
1
10
35.6851290796544
20
-24.5713483426986
30
0
41
1
10
35.7285817482106
20
-24.5930616524332
30
0
41
1
10
35.7634979662654
20
-24.606699505478
30
0
41
1
10
35.8117933467006
20
-24.6139681133329
30
0
41
1
10
35.8240039477666
20
-24.606146947664
30
0
41
1
10
35.821656279571
20
-24.5848326511388
30
0
0
SPLINE
5
137
100
AcDbEntity
8
1
62
256
6
ByLayer
370
18
48
1
60
0
100
AcDbSpline
70
4
71
3
72
8
73
4
40
0
40
0
40
0
40
0
40
1
40
1
40
1
40
1
41
1
10
13.1094316887616
20
-23.7316010063062
30
0
41
1
10
13.0629719971915
20
-23.6631734967573
30
0
41
1
10
13.0121269901661
20
-23.59661962162
30
0
41
1
10
12.9574232360873
20
-23.5326563757573
30
0
0
SPLINE
5
138
100
AcDbEntity
8
1
62
256
6
ByLayer
370
18
48
1
60
0
100
AcDbSpline
70
4
71
3
72
15
73
11
40
0
40
0
40
0
40
0
40
0.284308369869422
40
0.284308369869422
40
0.60455231273422
40
0.60455231273422
40
0.883194505470757
40
0.883194505470757
40
0.883194505470757
40
1
40
1
40
1
40
1
41
1
10
17.9043592599239
20
-25.6942072134745
30
0
41
1
10
18.3201596741925
20
-25.7142296805763
30
0
41
1
10
18.7466373589119
20
-25.6790874782141
30
0
41
1
10
19.6152364424788
20
-25.493663544945
30
0
41
1
10
20.0657137271554
20
-25.3270536254298
30
0
41
1
10
20.8278303993491
20
-24.8907864137262
30
0
41
1
10
21.158132472454
20
-24.6313145314952
30
0
41
1
10
21.4315580526154
20
-24.3264519765279
30
0
41
1
10
21.5474891844944
20
-24.1971917184202
30
0
41
1
10
21.6542264823017
20
-24.0589134411229
30
0
41
1
10
21.7491604707103
20
-23.9138872515998
30
0
0
SPLINE
5
139
100
AcDbEntity
8
1
62
256
6
ByLayer
370
18
48
1
60
0
100
AcDbSpline
70
4
71
3
72
8
73
4
40
0
40
0
40
0
40
0
40
1
40
1
40
1
40
1
41
1
10
10.4926418967445
20
-14.9964055894266
30
0
41
1
10
10.458933388201
20
-15.103158308713
30
0
41
1
10
10.4274626845085
20
-15.2126096941856
30
0
41
1
10
10.3988330971535
20
-15.3217165621668
30
0
0
SPLINE
5
13A
100
AcDbEntity
8
1
62
256
6
ByLayer
370
18
48
1
60
0
100
AcDbSpline
70
4
71
3
72
24
73
20
40
0
40
0
40
0
40
0
40
0.0001109191202196
40
0.0001109191202196
40
0.0009920216777996
40
0.0009920216777996
40
0.0066328226136604
40
0.0066328226136604
40
0.0295221595727127
40
0.0295221595727127
40
0.121312289849454
40
0.121312289849454
40
0.308399631025072
40
0.308399631025072
40
0.557773367682943
40
0.557773367682943
40
0.796812834019372
40
0.796812834019372
40
1
40
1
40
1
40
1
41
1
10
35.1231956347784
20
-24.9192440015948
30
0
41
1
10
35.1232243686642
20
-24.919246895891
30
0
41
1
10
35.1232532500488
20
-24.9192490485818
30
0
41
1
10
35.1235081360973
20
-24.9192603517519
30
0
41
1
10
35.1237488345521
20
-24.919203002741
30
0
41
1
10
35.125432339623
20
-24.9183656467045
30
0
41
1
10
35.1267354330877
20
-24.9169466620419
30
0
41
1
10
35.1335398527478
20
-24.9110598794678
30
0
41
1
10
35.1389552907428
20
-24.9062997965553
30
0
41
1
10
35.1659956307044
20
-24.8826704393273
30
0
41
1
10
35.1872714972271
20
-24.8641149669662
30
0
41
1
10
35.2506262459326
20
-24.8092522382536
30
0
41
1
10
35.2915801847958
20
-24.774302014989
30
0
41
1
10
35.3826849009837
20
-24.6996309072733
30
0
41
1
10
35.4318356025555
20
-24.6617696660496
30
0
41
1
10
35.5208660138678
20
-24.6031273587006
30
0
41
1
10
35.5615702130314
20
-24.5812723623131
30
0
41
1
10
35.6298877111245
20
-24.5610517182892
30
0
41
1
10
35.6591285247036
20
-24.5586503963589
30
0
41
1
10
35.6851290150499
20
-24.5713214926823
30
0
0
SPLINE
5
13B
100
AcDbEntity
8
1
62
256
6
ByLayer
370
18
48
1
60
0
100
AcDbSpline
70
4
71
3
72
8
73
4
40
0
40
0
40
0
40
0
40
1
40
1
40
1
40
1
41
1
10
8.40066053459577
20
-23.5025779560273
30
0
41
1
10
8.39863565113717
20
-23.5108691098677
30
0
41
1
10
8.39668072655843
20
-23.5191810437649
30
0
41
1
10
8.39479672780374
20
-23.5275092311933
30
0
0
SPLINE
5
13C
100
AcDbEntity
8
1
62
256
6
ByLayer
370
18
48
1
60
0
100
AcDbSpline
70
4
71
2
72
6
73
3
40
0
40
0
40
0
40
1
40
1
40
1
41
0.933477290422637
10
17.904359267543
20
-25.6942071951078
30
0
41
0.923463988662008
10
17.331325804624
20
-27.0755777211827
30
0
41
1.02994816993494
10
16.8155472188212
20
-27.4750404761765
30
0
0
SPLINE
5
13D
100
AcDbEntity
8
1
62
256
6
ByLayer
370
18
48
1
60
0
100
AcDbSpline
70
4
71
3
72
12
73
8
40
0
40
0
40
0
40
0
40
0.107029883294998
40
0.443706177278306
40
0.61204432426996
40
0.780382471261614
40
1
40
1
40
1
40
1
41
1.03017844307583
10
22.4273381725632
20
-21.1369987197032
30
0
41
1.03022736562783
10
23.013768638062
20
-21.2727464211757
30
0
41
1.03047050908112
10
25.5923271531613
20
-21.8831197829725
30
0
41
1.0311558410484
10
29.4355300433571
20
-22.938218112661
30
0
41
1.03077804826571
10
31.423484968647
20
-23.5934563202411
30
0
41
1.03322144498364
10
33.3480321880836
20
-24.2167370339602
30
0
41
1.03463604371943
10
34.5006964505786
20
-24.6577910164176
30
0
41
1.0353664121206
10
35.1230090076576
20
-24.9190003041733
30
0
0
SPLINE
5
13E
100
AcDbEntity
8
1
62
256
6
ByLayer
370
18
48
1
60
0
100
AcDbSpline
70
4
71
1
72
4
73
2
40
0
40
0
40
1
40
1
41
1
10
19.7297457536752
20
-15.5424681241327
30
0
41
1
10
19.2336176664058
20
-14.1590881272621
30
0
0
SPLINE
5
13F
100
AcDbEntity
8
1
62
256
6
ByLayer
370
18
48
1
60
0
100
AcDbSpline
70
4
71
3
72
28
73
24
40
0
40
0
40
0
40
0
40
4.20487346493E-05
40
4.20487346493E-05
40
0.291419858702293
40
0.291419858702293
40
0.530976069930355
40
0.530976069930355
40
0.74906858416698
40
0.74906858416698
40
0.902838768278997
40
0.902838768278997
40
0.97652626523069
40
0.97652626523069
40
0.994762911886536
40
0.994762911886536
40
0.999138329414544
40
0.999138329414544
40
0.999456644382169
40
0.999456644382169
40
0.999704151355574
40
0.999704151355574
40
1
40
1
40
1
40
1
41
1
10
35.5404961392944
20
-24.1064760139756
30
0
41
1
10
35.5405007300184
20
-24.1064848990898
30
0
41
1
10
35.5405053199406
20
-24.1064937846182
30
0
41
1
10
35.5629728906484
20
-24.1499982715102
30
0
41
1
10
35.5566405236355
20
-24.2074026452276
30
0
41
1
10
35.5134681960123
20
-24.3297099059207
30
0
41
1
10
35.4817661827042
20
-24.3930345083754
30
0
41
1
10
35.4057323048866
20
-24.5246894302769
30
0
41
1
10
35.3622456465375
20
-24.5928596588274
30
0
41
1
10
35.278989204979
20
-24.7142028572759
30
0
41
1
10
35.2416342944619
20
-24.7662166373864
30
0
41
1
10
35.1828004365252
20
-24.8442860826654
30
0
41
1
10
35.1631336137434
20
-24.8698221649465
30
0
41
1
10
35.1379083683091
20
-24.901777292469
30
0
41
1
10
35.1328801282204
20
-24.9081451088561
30
0
41
1
10
35.1265568294164
20
-24.9159687639986
30
0
41
1
10
35.1254427035986
20
-24.9178488765053
30
0
41
1
10
35.1238789781495
20
-24.9188676464088
30
0
41
1
10
35.1237625381083
20
-24.9189210307938
30
0
41
1
10
35.1235606616443
20
-24.9189491451867
30
0
41
1
10
35.1234728256164
20
-24.9189389392069
30
0
41
1
10
35.1232925775324
20
-24.9188828337651
30
0
41
1
10
35.1232002010215
20
-24.9188316841162
30
0
41
1
10
35.1231123019671
20
-24.9187729489858
30
0
0
SPLINE
5
140
100
AcDbEntity
8
1
62
256
6
ByLayer
370
18
48
1
60
0
100
AcDbSpline
70
4
71
3
72
14
73
10
40
0
40
0
40
0
40
0
40
0.256006012600457
40
0.256006012600457
40
0.256006012600457
40
0.737523565432091
40
0.737523565432091
40
0.737523565432091
40
1
40
1
40
1
40
1
41
1
10
21.7491604707103
20
-23.9138872515998
30
0
41
1
10
21.8856452401637
20
-23.7053710683026
30
0
41
1
10
22.0043818328491
20
-23.4836506170549
30
0
41
1
10
22.1026062251772
20
-23.2541655040519
30
0
41
1
10
22.285479000679
20
-22.8269133871735
30
0
41
1
10
22.3998379157647
20
-22.363054782035
30
0
41
1
10
22.4362205299598
20
-21.9010049086148
30
0
41
1
10
22.4562520443458
20
-21.6466098110876
30
0
41
1
10
22.4533112330397
20
-21.3897671217779
30
0
41
1
10
22.4273381722666
20
-21.1369987196345
30
0
0
SPLINE
5
141
100
AcDbEntity
8
1
62
256
6
ByLayer
370
18
48
1
60
0
100
AcDbSpline
70
4
71
3
72
10
73
6
40
0
40
0
40
0
40
0
40
0.49388023020484
40
0.49388023020484
40
1
40
1
40
1
40
1
41
1
10
34.9499798593101
20
-26.7742672341342
30
0
41
1
10
34.8727091365257
20
-26.8097176440569
30
0
41
1
10
34.7893503836541
20
-26.8481957366531
30
0
41
1
10
34.5984380290101
20
-26.9370252279628
30
0
41
1
10
34.4901824098174
20
-26.9878549215677
30
0
41
1
10
34.3547338868651
20
-27.0510856440687
30
0
0
SPLINE
5
142
100
AcDbEntity
8
1
62
256
6
ByLayer
370
18
48
1
60
0
100
AcDbSpline
70
4
71
2
72
6
73
3
40
0
40
0
40
0
40
1
40
1
40
1
41
1
10
32.9625770276174
20
-21.0287239738292
30
0
41
1
10
33.9582579091525
20
-21.9254366613762
30
0
41
1
10
34.9284293733925
20
-23.1076100138324
30
0
0
SPLINE
5
143
100
AcDbEntity
8
1
62
256
6
ByLayer
370
18
48
1
60
0
100
AcDbSpline
70
4
71
3
72
10
73
6
40
0
40
0
40
0
40
0
40
0.580414582153071
40
0.580414582153071
40
1
40
1
40
1
40
1
41
1
10
12.0312935374971
20
-22.8707935072024
30
0
41
1
10
11.9039639112907
20
-22.8131277633978
30
0
41
1
10
11.7739002903828
20
-22.7629386334592
30
0
41
1
10
11.5481594249665
20
-22.6884781300874
30
0
41
1
10
11.4525037168919
20
-22.6607739461199
30
0
41
1
10
11.3569832604767
20
-22.6364764859345
30
0
0
SPLINE
5
144
100
AcDbEntity
8
1
62
256
6
ByLayer
370
18
48
1
60
0
100
AcDbSpline
70
4
71
3
72
12
73
8
40
0
40
0
40
0
40
0
40
0.401843340305641
40
0.401843340305641
40
0.816060128109931
40
0.816060128109931
40
1
40
1
40
1
40
1
41
1
10
12.9574232360873
20
-23.5326563757572
30
0
41
1
10
12.8647443435409
20
-23.4242900873724
30
0
41
1
10
12.7525370880122
20
-23.3191234905301
30
0
41
1
10
12.5047253770359
20
-23.1281134519432
30
0
41
1
10
12.3659515530881
20
-23.0406490981643
30
0
41
1
10
12.1606322845033
20
-22.9316872663714
30
0
41
1
10
12.0961548498619
20
-22.9001682562934
30
0
41
1
10
12.0312935374969
20
-22.8707935072023
30
0
0
SPLINE
5
145
100
AcDbEntity
8
1
62
256
6
ByLayer
370
18
48
1
60
0
100
AcDbSpline
70
4
71
3
72
10
73
6
40
0
40
0
40
0
40
0
40
9.39711588055E-05
40
9.39711588055E-05
40
1
40
1
40
1
40
1
41
1
10
34.9302258351485
20
-23.1060513465845
30
0
41
1
10
34.9302348964785
20
-23.1060643302947
30
0
41
1
10
34.9302439578106
20
-23.106077314015
30
0
41
1
10
35.0266706220082
20
-23.2442441892041
30
0
41
1
10
35.1226750215725
20
-23.3813793070283
30
0
41
1
10
35.2179388234071
20
-23.5165785618492
30
0
0
SPLINE
5
146
100
AcDbEntity
8
1
62
256
6
ByLayer
370
18
48
1
60
0
100
AcDbSpline
70
4
71
3
72
8
73
4
40
0
40
0
40
0
40
0
40
1
40
1
40
1
40
1
41
1
10
10.2610383973564
20
-12.266960288607
30
0
41
1
10
10.1556805490223
20
-12.2769801999951
30
0
41
1
10
10.0497903243569
20
-12.2914787461587
30
0
41
1
10
9.94413816090253
20
-12.3109770349449
30
0
0
SPLINE
5
147
100
AcDbEntity
8
1
62
256
6
ByLayer
370
18
48
1
60
0
100
AcDbSpline
70
4
71
3
72
10
73
6
40
0
40
0
40
0
40
0
40
0.442755771265211
40
0.442755771265211
40
1
40
1
40
1
40
1
41
1
10
35.3678567582269
20
-26.4508111589577
30
0
41
1
10
35.3722408095982
20
-26.4438141573206
30
0
41
1
10
35.3640521368734
20
-26.4403689708789
30
0
41
1
10
35.3200907057123
20
-26.4390263097404
30
0
41
1
10
35.277452269295
20
-26.442625616476
30
0
41
1
10
35.2214689128996
20
-26.4496458626635
30
0
0
SPLINE
5
148
100
AcDbEntity
8
1
62
256
6
ByLayer
370
18
48
1
60
0
100
AcDbSpline
70
4
71
3
72
14
73
10
40
0
40
0
40
0
40
0
40
7.77085242593E-05
40
7.77085242593E-05
40
0.3526431550462
40
0.3526431550462
40
0.705732119373788
40
0.705732119373788
40
1
40
1
40
1
40
1
41
1
10
34.8812416474177
20
-26.7835252772734
30
0
41
1
10
34.8812511379579
20
-26.7835221229674
30
0
41
1
10
34.8812606283474
20
-26.7835189682077
30
0
41
1
10
34.9239685640558
20
-26.7693233368975
30
0
41
1
10
34.958909499306
20
-26.7578491418894
30
0
41
1
10
35.0028485923677
20
-26.7445953007338
30
0
41
1
10
35.0121282605703
20
-26.7427507384833
30
0
41
1
10
34.9982363633929
20
-26.751652554957
30
0
41
1
10
34.9798785829801
20
-26.7605502405294
30
0
41
1
10
34.9499798593101
20
-26.7742672341342
30
0
0
SPLINE
5
149
100
AcDbEntity
8
1
62
256
6
ByLayer
370
18
48
1
60
0
100
AcDbSpline
70
4
71
3
72
8
73
4
40
0
40
0
40
0
40
0
40
1
40
1
40
1
40
1
41
1
10
14.4226683388156
20
-17.5330159968764
30
0
41
1
10
14.5012327886292
20
-17.4992784598924
30
0
41
1
10
14.5775889222908
20
-17.4613736439949
30
0
41
1
10
14.6509395468384
20
-17.419692662468
30
0
0
SPLINE
5
14A
100
AcDbEntity
8
1
62
256
6
ByLayer
370
18
48
1
60
0
100
AcDbSpline
70
4
71
3
72
12
73
8
40
0
40
0
40
0
40
0
40
0.264973649149777
40
0.529947298299554
40
0.662434122874443
40
0.794920947449331
40
1
40
1
40
1
40
1
41
1.02994816993494
10
16.8155472188212
20
-27.4750404761765
30
0
41
1.03004363841634
10
17.8478208012004
20
-27.6993079893682
30
0
41
1.03021336426305
10
21.6372888048893
20
-28.5294494285983
30
0
41
1.0311558410484
10
27.5407197140491
20
-28.3697108407352
30
0
41
1.03077804826571
10
29.8430505745254
20
-28.019908523626
30
0
41
1.03340133735628
10
32.3622741000052
20
-27.611417337182
30
0
41
1.0349314968617
10
33.9432786492301
20
-27.1332968394141
30
0
41
1.03576782913895
10
34.8842469418571
20
-26.7824048220604
30
0
0
SPLINE
5
14B
100
AcDbEntity
8
1
62
256
6
ByLayer
370
18
48
1
60
0
100
AcDbSpline
70
4
71
3
72
8
73
4
40
0
40
0
40
0
40
0
40
1
40
1
40
1
40
1
41
1
10
12.0312935375011
20
-22.8707935071938
30
0
41
1
10
10.6502325225649
20
-23.2291828379707
30
0
41
1
10
9.33146216530213
20
-23.4927671541572
30
0
41
1
10
8.39479672780419
20
-23.5275092311933
30
0
0
SPLINE
5
14C
100
AcDbEntity
8
1
62
256
6
ByLayer
370
18
48
1
60
0
100
AcDbSpline
70
4
71
3
72
8
73
4
40
0
40
0
40
0
40
0
40
1
40
1
40
1
40
1
41
1
10
19.8363550611538
20
-17.7833942038953
30
0
41
1
10
19.5938299469592
20
-17.6737480774861
30
0
41
1
10
19.3412053210199
20
-17.586584701682
30
0
41
1
10
19.0877165047705
20
-17.5267819680259
30
0
0
SPLINE
5
14D
100
AcDbEntity
8
1
62
256
6
ByLayer
370
18
48
1
60
0
100
AcDbSpline
70
4
71
3
72
28
73
24
40
0
40
0
40
0
40
0
40
4.58207680505E-05
40
4.58207680505E-05
40
0.0262692706624965
40
0.0262692706624965
40
0.213495002074608
40
0.213495002074608
40
0.35657819135042
40
0.35657819135042
40
0.396506692896391
40
0.396506692896391
40
0.500669174647838
40
0.500669174647838
40
0.65060433930307
40
0.65060433930307
40
0.80224638746861
40
0.80224638746861
40
0.967086003134651
40
0.967086003134651
40
0.999954179232115
40
0.999954179232115
40
1
40
1
40
1
40
1
41
1
10
35.1230089972269
20
-24.9190002997951
30
0
41
1
10
35.1230183433383
20
-24.9190124974119
30
0
41
1
10
35.1230276898208
20
-24.9190246944859
30
0
41
1
10
35.1283856286597
20
-24.9260179535663
30
0
41
1
10
35.1336062342426
20
-24.9331762092177
30
0
41
1
10
35.1745305867315
20
-24.9922096354059
30
0
41
1
10
35.2040050229527
20
-25.0536441377875
30
0
41
1
10
35.2374576730278
20
-25.1742938195881
30
0
41
1
10
35.2460235656554
20
-25.2318755430352
30
0
41
1
10
35.2471563786874
20
-25.307891410971
30
0
41
1
10
35.246806968428
20
-25.3248298572713
30
0
41
1
10
35.2433384162022
20
-25.3859208634686
30
0
41
1
10
35.2365813658371
20
-25.4310855711921
30
0
41
1
10
35.2103240216366
20
-25.5376400575459
30
0
41
1
10
35.1860182380884
20
-25.5993998417318
30
0
41
1
10
35.12528355457
20
-25.7100586483474
30
0
41
1
10
35.0879429251152
20
-25.7605090255052
30
0
41
1
10
35.0036728164171
20
-25.8491690286575
30
0
41
1
10
34.9551662321231
20
-25.887204199941
30
0
41
1
10
34.8955445010327
20
-25.9223652646276
30
0
41
1
10
34.8854820273434
20
-25.9279233649505
30
0
41
1
10
34.8753542508185
20
-25.9331564345561
30
0
41
1
10
34.8753401459788
20
-25.9331637212069
30
0
41
1
10
34.8753260412221
20
-25.9331710084941
30
0
0
SPLINE
5
14E
100
AcDbEntity
8
1
62
256
6
ByLayer
370
18
48
1
60
0
100
AcDbSpline
70
4
71
3
72
8
73
4
40
0
40
0
40
0
40
0
40
1
40
1
40
1
40
1
41
1
10
14.4226683388165
20
-17.5330159968782
30
0
41
1
10
13.8015150060448
20
-15.9847508659667
30
0
41
1
10
13.09324849684
20
-14.558541431821
30
0
41
1
10
12.4661957447712
20
-13.8288613741097
30
0
0
SPLINE
5
14F
100
AcDbEntity
8
1
62
256
6
ByLayer
370
18
48
1
60
0
100
AcDbSpline
70
4
71
3
72
8
73
4
40
0
40
0
40
0
40
0
40
1
40
1
40
1
40
1
41
1
10
6.97467225111222
20
-25.7317514686173
30
0
41
1
10
6.88577822473707
20
-25.6715514506379
30
0
41
1
10
6.79844787732827
20
-25.6072533435555
30
0
41
1
10
6.7136214340635
20
-25.538756170942
30
0
0
SPLINE
5
150
100
AcDbEntity
8
1
62
256
6
ByLayer
370
18
48
1
60
0
100
AcDbSpline
70
4
71
3
72
8
73
4
40
0
40
0
40
0
40
0
40
1
40
1
40
1
40
1
41
1
10
10.3988330971535
20
-15.3217165621668
30
0
41
1
10
11.1942962567644
20
-15.8499422623473
30
0
41
1
10
12.2396665092383
20
-16.7360837478947
30
0
41
1
10
13.2940051362339
20
-17.7004534183495
30
0
0
SPLINE
5
151
100
AcDbEntity
8
1
62
256
6
ByLayer
370
18
48
1
60
0
100
AcDbSpline
70
4
71
3
72
14
73
10
40
0
40
0
40
0
40
0
40
0.33204380555436
40
0.33204380555436
40
0.667540490321297
40
0.667540490321297
40
0.999921783367898
40
0.999921783367898
40
1
40
1
40
1
40
1
41
1
10
35.6040314116141
20
-24.0961664196065
30
0
41
1
10
35.6256087078376
20
-24.1300123096756
30
0
41
1
10
35.6368439689774
20
-24.1522449799483
30
0
41
1
10
35.6381828301908
20
-24.1722082630483
30
0
41
1
10
35.6282528249163
20
-24.1702241287505
30
0
41
1
10
35.5926638381691
20
-24.1480002997525
30
0
41
1
10
35.56688880534
20
-24.1278228575928
30
0
41
1
10
35.5361524722526
20
-24.1019785050259
30
0
41
1
10
35.5361448178183
20
-24.10197206844
30
0
41
1
10
35.5361371630728
20
-24.1019656322244
30
0
0
SPLINE
5
152
100
AcDbEntity
8
1
62
256
6
ByLayer
370
18
48
1
60
0
100
AcDbSpline
70
4
71
2
72
6
73
3
40
0
40
0
40
0
40
1
40
1
40
1
41
1.02994816993494
10
16.8155472188212
20
-27.4750404761765
30
0
41
1.02994816993494
10
16.3012866200348
20
-27.8733275730638
30
0
41
1.02994816993494
10
15.7870260212483
20
-28.2716146699511
30
0
0
SPLINE
5
153
100
AcDbEntity
8
1
62
256
6
ByLayer
370
18
48
1
60
0
100
AcDbSpline
70
4
71
3
72
10
73
6
40
0
40
0
40
0
40
0
40
0.580414582160065
40
0.580414582160065
40
1
40
1
40
1
40
1
41
1
10
13.2940051362438
20
-17.7004534183385
30
0
41
1
10
13.1547614794251
20
-17.6915712527755
30
0
41
1
10
13.0166213718172
20
-17.6744523686337
30
0
41
1
10
12.7828295243633
20
-17.6329576788372
30
0
41
1
10
12.6855773434688
20
-17.6117904645386
30
0
41
1
10
12.5900568870536
20
-17.5874930043531
30
0
0
SPLINE
5
154
100
AcDbEntity
8
1
62
256
6
ByLayer
370
18
48
1
60
0
100
AcDbSpline
70
4
71
3
72
10
73
6
40
0
40
0
40
0
40
0
40
0.5
40
0.5
40
1
40
1
40
1
40
1
41
1
10
29.9942190857159
20
-18.8508338364424
30
0
41
1
10
28.396041503426
20
-17.6985548113622
30
0
41
1
10
26.6565462294756
20
-16.7464690138353
30
0
41
1
10
23.0567349258486
20
-15.1456131797258
30
0
41
1
10
21.1477613796786
20
-14.6273025387672
30
0
41
1
10
19.2336176664058
20
-14.1590881272621
30
0
0
SPLINE
5
155
100
AcDbEntity
8
1
62
256
6
ByLayer
370
18
48
1
60
0
100
AcDbSpline
70
4
71
3
72
12
73
8
40
0
40
0
40
0
40
0
40
0.264973649150345
40
0.52994729830069
40
0.662434122875862
40
0.794920947451034
40
1
40
1
40
1
40
1
41
1.02994816993494
10
19.7297457536752
20
-15.5424681241326
30
0
41
1.03004363841634
10
20.7525400479623
20
-15.8055498395848
30
0
41
1.03021336426305
10
24.5064490620932
20
-16.7812922771438
30
0
41
1.0311558410484
10
29.6987355657008
20
-19.5334287621804
30
0
41
1.03077804826571
10
31.5973986971209
20
-20.8364974920711
30
0
41
1.03340133735626
10
33.6597946957506
20
-22.298547193794
30
0
41
1.03493149686168
10
34.8556374207401
20
-23.3975228617666
30
0
41
1.03576782913892
10
35.5383182662321
20
-24.10422304811
30
0
0
SPLINE
5
156
100
AcDbEntity
8
1
62
256
6
ByLayer
370
18
48
1
60
0
100
AcDbSpline
70
4
71
3
72
8
73
4
40
0
40
0
40
0
40
0
40
1
40
1
40
1
40
1
41
1
10
31.2036469688878
20
-28.230999082853
30
0
41
1
10
30.0777295243693
20
-28.4810047114257
30
0
41
1
10
28.8545421394429
20
-28.6812151977721
30
0
41
1
10
27.5420132688608
20
-28.8917157399096
30
0
0
SPLINE
5
157
100
AcDbEntity
8
1
62
256
6
ByLayer
370
18
48
1
60
0
100
AcDbSpline
70
4
71
3
72
8
73
4
40
0
40
0
40
0
40
0
40
1
40
1
40
1
40
1
41
1
10
9.5519972099172
20
-25.7614337261536
30
0
41
1
10
10.4210017079573
20
-25.4904743277991
30
0
41
1
10
11.6989671791502
20
-24.6021542679163
30
0
41
1
10
12.9574232360873
20
-23.5326563757572
30
0
0
SPLINE
5
158
100
AcDbEntity
8
1
62
256
6
ByLayer
370
18
48
1
60
0
100
AcDbSpline
70
4
71
3
72
8
73
4
40
0
40
0
40
0
40
0
40
1
40
1
40
1
40
1
41
1
10
17.9043592599239
20
-25.6942072134745
30
0
41
1
10
17.6381117210868
20
-25.6816957005885
30
0
41
1
10
17.3730301093682
20
-25.6455391049754
30
0
41
1
10
17.1195412931188
20
-25.5857363713193
30
0
0
SPLINE
5
159
100
AcDbEntity
8
1
62
256
6
ByLayer
370
18
48
1
60
0
100
AcDbSpline
70
4
71
3
72
24
73
20
40
0
40
0
40
0
40
0
40
0.193947210779305
40
0.193947210779305
40
0.435758612862315
40
0.435758612862315
40
0.688024122938569
40
0.688024122938569
40
0.877280955594912
40
0.877280955594912
40
0.970135497295909
40
0.970135497295909
40
0.99329026227033
40
0.99329026227033
40
0.998996474733285
40
0.998996474733285
40
0.99988779466398
40
0.99988779466398
40
1
40
1
40
1
40
1
41
1
10
35.2215693312489
20
-26.4494594474612
30
0
41
1
10
35.1938156506707
20
-26.4510094925853
30
0
41
1
10
35.1693658563479
20
-26.4401384589708
30
0
41
1
10
35.1172322764555
20
-26.4006729672327
30
0
41
1
10
35.0900399345135
20
-26.3672018724217
30
0
41
1
10
35.0358878071133
20
-26.2830304210881
30
0
41
1
10
35.008683619934
20
-26.2310287488068
30
0
41
1
10
34.9606034935055
20
-26.12952996827
30
0
41
1
10
34.9397110892249
20
-26.0823355778338
30
0
41
1
10
34.9078763780972
20
-26.0081353328326
30
0
41
1
10
34.8972646361724
20
-25.9830251328723
30
0
41
1
10
34.8838216168966
20
-25.9509784574276
30
0
41
1
10
34.8811433393613
20
-25.9445308738558
30
0
41
1
10
34.8777357147077
20
-25.9365090288707
30
0
41
1
10
34.8772187048017
20
-25.9347092901332
30
0
41
1
10
34.8760880871056
20
-25.9332827755033
30
0
41
1
10
34.8758974562785
20
-25.9331351159963
30
0
41
1
10
34.8756621176577
20
-25.9330437733271
30
0
41
1
10
34.8756350460704
20
-25.9330342102068
30
0
41
1
10
34.8756077630227
20
-25.9330253752811
30
0
0
SPLINE
5
15A
100
AcDbEntity
8
1
62
256
6
ByLayer
370
18
48
1
60
0
100
AcDbSpline
70
4
71
3
72
28
73
24
40
0
40
0
40
0
40
0
40
0.0002961516837842
40
0.0002961516837842
40
0.0005569094113069
40
0.0005569094113069
40
0.0008621321651756
40
0.0008621321651756
40
0.0052375575514442
40
0.0052375575514442
40
0.0234742370158967
40
0.0234742370158967
40
0.0971618664998742
40
0.0971618664998742
40
0.250932327198307
40
0.250932327198307
40
0.469025233730397
40
0.469025233730397
40
0.708581875861821
40
0.708581875861821
40
0.999960209932551
40
0.999960209932551
40
1
40
1
40
1
40
1
41
1
10
34.8753136405924
20
-25.9334173860219
30
0
41
1
10
34.8754202836726
20
-25.9333993844414
30
0
41
1
10
34.87552744371
20
-25.9333900161299
30
0
41
1
10
34.8757206144601
20
-25.933411671836
30
0
41
1
10
34.8758089054004
20
-25.9334398341719
30
0
41
1
10
34.8759760370278
20
-25.9335502842234
30
0
41
1
10
34.8760523441938
20
-25.9336416216495
30
0
41
1
10
34.8769879364753
20
-25.9351798681141
30
0
41
1
10
34.8771201118318
20
-25.9373204820344
30
0
41
1
10
34.8791936087176
20
-25.9468982043518
30
0
41
1
10
34.8807757615292
20
-25.9546408493146
30
0
41
1
10
34.888715567681
20
-25.993463245151
30
0
41
1
10
34.8946397762217
20
-26.0241981192679
30
0
41
1
10
34.9116563128209
20
-26.1173552415754
30
0
41
1
10
34.9214310427689
20
-26.1782721682021
30
0
41
1
10
34.9409799764164
20
-26.3177878091288
30
0
41
1
10
34.9492160227909
20
-26.3939558858839
30
0
41
1
10
34.9584626082646
20
-26.5357703891277
30
0
41
1
10
34.9588369779381
20
-26.6007209778849
30
0
41
1
10
34.9441144861839
20
-26.7154717325457
30
0
41
1
10
34.9252840171383
20
-26.7610999278772
30
0
41
1
10
34.8872643699351
20
-26.7812773837321
30
0
41
1
10
34.8872555354308
20
-26.7812820711123
30
0
41
1
10
34.8872467004586
20
-26.7812867576107
30
0
0
SPLINE
5
15B
100
AcDbEntity
8
1
62
256
6
ByLayer
370
18
48
1
60
0
100
AcDbSpline
70
4
71
3
72
8
73
4
40
0
40
0
40
0
40
0
40
1
40
1
40
1
40
1
41
1
10
35.5408829197495
20
-24.1068131254894
30
0
41
1
10
35.6402361368426
20
-24.2330209461257
30
0
41
1
10
35.6917899519761
20
-24.399577685413
30
0
41
1
10
35.6845750741525
20
-24.5710444658187
30
0
0
SPLINE
5
15C
100
AcDbEntity
8
1
62
256
6
ByLayer
370
18
48
1
60
0
100
AcDbSpline
70
4
71
3
72
13
73
9
40
0
40
0
40
0
40
0
40
0.476351510225596
40
0.476351510225596
40
0.476351510225596
40
0.68754327783522
40
0.68754327783522
40
1
40
1
40
1
40
1
41
1
10
13.1094316887616
20
-23.7316010063061
30
0
41
1
10
13.3312993566399
20
-24.0583757103406
30
0
41
1
10
13.608526903387
20
-24.3456543230203
30
0
41
1
10
13.933000498863
20
-24.5756089115972
30
0
41
1
10
14.0783708549723
20
-24.6786329508302
30
0
41
1
10
14.2343341316464
20
-24.7711689371251
30
0
41
1
10
14.6409401621617
20
-24.9699888227677
30
0
41
1
10
14.9048322344497
20
-25.0632452495372
30
0
41
1
10
15.1786623035471
20
-25.1278468636501
30
0
0
SPLINE
5
15D
100
AcDbEntity
8
1
62
256
6
ByLayer
370
18
48
1
60
0
100
AcDbSpline
70
4
71
3
72
10
73
6
40
0
40
0
40
0
40
0
40
0.794724528922942
40
0.794724528922942
40
1
40
1
40
1
40
1
41
1
10
35.2179388234071
20
-23.5165785618492
30
0
41
1
10
35.3576627091592
20
-23.714875972519
30
0
41
1
10
35.4539831604837
20
-23.8631842649858
30
0
41
1
10
35.5619562560351
20
-24.0303658273741
30
0
41
1
10
35.5833601557994
20
-24.06374173374
30
0
41
1
10
35.6040314116141
20
-24.0961664196064
30
0
0
INSERT
5
170
100
AcDbEntity
8
SK2
62
256
6
ByLayer
370
25
48
1
60
0
100
AcDbBlockReference
2
DimnDraft3D11
10
0
20
0
30
0
41
1
42
1
43
1
50
0
210
0
220
0
230
1
0
LINE
5
72
100
AcDbEntity
8
1
62
256
6
ByLayer
370
18
48
1
60
0
100
AcDbLine
10
18.677723
20
-17.633383
30
0
11
18.128477
21
-17.421989
31
0
39
0
210
0
220
0
230
1
0
LINE
5
74
100
AcDbEntity
8
1
62
256
6
ByLayer
370
18
48
1
60
0
100
AcDbLine
10
17.153361
20
-20.097997
30
0
11
17.659873
21
-20.292943
31
0
39
0
210
0
220
0
230
1
0
LINE
5
75
100
AcDbEntity
8
1
62
256
6
ByLayer
370
18
48
1
60
0
100
AcDbLine
10
17.210588
20
-22.589477
30
0
11
16.704076
21
-22.394531
31
0
39
0
210
0
220
0
230
1
0
LINE
5
76
100
AcDbEntity
8
1
62
256
6
ByLayer
370
18
48
1
60
0
100
AcDbLine
10
8.216907
20
-26.323352
30
0
11
9.121775
21
-26.625859
31
0
39
0
210
0
220
0
230
1
0
LINE
5
77
100
AcDbEntity
8
1
62
256
6
ByLayer
370
18
48
1
60
0
100
AcDbLine
10
11.658666
20
-22.724962
30
0
11
10.863383
21
-22.459092
31
0
39
0
210
0
220
0
230
1
0
LINE
5
78
100
AcDbEntity
8
1
62
256
6
ByLayer
370
18
48
1
60
0
100
AcDbLine
10
35.632531
20
-20.41904
30
0
11
34.557496
21
-20.005281
31
0
39
0
210
0
220
0
230
1
0
LINE
5
79
100
AcDbEntity
8
1
62
256
6
ByLayer
370
18
48
1
60
0
100
AcDbLine
10
31.00414
20
-29.256536
30
0
11
32.079176
21
-29.670294
31
0
39
0
210
0
220
0
230
1
0
LINE
5
7A
100
AcDbEntity
8
1
62
256
6
ByLayer
370
18
48
1
60
0
100
AcDbLine
10
15.254928
20
-24.888094
30
0
11
15.804175
21
-25.099487
31
0
39
0
210
0
220
0
230
1
0
LINE
5
7B
100
AcDbEntity
8
80
62
256
6
ByLayer
370
18
48
1
60
0
100
AcDbLine
10
0
20
0
30
0
11
-5
21
0
31
0
39
0
210
0
220
0
230
1
0
LINE
5
7C
100
AcDbEntity
8
81
62
256
6
ByLayer
370
18
48
1
60
0
100
AcDbLine
10
46.584684
20
-30.425
30
0
11
56.584684
21
-30.425
31
0
39
0
210
0
220
0
230
1
0
LINE
5
7D
100
AcDbEntity
8
SK1
62
256
6
ByLayer
370
18
48
1
60
0
100
AcDbLine
10
-13.98265
20
19.925
30
0
11
0
21
8.994817
31
0
39
0
210
0
220
0
230
1
0
LINE
5
7F
100
AcDbEntity
8
SK1
62
256
6
ByLayer
370
18
48
1
60
0
100
AcDbLine
10
-204.765316
20
19.925
30
0
11
-13.98265
21
19.925
31
0
39
0
210
0
220
0
230
1
0
LINE
5
80
100
AcDbEntity
8
SK1
62
256
6
ByLayer
370
18
48
1
60
0
100
AcDbLine
10
0
20
-19.925
30
0
11
0
21
8.994817
31
0
39
0
210
0
220
0
230
1
0
LINE
5
81
100
AcDbEntity
8
SK1
62
256
6
ByLayer
370
18
48
1
60
0
100
AcDbLine
10
0
20
-19.925
30
0
11
-204.765316
21
-19.925
31
0
39
0
210
0
220
0
230
1
0
LINE
5
82
100
AcDbEntity
8
SK1
62
256
6
ByLayer
370
18
48
1
60
0
100
AcDbLine
10
-204.765316
20
-19.925
30
0
11
-204.765316
21
19.925
31
0
39
0
210
0
220
0
230
1
0
LINE
5
83
100
AcDbEntity
8
1
62
256
6
ByLayer
370
18
48
1
60
0
100
AcDbLine
10
0.5
20
-20.425
30
0
11
0.5
21
8.650126
31
0
39
0
210
0
220
0
230
1
0
LINE
5
84
100
AcDbEntity
8
1
62
256
6
ByLayer
370
18
48
1
60
0
100
AcDbLine
10
0.5
20
8.650126
30
0
11
0
21
8.994817
31
0
39
0
210
0
220
0
230
1
0
LINE
5
85
100
AcDbEntity
8
1
62
256
6
ByLayer
370
18
48
1
60
0
100
AcDbLine
10
27.886383
20
-29.448773
30
0
11
23.191011
21
-29.202699
31
0
39
0
210
0
220
0
230
1
0
LINE
5
86
100
AcDbEntity
8
1
62
256
6
ByLayer
370
18
48
1
60
0
100
AcDbLine
10
19.883484
20
-29.029359
30
0
11
9.877048
21
-28.504944
31
0
39
0
210
0
220
0
230
1
0
LINE
5
87
100
AcDbEntity
8
1
62
256
6
ByLayer
370
18
48
1
60
0
100
AcDbLine
10
12.097214
20
0.179638
30
0
11
8.913183
21
-12.857799
31
0
39
0
210
0
220
0
230
1
0
LINE
5
88
100
AcDbEntity
8
1
62
256
6
ByLayer
370
18
48
1
60
0
100
AcDbLine
10
6.047545
20
-24.591536
30
0
11
5.224665
21
-27.960929
31
0
39
0
210
0
220
0
230
1
0
LINE
5
89
100
AcDbEntity
8
1
62
256
6
ByLayer
370
18
48
1
60
0
100
AcDbLine
10
34.204759
20
-20.146616
30
0
11
34.221883
21
-19.91547
31
0
39
0
210
0
220
0
230
1
0
LINE
5
8A
100
AcDbEntity
8
1
62
256
6
ByLayer
370
18
48
1
60
0
100
AcDbLine
10
2.480714
20
-27.817124
30
0
11
5.224665
21
-27.960929
31
0
39
0
210
0
220
0
230
1
0
LINE
5
8B
100
AcDbEntity
8
1
62
256
6
ByLayer
370
18
48
1
60
0
100
AcDbLine
10
12.097214
20
0.179638
30
0
11
2.973092
21
7.568952
31
0
39
0
210
0
220
0
230
1
0
LINE
5
8C
100
AcDbEntity
8
1
62
256
6
ByLayer
370
18
48
1
60
0
100
AcDbLine
10
30.809568
20
-28.895355
30
0
11
30.779808
21
-28.708036
31
0
39
0
210
0
220
0
230
1
0
LINE
5
8D
100
AcDbEntity
8
1
62
256
6
ByLayer
370
18
48
1
60
0
100
AcDbLine
10
0
20
-19.925
30
0
11
0
21
8.994817
31
0
39
0
210
0
220
0
230
1
0
LINE
5
8E
100
AcDbEntity
8
1
62
256
6
ByLayer
370
18
48
1
60
0
100
AcDbLine
10
6.239755
20
-28.089176
30
0
11
9.877048
21
-28.504944
31
0
39
0
210
0
220
0
230
1
0
LINE
5
8F
100
AcDbEntity
8
1
62
256
6
ByLayer
370
18
48
1
60
0
100
AcDbLine
10
16.170525
20
-2.735469
30
0
11
31.086962
21
-14.81578
31
0
39
0
210
0
220
0
230
1
0
LINE
5
90
100
AcDbEntity
8
1
62
256
6
ByLayer
370
18
48
1
60
0
100
AcDbLine
10
30.379092
20
-28.38351
30
0
11
30.779808
21
-28.708036
31
0
39
0
210
0
220
0
230
1
0
LINE
5
91
100
AcDbEntity
8
1
62
256
6
ByLayer
370
18
48
1
60
0
100
AcDbLine
10
2.197792
20
-26.761245
30
0
11
0.5
21
-20.425
31
0
39
0
210
0
220
0
230
1
0
LINE
5
92
100
AcDbEntity
8
1
62
256
6
ByLayer
370
18
48
1
60
0
100
AcDbLine
10
30.215044
20
-28.41387
30
0
11
30.809568
21
-28.895355
31
0
39
0
210
0
220
0
230
1
0
LINE
5
93
100
AcDbEntity
8
1
62
256
6
ByLayer
370
18
48
1
60
0
100
AcDbLine
10
0.5
20
-20.425
30
0
11
0
21
-19.925
31
0
39
0
210
0
220
0
230
1
0
LINE
5
94
100
AcDbEntity
8
1
62
256
6
ByLayer
370
18
48
1
60
0
100
AcDbLine
10
30.809568
20
-28.895355
30
0
11
30.649465
21
-29.100169
31
0
39
0
210
0
220
0
230
1
0
LINE
5
95
100
AcDbEntity
8
1
62
256
6
ByLayer
370
18
48
1
60
0
100
AcDbLine
10
2.197792
20
-26.761245
30
0
11
2.480714
21
-27.817124
31
0
39
0
210
0
220
0
230
1
0
LINE
5
96
100
AcDbEntity
8
1
62
256
6
ByLayer
370
18
48
1
60
0
100
AcDbLine
10
0.5
20
8.650126
30
0
11
2.973092
21
7.568952
31
0
39
0
210
0
220
0
230
1
0
LINE
5
97
100
AcDbEntity
8
1
62
256
6
ByLayer
370
18
48
1
60
0
100
AcDbLine
10
12.945249
20
-0.430411
30
0
11
10.045849
21
-12.302388
31
0
39
0
210
0
220
0
230
1
0
LINE
5
98
100
AcDbEntity
8
1
62
256
6
ByLayer
370
18
48
1
60
0
100
AcDbLine
10
6.799319
20
-25.595736
30
0
11
6.194609
21
-28.0718
31
0
39
0
210
0
220
0
230
1
0
LINE
5
99
100
AcDbEntity
8
1
62
256
6
ByLayer
370
18
48
1
60
0
100
AcDbLine
10
16.170525
20
-2.735469
30
0
11
12.990395
21
-0.447787
31
0
39
0
210
0
220
0
230
1
0
LINE
5
9A
100
AcDbEntity
8
1
62
256
6
ByLayer
370
18
48
1
60
0
100
AcDbLine
10
12.990395
20
-0.447787
30
0
11
10.101016
21
-12.278733
31
0
39
0
210
0
220
0
230
1
0
LINE
5
9B
100
AcDbEntity
8
1
62
256
6
ByLayer
370
18
48
1
60
0
100
AcDbLine
10
6.841828
20
-25.62391
30
0
11
6.239755
21
-28.089176
31
0
39
0
210
0
220
0
230
1
0
LINE
5
9C
100
AcDbEntity
8
1
62
256
6
ByLayer
370
18
48
1
60
0
100
AcDbLine
10
16.170525
20
-2.735469
30
0
11
13.686666
21
-12.905956
31
0
39
0
210
0
220
0
230
1
0
LINE
5
9D
100
AcDbEntity
8
1
62
256
6
ByLayer
370
18
48
1
60
0
100
AcDbLine
10
10.267342
20
-26.906834
30
0
11
9.877048
21
-28.504944
31
0
39
0
210
0
220
0
230
1
0
LINE
5
9E
100
AcDbEntity
8
1
62
256
6
ByLayer
370
18
48
1
60
0
100
AcDbLine
10
34.204759
20
-20.146616
30
0
11
34.056644
21
-20.265622
31
0
39
0
210
0
220
0
230
1
0
LINE
5
9F
100
AcDbEntity
8
1
62
256
6
ByLayer
370
18
48
1
60
0
100
AcDbLine
10
31.548339
20
-19.995484
30
0
11
34.204759
21
-20.146616
31
0
39
0
210
0
220
0
230
1
0
LINE
5
A0
100
AcDbEntity
8
1
62
256
6
ByLayer
370
18
48
1
60
0
100
AcDbLine
10
6.194609
20
-28.0718
30
0
11
6.239755
21
-28.089176
31
0
39
0
210
0
220
0
230
1
0
LINE
5
A1
100
AcDbEntity
8
1
62
256
6
ByLayer
370
18
48
1
60
0
100
AcDbLine
10
2.973092
20
7.568952
30
0
11
2.197792
21
-26.761245
31
0
39
0
210
0
220
0
230
1
0
LINE
5
A2
100
AcDbEntity
8
1
62
256
6
ByLayer
370
18
48
1
60
0
100
AcDbLine
10
32.367207
20
-20.169505
30
0
11
34.056644
21
-20.265622
31
0
39
0
210
0
220
0
230
1
0
LINE
5
A3
100
AcDbEntity
8
1
62
256
6
ByLayer
370
18
48
1
60
0
100
AcDbLine
10
12.990395
20
-0.447787
30
0
11
12.945249
21
-0.430411
31
0
39
0
210
0
220
0
230
1
0
LINE
5
A4
100
AcDbEntity
8
1
62
256
6
ByLayer
370
18
48
1
60
0
100
AcDbLine
10
31.787685
20
-20.036882
30
0
11
31.590488
21
-20.025663
31
0
39
0
210
0
220
0
230
1
0
LINE
5
A5
100
AcDbEntity
8
1
62
256
6
ByLayer
370
18
48
1
60
0
100
AcDbLine
10
16.301516
20
-22.45883
30
0
11
16.809406
21
-22.654307
31
0
39
0
210
0
220
0
230
1
0
LINE
5
A6
100
AcDbEntity
8
1
62
256
6
ByLayer
370
18
48
1
60
0
100
AcDbLine
10
18.258444
20
-21.174326
30
0
11
18.766334
21
-21.369803
31
0
39
0
210
0
220
0
230
1
0
LINE
5
A7
100
AcDbEntity
8
1
62
256
6
ByLayer
370
18
48
1
60
0
100
AcDbLine
10
16.962562
20
-19.898585
30
0
11
17.437749
21
-20.081475
31
0
39
0
210
0
220
0
230
1
0
LINE
5
A8
100
AcDbEntity
8
1
62
256
6
ByLayer
370
18
48
1
60
0
100
AcDbLine
10
17.631241
20
-22.386893
30
0
11
18.139132
21
-22.582369
31
0
39
0
210
0
220
0
230
1
0
LINE
5
A9
100
AcDbEntity
8
1
62
256
6
ByLayer
370
18
48
1
60
0
100
AcDbLine
10
18.080339
20
-21.903598
30
0
11
18.58823
21
-22.099074
31
0
39
0
210
0
220
0
230
1
0
LINE
5
AA
100
AcDbEntity
8
1
62
256
6
ByLayer
370
18
48
1
60
0
100
AcDbLine
10
18.081479
20
-20.543332
30
0
11
18.58937
21
-20.738808
31
0
39
0
210
0
220
0
230
1
0
LINE
5
AB
100
AcDbEntity
8
1
62
256
6
ByLayer
370
18
48
1
60
0
100
AcDbLine
10
18.128477
20
-17.421989
30
0
11
18.128386
21
-17.421954
31
0
39
0
210
0
220
0
230
1
0
LINE
5
AC
100
AcDbEntity
8
1
62
256
6
ByLayer
370
18
48
1
60
0
100
AcDbLine
10
15.787026
20
-28.271615
30
0
11
12.131257
21
-27.409151
31
0
39
0
210
0
220
0
230
1
0
LINE
5
AD
100
AcDbEntity
8
1
62
256
6
ByLayer
370
18
48
1
60
0
100
AcDbLine
10
12.21643
20
-27.366925
30
0
11
9.360474
21
-26.693152
31
0
39
0
210
0
220
0
230
1
0
LINE
5
AE
100
AcDbEntity
8
1
62
256
6
ByLayer
370
18
48
1
60
0
100
AcDbLine
10
12.131257
20
-27.409151
30
0
11
12.21643
21
-27.366925
31
0
39
0
210
0
220
0
230
1
0
LINE
5
AF
100
AcDbEntity
8
1
62
256
6
ByLayer
370
18
48
1
60
0
100
AcDbLine
10
8.400661
20
-23.502578
30
0
11
5.882233
21
-22.660644
31
0
39
0
210
0
220
0
230
1
0
LINE
5
B0
100
AcDbEntity
8
1
62
256
6
ByLayer
370
18
48
1
60
0
100
AcDbLine
10
15.631096
20
-13.385125
30
0
11
15.561885
21
-13.361987
31
0
39
0
210
0
220
0
230
1
0
LINE
5
B1
100
AcDbEntity
8
1
62
256
6
ByLayer
370
18
48
1
60
0
100
AcDbLine
10
7.703239
20
-21.58905
30
0
11
7.551378
21
-21.394797
31
0
39
0
210
0
220
0
230
1
0
LINE
5
B2
100
AcDbEntity
8
1
62
256
6
ByLayer
370
18
48
1
60
0
100
AcDbLine
10
6.855239
20
-21.305556
30
0
11
6.805138
21
-21.145322
31
0
39
0
210
0
220
0
230
1
0
LINE
5
B3
100
AcDbEntity
8
1
62
256
6
ByLayer
370
18
48
1
60
0
100
AcDbLine
10
15.631096
20
-13.385125
30
0
11
15.577848
21
-13.296624
31
0
39
0
210
0
220
0
230
1
0
LINE
5
B4
100
AcDbEntity
8
1
62
256
6
ByLayer
370
18
48
1
60
0
100
AcDbLine
10
9.551997
20
-25.761434
30
0
11
16.815547
21
-27.47504
31
0
39
0
210
0
220
0
230
1
0
LINE
5
B5
100
AcDbEntity
8
1
62
256
6
ByLayer
370
18
48
1
60
0
100
AcDbLine
10
12.77514
20
-12.711352
30
0
11
11.987066
21
-12.447891
31
0
39
0
210
0
220
0
230
1
0
LINE
5
B6
100
AcDbEntity
8
1
62
256
6
ByLayer
370
18
48
1
60
0
100
AcDbLine
10
8.941832
20
-21.994932
30
0
11
10.174906
21
-16.945948
31
0
39
0
210
0
220
0
230
1
0
LINE
5
B7
100
AcDbEntity
8
1
62
256
6
ByLayer
370
18
48
1
60
0
100
AcDbLine
10
15.178662
20
-25.127847
30
0
11
14.431773
21
-24.878155
31
0
39
0
210
0
220
0
230
1
0
LINE
5
B8
100
AcDbEntity
8
1
62
256
6
ByLayer
370
18
48
1
60
0
100
AcDbLine
10
12.145647
20
-27.350227
30
0
11
12.131257
21
-27.409151
31
0
39
0
210
0
220
0
230
1
0
LINE
5
B9
100
AcDbEntity
8
1
62
256
6
ByLayer
370
18
48
1
60
0
100
AcDbLine
10
10.616968
20
-22.389082
30
0
11
8.941832
21
-21.994932
31
0
39
0
210
0
220
0
230
1
0
LINE
5
BA
100
AcDbEntity
8
1
62
256
6
ByLayer
370
18
48
1
60
0
100
AcDbLine
10
11.356983
20
-22.636476
30
0
11
10.616968
21
-22.389082
31
0
39
0
210
0
220
0
230
1
0
LINE
5
BB
100
AcDbEntity
8
1
62
256
6
ByLayer
370
18
48
1
60
0
100
AcDbLine
10
12.77514
20
-12.711352
30
0
11
15.631096
21
-13.385125
31
0
39
0
210
0
220
0
230
1
0
LINE
5
BC
100
AcDbEntity
8
1
62
256
6
ByLayer
370
18
48
1
60
0
100
AcDbLine
10
14.081519
20
-13.012741
30
0
11
12.36526
21
-12.547977
31
0
39
0
210
0
220
0
230
1
0
LINE
5
BD
100
AcDbEntity
8
1
62
256
6
ByLayer
370
18
48
1
60
0
100
AcDbLine
10
8.088313
20
-16.256573
30
0
11
7.967073
21
-16.387626
31
0
39
0
210
0
220
0
230
1
0
LINE
5
BE
100
AcDbEntity
8
1
62
256
6
ByLayer
370
18
48
1
60
0
100
AcDbLine
10
14.556985
20
-24.907616
30
0
11
16.360425
21
-25.331957
31
0
39
0
210
0
220
0
230
1
0
LINE
5
BF
100
AcDbEntity
8
1
62
256
6
ByLayer
370
18
48
1
60
0
100
AcDbLine
10
7.874121
20
-14.504594
30
0
11
5.882233
21
-22.660644
31
0
39
0
210
0
220
0
230
1
0
LINE
5
C0
100
AcDbEntity
8
1
62
256
6
ByLayer
370
18
48
1
60
0
100
AcDbLine
10
19.087717
20
-17.526782
30
0
11
17.146838
21
-17.068892
31
0
39
0
210
0
220
0
230
1
0
LINE
5
C1
100
AcDbEntity
8
1
62
256
6
ByLayer
370
18
48
1
60
0
100
AcDbLine
10
10.392549
20
-15.346528
30
0
11
7.874121
21
-14.504594
31
0
39
0
210
0
220
0
230
1
0
LINE
5
C2
100
AcDbEntity
8
1
62
256
6
ByLayer
370
18
48
1
60
0
100
AcDbLine
10
6.805138
20
-21.145322
30
0
11
7.551378
21
-21.394797
31
0
39
0
210
0
220
0
230
1
0
LINE
5
C3
100
AcDbEntity
8
1
62
256
6
ByLayer
370
18
48
1
60
0
100
AcDbLine
10
8.088313
20
-16.256573
30
0
11
8.936312
21
-16.540067
31
0
39
0
210
0
220
0
230
1
0
LINE
5
C4
100
AcDbEntity
8
1
62
256
6
ByLayer
370
18
48
1
60
0
100
AcDbLine
10
7.967073
20
-16.387626
30
0
11
8.713312
21
-16.637101
31
0
39
0
210
0
220
0
230
1
0
LINE
5
C5
100
AcDbEntity
8
1
62
256
6
ByLayer
370
18
48
1
60
0
100
AcDbLine
10
19.233618
20
-14.159088
30
0
11
15.577848
21
-13.296624
31
0
39
0
210
0
220
0
230
1
0
LINE
5
C6
100
AcDbEntity
8
1
62
256
6
ByLayer
370
18
48
1
60
0
100
AcDbLine
10
6.805138
20
-21.145322
30
0
11
7.967073
21
-16.387626
31
0
39
0
210
0
220
0
230
1
0
LINE
5
C7
100
AcDbEntity
8
1
62
256
6
ByLayer
370
18
48
1
60
0
100
AcDbLine
10
15.561885
20
-13.361987
30
0
11
15.577848
21
-13.296624
31
0
39
0
210
0
220
0
230
1
0
LINE
5
C8
100
AcDbEntity
8
1
62
256
6
ByLayer
370
18
48
1
60
0
100
AcDbLine
10
7.551378
20
-21.394797
30
0
11
8.713312
21
-16.637101
31
0
39
0
210
0
220
0
230
1
0
LINE
5
C9
100
AcDbEntity
8
1
62
256
6
ByLayer
370
18
48
1
60
0
100
AcDbLine
10
12.466196
20
-13.828861
30
0
11
19.729746
21
-15.542468
31
0
39
0
210
0
220
0
230
1
0
LINE
5
CA
100
AcDbEntity
8
1
62
256
6
ByLayer
370
18
48
1
60
0
100
AcDbLine
10
8.400661
20
-23.502578
30
0
11
10.392549
21
-15.346528
31
0
39
0
210
0
220
0
230
1
0
LINE
5
CB
100
AcDbEntity
8
1
62
256
6
ByLayer
370
18
48
1
60
0
100
AcDbLine
10
15.178662
20
-25.127847
30
0
11
17.119541
21
-25.585736
31
0
39
0
210
0
220
0
230
1
0
LINE
5
CC
100
AcDbEntity
8
1
62
256
6
ByLayer
370
18
48
1
60
0
100
AcDbLine
10
17.119541
20
-25.585736
30
0
11
16.360425
21
-25.331957
31
0
39
0
210
0
220
0
230
1
0
LINE
5
CD
100
AcDbEntity
8
1
62
256
6
ByLayer
370
18
48
1
60
0
100
AcDbLine
10
6.855239
20
-21.305556
30
0
11
7.703239
21
-21.58905
31
0
39
0
210
0
220
0
230
1
0
LINE
5
CE
100
AcDbEntity
8
1
62
256
6
ByLayer
370
18
48
1
60
0
100
AcDbLine
10
8.936312
20
-16.540067
30
0
11
8.713312
21
-16.637101
31
0
39
0
210
0
220
0
230
1
0
LINE
5
CF
100
AcDbEntity
8
1
62
256
6
ByLayer
370
18
48
1
60
0
100
AcDbLine
10
14.081519
20
-13.012741
30
0
11
15.561885
21
-13.361987
31
0
39
0
210
0
220
0
230
1
0
LINE
5
D0
100
AcDbEntity
8
1
62
256
6
ByLayer
370
18
48
1
60
0
100
AcDbLine
10
7.703239
20
-21.58905
30
0
11
8.936312
21
-16.540067
31
0
39
0
210
0
220
0
230
1
0
LINE
5
D1
100
AcDbEntity
8
1
62
256
6
ByLayer
370
18
48
1
60
0
100
AcDbLine
10
34.327511
20
-19.956343
30
0
11
34.219093
21
-19.950662
31
0
39
0
210
0
220
0
230
1
0
LINE
5
D2
100
AcDbEntity
8
1
62
256
6
ByLayer
370
18
48
1
60
0
100
AcDbLine
10
35.402546
20
-20.370102
30
0
11
31.807959
21
-20.181718
31
0
39
0
210
0
220
0
230
1
0
LINE
5
D3
100
AcDbEntity
8
1
62
256
6
ByLayer
370
18
48
1
60
0
100
AcDbLine
10
30.801697
20
-29.13947
30
0
11
31.876733
21
-29.553228
31
0
39
0
210
0
220
0
230
1
0
LINE
5
D4
100
AcDbEntity
8
1
62
256
6
ByLayer
370
18
48
1
60
0
100
AcDbLine
10
30.4224
20
-28.375414
30
0
11
31.876733
21
-29.553228
31
0
39
0
210
0
220
0
230
1
0
LINE
5
D5
100
AcDbEntity
8
1
62
256
6
ByLayer
370
18
48
1
60
0
100
AcDbLine
10
46.298973
20
-29.01054
30
0
11
35.834974
21
-20.536106
31
0
39
0
210
0
220
0
230
1
0
LINE
5
D6
100
AcDbEntity
8
1
62
256
6
ByLayer
370
18
48
1
60
0
100
AcDbLine
10
32.309161
20
-29.719232
30
0
11
45.756296
21
-30.423966
31
0
39
0
210
0
220
0
230
1
0
LINE
5
D7
100
AcDbEntity
8
1
62
256
6
ByLayer
370
18
48
1
60
0
100
AcDbLine
10
34.327511
20
-19.956343
30
0
11
35.402546
21
-20.370102
31
0
39
0
210
0
220
0
230
1
0
LINE
5
D8
100
AcDbEntity
8
1
62
256
6
ByLayer
370
18
48
1
60
0
100
AcDbLine
10
30.689536
20
-29.048634
30
0
11
30.801697
21
-29.13947
31
0
39
0
210
0
220
0
230
1
0
MTEXT
5
15E
100
AcDbEntity
8
SK6
62
256
6
ByLayer
370
18
48
1
60
0
100
AcDbMText
10
-93.215316
20
28.960004
30
0
210
0
220
0
230
1
1
\W0.7885;DVJNL 4040S 16
40
3.5
41
0
44
1.084337
50
0
71
7
72
5
7
iso_b_vert
0
DIMENSION
5
17E
100
AcDbEntity
8
2
62
256
6
ByLayer
370
13
48
1
60
0
100
AcDbDimension
2
DimnDraft3D2
10
44.750763
20
-30.371576
30
0
11
34.296549
21
-42.128693
31
0
70
34
71
5
72
1
41
1
210
0
220
0
230
1
3
Standard
100
AcDb2LineAngularDimension
13
46.584684
23
-30.425
33
0
14
46.584684
24
-28.8375
34
0
15
45.749392
25
-30.423912
35
0
16
31.032364
26
-45.226289
36
0
40
0
0
DIMENSION
5
193
100
AcDbEntity
8
2
62
256
6
ByLayer
370
13
48
1
60
0
100
AcDbDimension
2
DimnDraft3D3
10
46.584684
20
-58.675
30
0
11
17.773921
21
-58.675
31
0
70
32
71
5
72
1
41
1
210
0
220
0
230
1
3
Standard
100
AcDbAlignedDimension
13
0
23
-21.925
33
0
14
46.584684
24
-32.425
34
0
50
0
100
AcDbRotatedDimension
1001
ACAD
1000
DSTYLE
1002
{
1070
   279
1070
     0
1070
   172
1070
     1
1070
   173
1070
     1
1070
   340
1005
15F
1070
    77
1070
     1
1070
    73
1070
     0
1070
   171
1070
     3
1070
   274
1070
     4
1070
   177
1070
     2
1070
   176
1070
     2
1070
   178
1070
     7
1070
    78
1070
     8
1070
    41
1041
3.175
1070
   147
1041
2.25
1070
    42
1041
2.0
1070
    44
1041
2.0
1070
   140
1041
4.5
1070
   343
1005
17F
1070
   344
1005
17F
1002
}
0
DIMENSION
5
1A1
100
AcDbEntity
8
2
62
256
6
ByLayer
370
13
48
1
60
0
100
AcDbDimension
2
DimnDraft3D4
10
68.834684
20
-30.425
30
0
11
68.834684
21
-10.531579
31
0
70
32
71
5
72
1
41
1
210
0
220
0
230
1
3
Standard
100
AcDbAlignedDimension
13
2
23
19.925
33
0
14
48.584684
24
-30.425
34
0
50
90
100
AcDbRotatedDimension
1001
ACAD
1000
DSTYLE
1002
{
1070
    74
1070
     0
1070
   279
1070
     0
1070
   172
1070
     1
1070
   173
1070
     1
1070
   340
1005
15F
1070
    77
1070
     1
1070
    73
1070
     0
1070
   171
1070
     3
1070
   274
1070
     4
1070
   177
1070
     2
1070
   176
1070
     2
1070
   178
1070
     7
1070
    78
1070
     8
1070
    41
1041
3.175
1070
   147
1041
2.25
1070
    42
1041
2.0
1070
    44
1041
2.0
1070
   140
1041
4.5
1070
   343
1005
17F
1070
   344
1005
17F
1002
}
0
DIMENSION
5
1AF
100
AcDbEntity
8
SK2
62
256
6
ByLayer
370
13
48
1
60
0
100
AcDbDimension
2
DimnDraft3D5
10
-212.515316
20
-19.925
30
0
11
-212.515316
21
-5.518421
31
0
70
32
71
5
72
1
41
1
210
0
220
0
230
1
3
Standard
100
AcDbAlignedDimension
13
-206.765316
23
19.925
33
0
14
-206.765316
24
-19.925
34
0
50
90
100
AcDbRotatedDimension
1001
ACAD
1000
DSTYLE
1002
{
1070
    74
1070
     0
1070
   279
1070
     0
1070
   172
1070
     1
1070
   173
1070
     1
1070
   340
1005
15F
1070
    77
1070
     1
1070
    73
1070
     0
1070
   171
1070
     3
1070
   274
1070
     4
1070
   177
1070
     2
1070
   176
1070
     2
1070
   178
1070
     7
1070
    78
1070
     8
1070
    41
1041
3.175
1070
   147
1041
2.25
1070
    42
1041
2.0
1070
    44
1041
2.0
1070
   140
1041
4.5
1070
   343
1005
17F
1070
   344
1005
17F
1002
}
0
ENDSEC
0
SECTION
2
OBJECTS
0
DICTIONARY
5
219
330
0
100
AcDbDictionary
280
0
281
1
3
ACAD_GROUP
350
21a
3
ACAD_MLINESTYLE
350
21b
0
DICTIONARY
5
21a
330
0
100
AcDbDictionary
280
0
281
1
0
DICTIONARY
5
21b
330
0
100
AcDbDictionary
280
0
281
1
3
Standard
350
18
0
MLINESTYLE
5
18
330
21b
100
AcDbMlineStyle
2
Standard
70
0
3

62
256
51
90
52
90
71
2
49
-0.5
62
256
6
ByLayer
49
0.5
62
256
6
ByLayer
0
RASTERVARIABLES
5
208
330

100
AcDbRasterVariables
90
0
70
1
71
1
72
1
0
ENDSEC
0
EOF
