0
SECTION
2
HEADER
9
$ACADVER
1
AC1015
9
$DWGCODEPAGE
3
ANSI_1252
9
$HANDSEED
5
228
9
$ANGBASE
50
0
9
$ANGDIR
70
0
9
$ATTMODE
70
1
9
$AUNITS
70
0
9
$AUPREC
70
0
9
$CECOLOR
62
256
9
$CELTSCALE
40
1
9
$CELTYPE
6
ByLayer
9
$CELWEIGHT
370
18
9
$CLAYER
8
0
9
$CMLJUST
70
0
9
$CMLSCALE
40
1
9
$CMLSTYLE
2
Standard
9
$DIMSTYLE
2
Standard
9
$TEXTSIZE
40
0.2
9
$TEXTSTYLE
7
Standard
9
$LUNITS
70
2
9
$LUPREC
70
4
9
$EXTNAMES
290
1
9
$INSUNITS
70
4
9
$LTSCALE
40
1
9
$LWDISPLAY
290
1
9
$PDMODE
70
0
9
$PDSIZE
40
0
9
$PLINEGEN
70
0
0
ENDSEC
0
SECTION
2
CLASSES
0
CLASS
1
RASTERVARIABLES
2
AcDbRasterVariables
3
ISM
90
0
280
0
281
0
0
ENDSEC
0
SECTION
2
TABLES
0
TABLE
2
VPORT
5
21e
100
AcDbSymbolTable
0
VPORT
5
1
100
AcDbSymbolTableRecord
100
AcDbViewportTableRecord
2
*Active
70
0
10
0
20
0
11
1
21
1
12
-1
22
1
13
0
23
0
14
0.5
24
0.5
15
10
25
10
16
0
26
0
36
1
17
0
27
0
37
0
0
ENDTAB
0
TABLE
2
LTYPE
5
21f
100
AcDbSymbolTable
0
LTYPE
5
14
100
AcDbSymbolTableRecord
100
AcDbLinetypeTableRecord
70
0
2
ByBlock
3

72
65
73
0
40
0
0
LTYPE
5
15
100
AcDbSymbolTableRecord
100
AcDbLinetypeTableRecord
70
0
2
ByLayer
3

72
65
73
0
40
0
0
LTYPE
5
16
100
AcDbSymbolTableRecord
100
AcDbLinetypeTableRecord
70
0
2
CONTINUOUS
3
Solid line
72
65
73
0
40
0
0
LTYPE
5
6A
100
AcDbSymbolTableRecord
100
AcDbLinetypeTableRecord
70
0
2
CENTER
3
____ _ ____ _ ____ _ ____
72
65
73
4
40
47.5
49
22
74
0
49
-8.5
74
0
49
8.5
74
0
49
-8.5
74
0
0
LTYPE
5
6B
100
AcDbSymbolTableRecord
100
AcDbLinetypeTableRecord
70
0
2
DASHED
3
__ __ __ __ __ __ __ __ __
72
65
73
2
40
25.72
49
12.86
74
0
49
-12.86
74
0
0
ENDTAB
0
TABLE
2
LAYER
5
220
100
AcDbSymbolTable
0
LAYER
5
10
100
AcDbSymbolTableRecord
100
AcDbLayerTableRecord
2
0
70
0
62
7
6
CONTINUOUS
290
1
370
-3
390
0
0
LAYER
5
6D
100
AcDbSymbolTableRecord
100
AcDbLayerTableRecord
2
2
70
0
62
7
6
CONTINUOUS
290
1
370
-3
390
0
0
LAYER
5
6F
100
AcDbSymbolTableRecord
100
AcDbLayerTableRecord
2
80
70
0
62
-6
6
CONTINUOUS
290
1
370
-3
390
0
0
LAYER
5
71
100
AcDbSymbolTableRecord
100
AcDbLayerTableRecord
2
81
70
0
62
-3
6
CONTINUOUS
290
1
370
-3
390
0
0
LAYER
5
73
100
AcDbSymbolTableRecord
100
AcDbLayerTableRecord
2
1
70
0
62
4
6
CONTINUOUS
290
1
370
-3
390
0
0
LAYER
5
20b
100
AcDbSymbolTableRecord
100
AcDbLayerTableRecord
2
SK1
70
0
62
4
6
CONTINUOUS
290
1
370
-3
390
0
0
LAYER
5
20c
100
AcDbSymbolTableRecord
100
AcDbLayerTableRecord
2
SK6
70
0
62
5
6
CONTINUOUS
290
1
370
-3
390
0
0
LAYER
5
20d
100
AcDbSymbolTableRecord
100
AcDbLayerTableRecord
2
SK2
70
0
62
7
6
CONTINUOUS
290
1
370
-3
390
0
0
ENDTAB
0
TABLE
2
STYLE
5
221
100
AcDbSymbolTable
0
STYLE
5
11
100
AcDbSymbolTableRecord
100
AcDbTextStyleTableRecord
2
Standard
3
txt
70
0
71
0
40
0
41
1
42
0
50
0
0
STYLE
5
161
100
AcDbSymbolTableRecord
100
AcDbTextStyleTableRecord
2
iso_b_vert
3
simplex.shx
70
0
71
0
40
0
41
1
42
0
50
0
0
STYLE
5
162
100
AcDbSymbolTableRecord
100
AcDbTextStyleTableRecord
2
DWGDirectTextStyle
3
simplex
70
0
71
0
40
0
41
1
42
0
50
0
0
ENDTAB
0
TABLE
2
DIMSTYLE
5
222
100
AcDbSymbolTable
100
AcDbDimStyleTable
0
DIMSTYLE
105
27
100
AcDbSymbolTableRecord
100
AcDbDimStyleTableRecord
2
Standard
70
0
3
<>
41
0.18
42
0.0625
44
0.18
140
0.18
147
0.09
73
0
74
0
77
1
271
2
275
0
278
52
280
0
340
11
0
ENDTAB
0
TABLE
2
VIEW
5
223
100
AcDbSymbolTable
0
ENDTAB
0
TABLE
2
UCS
5
224
100
AcDbSymbolTable
0
ENDTAB
0
TABLE
2
APPID
5
225
100
AcDbSymbolTable
0
APPID
5
12
100
AcDbSymbolTableRecord
100
AcDbRegAppTableRecord
2
ACAD
70
0
0
ENDTAB
0
TABLE
2
BLOCK_RECORD
5
226
100
AcDbSymbolTable
0
BLOCK_RECORD
5
1F
100
AcDbSymbolTableRecord
100
AcDbBlockTableRecord
2
*Model_Space
340
0
70
0
0
BLOCK_RECORD
5
1B
100
AcDbSymbolTableRecord
100
AcDbBlockTableRecord
2
*Paper_Space
340
0
70
0
0
BLOCK_RECORD
5
23
100
AcDbSymbolTableRecord
100
AcDbBlockTableRecord
2
*Paper_Space0
340
0
70
0
0
BLOCK_RECORD
5
164
100
AcDbSymbolTableRecord
100
AcDbBlockTableRecord
2
DimnDraft3D11
340
0
70
0
0
BLOCK_RECORD
5
173
100
AcDbSymbolTableRecord
100
AcDbBlockTableRecord
2
DimnDraft3D2
340
0
70
0
0
BLOCK_RECORD
5
181
100
AcDbSymbolTableRecord
100
AcDbBlockTableRecord
2
_CLOSED
340
0
70
0
0
BLOCK_RECORD
5
188
100
AcDbSymbolTableRecord
100
AcDbBlockTableRecord
2
DimnDraft3D3
340
0
70
0
0
BLOCK_RECORD
5
196
100
AcDbSymbolTableRecord
100
AcDbBlockTableRecord
2
DimnDraft3D4
340
0
70
0
0
BLOCK_RECORD
5
1A4
100
AcDbSymbolTableRecord
100
AcDbBlockTableRecord
2
DimnDraft3D5
340
0
70
0
0
ENDTAB
0
ENDSEC
0
SECTION
2
BLOCKS
0
BLOCK
5
20
100
AcDbEntity
8
0
100
AcDbBlockBegin
2
*Model_Space
70
0
10
0
20
0
30
0
3
*Model_Space
0
ENDBLK
5
21
100
AcDbEntity
8
0
100
AcDbBlockEnd
0
BLOCK
5
1C
100
AcDbEntity
8
0
100
AcDbBlockBegin
2
*Paper_Space
70
0
10
0
20
0
30
0
3
*Paper_Space
0
ENDBLK
5
1D
100
AcDbEntity
8
0
100
AcDbBlockEnd
0
BLOCK
5
24
100
AcDbEntity
8
0
100
AcDbBlockBegin
2
*Paper_Space0
70
0
10
0
20
0
30
0
3
*Paper_Space0
0
ENDBLK
5
25
100
AcDbEntity
8
0
100
AcDbBlockEnd
0
BLOCK
5
165
100
AcDbEntity
8
0
100
AcDbBlockBegin
2
DimnDraft3D11
70
0
10
0
20
0
30
0
3
DimnDraft3D11
0
LINE
5
167
100
AcDbEntity
8
SK2
62
256
6
ByLayer
370
25
48
1
60
0
100
AcDbLine
10
46.577985
20
-21.9125
30
0
11
46.577985
21
-60.1625
31
0
39
0
210
0
220
0
230
1
0
LINE
5
169
100
AcDbEntity
8
SK2
62
256
6
ByLayer
370
25
48
1
60
0
100
AcDbLine
10
-104.772015
20
-14.4375
30
0
11
-104.772015
21
-60.1625
31
0
39
0
210
0
220
0
230
1
0
LINE
5
16A
100
AcDbEntity
8
SK2
62
256
6
ByLayer
370
25
48
1
60
0
100
AcDbLine
10
46.577985
20
-58.1625
30
0
11
-104.772015
21
-58.1625
31
0
39
0
210
0
220
0
230
1
0
LINE
5
16B
100
AcDbEntity
8
SK2
62
256
6
ByLayer
370
25
48
1
60
0
100
AcDbLine
10
46.577985
20
-58.1625
30
0
11
43.402987
21
-58.580497
31
0
39
0
210
0
220
0
230
1
0
LINE
5
16C
100
AcDbEntity
8
SK2
62
256
6
ByLayer
370
25
48
1
60
0
100
AcDbLine
10
46.577985
20
-58.1625
30
0
11
43.402984
21
-57.744503
31
0
39
0
210
0
220
0
230
1
0
LINE
5
16D
100
AcDbEntity
8
SK2
62
256
6
ByLayer
370
25
48
1
60
0
100
AcDbLine
10
43.402987
20
-58.580497
30
0
11
43.402984
21
-57.744503
31
0
39
0
210
0
220
0
230
1
0
LINE
5
16E
100
AcDbEntity
8
SK2
62
256
6
ByLayer
370
25
48
1
60
0
100
AcDbLine
10
-104.772015
20
-58.1625
30
0
11
-101.597016
21
-57.744503
31
0
39
0
210
0
220
0
230
1
0
LINE
5
16F
100
AcDbEntity
8
SK2
62
256
6
ByLayer
370
25
48
1
60
0
100
AcDbLine
10
-104.772015
20
-58.1625
30
0
11
-101.597013
21
-58.580497
31
0
39
0
210
0
220
0
230
1
0
LINE
5
170
100
AcDbEntity
8
SK2
62
256
6
ByLayer
370
25
48
1
60
0
100
AcDbLine
10
-101.597016
20
-57.744503
30
0
11
-101.597013
21
-58.580497
31
0
39
0
210
0
220
0
230
1
0
MTEXT
5
171
100
AcDbEntity
8
SK2
62
256
6
ByLayer
370
18
48
1
60
0
100
AcDbMText
10
-34.372673
20
-57.0375
30
0
210
0
220
0
230
1
1
\W0.6864;150.0
40
4.5
41
0
44
1.084337
50
0
71
7
72
5
7
iso_b_vert
0
ENDBLK
5
166
100
AcDbEntity
8
0
100
AcDbBlockEnd
0
BLOCK
5
17E
100
AcDbEntity
8
0
100
AcDbBlockBegin
2
DimnDraft3D2
70
0
10
0
20
0
30
0
3
DimnDraft3D2
0
MTEXT
5
174
100
AcDbEntity
8
2
62
256
6
ByLayer
370
18
48
1
60
0
100
AcDbMText
10
29.83235
20
-31.821965
30
0
210
0
220
0
230
1
1
\W0.7399;93%%d
40
4.5
41
0
44
1.084337
50
313.5
71
7
72
5
7
iso_b_vert
0
LINE
5
175
100
AcDbEntity
8
2
62
256
6
ByLayer
370
13
48
1
60
0
100
AcDbLine
10
46.577985
20
-21.9125
30
0
11
46.577985
21
-43.395593
31
0
39
0
210
0
220
0
230
1
0
LINE
5
176
100
AcDbEntity
8
2
62
256
6
ByLayer
370
13
48
1
60
0
100
AcDbLine
10
42.746805
20
-19.754404
30
0
11
23.169705
21
-18.728412
31
0
39
0
210
0
220
0
230
1
0
ARC
5
177
100
AcDbEntity
8
2
62
256
6
ByLayer
370
13
48
1
60
0
100
AcDbCircle
39
0
10
46.577985
20
-19.955188
30
0
40
21.4404046852669
210
0
220
0
230
1
100
AcDbArc
50
177
51
270
0
LINE
5
178
100
AcDbEntity
8
2
62
256
6
ByLayer
370
13
48
1
60
0
100
AcDbLine
10
46.577985
20
-41.395593
30
0
11
43.389711
21
-41.696002
31
0
39
0
210
0
220
0
230
1
0
LINE
5
179
100
AcDbEntity
8
2
62
256
6
ByLayer
370
13
48
1
60
0
100
AcDbLine
10
46.577985
20
-41.395593
30
0
11
43.420594
21
-40.86058
31
0
39
0
210
0
220
0
230
1
0
LINE
5
17A
100
AcDbEntity
8
2
62
256
6
ByLayer
370
13
48
1
60
0
100
AcDbLine
10
43.389711
20
-41.696002
30
0
11
43.420594
21
-40.86058
31
0
39
0
210
0
220
0
230
1
0
LINE
5
17B
100
AcDbEntity
8
2
62
256
6
ByLayer
370
13
48
1
60
0
100
AcDbLine
10
25.166964
20
-18.833084
30
0
11
25.535999
21
-22.014145
31
0
39
0
210
0
220
0
230
1
0
LINE
5
17C
100
AcDbEntity
8
2
62
256
6
ByLayer
370
13
48
1
60
0
100
AcDbLine
10
25.166964
20
-18.833084
30
0
11
24.700104
21
-22.001269
31
0
39
0
210
0
220
0
230
1
0
LINE
5
17D
100
AcDbEntity
8
2
62
256
6
ByLayer
370
13
48
1
60
0
100
AcDbLine
10
25.535999
20
-22.014145
30
0
11
24.700104
21
-22.001269
31
0
39
0
210
0
220
0
230
1
0
ENDBLK
5
17F
100
AcDbEntity
8
0
100
AcDbBlockEnd
0
BLOCK
5
182
100
AcDbEntity
8
0
100
AcDbBlockBegin
2
_CLOSED
70
0
10
0
20
0
30
0
3
_CLOSED
0
LINE
5
184
100
AcDbEntity
8
0
62
256
6
ByLayer
370
-2
48
1
60
0
100
AcDbLine
10
-1
20
0.166667
30
0
11
0
21
0
31
0
39
0
210
0
220
0
230
1
0
LINE
5
185
100
AcDbEntity
8
0
62
256
6
ByLayer
370
-2
48
1
60
0
100
AcDbLine
10
0
20
0
30
0
11
-1
21
-0.166667
31
0
39
0
210
0
220
0
230
1
0
LINE
5
186
100
AcDbEntity
8
0
62
256
6
ByLayer
370
-2
48
1
60
0
100
AcDbLine
10
-1
20
0.166667
30
0
11
-1
21
-0.166667
31
0
39
0
210
0
220
0
230
1
0
LINE
5
187
100
AcDbEntity
8
0
62
256
6
ByLayer
370
-2
48
1
60
0
100
AcDbLine
10
0
20
0
30
0
11
-1
21
0
31
0
39
0
210
0
220
0
230
1
0
ENDBLK
5
183
100
AcDbEntity
8
0
100
AcDbBlockEnd
0
BLOCK
5
193
100
AcDbEntity
8
0
100
AcDbBlockBegin
2
DimnDraft3D3
70
0
10
0
20
0
30
0
3
DimnDraft3D3
0
MTEXT
5
189
100
AcDbEntity
8
2
62
256
6
ByLayer
370
18
48
1
60
0
100
AcDbMText
10
18.895572
20
-47.0375
30
0
210
0
220
0
230
1
1
\W0.7640;46.6
40
4.5
41
0
44
1.084337
50
0
71
7
72
5
7
iso_b_vert
0
LINE
5
18A
100
AcDbEntity
8
2
62
256
6
ByLayer
370
13
48
1
60
0
100
AcDbLine
10
0
20
-14.4375
30
0
11
0
21
-50.1625
31
0
39
0
210
0
220
0
230
1
0
LINE
5
18B
100
AcDbEntity
8
2
62
256
6
ByLayer
370
13
48
1
60
0
100
AcDbLine
10
46.577985
20
-21.9125
30
0
11
46.577985
21
-50.1625
31
0
39
0
210
0
220
0
230
1
0
LINE
5
18C
100
AcDbEntity
8
2
62
256
6
ByLayer
370
13
48
1
60
0
100
AcDbLine
10
0
20
-48.1625
30
0
11
46.577985
21
-48.1625
31
0
39
0
210
0
220
0
230
1
0
LINE
5
18D
100
AcDbEntity
8
2
62
256
6
ByLayer
370
13
48
1
60
0
100
AcDbLine
10
0
20
-48.1625
30
0
11
3.174998
21
-47.744503
31
0
39
0
210
0
220
0
230
1
0
LINE
5
18E
100
AcDbEntity
8
2
62
256
6
ByLayer
370
13
48
1
60
0
100
AcDbLine
10
0
20
-48.1625
30
0
11
3.175002
21
-48.580497
31
0
39
0
210
0
220
0
230
1
0
LINE
5
18F
100
AcDbEntity
8
2
62
256
6
ByLayer
370
13
48
1
60
0
100
AcDbLine
10
3.174998
20
-47.744503
30
0
11
3.175002
21
-48.580497
31
0
39
0
210
0
220
0
230
1
0
LINE
5
190
100
AcDbEntity
8
2
62
256
6
ByLayer
370
13
48
1
60
0
100
AcDbLine
10
46.577985
20
-48.1625
30
0
11
43.402987
21
-48.580497
31
0
39
0
210
0
220
0
230
1
0
LINE
5
191
100
AcDbEntity
8
2
62
256
6
ByLayer
370
13
48
1
60
0
100
AcDbLine
10
46.577985
20
-48.1625
30
0
11
43.402984
21
-47.744503
31
0
39
0
210
0
220
0
230
1
0
LINE
5
192
100
AcDbEntity
8
2
62
256
6
ByLayer
370
13
48
1
60
0
100
AcDbLine
10
43.402987
20
-48.580497
30
0
11
43.402984
21
-47.744503
31
0
39
0
210
0
220
0
230
1
0
ENDBLK
5
194
100
AcDbEntity
8
0
100
AcDbBlockEnd
0
BLOCK
5
1A1
100
AcDbEntity
8
0
100
AcDbBlockBegin
2
DimnDraft3D4
70
0
10
0
20
0
30
0
3
DimnDraft3D4
0
MTEXT
5
197
100
AcDbEntity
8
2
62
256
6
ByLayer
370
18
48
1
60
0
100
AcDbMText
10
67.702985
20
-7.894079
30
0
210
0
220
0
230
1
1
\W0.7346;32.0
40
4.5
41
0
44
1.084337
50
90
71
7
72
5
7
iso_b_vert
0
LINE
5
198
100
AcDbEntity
8
2
62
256
6
ByLayer
370
13
48
1
60
0
100
AcDbLine
10
2
20
12.4375
30
0
11
70.827985
21
12.4375
31
0
39
0
210
0
220
0
230
1
0
LINE
5
199
100
AcDbEntity
8
2
62
256
6
ByLayer
370
13
48
1
60
0
100
AcDbLine
10
48.577985
20
-19.9125
30
0
11
70.827985
21
-19.9125
31
0
39
0
210
0
220
0
230
1
0
LINE
5
19A
100
AcDbEntity
8
2
62
256
6
ByLayer
370
13
48
1
60
0
100
AcDbLine
10
68.827985
20
12.4375
30
0
11
68.827985
21
-19.9125
31
0
39
0
210
0
220
0
230
1
0
LINE
5
19B
100
AcDbEntity
8
2
62
256
6
ByLayer
370
13
48
1
60
0
100
AcDbLine
10
68.827985
20
12.4375
30
0
11
69.245982
21
9.262502
31
0
39
0
210
0
220
0
230
1
0
LINE
5
19C
100
AcDbEntity
8
2
62
256
6
ByLayer
370
13
48
1
60
0
100
AcDbLine
10
68.827985
20
12.4375
30
0
11
68.409989
21
9.262498
31
0
39
0
210
0
220
0
230
1
0
LINE
5
19D
100
AcDbEntity
8
2
62
256
6
ByLayer
370
13
48
1
60
0
100
AcDbLine
10
69.245982
20
9.262502
30
0
11
68.409989
21
9.262498
31
0
39
0
210
0
220
0
230
1
0
LINE
5
19E
100
AcDbEntity
8
2
62
256
6
ByLayer
370
13
48
1
60
0
100
AcDbLine
10
68.827985
20
-19.9125
30
0
11
68.409989
21
-16.737502
31
0
39
0
210
0
220
0
230
1
0
LINE
5
19F
100
AcDbEntity
8
2
62
256
6
ByLayer
370
13
48
1
60
0
100
AcDbLine
10
68.827985
20
-19.9125
30
0
11
69.245982
21
-16.737498
31
0
39
0
210
0
220
0
230
1
0
LINE
5
1A0
100
AcDbEntity
8
2
62
256
6
ByLayer
370
13
48
1
60
0
100
AcDbLine
10
68.409989
20
-16.737502
30
0
11
69.245982
21
-16.737498
31
0
39
0
210
0
220
0
230
1
0
ENDBLK
5
1A2
100
AcDbEntity
8
0
100
AcDbBlockEnd
0
BLOCK
5
1AF
100
AcDbEntity
8
0
100
AcDbBlockBegin
2
DimnDraft3D5
70
0
10
0
20
0
30
0
3
DimnDraft3D5
0
MTEXT
5
1A5
100
AcDbEntity
8
SK2
62
256
6
ByLayer
370
18
48
1
60
0
100
AcDbMText
10
-113.647015
20
-4.156579
30
0
210
0
220
0
230
1
1
\W0.7346;25.0
40
4.5
41
0
44
1.084337
50
90
71
7
72
5
7
iso_b_vert
0
LINE
5
1A6
100
AcDbEntity
8
SK2
62
256
6
ByLayer
370
13
48
1
60
0
100
AcDbLine
10
-106.772015
20
12.4375
30
0
11
-114.522015
21
12.4375
31
0
39
0
210
0
220
0
230
1
0
LINE
5
1A7
100
AcDbEntity
8
SK2
62
256
6
ByLayer
370
13
48
1
60
0
100
AcDbLine
10
-106.772015
20
-12.4375
30
0
11
-114.522015
21
-12.4375
31
0
39
0
210
0
220
0
230
1
0
LINE
5
1A8
100
AcDbEntity
8
SK2
62
256
6
ByLayer
370
13
48
1
60
0
100
AcDbLine
10
-112.522015
20
12.4375
30
0
11
-112.522015
21
-12.4375
31
0
39
0
210
0
220
0
230
1
0
LINE
5
1A9
100
AcDbEntity
8
SK2
62
256
6
ByLayer
370
13
48
1
60
0
100
AcDbLine
10
-112.522015
20
12.4375
30
0
11
-112.104018
21
9.262502
31
0
39
0
210
0
220
0
230
1
0
LINE
5
1AA
100
AcDbEntity
8
SK2
62
256
6
ByLayer
370
13
48
1
60
0
100
AcDbLine
10
-112.522015
20
12.4375
30
0
11
-112.940011
21
9.262498
31
0
39
0
210
0
220
0
230
1
0
LINE
5
1AB
100
AcDbEntity
8
SK2
62
256
6
ByLayer
370
13
48
1
60
0
100
AcDbLine
10
-112.104018
20
9.262502
30
0
11
-112.940011
21
9.262498
31
0
39
0
210
0
220
0
230
1
0
LINE
5
1AC
100
AcDbEntity
8
SK2
62
256
6
ByLayer
370
13
48
1
60
0
100
AcDbLine
10
-112.522015
20
-12.4375
30
0
11
-112.940011
21
-9.262502
31
0
39
0
210
0
220
0
230
1
0
LINE
5
1AD
100
AcDbEntity
8
SK2
62
256
6
ByLayer
370
13
48
1
60
0
100
AcDbLine
10
-112.522015
20
-12.4375
30
0
11
-112.104018
21
-9.262498
31
0
39
0
210
0
220
0
230
1
0
LINE
5
1AE
100
AcDbEntity
8
SK2
62
256
6
ByLayer
370
13
48
1
60
0
100
AcDbLine
10
-112.940011
20
-9.262502
30
0
11
-112.104018
21
-9.262498
31
0
39
0
210
0
220
0
230
1
0
ENDBLK
5
1B0
100
AcDbEntity
8
0
100
AcDbBlockEnd
0
ENDSEC
0
SECTION
2
ENTITIES
0
ELLIPSE
5
D9
100
AcDbEntity
8
1
62
256
6
ByLayer
370
18
48
1
60
0
100
AcDbEllipse
10
9.89888
20
-14.789457
30
0
11
1.05272098840111
21
2.80923094824541
31
0
210
0
220
0
230
1
40
0.965976
41
0.034923266549834
42
0.123156309823629
0
ELLIPSE
5
DA
100
AcDbEntity
8
1
62
256
6
ByLayer
370
18
48
1
60
0
100
AcDbEllipse
10
16.922019
20
-10.733764
30
0
11
0.413072587376378
21
1.07325255068795
31
0
210
0
220
0
230
1
40
0.970308
41
0.377620512158687
42
0.514558866662784
0
ELLIPSE
5
DB
100
AcDbEntity
8
1
62
256
6
ByLayer
370
18
48
1
60
0
100
AcDbEllipse
10
16.922019
20
-10.733764
30
0
11
0.413072587376378
21
1.07325255068795
31
0
210
0
220
0
230
1
40
0.970308
41
2.88184734140494
42
0
0
ELLIPSE
5
DC
100
AcDbEntity
8
1
62
256
6
ByLayer
370
18
48
1
60
0
100
AcDbEllipse
10
16.922019
20
-10.733764
30
0
11
0.413072587376378
21
1.07325255068795
31
0
210
0
220
0
230
1
40
0.970308
41
0
42
0.377620866664583
0
ELLIPSE
5
DD
100
AcDbEntity
8
1
62
256
6
ByLayer
370
18
48
1
60
0
100
AcDbEllipse
10
15.333897
20
-10.318468
30
0
11
-0.912358189947621
21
-2.43466682181269
31
0
210
0
220
0
230
1
40
0.965976
41
-1.65832324518519
42
-1.24225848199746
0
ELLIPSE
5
DE
100
AcDbEntity
8
1
62
256
6
ByLayer
370
18
48
1
60
0
100
AcDbEllipse
10
34.58528
20
-13.499245
30
0
11
-0.654227641146901
21
-0.460419584248283
31
0
210
0
220
0
230
1
40
0.633191
41
-3.13421316552492
42
-3.05326527656178
0
ELLIPSE
5
DF
100
AcDbEntity
8
1
62
256
6
ByLayer
370
18
48
1
60
0
100
AcDbEllipse
10
31.282551
20
-18.003258
30
0
11
-0.28510988367826
21
-0.740777575746572
31
0
210
0
220
0
230
1
40
0.970308
41
-0.304593628763464
42
8.18707879584445E-06
0
ELLIPSE
5
E0
100
AcDbEntity
8
1
62
256
6
ByLayer
370
18
48
1
60
0
100
AcDbEllipse
10
16.071374
20
-11.649181
30
0
11
-0.136493550611325
21
-0.3546399732708
31
0
210
0
220
0
230
1
40
0.970308
41
0.830043308272135
42
1.02561085322934
0
ELLIPSE
5
E1
100
AcDbEntity
8
1
62
256
6
ByLayer
370
18
48
1
60
0
100
AcDbEllipse
10
16.685004
20
-10.642542
30
0
11
1.43677421696131
21
3.73305235021895
31
0
210
0
220
0
230
1
40
0.970308
41
0.377620869123766
42
3.14151943740633
0
ELLIPSE
5
E2
100
AcDbEntity
8
1
62
256
6
ByLayer
370
18
48
1
60
0
100
AcDbEllipse
10
16.685004
20
-10.642542
30
0
11
1.43677421696131
21
3.73305235021895
31
0
210
0
220
0
230
1
40
0.970308
41
-1.17296728569843
42
-1.37303580878462E-15
0
ELLIPSE
5
E3
100
AcDbEntity
8
1
62
256
6
ByLayer
370
18
48
1
60
0
100
AcDbEllipse
10
16.685004
20
-10.642542
30
0
11
1.43677421696131
21
3.73305235021895
31
0
210
0
220
0
230
1
40
0.970308
41
2.49049054040967E-05
42
0.377620612555109
0
ELLIPSE
5
E4
100
AcDbEntity
8
1
62
256
6
ByLayer
370
18
48
1
60
0
100
AcDbEllipse
10
17.299319
20
-9.18886
30
0
11
0.15265726055214
21
0.396636812210763
31
0
210
0
220
0
230
1
40
0.970308
41
2.4401312329923
42
-3.14158710550214
0
ELLIPSE
5
E5
100
AcDbEntity
8
1
62
256
6
ByLayer
370
18
48
1
60
0
100
AcDbEllipse
10
16.54472
20
-12.278668
30
0
11
0.15265726055214
21
0.396636812210763
31
0
210
0
220
0
230
1
40
0.970308
41
3.12314614796338E-06
42
1.02561085322933
0
ELLIPSE
5
E6
100
AcDbEntity
8
1
62
256
6
ByLayer
370
18
48
1
60
0
100
AcDbEllipse
10
17.772665
20
-9.818347
30
0
11
-0.136493550611325
21
-0.3546399732708
31
0
210
0
220
0
230
1
40
0.970308
41
1.33226161763412
42
2.31155769860286
0
ELLIPSE
5
E7
100
AcDbEntity
8
1
62
256
6
ByLayer
370
18
48
1
60
0
100
AcDbEllipse
10
17.25721
20
-11.928942
30
0
11
-0.136493550611325
21
-0.3546399732708
31
0
210
0
220
0
230
1
40
0.970308
41
0.825698985757045
42
2.07280840442592
0
ELLIPSE
5
E8
100
AcDbEntity
8
1
62
256
6
ByLayer
370
18
48
1
60
0
100
AcDbEllipse
10
34.982643
20
-14.092918
30
0
11
-0.672039267084601
21
-0.434008321920667
31
0
210
0
220
0
230
1
40
0.871401
41
-3.1412006972975
42
-3.0058763740594
0
ELLIPSE
5
E9
100
AcDbEntity
8
1
62
256
6
ByLayer
370
18
48
1
60
0
100
AcDbEllipse
10
16.73015
20
-10.659917
30
0
11
0.413072587376378
21
1.07325255068795
31
0
210
0
220
0
230
1
40
0.970308
41
-3.0493814926996
42
-0.0921607183362641
0
ELLIPSE
5
EA
100
AcDbEntity
8
1
62
256
6
ByLayer
370
18
48
1
60
0
100
AcDbEllipse
10
14.802379
20
-9.917958
30
0
11
0.700427430768641
21
1.81986302073174
31
0
210
0
220
0
230
1
40
0.970308
41
1.72799925854859
42
1.81095718544871
0
ELLIPSE
5
EB
100
AcDbEntity
8
1
62
256
6
ByLayer
370
18
48
1
60
0
100
AcDbEllipse
10
14.802379
20
-9.917958
30
0
11
0.700427430768641
21
1.81986302073174
31
0
210
0
220
0
230
1
40
0.970308
41
-1.17296705390932
42
0
0
ELLIPSE
5
EC
100
AcDbEntity
8
1
62
256
6
ByLayer
370
18
48
1
60
0
100
AcDbEllipse
10
14.802379
20
-9.917958
30
0
11
0.700427430768641
21
1.81986302073174
31
0
210
0
220
0
230
1
40
0.970308
41
0
42
0.377620798017451
0
ELLIPSE
5
ED
100
AcDbEntity
8
1
62
256
6
ByLayer
370
18
48
1
60
0
100
AcDbEllipse
10
34.265687
20
-10.233558
30
0
11
-0.28510988367826
21
-0.740777575746572
31
0
210
0
220
0
230
1
40
0.970308
41
-3.14158399193958
42
-2.83532104415521
0
ELLIPSE
5
EE
100
AcDbEntity
8
1
62
256
6
ByLayer
370
18
48
1
60
0
100
AcDbEllipse
10
17.337814
20
-10.789979
30
0
11
-1.45626403395486
21
-3.88610281173949
31
0
210
0
220
0
230
1
40
0.965976
41
0.123156309823614
42
2.95648030662535
0
ELLIPSE
5
EF
100
AcDbEntity
8
1
62
256
6
ByLayer
370
18
48
1
60
0
100
AcDbEllipse
10
11.867045
20
-5.104331
30
0
11
1.32737154840751
21
1.49602298527738
31
0
210
0
220
0
230
1
40
0.741658
41
0.525024408520357
42
1.79903922846756
0
ELLIPSE
5
F0
100
AcDbEntity
8
1
62
256
6
ByLayer
370
18
48
1
60
0
100
AcDbEllipse
10
12.116374
20
-16.300553
30
0
11
-3.47122364528003
21
0.534373983897333
31
0
210
0
220
0
230
1
40
0.288759
41
-0.693373955777795
42
0.103889717215203
0
ELLIPSE
5
F1
100
AcDbEntity
8
1
62
256
6
ByLayer
370
18
48
1
60
0
100
AcDbEllipse
10
15.258574
20
-3.434398
30
0
11
-3.32276241596074
21
1.1393619230874
31
0
210
0
220
0
230
1
40
0.351752
41
-0.0969927033305449
42
0.700270969662511
0
ELLIPSE
5
F2
100
AcDbEntity
8
1
62
256
6
ByLayer
370
18
48
1
60
0
100
AcDbEllipse
10
8.73149
20
-12.821917
30
0
11
-1.19550913368136
21
-2.75205861018735
31
0
210
0
220
0
230
1
40
0.977262
41
-1.39663653409167
42
-0.34027502325937
0
ELLIPSE
5
F3
100
AcDbEntity
8
1
62
256
6
ByLayer
370
18
48
1
60
0
100
AcDbEllipse
10
14.161606
20
-7.288175
30
0
11
5.34296837169728
21
-1.30487124998697
31
0
210
0
220
0
230
1
40
0.031772
41
-2.40716127761665
42
-1.86288922628206
0
ELLIPSE
5
F4
100
AcDbEntity
8
1
62
256
6
ByLayer
370
18
48
1
60
0
100
AcDbEllipse
10
15.141387
20
-6.142849
30
0
11
-3.43986510319523
21
3.79516224775912
31
0
210
0
220
0
230
1
40
0.36839
41
-0.49146391674232
42
-0.171324173893602
0
ELLIPSE
5
F5
100
AcDbEntity
8
1
62
256
6
ByLayer
370
18
48
1
60
0
100
AcDbEllipse
10
13.149499
20
-14.298899
30
0
11
-4.73237844491177
21
-1.23878404995714
31
0
210
0
220
0
230
1
40
0.331453
41
0.238357795760825
42
0.558497538584266
0
ELLIPSE
5
F6
100
AcDbEntity
8
1
62
256
6
ByLayer
370
18
48
1
60
0
100
AcDbEllipse
10
12.928532
20
-12.337159
30
0
11
5.34296837169728
21
-1.30487124998697
31
0
210
0
220
0
230
1
40
0.031772
41
-2.4071612776167
42
-1.86288922628206
0
ELLIPSE
5
F7
100
AcDbEntity
8
1
62
256
6
ByLayer
370
18
48
1
60
0
100
AcDbEllipse
10
10.723378
20
-4.665867
30
0
11
-1.19550913364706
21
-2.75205861020181
31
0
210
0
220
0
230
1
40
0.977262
41
-2.45299804493679
42
-1.39663653410446
0
ELLIPSE
5
F8
100
AcDbEntity
8
1
62
256
6
ByLayer
370
18
48
1
60
0
100
AcDbEllipse
10
9.852941
20
-13.351347
30
0
11
-0.36135956176792
21
1.96708395019605
31
0
210
0
220
0
230
1
40
0.760068
41
1.42906848243265
42
2.70308330237916
0
ELLIPSE
5
F9
100
AcDbEntity
8
1
62
256
6
ByLayer
370
18
48
1
60
0
100
AcDbEllipse
10
17.42991
20
-10.929241
30
0
11
0.422052426232386
21
1.09658412787682
31
0
210
0
220
0
230
1
40
0.970308
41
-0.978702718660161
42
-0.852215015262775
0
ELLIPSE
5
FA
100
AcDbEntity
8
1
62
256
6
ByLayer
370
18
48
1
60
0
100
AcDbEllipse
10
16.579265
20
-11.844658
30
0
11
-0.136493550611325
21
-0.3546399732708
31
0
210
0
220
0
230
1
40
0.970308
41
-1.80933103595566
42
1.02561085322932
0
ELLIPSE
5
FB
100
AcDbEntity
8
1
62
256
6
ByLayer
370
18
48
1
60
0
100
AcDbEllipse
10
17.765101
20
-12.124419
30
0
11
-0.136493550611325
21
-0.3546399732708
31
0
210
0
220
0
230
1
40
0.970308
41
-0.76213348475902
42
2.0728084044259
0
ELLIPSE
5
FC
100
AcDbEntity
8
1
62
256
6
ByLayer
370
18
48
1
60
0
100
AcDbEllipse
10
18.920565
20
-10.463956
30
0
11
0.15265726055214
21
0.396636812210763
31
0
210
0
220
0
230
1
40
0.970308
41
1.33226161763414
42
2.05049806807991
0
ELLIPSE
5
FD
100
AcDbEntity
8
1
62
256
6
ByLayer
370
18
48
1
60
0
100
AcDbEllipse
10
17.094719
20
-9.734063
30
0
11
-0.136493550611325
21
-0.3546399732708
31
0
210
0
220
0
230
1
40
0.970308
41
2.37945916883071
42
-1.06878424916387
0
ELLIPSE
5
FE
100
AcDbEntity
8
1
62
256
6
ByLayer
370
18
48
1
60
0
100
AcDbEllipse
10
17.05261
20
-12.474145
30
0
11
0.15265726055214
21
0.396636812210763
31
0
210
0
220
0
230
1
40
0.970308
41
-0.762133484759058
42
-0.0438970343132588
0
ELLIPSE
5
FF
100
AcDbEntity
8
1
62
256
6
ByLayer
370
18
48
1
60
0
100
AcDbEllipse
10
17.42991
20
-10.929241
30
0
11
0.422052426232386
21
1.09658412787682
31
0
210
0
220
0
230
1
40
0.970308
41
1.11569238373302
42
1.24218008713042
0
ELLIPSE
5
100
100
AcDbEntity
8
1
62
256
6
ByLayer
370
18
48
1
60
0
100
AcDbEllipse
10
17.42991
20
-10.929241
30
0
11
0.422052426232386
21
1.09658412787682
31
0
210
0
220
0
230
1
40
0.970308
41
-2.02590026985677
42
-1.89941256645937
0
ELLIPSE
5
101
100
AcDbEntity
8
1
62
256
6
ByLayer
370
18
48
1
60
0
100
AcDbEllipse
10
18.543265
20
-12.00886
30
0
11
0.15265726055214
21
0.396636812210763
31
0
210
0
220
0
230
1
40
0.970308
41
1.35457195398017
42
2.07280840442592
0
ELLIPSE
5
102
100
AcDbEntity
8
1
62
256
6
ByLayer
370
18
48
1
60
0
100
AcDbEllipse
10
16.316556
20
-9.849621
30
0
11
0.15265726055214
21
0.396636812210763
31
0
210
0
220
0
230
1
40
0.970308
41
-1.78702069960961
42
-1.06878424916387
0
ELLIPSE
5
103
100
AcDbEntity
8
1
62
256
6
ByLayer
370
18
48
1
60
0
100
AcDbEllipse
10
17.42991
20
-10.929241
30
0
11
0.422052426232386
21
1.09658412787682
31
0
210
0
220
0
230
1
40
0.970308
41
2.16288993492962
42
2.28937763832701
0
ELLIPSE
5
104
100
AcDbEntity
8
1
62
256
6
ByLayer
370
18
48
1
60
0
100
AcDbEllipse
10
18.920565
20
-10.463956
30
0
11
0.15265726055214
21
0.396636812210763
31
0
210
0
220
0
230
1
40
0.970308
41
2.40176950517678
42
3.12000595562256
0
ELLIPSE
5
105
100
AcDbEntity
8
1
62
256
6
ByLayer
370
18
48
1
60
0
100
AcDbEllipse
10
18.543265
20
-12.00886
30
0
11
0.15265726055214
21
0.396636812210763
31
0
210
0
220
0
230
1
40
0.970308
41
0.285064066437586
42
1.00330051688327
0
ELLIPSE
5
106
100
AcDbEntity
8
1
62
256
6
ByLayer
370
18
48
1
60
0
100
AcDbEllipse
10
18.107856
20
-11.013525
30
0
11
-0.136493550611325
21
-0.3546399732708
31
0
210
0
220
0
230
1
40
0.970308
41
0.285064066437567
42
3.12000595562244
0
ELLIPSE
5
107
100
AcDbEntity
8
1
62
256
6
ByLayer
370
18
48
1
60
0
100
AcDbEllipse
10
17.42991
20
-10.929241
30
0
11
-0.826145174752755
21
-2.14650510137589
31
0
210
0
220
0
230
1
40
0.970308
41
0
42
6.28318530717959
0
ELLIPSE
5
108
100
AcDbEntity
8
1
62
256
6
ByLayer
370
18
48
1
60
0
100
AcDbEllipse
10
15.939256
20
-11.394526
30
0
11
0.15265726055214
21
0.396636812210763
31
0
210
0
220
0
230
1
40
0.970308
41
-0.739823148413029
42
-0.0215866979673003
0
ELLIPSE
5
109
100
AcDbEntity
8
1
62
256
6
ByLayer
370
18
48
1
60
0
100
AcDbEllipse
10
16.316556
20
-9.849621
30
0
11
0.15265726055214
21
0.396636812210763
31
0
210
0
220
0
230
1
40
0.970308
41
-2.85652858715223
42
-2.13829213670651
0
ELLIPSE
5
10A
100
AcDbEntity
8
1
62
256
6
ByLayer
370
18
48
1
60
0
100
AcDbEllipse
10
17.80721
20
-9.384337
30
0
11
0.15265726055214
21
0.396636812210763
31
0
210
0
220
0
230
1
40
0.970308
41
2.37945916883072
42
3.09769561927647
0
ELLIPSE
5
10B
100
AcDbEntity
8
1
62
256
6
ByLayer
370
18
48
1
60
0
100
AcDbEllipse
10
15.939256
20
-11.394526
30
0
11
0.15265726055214
21
0.396636812210763
31
0
210
0
220
0
230
1
40
0.970308
41
-1.80933103595563
42
-1.0910945855099
0
ELLIPSE
5
10C
100
AcDbEntity
8
1
62
256
6
ByLayer
370
18
48
1
60
0
100
AcDbEllipse
10
17.42991
20
-10.929241
30
0
11
0.422052426232386
21
1.09658412787682
31
0
210
0
220
0
230
1
40
0.970308
41
0.0684948325364219
42
0.194982535933819
0
ELLIPSE
5
10D
100
AcDbEntity
8
1
62
256
6
ByLayer
370
18
48
1
60
0
100
AcDbEllipse
10
18.412674
20
-10.268479
30
0
11
0.15265726055214
21
0.396636812210763
31
0
210
0
220
0
230
1
40
0.970308
41
1.33226161763415
42
3.12000595562256
0
ELLIPSE
5
10E
100
AcDbEntity
8
1
62
256
6
ByLayer
370
18
48
1
60
0
100
AcDbEllipse
10
17.23425
20
-10.853935
30
0
11
-1.43677421696131
21
-3.73305235021895
31
0
210
0
220
0
230
1
40
0.970308
41
0
42
6.28318530717959
0
ELLIPSE
5
10F
100
AcDbEntity
8
1
62
256
6
ByLayer
370
18
48
1
60
0
100
AcDbEllipse
10
18.035374
20
-11.813383
30
0
11
0.15265726055214
21
0.396636812210763
31
0
210
0
220
0
230
1
40
0.970308
41
0.28506406643759
42
2.07280840442593
0
ELLIPSE
5
110
100
AcDbEntity
8
1
62
256
6
ByLayer
370
18
48
1
60
0
100
AcDbEllipse
10
16.244074
20
-10.64948
30
0
11
-0.136493550611325
21
-0.3546399732708
31
0
210
0
220
0
230
1
40
0.970308
41
-2.8565285871523
42
-0.0215866979673205
0
ELLIPSE
5
111
100
AcDbEntity
8
1
62
256
6
ByLayer
370
18
48
1
60
0
100
AcDbEllipse
10
18.280555
20
-10.013823
30
0
11
-0.136493550611325
21
-0.3546399732708
31
0
210
0
220
0
230
1
40
0.970308
41
1.33226161763413
42
-2.11598180036049
0
ELLIPSE
5
112
100
AcDbEntity
8
1
62
256
6
ByLayer
370
18
48
1
60
0
100
AcDbEllipse
10
18.615746
20
-11.209001
30
0
11
-0.136493550611325
21
-0.3546399732708
31
0
210
0
220
0
230
1
40
0.970308
41
0.285064066437502
42
3.12000595562255
0
ELLIPSE
5
113
100
AcDbEntity
8
1
62
256
6
ByLayer
370
18
48
1
60
0
100
AcDbEllipse
10
17.80721
20
-9.384337
30
0
11
0.15265726055214
21
0.396636812210763
31
0
210
0
220
0
230
1
40
0.970308
41
-2.83421825080624
42
-2.11598180036045
0
ELLIPSE
5
114
100
AcDbEntity
8
1
62
256
6
ByLayer
370
18
48
1
60
0
100
AcDbEllipse
10
17.42991
20
-10.929241
30
0
11
0.422052426232386
21
1.09658412787682
31
0
210
0
220
0
230
1
40
0.970308
41
-3.07309782105336
42
-2.94661011765595
0
ELLIPSE
5
115
100
AcDbEntity
8
1
62
256
6
ByLayer
370
18
48
1
60
0
100
AcDbEllipse
10
17.05261
20
-12.474145
30
0
11
0.15265726055214
21
0.396636812210763
31
0
210
0
220
0
230
1
40
0.970308
41
0.307374402783589
42
1.02561085322931
0
ELLIPSE
5
116
100
AcDbEntity
8
1
62
256
6
ByLayer
370
18
48
1
60
0
100
AcDbEllipse
10
30.080992
20
-10.89027
30
0
11
-2.53500878530219
21
-0.974273330822037
31
0
210
0
220
0
230
1
40
0.380077
41
-2.8126889979684
42
-2.44141797915401
0
ELLIPSE
5
117
100
AcDbEntity
8
1
62
256
6
ByLayer
370
18
48
1
60
0
100
AcDbEllipse
10
30.271161
20
-28.747599
30
0
11
3.66377425325136
21
9.51928349305834
31
0
210
0
220
0
230
1
40
0.970308
41
0.340214977436952
42
0.6206771243687
0
ELLIPSE
5
118
100
AcDbEntity
8
1
62
256
6
ByLayer
370
18
48
1
60
0
100
AcDbEllipse
10
5.398549
20
-17.517932
30
0
11
-0.809744039842028
21
0.0561177487331891
31
0
210
0
220
0
230
1
40
0.071934
41
-2.91170619489778
42
-1.34090986810244
0
ELLIPSE
5
119
100
AcDbEntity
8
1
62
256
6
ByLayer
370
18
48
1
60
0
100
AcDbEllipse
10
40.704034
20
-1.574755
30
0
11
3.66377425325135
21
9.51928349305831
31
0
210
0
220
0
230
1
40
0.970308
41
2.20006264120504
42
2.80765339478977
0
ELLIPSE
5
11A
100
AcDbEntity
8
1
62
256
6
ByLayer
370
18
48
1
60
0
100
AcDbEllipse
10
12.271099
20
10.622635
30
0
11
-0.690508613520567
21
0.543065164660281
31
0
210
0
220
0
230
1
40
0.066376
41
1.35872126947754
42
2.92951759627396
0
ELLIPSE
5
11B
100
AcDbEntity
8
1
62
256
6
ByLayer
370
18
48
1
60
0
100
AcDbEllipse
10
35.340723
20
-10.647317
30
0
11
-0.28510988367826
21
-0.740777575746572
31
0
210
0
220
0
230
1
40
0.970308
41
2.83699902482633
42
-2.83532104415525
0
ELLIPSE
5
11C
100
AcDbEntity
8
1
62
256
6
ByLayer
370
18
48
1
60
0
100
AcDbEllipse
10
45.804722
20
-19.121751
30
0
11
-0.28510988367826
21
-0.740777575746572
31
0
210
0
220
0
230
1
40
0.970308
41
0.306271609434658
42
2.8369990248263
0
ELLIPSE
5
11D
100
AcDbEntity
8
1
62
256
6
ByLayer
370
18
48
1
60
0
100
AcDbEllipse
10
32.357587
20
-18.417017
30
0
11
-0.28510988367826
21
-0.740777575746572
31
0
210
0
220
0
230
1
40
0.970308
41
-0.304593628763392
42
0.306271609434584
0
POINT
5
6C
100
AcDbEntity
8
2
62
256
6
ByLayer
370
18
48
1
60
0
100
AcDbPoint
10
46.577985
20
44.7875
30
0
39
0
210
0
220
0
230
1
50
360
0
POINT
5
6E
100
AcDbEntity
8
80
62
256
6
ByLayer
370
18
48
1
60
0
100
AcDbPoint
10
0
20
0
30
0
39
0
210
0
220
0
230
1
50
360
0
POINT
5
70
100
AcDbEntity
8
81
62
256
6
ByLayer
370
18
48
1
60
0
100
AcDbPoint
10
46.577985
20
-19.9125
30
0
39
0
210
0
220
0
230
1
50
360
0
SPLINE
5
11E
100
AcDbEntity
8
1
62
256
6
ByLayer
370
18
48
1
60
0
100
AcDbSpline
70
4
71
3
72
12
73
8
40
0
40
0
40
0
40
0
40
0.181094552029539
40
0.423632917611251
40
0.67183300111083
40
0.916205494472398
40
1
40
1
40
1
40
1
41
1
10
35.3490497727308
20
-15.9424862912057
30
0
41
1
10
35.4190522672879
20
-15.8454000252706
30
0
41
1
10
35.5648295588197
20
-15.6096429497752
30
0
41
1
10
35.7279741882338
20
-15.1945216002983
30
0
41
1
10
35.8249146880453
20
-14.7199559129065
30
0
41
1
10
35.8473726303019
20
-14.3376204167913
30
0
41
1
10
35.8154894436805
20
-14.1255792180634
30
0
41
1
10
35.8051137344344
20
-14.0715393282336
30
0
0
SPLINE
5
11F
100
AcDbEntity
8
1
62
256
6
ByLayer
370
18
48
1
60
0
100
AcDbSpline
70
4
71
3
72
12
73
8
40
0
40
0
40
0
40
0
40
0.188394186061638
40
0.326204074090666
40
0.437042013193271
40
0.663031947676247
40
1
40
1
40
1
40
1
41
1
10
34.9689097074577
20
-16.2500474716439
30
0
41
1
10
34.9865146517957
20
-16.2424952134021
30
0
41
1
10
35.0196009249178
20
-16.227063524254
30
0
41
1
10
35.0589423355853
20
-16.2076064018282
30
0
41
1
10
35.1282733919552
20
-16.1688615025834
30
0
41
1
10
35.2407142611368
20
-16.0887442910704
30
0
41
1
10
35.3129439967373
20
-16.0044656520549
30
0
41
1
10
35.3526358453175
20
-15.9459867952563
30
0
0
SPLINE
5
120
100
AcDbEntity
8
1
62
256
6
ByLayer
370
18
48
1
60
0
100
AcDbSpline
70
4
71
3
72
11
73
7
40
0
40
0
40
0
40
0
40
0.221940578736777
40
0.581612626433814
40
0.881026681056532
40
1
40
1
40
1
40
1
41
1
10
35.6515973012342
20
-13.6548432932738
30
0
41
1
10
35.6287630388035
20
-13.6191282998931
30
0
41
1
10
35.5649581828445
20
-13.5202998330834
30
0
41
1
10
35.4537756824366
20
-13.3511324944642
30
0
41
1
10
35.3378702437071
20
-13.1788091252228
30
0
41
1
10
35.25955769641
20
-13.0678607421293
30
0
41
1
10
35.2363311485366
20
-13.0351855149607
30
0
0
SPLINE
5
121
100
AcDbEntity
8
1
62
256
6
ByLayer
370
18
48
1
60
0
100
AcDbSpline
70
4
71
2
72
6
73
3
40
0
40
0
40
0
40
1
40
1
40
1
41
1
10
35.2383183017951
20
-13.0352653450737
30
0
41
1
10
35.1125080535395
20
-12.859408922359
30
0
41
1
10
34.9824375116126
20
-12.6708744579896
30
0
0
SPLINE
5
122
100
AcDbEntity
8
1
62
256
6
ByLayer
370
18
48
1
60
0
100
AcDbSpline
70
4
71
3
72
12
73
8
40
0
40
0
40
0
40
0
40
0.0711672058492747
40
0.35744889228723
40
0.603706945789221
40
0.841367499765294
40
1
40
1
40
1
40
1
41
1
10
35.8117076907001
20
-14.0702790458489
30
0
41
1
10
35.8114184361298
20
-14.0579181145273
30
0
41
1
10
35.8081123169961
20
-13.9965639717591
30
0
41
1
10
35.7774065062531
20
-13.8974283003332
30
0
41
1
10
35.7306604873662
20
-13.7867931350371
30
0
41
1
10
35.6903861810245
20
-13.7151629002254
30
0
41
1
10
35.6644018203435
20
-13.6745378808505
30
0
41
1
10
35.6538471046202
20
-13.6592590010275
30
0
0
SPLINE
5
123
100
AcDbEntity
8
1
62
256
6
ByLayer
370
18
48
1
60
0
100
AcDbSpline
70
4
71
3
72
8
73
4
40
0
40
0
40
0
40
0
40
1
40
1
40
1
40
1
41
1
10
10.2543396675455
20
-1.75446028860699
30
0
41
1
10
10.1489818192114
20
-1.76448019999512
30
0
41
1
10
10.0430915945461
20
-1.77897874615869
30
0
41
1
10
9.93743943109172
20
-1.79847703494488
30
0
0
SPLINE
5
124
100
AcDbEntity
8
1
62
256
6
ByLayer
370
18
48
1
60
0
100
AcDbSpline
70
4
71
3
72
8
73
4
40
0
40
0
40
0
40
0
40
1
40
1
40
1
40
1
41
1
10
6.96797352130142
20
-15.2192514686173
30
0
41
1
10
6.87907949492623
20
-15.1590514506379
30
0
41
1
10
6.79174914751741
20
-15.0947533435555
30
0
41
1
10
6.70692270425269
20
-15.026256170942
30
0
0
SPLINE
5
125
100
AcDbEntity
8
1
62
256
6
ByLayer
370
18
48
1
60
0
100
AcDbSpline
70
4
71
3
72
10
73
6
40
0
40
0
40
0
40
0
40
0.442755771265646
40
0.442755771265646
40
1
40
1
40
1
40
1
41
1
10
35.361158028416
20
-15.9383111589578
30
0
41
1
10
35.3655420797874
20
-15.9313141573206
30
0
41
1
10
35.3573534070627
20
-15.9278689708789
30
0
41
1
10
35.3133919759015
20
-15.9265263097404
30
0
41
1
10
35.2707535394843
20
-15.930125616476
30
0
41
1
10
35.2147701830888
20
-15.9371458626636
30
0
0
SPLINE
5
126
100
AcDbEntity
8
1
62
256
6
ByLayer
370
18
48
1
60
0
100
AcDbSpline
70
4
71
3
72
10
73
6
40
0
40
0
40
0
40
0
40
0.484290600089934
40
0.484290600089934
40
1
40
1
40
1
40
1
41
1
10
35.6784303498436
20
-14.0588483426986
30
0
41
1
10
35.7218830183998
20
-14.0805616524332
30
0
41
1
10
35.7567992364546
20
-14.094199505478
30
0
41
1
10
35.8050946168899
20
-14.1014681133329
30
0
41
1
10
35.8173052179558
20
-14.093646947664
30
0
41
1
10
35.8149575497603
20
-14.0723326511387
30
0
0
SPLINE
5
127
100
AcDbEntity
8
1
62
256
6
ByLayer
370
18
48
1
60
0
100
AcDbSpline
70
4
71
3
72
8
73
4
40
0
40
0
40
0
40
0
40
1
40
1
40
1
40
1
41
1
10
32.2672597440875
20
-9.61582658680274
30
0
41
1
10
32.2983428133258
20
-9.62955268095769
30
0
41
1
10
32.3294256778327
20
-9.64327876342384
30
0
41
1
10
32.3605083367902
20
-9.65700483415441
30
0
0
SPLINE
5
128
100
AcDbEntity
8
1
62
256
6
ByLayer
370
18
48
1
60
0
100
AcDbSpline
70
4
71
3
72
8
73
4
40
0
40
0
40
0
40
0
40
1
40
1
40
1
40
1
41
1
10
8.38809799799338
20
-13.0150092311932
30
0
41
1
10
8.36317633126026
20
-13.1251750744936
30
0
41
1
10
8.3407852367867
20
-13.2362679642083
30
0
41
1
10
8.32177163704222
20
-13.3453929087721
30
0
0
SPLINE
5
129
100
AcDbEntity
8
1
62
256
6
ByLayer
370
18
48
1
60
0
100
AcDbSpline
70
4
71
2
72
6
73
3
40
0
40
0
40
0
40
1
40
1
40
1
41
1
10
33.9087196714937
20
-16.743054846775
30
0
41
1
10
32.4980136332596
20
-17.3637485498854
30
0
41
1
10
31.1969496260716
20
-17.7184022741907
30
0
0
SPLINE
5
12A
100
AcDbEntity
8
1
62
256
6
ByLayer
370
18
48
1
60
0
100
AcDbSpline
70
4
71
2
72
6
73
3
40
0
40
0
40
0
40
1
40
1
40
1
41
1
10
32.9558782978066
20
-10.5162239738292
30
0
41
1
10
33.9515591793417
20
-11.4129366613762
30
0
41
1
10
34.9217306435817
20
-12.5951100138324
30
0
0
SPLINE
5
12B
100
AcDbEntity
8
1
62
256
6
ByLayer
370
18
48
1
60
0
100
AcDbSpline
70
4
71
3
72
12
73
8
40
0
40
0
40
0
40
0
40
0.401843340305644
40
0.401843340305644
40
0.81606012810993
40
0.81606012810993
40
1
40
1
40
1
40
1
41
1
10
12.9507245062765
20
-13.0201563757572
30
0
41
1
10
12.8580456137301
20
-12.9117900873724
30
0
41
1
10
12.7458383582014
20
-12.8066234905301
30
0
41
1
10
12.4980266472251
20
-12.6156134519432
30
0
41
1
10
12.3592528232773
20
-12.5281490981643
30
0
41
1
10
12.1539335546925
20
-12.4191872663714
30
0
41
1
10
12.0894561200512
20
-12.3876682562934
30
0
41
1
10
12.0245948076861
20
-12.3582935072023
30
0
0
SPLINE
5
12C
100
AcDbEntity
8
1
62
256
6
ByLayer
370
18
48
1
60
0
100
AcDbSpline
70
4
71
3
72
10
73
6
40
0
40
0
40
0
40
0
40
0.999906028841221
40
0.999906028841221
40
1
40
1
40
1
40
1
41
1
10
34.3480351570543
20
-16.5385856440687
30
0
41
1
10
34.2032453709223
20
-16.6061770993931
30
0
41
1
10
34.0568695956278
20
-16.6752942590379
30
0
41
1
10
33.909622627013
20
-16.7452178593569
30
0
41
1
10
33.9096087900276
20
-16.7452244301697
30
0
41
1
10
33.909594953053
20
-16.7452310009821
30
0
0
SPLINE
5
12D
100
AcDbEntity
8
1
62
256
6
ByLayer
370
18
48
1
60
0
100
AcDbSpline
70
4
71
3
72
13
73
9
40
0
40
0
40
0
40
0
40
0.21907077297069
40
0.21907077297069
40
0.21907077297069
40
0.652376048528387
40
0.652376048528387
40
1
40
1
40
1
40
1
41
1
10
17.140138785388
20
-6.55639246035671
30
0
41
1
10
16.9473662036432
20
-6.51091381742145
30
0
41
1
10
16.7525302081612
20
-6.48083569428823
30
0
41
1
10
16.5599942043464
20
-6.46712176994436
30
0
41
1
10
16.1829612497472
20
-6.44026652566754
30
0
41
1
10
15.808025388745
20
-6.47693180848853
30
0
41
1
10
15.1742403371489
20
-6.6471049219077
30
0
41
1
10
14.9013343929094
20
-6.76110102857777
30
0
41
1
10
14.6442408170276
20
-6.90719266246799
30
0
0
SPLINE
5
12E
100
AcDbEntity
8
1
62
256
6
ByLayer
370
18
48
1
60
0
100
AcDbSpline
70
4
71
3
72
8
73
4
40
0
40
0
40
0
40
0
40
1
40
1
40
1
40
1
41
1
10
8.39396180478496
20
-12.9900779560273
30
0
41
1
10
8.39193692132636
20
-12.9983691098677
30
0
41
1
10
8.38998199674762
20
-13.0066810437649
30
0
41
1
10
8.38809799799299
20
-13.0150092311933
30
0
0
SPLINE
5
12F
100
AcDbEntity
8
1
62
256
6
ByLayer
370
18
48
1
60
0
100
AcDbSpline
70
4
71
3
72
24
73
20
40
0
40
0
40
0
40
0
40
0.193947210779293
40
0.193947210779293
40
0.435758612862246
40
0.435758612862246
40
0.688024122938478
40
0.688024122938478
40
0.877280955594746
40
0.877280955594746
40
0.970135497295752
40
0.970135497295752
40
0.993290262270173
40
0.993290262270173
40
0.99899647473313
40
0.99899647473313
40
0.999887794663951
40
0.999887794663951
40
1
40
1
40
1
40
1
41
1
10
35.2148706014381
20
-15.9369594474612
30
0
41
1
10
35.1871169208599
20
-15.9385094925854
30
0
41
1
10
35.1626671265371
20
-15.9276384589709
30
0
41
1
10
35.1105335466447
20
-15.8881729672327
30
0
41
1
10
35.0833412047027
20
-15.8547018724216
30
0
41
1
10
35.0291890773025
20
-15.7705304210882
30
0
41
1
10
35.0019848901231
20
-15.7185287488069
30
0
41
1
10
34.9539047636948
20
-15.61702996827
30
0
41
1
10
34.9330123594144
20
-15.5698355778336
30
0
41
1
10
34.9011776482864
20
-15.4956353328328
30
0
41
1
10
34.890565906362
20
-15.4705251328719
30
0
41
1
10
34.8771228870857
20
-15.4384784574277
30
0
41
1
10
34.8744446095505
20
-15.4320308738558
30
0
41
1
10
34.8710369848969
20
-15.4240090288707
30
0
41
1
10
34.8705199749906
20
-15.4222092901336
30
0
41
1
10
34.8693893572949
20
-15.4207827755032
30
0
41
1
10
34.8691987264677
20
-15.4206351159962
30
0
41
1
10
34.8689633878469
20
-15.4205437733271
30
0
41
1
10
34.8689363162596
20
-15.4205342102068
30
0
41
1
10
34.8689090332119
20
-15.420525375281
30
0
0
SPLINE
5
130
100
AcDbEntity
8
1
62
256
6
ByLayer
370
18
48
1
60
0
100
AcDbSpline
70
4
71
3
72
8
73
4
40
0
40
0
40
0
40
0
40
1
40
1
40
1
40
1
41
1
10
14.4159696090049
20
-7.02051599687638
30
0
41
1
10
14.4945340588184
20
-6.98677845989241
30
0
41
1
10
14.5708901924801
20
-6.94887364399489
30
0
41
1
10
14.6442408170276
20
-6.90719266246799
30
0
0
SPLINE
5
131
100
AcDbEntity
8
1
62
256
6
ByLayer
370
18
48
1
60
0
100
AcDbSpline
70
4
71
3
72
12
73
8
40
0
40
0
40
0
40
0
40
0.264973649149777
40
0.529947298299554
40
0.662434122874443
40
0.794920947449331
40
1
40
1
40
1
40
1
41
1.02994816993494
10
16.8088484890104
20
-16.9625404761766
30
0
41
1.03004363841634
10
17.8411220713896
20
-17.1868079893682
30
0
41
1.03021336426305
10
21.6305900750785
20
-18.0169494285983
30
0
41
1.0311558410484
10
27.5340209842383
20
-17.8572108407352
30
0
41
1.03077804826571
10
29.8363518447147
20
-17.507408523626
30
0
41
1.03340133735628
10
32.3555753701944
20
-17.0989173371821
30
0
41
1.0349314968617
10
33.9365799194193
20
-16.6207968394141
30
0
41
1.03576782913895
10
34.8775482120463
20
-16.2699048220604
30
0
0
SPLINE
5
132
100
AcDbEntity
8
1
62
256
6
ByLayer
370
18
48
1
60
0
100
AcDbSpline
70
4
71
3
72
10
73
6
40
0
40
0
40
0
40
0
40
0.493880230204841
40
0.493880230204841
40
1
40
1
40
1
40
1
41
1
10
34.9432811294993
20
-16.2617672341342
30
0
41
1
10
34.8660104067149
20
-16.297217644057
30
0
41
1
10
34.7826516538433
20
-16.3356957366531
30
0
41
1
10
34.5917392991993
20
-16.4245252279628
30
0
41
1
10
34.4834836800066
20
-16.4753549215677
30
0
41
1
10
34.3480351570543
20
-16.5385856440687
30
0
0
SPLINE
5
133
100
AcDbEntity
8
1
62
256
6
ByLayer
370
18
48
1
60
0
100
AcDbSpline
70
4
71
3
72
10
73
6
40
0
40
0
40
0
40
0
40
0.5
40
0.5
40
1
40
1
40
1
40
1
41
1
10
8.3217716370425
20
-13.3453929087721
30
0
41
1
10
8.19458162215068
20
-14.0753758425999
30
0
41
1
10
8.22792700342291
20
-14.6633689711235
30
0
41
1
10
8.31693406752879
20
-15.4034474372061
30
0
41
1
10
8.35389687945093
20
-15.6342167585111
30
0
41
1
10
8.6478638303247
20
-15.873007014973
30
0
0
SPLINE
5
134
100
AcDbEntity
8
1
62
256
6
ByLayer
370
18
48
1
60
0
100
AcDbSpline
70
4
71
3
72
8
73
4
40
0
40
0
40
0
40
0
40
1
40
1
40
1
40
1
41
1
10
31.196948239077
20
-17.718499082853
30
0
41
1
10
30.0710307945585
20
-17.9685047114257
30
0
41
1
10
28.847843409632
20
-18.1687151977722
30
0
41
1
10
27.53531453905
20
-18.3792157399096
30
0
0
SPLINE
5
135
100
AcDbEntity
8
1
62
256
6
ByLayer
370
18
48
1
60
0
100
AcDbSpline
70
4
71
3
72
8
73
4
40
0
40
0
40
0
40
0
40
1
40
1
40
1
40
1
41
1
10
29.9875203559051
20
-8.33833383644244
30
0
41
1
10
31.0598255119681
20
-9.11146114939496
30
0
41
1
10
32.0608982915564
20
-9.82072836914074
30
0
41
1
10
32.9559273303455
20
-10.5161259359021
30
0
0
SPLINE
5
136
100
AcDbEntity
8
1
62
256
6
ByLayer
370
18
48
1
60
0
100
AcDbSpline
70
4
71
3
72
8
73
4
40
0
40
0
40
0
40
0
40
1
40
1
40
1
40
1
41
1
10
10.3921343673427
20
-4.80921656216677
30
0
41
1
10
11.1875975269536
20
-5.33744226234737
30
0
41
1
10
12.2329677794275
20
-6.22358374789471
30
0
41
1
10
13.2873064064231
20
-7.18795341834954
30
0
0
SPLINE
5
137
100
AcDbEntity
8
1
62
256
6
ByLayer
370
18
48
1
60
0
100
AcDbSpline
70
4
71
3
72
10
73
6
40
0
40
0
40
0
40
0
40
0.794724528922942
40
0.794724528922942
40
1
40
1
40
1
40
1
41
1
10
35.2112400935964
20
-13.0040785618492
30
0
41
1
10
35.3509639793485
20
-13.202375972519
30
0
41
1
10
35.447284430673
20
-13.3506842649858
30
0
41
1
10
35.5552575262243
20
-13.517865827374
30
0
41
1
10
35.5766614259886
20
-13.55124173374
30
0
41
1
10
35.5973326818033
20
-13.5836664196064
30
0
0
SPLINE
5
138
100
AcDbEntity
8
1
62
256
6
ByLayer
370
18
48
1
60
0
100
AcDbSpline
70
4
71
3
72
13
73
9
40
0
40
0
40
0
40
0
40
0.476351510225591
40
0.476351510225591
40
0.476351510225591
40
0.687543277835218
40
0.687543277835218
40
1
40
1
40
1
40
1
41
1
10
13.1027329589507
20
-13.2191010063062
30
0
41
1
10
13.3246006268291
20
-13.5458757103405
30
0
41
1
10
13.6018281735762
20
-13.8331543230203
30
0
41
1
10
13.9263017690522
20
-14.0631089115973
30
0
41
1
10
14.0716721251615
20
-14.1661329508302
30
0
41
1
10
14.2276354018356
20
-14.2586689371251
30
0
41
1
10
14.6342414323508
20
-14.4574888227677
30
0
41
1
10
14.8981335046389
20
-14.5507452495372
30
0
41
1
10
15.1719635737363
20
-14.6153468636501
30
0
0
SPLINE
5
139
100
AcDbEntity
8
1
62
256
6
ByLayer
370
18
48
1
60
0
100
AcDbSpline
70
4
71
3
72
15
73
11
40
0
40
0
40
0
40
0
40
0.284308369869426
40
0.284308369869426
40
0.60455231273422
40
0.60455231273422
40
0.883194505470762
40
0.883194505470762
40
0.883194505470762
40
1
40
1
40
1
40
1
41
1
10
17.8976605301131
20
-15.1817072134745
30
0
41
1
10
18.3134609443817
20
-15.2017296805763
30
0
41
1
10
18.7399386291011
20
-15.1665874782142
30
0
41
1
10
19.608537712668
20
-14.981163544945
30
0
41
1
10
20.0590149973446
20
-14.8145536254298
30
0
41
1
10
20.8211316695383
20
-14.3782864137262
30
0
41
1
10
21.1514337426432
20
-14.1188145314952
30
0
41
1
10
21.4248593228046
20
-13.8139519765279
30
0
41
1
10
21.5407904546837
20
-13.6846917184202
30
0
41
1
10
21.6475277524909
20
-13.5464134411228
30
0
41
1
10
21.7424617408995
20
-13.4013872515999
30
0
0
SPLINE
5
13A
100
AcDbEntity
8
1
62
256
6
ByLayer
370
18
48
1
60
0
100
AcDbSpline
70
4
71
3
72
28
73
24
40
0
40
0
40
0
40
0
40
0.0002961516836979
40
0.0002961516836979
40
0.0005569094112348
40
0.0005569094112348
40
0.0008621321650928
40
0.0008621321650928
40
0.0052375575543775
40
0.0052375575543775
40
0.0234742370313612
40
0.0234742370313612
40
0.0971618665659937
40
0.0971618665659937
40
0.250932327370099
40
0.250932327370099
40
0.469025234052064
40
0.469025234052064
40
0.708581876348099
40
0.708581876348099
40
0.999960210619058
40
0.999960210619058
40
1
40
1
40
1
40
1
41
1
10
34.8686149107817
20
-15.420917386022
30
0
41
1
10
34.8687215538618
20
-15.4208993844414
30
0
41
1
10
34.8688287138992
20
-15.4208900161301
30
0
41
1
10
34.8690218846493
20
-15.4209116718359
30
0
41
1
10
34.8691101755896
20
-15.4209398341719
30
0
41
1
10
34.869277307217
20
-15.4210502842234
30
0
41
1
10
34.8693536143829
20
-15.4211416216497
30
0
41
1
10
34.8702892066664
20
-15.4226798681118
30
0
41
1
10
34.8704213820211
20
-15.4248204820344
30
0
41
1
10
34.8724948789065
20
-15.434398204352
30
0
41
1
10
34.8740770317185
20
-15.4421408493146
30
0
41
1
10
34.8820168378697
20
-15.4809632451513
30
0
41
1
10
34.8879410464107
20
-15.511698119268
30
0
41
1
10
34.9049575830104
20
-15.6048552415753
30
0
41
1
10
34.9147323129581
20
-15.6657721682021
30
0
41
1
10
34.9342812466056
20
-15.8052878091289
30
0
41
1
10
34.94251729298
20
-15.881455885884
30
0
41
1
10
34.951763878454
20
-16.0232703891276
30
0
41
1
10
34.9521382481273
20
-16.0882209778849
30
0
41
1
10
34.9374157563731
20
-16.2029717325457
30
0
41
1
10
34.9185852873275
20
-16.2485999278773
30
0
41
1
10
34.8805656401243
20
-16.2687773837321
30
0
41
1
10
34.88055680562
20
-16.2687820711123
30
0
41
1
10
34.8805479706477
20
-16.2687867576107
30
0
0
SPLINE
5
13B
100
AcDbEntity
8
1
62
256
6
ByLayer
370
18
48
1
60
0
100
AcDbSpline
70
4
71
3
72
8
73
4
40
0
40
0
40
0
40
0
40
1
40
1
40
1
40
1
41
1
10
17.8976605301131
20
-15.1817072134745
30
0
41
1
10
17.631412991276
20
-15.1691957005885
30
0
41
1
10
17.3663313795574
20
-15.1330391049754
30
0
41
1
10
17.112842563308
20
-15.0732363713193
30
0
0
SPLINE
5
13C
100
AcDbEntity
8
1
62
256
6
ByLayer
370
18
48
1
60
0
100
AcDbSpline
70
4
71
3
72
8
73
4
40
0
40
0
40
0
40
0
40
1
40
1
40
1
40
1
41
1
10
19.829656331343
20
-7.2708942038953
30
0
41
1
10
19.5871312171483
20
-7.16124807748611
30
0
41
1
10
19.3345065912091
20
-7.07408470168201
30
0
41
1
10
19.0810177749597
20
-7.0142819680259
30
0
0
SPLINE
5
13D
100
AcDbEntity
8
1
62
256
6
ByLayer
370
18
48
1
60
0
100
AcDbSpline
70
4
71
2
72
6
73
3
40
0
40
0
40
0
40
1
40
1
40
1
41
0.933477290422637
10
17.8976605377322
20
-15.1817071951078
30
0
41
0.923463988662007
10
17.3246270748131
20
-16.5630777211828
30
0
41
1.02994816993494
10
16.8088484890104
20
-16.9625404761766
30
0
0
SPLINE
5
13E
100
AcDbEntity
8
1
62
256
6
ByLayer
370
18
48
1
60
0
100
AcDbSpline
70
4
71
3
72
28
73
24
40
0
40
0
40
0
40
0
40
4.58207680505E-05
40
4.58207680505E-05
40
0.0262692706625128
40
0.0262692706625128
40
0.213495002074637
40
0.213495002074637
40
0.356578191350449
40
0.356578191350449
40
0.396506692896417
40
0.396506692896417
40
0.500669174647874
40
0.500669174647874
40
0.650604339303069
40
0.650604339303069
40
0.802246387468544
40
0.802246387468544
40
0.967086003134487
40
0.967086003134487
40
0.999954179231936
40
0.999954179231936
40
1
40
1
40
1
40
1
41
1
10
35.116310267416
20
-14.4065002997951
30
0
41
1
10
35.1163196135275
20
-14.4065124974119
30
0
41
1
10
35.11632896001
20
-14.4065246944859
30
0
41
1
10
35.1216868988489
20
-14.4135179535664
30
0
41
1
10
35.1269075044319
20
-14.4206762092177
30
0
41
1
10
35.1678318569207
20
-14.4797096354059
30
0
41
1
10
35.1973062931419
20
-14.5411441377875
30
0
41
1
10
35.230758943217
20
-14.6617938195881
30
0
41
1
10
35.2393248358446
20
-14.7193755430352
30
0
41
1
10
35.2404576488765
20
-14.795391410971
30
0
41
1
10
35.2401082386172
20
-14.8123298572713
30
0
41
1
10
35.2366396863914
20
-14.8734208634686
30
0
41
1
10
35.2298826360263
20
-14.9185855711921
30
0
41
1
10
35.2036252918257
20
-15.0251400575459
30
0
41
1
10
35.1793195082776
20
-15.0868998417318
30
0
41
1
10
35.1185848247591
20
-15.1975586483473
30
0
41
1
10
35.0812441953044
20
-15.2480090255052
30
0
41
1
10
34.9969740866064
20
-15.3366690286575
30
0
41
1
10
34.9484675023123
20
-15.374704199941
30
0
41
1
10
34.8888457712218
20
-15.4098652646275
30
0
41
1
10
34.8787832975326
20
-15.4154233649504
30
0
41
1
10
34.8686555210078
20
-15.420656434556
30
0
41
1
10
34.868641416168
20
-15.4206637212069
30
0
41
1
10
34.8686273114113
20
-15.4206710084941
30
0
0
SPLINE
5
13F
100
AcDbEntity
8
1
62
256
6
ByLayer
370
18
48
1
60
0
100
AcDbSpline
70
4
71
3
72
8
73
4
40
0
40
0
40
0
40
0
40
1
40
1
40
1
40
1
41
1
10
9.5452984801064
20
-15.2489337261536
30
0
41
1
10
10.4143029781466
20
-14.9779743277991
30
0
41
1
10
11.6922684493393
20
-14.0896542679163
30
0
41
1
10
12.9507245062765
20
-13.0201563757572
30
0
0
SPLINE
5
140
100
AcDbEntity
8
1
62
256
6
ByLayer
370
18
48
1
60
0
100
AcDbSpline
70
4
71
3
72
10
73
6
40
0
40
0
40
0
40
0
40
0.5
40
0.5
40
1
40
1
40
1
40
1
41
1
10
29.987520355905
20
-8.33833383644236
30
0
41
1
10
28.3893427736153
20
-7.18605481136211
30
0
41
1
10
26.6498474996648
20
-6.23396901383529
30
0
41
1
10
23.0500361960376
20
-4.63311317972583
30
0
41
1
10
21.1410626498678
20
-4.11480253876718
30
0
41
1
10
19.226918936595
20
-3.64658812726208
30
0
0
SPLINE
5
141
100
AcDbEntity
8
1
62
256
6
ByLayer
370
18
48
1
60
0
100
AcDbSpline
70
4
71
3
72
19
73
15
40
0
40
0
40
0
40
0
40
0.249053371166662
40
0.249053371166662
40
0.249053371166662
40
0.403599292981678
40
0.403599292981678
40
0.403599292981678
40
0.717848378774916
40
0.717848378774916
40
0.717848378774916
40
0.85741678070374
40
0.85741678070374
40
1
40
1
40
1
40
1
41
1
10
22.4206394424558
20
-10.6244987196345
30
0
41
1
10
22.3835182351741
20
-10.2633467135975
30
0
41
1
10
22.2850350958174
20
-9.90177274261023
30
0
41
1
10
22.1396650231502
20
-9.56631513320062
30
0
41
1
10
22.0486859647972
20
-9.35637083819228
30
0
41
1
10
21.93871673024
20
-9.1537818686204
30
0
41
1
10
21.8138187841237
20
-8.96213345447316
30
0
41
1
10
21.5619862596918
20
-8.57571153610846
30
0
41
1
10
21.2447762744678
20
-8.22683662133727
30
0
41
1
10
20.8890194029379
20
-7.93316618825105
30
0
41
1
10
20.7296072494112
20
-7.80157453138702
30
0
41
1
10
20.5612379207354
20
-7.67993625316888
30
0
41
1
10
20.2075237256278
20
-7.45782896025003
30
0
41
1
10
20.020774318329
20
-7.35719914437027
30
0
41
1
10
19.829656331343
20
-7.2708942038953
30
0
0
SPLINE
5
142
100
AcDbEntity
8
1
62
256
6
ByLayer
370
18
48
1
60
0
100
AcDbSpline
70
4
71
3
72
10
73
6
40
0
40
0
40
0
40
0
40
0.5
40
0.5
40
1
40
1
40
1
40
1
41
1
10
11.9902400086948
20
-2.18720452103014
30
0
41
1
10
11.6120552418599
20
-2.30304901816731
30
0
41
1
10
11.4593531667704
20
-2.53632807308745
30
0
41
1
10
11.023126057227
20
-3.22480372279833
30
0
41
1
10
10.7123430699736
20
-3.76691138410649
30
0
41
1
10
10.4859431669337
20
-4.48390558942663
30
0
0
SPLINE
5
143
100
AcDbEntity
8
1
62
256
6
ByLayer
370
18
48
1
60
0
100
AcDbSpline
70
4
71
3
72
10
73
6
40
0
40
0
40
0
40
0
40
0.580414582153053
40
0.580414582153053
40
1
40
1
40
1
40
1
41
1
10
12.0245948076863
20
-12.3582935072024
30
0
41
1
10
11.89726518148
20
-12.3006277633978
30
0
41
1
10
11.767201560572
20
-12.2504386334592
30
0
41
1
10
11.5414606951557
20
-12.1759781300874
30
0
41
1
10
11.4458049870811
20
-12.14827394612
30
0
41
1
10
11.3502845306659
20
-12.1239764859345
30
0
0
SPLINE
5
144
100
AcDbEntity
8
1
62
256
6
ByLayer
370
18
48
1
60
0
100
AcDbSpline
70
4
71
3
72
10
73
6
40
0
40
0
40
0
40
0
40
0.499999999999998
40
0.499999999999998
40
1
40
1
40
1
40
1
41
1
10
15.7803272914375
20
-17.7591146699511
30
0
41
1
10
17.706756914068
20
-18.1969231995686
30
0
41
1
10
19.6387348239077
20
-18.5846046291251
30
0
41
1
10
23.5685204809445
20
-18.7652147799245
30
0
41
1
10
25.5710887750302
20
-18.6942340206299
30
0
41
1
10
27.5353145390501
20
-18.3792157399096
30
0
0
SPLINE
5
145
100
AcDbEntity
8
1
62
256
6
ByLayer
370
18
48
1
60
0
100
AcDbSpline
70
4
71
2
72
6
73
3
40
0
40
0
40
0
40
1
40
1
40
1
41
1.02994816993494
10
16.8088484890104
20
-16.9625404761766
30
0
41
1.02994816993494
10
16.2945878902239
20
-17.3608275730639
30
0
41
1.02994816993494
10
15.7803272914375
20
-17.7591146699511
30
0
0
SPLINE
5
146
100
AcDbEntity
8
1
62
256
6
ByLayer
370
18
48
1
60
0
100
AcDbSpline
70
4
71
1
72
4
73
2
40
0
40
0
40
1
40
1
41
1
10
19.7230470238644
20
-5.02996812413267
30
0
41
1
10
19.226918936595
20
-3.64658812726208
30
0
0
SPLINE
5
147
100
AcDbEntity
8
1
62
256
6
ByLayer
370
18
48
1
60
0
100
AcDbSpline
70
4
71
3
72
28
73
24
40
0
40
0
40
0
40
0
40
4.20487346493E-05
40
4.20487346493E-05
40
0.291419858702297
40
0.291419858702297
40
0.53097606993035
40
0.53097606993035
40
0.749068584166978
40
0.749068584166978
40
0.902838768278997
40
0.902838768278997
40
0.976526265230689
40
0.976526265230689
40
0.994762911886551
40
0.994762911886551
40
0.999138329414559
40
0.999138329414559
40
0.99945664438219
40
0.99945664438219
40
0.99970415135562
40
0.99970415135562
40
1
40
1
40
1
40
1
41
1
10
35.5337974094835
20
-13.5939760139756
30
0
41
1
10
35.5338020002076
20
-13.5939848990898
30
0
41
1
10
35.5338065901298
20
-13.5939937846182
30
0
41
1
10
35.5562741608377
20
-13.6374982715103
30
0
41
1
10
35.5499417938246
20
-13.6949026452275
30
0
41
1
10
35.5067694662016
20
-13.8172099059208
30
0
41
1
10
35.4750674528934
20
-13.8805345083754
30
0
41
1
10
35.3990335750759
20
-14.0121894302769
30
0
41
1
10
35.3555469167267
20
-14.0803596588275
30
0
41
1
10
35.2722904751682
20
-14.2017028572759
30
0
41
1
10
35.2349355646512
20
-14.2537166373866
30
0
41
1
10
35.1761017067143
20
-14.3317860826653
30
0
41
1
10
35.1564348839332
20
-14.3573221649475
30
0
41
1
10
35.1312096384982
20
-14.3892772924688
30
0
41
1
10
35.1261813984099
20
-14.3956451088565
30
0
41
1
10
35.1198580996055
20
-14.4034687639985
30
0
41
1
10
35.1187439737877
20
-14.4053488765053
30
0
41
1
10
35.1171802483387
20
-14.4063676464088
30
0
41
1
10
35.1170638082975
20
-14.4064210307938
30
0
41
1
10
35.1168619318335
20
-14.4064491451867
30
0
41
1
10
35.1167740958056
20
-14.406438939207
30
0
41
1
10
35.1165938477216
20
-14.406382833765
30
0
41
1
10
35.1165014712107
20
-14.4063316841163
30
0
41
1
10
35.1164135721563
20
-14.4062729489858
30
0
0
SPLINE
5
148
100
AcDbEntity
8
1
62
256
6
ByLayer
370
18
48
1
60
0
100
AcDbSpline
70
4
71
3
72
10
73
6
40
0
40
0
40
0
40
0
40
9.39711588055E-05
40
9.39711588055E-05
40
1
40
1
40
1
40
1
41
1
10
34.9235271053377
20
-12.5935513465845
30
0
41
1
10
34.9235361666677
20
-12.5935643302947
30
0
41
1
10
34.9235452279998
20
-12.593577314015
30
0
41
1
10
35.0199718921974
20
-12.7317441892042
30
0
41
1
10
35.1159762917617
20
-12.8688793070283
30
0
41
1
10
35.2112400935964
20
-13.0040785618492
30
0
0
SPLINE
5
149
100
AcDbEntity
8
1
62
256
6
ByLayer
370
18
48
1
60
0
100
AcDbSpline
70
4
71
3
72
14
73
10
40
0
40
0
40
0
40
0
40
0.256006012600457
40
0.256006012600457
40
0.256006012600457
40
0.73752356543209
40
0.73752356543209
40
0.73752356543209
40
1
40
1
40
1
40
1
41
1
10
21.7424617408995
20
-13.4013872515999
30
0
41
1
10
21.8789465103529
20
-13.1928710683026
30
0
41
1
10
21.9976831030383
20
-12.971150617055
30
0
41
1
10
22.0959074953663
20
-12.7416655040518
30
0
41
1
10
22.2787802708681
20
-12.3144133871735
30
0
41
1
10
22.3931391859539
20
-11.850554782035
30
0
41
1
10
22.429521800149
20
-11.3885049086148
30
0
41
1
10
22.449553314535
20
-11.1341098110876
30
0
41
1
10
22.4466125032289
20
-10.8772671217779
30
0
41
1
10
22.4206394424558
20
-10.6244987196345
30
0
0
SPLINE
5
14A
100
AcDbEntity
8
1
62
256
6
ByLayer
370
18
48
1
60
0
100
AcDbSpline
70
4
71
3
72
8
73
4
40
0
40
0
40
0
40
0
40
1
40
1
40
1
40
1
41
1
10
35.5341841899386
20
-13.5943131254894
30
0
41
1
10
35.6335374070317
20
-13.7205209461256
30
0
41
1
10
35.6850912221652
20
-13.8870776854129
30
0
41
1
10
35.6778763443417
20
-14.0585444658186
30
0
0
SPLINE
5
14B
100
AcDbEntity
8
1
62
256
6
ByLayer
370
18
48
1
60
0
100
AcDbSpline
70
4
71
3
72
12
73
8
40
0
40
0
40
0
40
0
40
0.477932094760433
40
0.477932094760433
40
0.904102435462292
40
0.904102435462292
40
1
40
1
40
1
40
1
41
1
10
13.2873064064234
20
-7.1879534183438
30
0
41
1
10
13.4700618723208
20
-7.19961114367788
30
0
41
1
10
13.6592664120652
20
-7.1961109610036
30
0
41
1
10
14.0065670564602
20
-7.15134986006791
30
0
41
1
10
14.1693602132392
20
-7.1133809724995
30
0
41
1
10
14.3507128058686
20
-7.04742990358429
30
0
41
1
10
14.3837524275486
20
-7.03435085925344
30
0
41
1
10
14.4159696090049
20
-7.02051599687638
30
0
0
SPLINE
5
14C
100
AcDbEntity
8
1
62
256
6
ByLayer
370
18
48
1
60
0
100
AcDbSpline
70
4
71
3
72
12
73
8
40
0
40
0
40
0
40
0
40
0.264973649150345
40
0.529947298300689
40
0.662434122875862
40
0.794920947451034
40
1
40
1
40
1
40
1
41
1.02994816993494
10
19.7230470238644
20
-5.02996812413267
30
0
41
1.03004363841634
10
20.7458413181514
20
-5.29304983958481
30
0
41
1.03021336426305
10
24.4997503322824
20
-6.26879227714383
30
0
41
1.0311558410484
10
29.6920368358901
20
-9.02092876218038
30
0
41
1.03077804826571
10
31.5906999673101
20
-10.3239974920711
30
0
41
1.03340133735626
10
33.6530959659398
20
-11.786047193794
30
0
41
1.03493149686168
10
34.8489386909292
20
-12.8850228617666
30
0
41
1.03576782913892
10
35.5316195364212
20
-13.59172304811
30
0
0
SPLINE
5
14D
100
AcDbEntity
8
1
62
256
6
ByLayer
370
18
48
1
60
0
100
AcDbSpline
70
4
71
3
72
8
73
4
40
0
40
0
40
0
40
0
40
1
40
1
40
1
40
1
41
1
10
13.1027329589507
20
-13.2191010063062
30
0
41
1
10
13.0562732673807
20
-13.1506734967574
30
0
41
1
10
13.0054282603553
20
-13.08411962162
30
0
41
1
10
12.9507245062766
20
-13.0201563757573
30
0
0
SPLINE
5
14E
100
AcDbEntity
8
1
62
256
6
ByLayer
370
18
48
1
60
0
100
AcDbSpline
70
4
71
3
72
8
73
4
40
0
40
0
40
0
40
0
40
1
40
1
40
1
40
1
41
1
10
10.4859431669337
20
-4.48390558942663
30
0
41
1
10
10.4522346583902
20
-4.59065830871296
30
0
41
1
10
10.4207639546977
20
-4.70010969418558
30
0
41
1
10
10.3921343673427
20
-4.80921656216677
30
0
0
SPLINE
5
14F
100
AcDbEntity
8
1
62
256
6
ByLayer
370
18
48
1
60
0
100
AcDbSpline
70
4
71
3
72
8
73
4
40
0
40
0
40
0
40
0
40
1
40
1
40
1
40
1
41
1
10
10.3858499707939
20
-4.8340277165496
30
0
41
1
10
10.3878748542525
20
-4.82573656270915
30
0
41
1
10
10.3899700615802
20
-4.81746469442859
30
0
41
1
10
10.3921343673427
20
-4.80921656216677
30
0
0
SPLINE
5
150
100
AcDbEntity
8
1
62
256
6
ByLayer
370
18
48
1
60
0
100
AcDbSpline
70
4
71
3
72
8
73
4
40
0
40
0
40
0
40
0
40
1
40
1
40
1
40
1
41
1
10
34.8745339248792
20
-16.2710018748786
30
0
41
1
10
35.0240476193704
20
-16.2088523450994
30
0
41
1
10
35.1437751420889
20
-16.0861291142055
30
0
41
1
10
35.2147701671537
20
-15.9371458523476
30
0
0
SPLINE
5
151
100
AcDbEntity
8
1
62
256
6
ByLayer
370
18
48
1
60
0
100
AcDbSpline
70
4
71
3
72
8
73
4
40
0
40
0
40
0
40
0
40
1
40
1
40
1
40
1
41
1
10
19.8296563312185
20
-7.27089420524956
30
0
41
1
10
19.9207043074349
20
-6.28016404558912
30
0
41
1
10
19.8823611845695
20
-5.47419216383707
30
0
41
1
10
19.7230470238644
20
-5.02996812413267
30
0
0
SPLINE
5
152
100
AcDbEntity
8
1
62
256
6
ByLayer
370
18
48
1
60
0
100
AcDbSpline
70
4
71
3
72
10
73
6
40
0
40
0
40
0
40
0
40
0.580414582160072
40
0.580414582160072
40
1
40
1
40
1
40
1
41
1
10
13.287306406433
20
-7.18795341833851
30
0
41
1
10
13.1480627496144
20
-7.17907125277554
30
0
41
1
10
13.0099226420065
20
-7.16195236863371
30
0
41
1
10
12.7761307945525
20
-7.12045767883717
30
0
41
1
10
12.678878613658
20
-7.09929046453857
30
0
41
1
10
12.5833581572429
20
-7.0749930043531
30
0
0
SPLINE
5
153
100
AcDbEntity
8
1
62
256
6
ByLayer
370
18
48
1
60
0
100
AcDbSpline
70
4
71
3
72
8
73
4
40
0
40
0
40
0
40
0
40
1
40
1
40
1
40
1
41
1
10
12.0245948076903
20
-12.3582935071938
30
0
41
1
10
10.6435337927541
20
-12.7166828379707
30
0
41
1
10
9.32476343549132
20
-12.9802671541572
30
0
41
1
10
8.38809799799338
20
-13.0150092311933
30
0
0
SPLINE
5
154
100
AcDbEntity
8
1
62
256
6
ByLayer
370
18
48
1
60
0
100
AcDbSpline
70
4
71
3
72
24
73
20
40
0
40
0
40
0
40
0
40
0.0001109191202367
40
0.0001109191202367
40
0.0009920216778312
40
0.0009920216778312
40
0.0066328226137
40
0.0066328226137
40
0.0295221595727094
40
0.0295221595727094
40
0.121312289849331
40
0.121312289849331
40
0.30839963102464
40
0.30839963102464
40
0.557773367682018
40
0.557773367682018
40
0.796812834018034
40
0.796812834018034
40
1
40
1
40
1
40
1
41
1
10
35.1164969049676
20
-14.4067440015948
30
0
41
1
10
35.1165256388534
20
-14.406746895891
30
0
41
1
10
35.116554520238
20
-14.4067490485818
30
0
41
1
10
35.1168094062865
20
-14.406760351752
30
0
41
1
10
35.1170501047413
20
-14.406703002741
30
0
41
1
10
35.1187336098122
20
-14.4058656467043
30
0
41
1
10
35.1200367032769
20
-14.404446662042
30
0
41
1
10
35.126841122937
20
-14.3985598794678
30
0
41
1
10
35.132256560932
20
-14.3937997965552
30
0
41
1
10
35.1592969008937
20
-14.3701704393276
30
0
41
1
10
35.1805727674163
20
-14.3516149669661
30
0
41
1
10
35.2439275161218
20
-14.2967522382538
30
0
41
1
10
35.2848814549849
20
-14.2618020149889
30
0
41
1
10
35.3759861711729
20
-14.1871309072735
30
0
41
1
10
35.4251368727446
20
-14.1492696660497
30
0
41
1
10
35.5141672840569
20
-14.0906273587006
30
0
41
1
10
35.5548714832206
20
-14.0687723623131
30
0
41
1
10
35.6231889813137
20
-14.0485517182892
30
0
41
1
10
35.6524297948928
20
-14.0461503963589
30
0
41
1
10
35.6784302852391
20
-14.0588214926823
30
0
0
SPLINE
5
155
100
AcDbEntity
8
1
62
256
6
ByLayer
370
18
48
1
60
0
100
AcDbSpline
70
4
71
3
72
12
73
8
40
0
40
0
40
0
40
0
40
0.107029684965502
40
0.443706054186004
40
0.612044238796256
40
0.780382423406507
40
1
40
1
40
1
40
1
41
1.03017844338059
10
21.7424653881387
20
-13.4013881235495
30
0
41
1.0302273658714
10
22.3278677498077
20
-13.5413409188387
30
0
41
1.03047050932998
10
24.909256636356
20
-14.1401198597698
30
0
41
1.0311558410484
10
28.8352761006326
20
-14.8561086431667
30
0
41
1.03077804826571
10
30.9236028000322
20
-15.100361311336
30
0
41
1.03322144497827
10
32.9420021998576
20
-15.3393518081289
30
0
41
1.03463604371051
10
34.1854858082258
20
-15.4085339214915
30
0
41
1.0353664121084
10
34.8686273114115
20
-15.4206710084941
30
0
0
SPLINE
5
156
100
AcDbEntity
8
1
62
256
6
ByLayer
370
18
48
1
60
0
100
AcDbSpline
70
4
71
3
72
12
73
8
40
0
40
0
40
0
40
0
40
0.107029883295
40
0.443706177278308
40
0.612044324269961
40
0.780382471261615
40
1
40
1
40
1
40
1
41
1.03017844307583
10
22.4206394427523
20
-10.6244987197031
30
0
41
1.03022736562783
10
23.0070699082511
20
-10.7602464211757
30
0
41
1.03047050908112
10
25.5856284233504
20
-11.3706197829724
30
0
41
1.0311558410484
10
29.4288313135463
20
-12.425718112661
30
0
41
1.03077804826571
10
31.4167862388363
20
-13.0809563202411
30
0
41
1.03322144498364
10
33.3413334582728
20
-13.7042370339602
30
0
41
1.03463604371943
10
34.4939977207678
20
-14.1452910164177
30
0
41
1.0353664121206
10
35.1163102778468
20
-14.4065003041733
30
0
0
SPLINE
5
157
100
AcDbEntity
8
1
62
256
6
ByLayer
370
18
48
1
60
0
100
AcDbSpline
70
4
71
3
72
8
73
4
40
0
40
0
40
0
40
0
40
1
40
1
40
1
40
1
41
1
10
14.4159696090057
20
-7.0205159968782
30
0
41
1
10
13.794816276234
20
-5.47225086596671
30
0
41
1
10
13.0865497670292
20
-4.04604143182101
30
0
41
1
10
12.4594970149604
20
-3.3163613741097
30
0
0
SPLINE
5
158
100
AcDbEntity
8
1
62
256
6
ByLayer
370
18
48
1
60
0
100
AcDbSpline
70
4
71
3
72
14
73
10
40
0
40
0
40
0
40
0
40
0.332043805554369
40
0.332043805554369
40
0.667540490321297
40
0.667540490321297
40
0.999921783367878
40
0.999921783367878
40
1
40
1
40
1
40
1
41
1
10
35.5973326818033
20
-13.5836664196065
30
0
41
1
10
35.6189099780268
20
-13.6175123096757
30
0
41
1
10
35.6301452391666
20
-13.6397449799483
30
0
41
1
10
35.63148410038
20
-13.6597082630483
30
0
41
1
10
35.6215540951056
20
-13.6577241287505
30
0
41
1
10
35.5859651083583
20
-13.6355002997526
30
0
41
1
10
35.5601900755292
20
-13.6153228575928
30
0
41
1
10
35.5294537424418
20
-13.5894785050259
30
0
41
1
10
35.5294460880076
20
-13.58947206844
30
0
41
1
10
35.529438433262
20
-13.5894656322244
30
0
0
SPLINE
5
159
100
AcDbEntity
8
1
62
256
6
ByLayer
370
18
48
1
60
0
100
AcDbSpline
70
4
71
3
72
14
73
10
40
0
40
0
40
0
40
0
40
7.77085242593E-05
40
7.77085242593E-05
40
0.352643155046204
40
0.352643155046204
40
0.7057321193738
40
0.7057321193738
40
1
40
1
40
1
40
1
41
1
10
34.8745429176069
20
-16.2710252772734
30
0
41
1
10
34.8745524081471
20
-16.2710221229674
30
0
41
1
10
34.8745618985366
20
-16.2710189682077
30
0
41
1
10
34.917269834245
20
-16.2568233368975
30
0
41
1
10
34.9522107694952
20
-16.2453491418894
30
0
41
1
10
34.9961498625569
20
-16.2320953007339
30
0
41
1
10
35.0054295307594
20
-16.2302507384833
30
0
41
1
10
34.9915376335822
20
-16.239152554957
30
0
41
1
10
34.9731798531693
20
-16.2480502405294
30
0
41
1
10
34.9432811294993
20
-16.2617672341341
30
0
0
SPLINE
5
15A
100
AcDbEntity
8
1
62
256
6
ByLayer
370
18
48
1
60
0
100
AcDbSpline
70
4
71
3
72
14
73
10
40
0
40
0
40
0
40
0
40
0.0829586012802571
40
0.0829586012802571
40
0.45919501507516
40
0.45919501507516
40
0.835474799669133
40
0.835474799669133
40
1
40
1
40
1
40
1
41
1
10
18.54835759193
20
-10.6570475113298
30
0
41
1
10
18.5463138098637
20
-10.6534173089836
30
0
41
1
10
18.544322352857
20
-10.6497308860322
30
0
41
1
10
18.5337066707477
20
-10.6291809426652
30
0
41
1
10
18.5261794372393
20
-10.6110334073702
30
0
41
1
10
18.5151349313636
20
-10.5746446744949
30
0
41
1
10
18.5115044031724
20
-10.5559958877606
30
0
41
1
10
18.5091143734311
20
-10.5306374964636
30
0
41
1
10
18.5087417819897
20
-10.523022026406
30
0
41
1
10
18.5086891393733
20
-10.5156031939513
30
0
0
SPLINE
5
15B
100
AcDbEntity
8
1
62
256
6
ByLayer
370
18
48
1
60
0
100
AcDbSpline
70
4
71
3
72
12
73
8
40
0
40
0
40
0
40
0
40
0.392678099452566
40
0.392678099452566
40
0.791279335968755
40
0.791279335968755
40
1
40
1
40
1
40
1
41
1
10
17.0816706160639
20
-12.0512815479185
30
0
41
1
10
17.0979193974694
20
-12.0515443811863
30
0
41
1
10
17.1158737323035
20
-12.0533272754403
30
0
41
1
10
17.153212940866
20
-12.0604170757088
30
0
41
1
10
17.1730816853926
20
-12.0658900851375
30
0
41
1
10
17.2022615505692
20
-12.0762169469022
30
0
41
1
10
17.212271621719
20
-12.0801756767915
30
0
41
1
10
17.2220093582381
20
-12.0843900713794
30
0
0
SPLINE
5
15C
100
AcDbEntity
8
1
62
256
6
ByLayer
370
18
48
1
60
0
100
AcDbSpline
70
4
71
3
72
14
73
10
40
0
40
0
40
0
40
0
40
0.0829586012803237
40
0.0829586012803237
40
0.459195015075175
40
0.459195015075175
40
0.835474799669034
40
0.835474799669034
40
1
40
1
40
1
40
1
41
1
10
16.311462732292
20
-11.2014336955947
30
0
41
1
10
16.3127781823009
20
-11.2047835780785
30
0
41
1
10
16.3140890675033
20
-11.2082080630955
30
0
41
1
10
16.3212538610087
20
-11.2274298312037
30
0
41
1
10
16.3270397376634
20
-11.244907154459
30
0
41
1
10
16.3374852685185
20
-11.2810653543052
30
0
41
1
10
16.3422592803697
20
-11.3001542441203
30
0
41
1
10
16.3480115444389
20
-11.326806689489
30
0
41
1
10
16.349638475769
20
-11.3349049288845
30
0
41
1
10
16.3511311848484
20
-11.3428780129731
30
0
0
SPLINE
5
15D
100
AcDbEntity
8
1
62
256
6
ByLayer
370
18
48
1
60
0
100
AcDbSpline
70
4
71
3
72
12
73
8
40
0
40
0
40
0
40
0
40
0.392678099449924
40
0.392678099449924
40
0.791279335966138
40
0.791279335966138
40
1
40
1
40
1
40
1
41
1
10
17.7781497081589
20
-9.80719965900639
30
0
41
1
10
17.7584818093202
20
-9.80562087854253
30
0
41
1
10
17.7381620734003
20
-9.80292759060148
30
0
41
1
10
17.6991654985175
20
-9.79519990450297
30
0
41
1
10
17.6800564757078
20
-9.79001929616396
30
0
41
1
10
17.6541885008851
20
-9.78096711212245
30
0
41
1
10
17.6457129313084
20
-9.77759897997694
30
0
41
1
10
17.6378109659848
20
-9.77409113554549
30
0
0
SPLINE
5
15E
100
AcDbEntity
8
1
62
256
6
ByLayer
370
18
48
1
60
0
100
AcDbSpline
70
4
71
3
72
14
73
10
40
0
40
0
40
0
40
0
40
0.164525200330991
40
0.164525200330991
40
0.540804984924865
40
0.540804984924865
40
0.917041398719641
40
0.917041398719641
40
1
40
1
40
1
40
1
41
1
10
16.6597022783406
20
-10.0793927511395
30
0
41
1
10
16.6547394938671
20
-10.085628350918
30
0
41
1
10
16.6495929217454
20
-10.0919417474821
30
0
41
1
10
16.6322740198192
20
-10.1126504346675
30
0
41
1
10
16.6192435789278
20
-10.1273685884404
30
0
41
1
10
16.5932164213817
20
-10.1550114253562
30
0
41
1
10
16.579929410093
20
-10.168248492583
30
0
41
1
10
16.5645492730623
20
-10.1826655379736
30
0
41
1
10
16.5617762590039
20
-10.1852279334498
30
0
41
1
10
16.5590319887203
20
-10.1877285450565
30
0
0
SPLINE
5
15F
100
AcDbEntity
8
1
62
256
6
ByLayer
370
18
48
1
60
0
100
AcDbSpline
70
4
71
3
72
14
73
10
40
0
40
0
40
0
40
0
40
0.16452520033094
40
0.16452520033094
40
0.540804984924848
40
0.540804984924848
40
0.917041398719705
40
0.917041398719705
40
1
40
1
40
1
40
1
41
1
10
18.2001180458811
20
-11.7790884557849
30
0
41
1
10
18.2036407638916
20
-11.7722986043725
30
0
41
1
10
18.2075329961246
20
-11.7655024384706
30
0
41
1
10
18.2214896637229
20
-11.7434996972134
30
0
41
1
10
18.2333766209542
20
-11.7283414403597
30
0
41
1
10
18.2600027535211
20
-11.700929136473
30
0
41
1
10
18.2750311216634
20
-11.6883622812859
30
0
41
1
10
18.293862147298
20
-11.6752734111542
30
0
41
1
10
18.2973157331606
20
-11.6729729536123
30
0
41
1
10
18.3007883355018
20
-11.6707526618681
30
0
0
INSERT
5
172
100
AcDbEntity
8
SK2
62
256
6
ByLayer
370
25
48
1
60
0
100
AcDbBlockReference
2
DimnDraft3D11
10
0
20
0
30
0
41
1
42
1
43
1
50
0
210
0
220
0
230
1
0
LINE
5
72
100
AcDbEntity
8
1
62
256
6
ByLayer
370
18
48
1
60
0
100
AcDbLine
10
8.210208
20
-15.810852
30
0
11
9.115077
21
-16.113359
31
0
39
0
210
0
220
0
230
1
0
LINE
5
74
100
AcDbEntity
8
1
62
256
6
ByLayer
370
18
48
1
60
0
100
AcDbLine
10
15.24823
20
-14.375594
30
0
11
15.797476
21
-14.586987
31
0
39
0
210
0
220
0
230
1
0
LINE
5
75
100
AcDbEntity
8
1
62
256
6
ByLayer
370
18
48
1
60
0
100
AcDbLine
10
18.671024
20
-7.120883
30
0
11
18.121778
21
-6.909489
31
0
39
0
210
0
220
0
230
1
0
LINE
5
76
100
AcDbEntity
8
1
62
256
6
ByLayer
370
18
48
1
60
0
100
AcDbLine
10
17.146662
20
-9.585497
30
0
11
17.653175
21
-9.780443
31
0
39
0
210
0
220
0
230
1
0
LINE
5
77
100
AcDbEntity
8
1
62
256
6
ByLayer
370
18
48
1
60
0
100
AcDbLine
10
17.20389
20
-12.076977
30
0
11
16.697377
21
-11.882031
31
0
39
0
210
0
220
0
230
1
0
LINE
5
78
100
AcDbEntity
8
1
62
256
6
ByLayer
370
18
48
1
60
0
100
AcDbLine
10
35.625833
20
-9.90654
30
0
11
34.550797
21
-9.492781
31
0
39
0
210
0
220
0
230
1
0
LINE
5
79
100
AcDbEntity
8
1
62
256
6
ByLayer
370
18
48
1
60
0
100
AcDbLine
10
30.997441
20
-18.744036
30
0
11
32.072477
21
-19.157794
31
0
39
0
210
0
220
0
230
1
0
LINE
5
7A
100
AcDbEntity
8
1
62
256
6
ByLayer
370
18
48
1
60
0
100
AcDbLine
10
11.651967
20
-12.212462
30
0
11
10.856684
21
-11.946592
31
0
39
0
210
0
220
0
230
1
0
LINE
5
7B
100
AcDbEntity
8
80
62
256
6
ByLayer
370
18
48
1
60
0
100
AcDbLine
10
0
20
0
30
0
11
-5
21
0
31
0
39
0
210
0
220
0
230
1
0
LINE
5
7C
100
AcDbEntity
8
81
62
256
6
ByLayer
370
18
48
1
60
0
100
AcDbLine
10
46.577985
20
-19.9125
30
0
11
56.577985
21
-19.9125
31
0
39
0
210
0
220
0
230
1
0
LINE
5
7D
100
AcDbEntity
8
1
62
256
6
ByLayer
370
18
48
1
60
0
100
AcDbLine
10
14.550286
20
-14.395116
30
0
11
16.353726
21
-14.819457
31
0
39
0
210
0
220
0
230
1
0
LINE
5
7E
100
AcDbEntity
8
1
62
256
6
ByLayer
370
18
48
1
60
0
100
AcDbLine
10
12.768441
20
-2.198852
30
0
11
11.980367
21
-1.935391
31
0
39
0
210
0
220
0
230
1
0
LINE
5
7F
100
AcDbEntity
8
1
62
256
6
ByLayer
370
18
48
1
60
0
100
AcDbLine
10
14.07482
20
-2.500241
30
0
11
12.358562
21
-2.035477
31
0
39
0
210
0
220
0
230
1
0
LINE
5
80
100
AcDbEntity
8
1
62
256
6
ByLayer
370
18
48
1
60
0
100
AcDbLine
10
12.138949
20
-16.837727
30
0
11
12.124558
21
-16.896651
31
0
39
0
210
0
220
0
230
1
0
LINE
5
81
100
AcDbEntity
8
1
62
256
6
ByLayer
370
18
48
1
60
0
100
AcDbLine
10
27.879684
20
-18.936273
30
0
11
23.184313
21
-18.690199
31
0
39
0
210
0
220
0
230
1
0
LINE
5
82
100
AcDbEntity
8
1
62
256
6
ByLayer
370
18
48
1
60
0
100
AcDbLine
10
19.876786
20
-18.516859
30
0
11
9.870349
21
-17.992444
31
0
39
0
210
0
220
0
230
1
0
LINE
5
83
100
AcDbEntity
8
1
62
256
6
ByLayer
370
18
48
1
60
0
100
AcDbLine
10
16.163826
20
7.777031
30
0
11
13.679968
21
-2.393456
31
0
39
0
210
0
220
0
230
1
0
LINE
5
84
100
AcDbEntity
8
1
62
256
6
ByLayer
370
18
48
1
60
0
100
AcDbLine
10
10.260643
20
-16.394334
30
0
11
9.870349
21
-17.992444
31
0
39
0
210
0
220
0
230
1
0
LINE
5
85
100
AcDbEntity
8
1
62
256
6
ByLayer
370
18
48
1
60
0
100
AcDbLine
10
31.54164
20
-9.482984
30
0
11
34.198061
21
-9.634116
31
0
39
0
210
0
220
0
230
1
0
LINE
5
86
100
AcDbEntity
8
1
62
256
6
ByLayer
370
18
48
1
60
0
100
AcDbLine
10
30.208345
20
-17.90137
30
0
11
30.802869
21
-18.382855
31
0
39
0
210
0
220
0
230
1
0
LINE
5
87
100
AcDbEntity
8
1
62
256
6
ByLayer
370
18
48
1
60
0
100
AcDbLine
10
12.983696
20
10.064713
30
0
11
10.094317
21
-1.766233
31
0
39
0
210
0
220
0
230
1
0
LINE
5
88
100
AcDbEntity
8
1
62
256
6
ByLayer
370
18
48
1
60
0
100
AcDbLine
10
6.835129
20
-15.11141
30
0
11
6.233056
21
-17.576676
31
0
39
0
210
0
220
0
230
1
0
LINE
5
89
100
AcDbEntity
8
1
62
256
6
ByLayer
370
18
48
1
60
0
100
AcDbLine
10
12.090516
20
10.692138
30
0
11
8.906485
21
-2.345299
31
0
39
0
210
0
220
0
230
1
0
LINE
5
8A
100
AcDbEntity
8
1
62
256
6
ByLayer
370
18
48
1
60
0
100
AcDbLine
10
6.040846
20
-14.079036
30
0
11
5.217966
21
-17.448429
31
0
39
0
210
0
220
0
230
1
0
LINE
5
8B
100
AcDbEntity
8
1
62
256
6
ByLayer
370
18
48
1
60
0
100
AcDbLine
10
12.93855
20
10.082089
30
0
11
10.03915
21
-1.789888
31
0
39
0
210
0
220
0
230
1
0
LINE
5
8C
100
AcDbEntity
8
1
62
256
6
ByLayer
370
18
48
1
60
0
100
AcDbLine
10
6.79262
20
-15.083236
30
0
11
6.187911
21
-17.5593
31
0
39
0
210
0
220
0
230
1
0
LINE
5
8D
100
AcDbEntity
8
1
62
256
6
ByLayer
370
18
48
1
60
0
100
AcDbLine
10
30.372393
20
-17.87101
30
0
11
30.77311
21
-18.195536
31
0
39
0
210
0
220
0
230
1
0
LINE
5
8E
100
AcDbEntity
8
1
62
256
6
ByLayer
370
18
48
1
60
0
100
AcDbLine
10
31.780986
20
-9.524382
30
0
11
31.583789
21
-9.513163
31
0
39
0
210
0
220
0
230
1
0
LINE
5
8F
100
AcDbEntity
8
1
62
256
6
ByLayer
370
18
48
1
60
0
100
AcDbLine
10
16.955863
20
-9.386085
30
0
11
17.43105
21
-9.568975
31
0
39
0
210
0
220
0
230
1
0
LINE
5
90
100
AcDbEntity
8
1
62
256
6
ByLayer
370
18
48
1
60
0
100
AcDbLine
10
18.121778
20
-6.909489
30
0
11
18.121688
21
-6.909454
31
0
39
0
210
0
220
0
230
1
0
LINE
5
91
100
AcDbEntity
8
1
62
256
6
ByLayer
370
18
48
1
60
0
100
AcDbLine
10
35.395848
20
-9.857602
30
0
11
31.80126
21
-9.669218
31
0
39
0
210
0
220
0
230
1
0
LINE
5
92
100
AcDbEntity
8
1
62
256
6
ByLayer
370
18
48
1
60
0
100
AcDbLine
10
30.415701
20
-17.862914
30
0
11
31.870034
21
-19.040728
31
0
39
0
210
0
220
0
230
1
0
LINE
5
93
100
AcDbEntity
8
1
62
256
6
ByLayer
370
18
48
1
60
0
100
AcDbLine
10
34.320812
20
-9.443843
30
0
11
34.212395
21
-9.438162
31
0
39
0
210
0
220
0
230
1
0
LINE
5
94
100
AcDbEntity
8
1
62
256
6
ByLayer
370
18
48
1
60
0
100
AcDbLine
10
30.682837
20
-18.536134
30
0
11
30.794998
21
-18.62697
31
0
39
0
210
0
220
0
230
1
0
LINE
5
95
100
AcDbEntity
8
1
62
256
6
ByLayer
370
18
48
1
60
0
100
AcDbLine
10
19.226919
20
-3.646588
30
0
11
15.57115
21
-2.784124
31
0
39
0
210
0
220
0
230
1
0
LINE
5
96
100
AcDbEntity
8
1
62
256
6
ByLayer
370
18
48
1
60
0
100
AcDbLine
10
9.545298
20
-15.248934
30
0
11
16.808848
21
-16.96254
31
0
39
0
210
0
220
0
230
1
0
LINE
5
97
100
AcDbEntity
8
1
62
256
6
ByLayer
370
18
48
1
60
0
100
AcDbLine
10
15.624397
20
-2.872625
30
0
11
15.57115
21
-2.784124
31
0
39
0
210
0
220
0
230
1
0
LINE
5
98
100
AcDbEntity
8
1
62
256
6
ByLayer
370
18
48
1
60
0
100
AcDbLine
10
11.350285
20
-12.123976
30
0
11
10.610269
21
-11.876582
31
0
39
0
210
0
220
0
230
1
0
LINE
5
99
100
AcDbEntity
8
1
62
256
6
ByLayer
370
18
48
1
60
0
100
AcDbLine
10
17.112843
20
-15.073236
30
0
11
16.353726
21
-14.819457
31
0
39
0
210
0
220
0
230
1
0
LINE
5
9A
100
AcDbEntity
8
1
62
256
6
ByLayer
370
18
48
1
60
0
100
AcDbLine
10
15.171964
20
-14.615347
30
0
11
14.425074
21
-14.365655
31
0
39
0
210
0
220
0
230
1
0
LINE
5
9B
100
AcDbEntity
8
1
62
256
6
ByLayer
370
18
48
1
60
0
100
AcDbLine
10
7.960374
20
-5.875126
30
0
11
8.706614
21
-6.124601
31
0
39
0
210
0
220
0
230
1
0
LINE
5
9C
100
AcDbEntity
8
1
62
256
6
ByLayer
370
18
48
1
60
0
100
AcDbLine
10
12.768441
20
-2.198852
30
0
11
15.624397
21
-2.872625
31
0
39
0
210
0
220
0
230
1
0
LINE
5
9D
100
AcDbEntity
8
1
62
256
6
ByLayer
370
18
48
1
60
0
100
AcDbLine
10
8.929614
20
-6.027567
30
0
11
8.706614
21
-6.124601
31
0
39
0
210
0
220
0
230
1
0
LINE
5
9E
100
AcDbEntity
8
1
62
256
6
ByLayer
370
18
48
1
60
0
100
AcDbLine
10
7.69654
20
-11.07655
30
0
11
7.544679
21
-10.882297
31
0
39
0
210
0
220
0
230
1
0
LINE
5
9F
100
AcDbEntity
8
1
62
256
6
ByLayer
370
18
48
1
60
0
100
AcDbLine
10
6.848541
20
-10.793056
30
0
11
6.798439
21
-10.632822
31
0
39
0
210
0
220
0
230
1
0
LINE
5
A0
100
AcDbEntity
8
1
62
256
6
ByLayer
370
18
48
1
60
0
100
AcDbLine
10
6.798439
20
-10.632822
30
0
11
7.960374
21
-5.875126
31
0
39
0
210
0
220
0
230
1
0
LINE
5
A1
100
AcDbEntity
8
1
62
256
6
ByLayer
370
18
48
1
60
0
100
AcDbLine
10
19.081018
20
-7.014282
30
0
11
17.140139
21
-6.556392
31
0
39
0
210
0
220
0
230
1
0
LINE
5
A2
100
AcDbEntity
8
1
62
256
6
ByLayer
370
18
48
1
60
0
100
AcDbLine
10
15.780327
20
-17.759115
30
0
11
12.124558
21
-16.896651
31
0
39
0
210
0
220
0
230
1
0
LINE
5
A3
100
AcDbEntity
8
1
62
256
6
ByLayer
370
18
48
1
60
0
100
AcDbLine
10
8.393962
20
-12.990078
30
0
11
5.875534
21
-12.148144
31
0
39
0
210
0
220
0
230
1
0
LINE
5
A4
100
AcDbEntity
8
1
62
256
6
ByLayer
370
18
48
1
60
0
100
AcDbLine
10
15.624397
20
-2.872625
30
0
11
15.555187
21
-2.849487
31
0
39
0
210
0
220
0
230
1
0
LINE
5
A5
100
AcDbEntity
8
1
62
256
6
ByLayer
370
18
48
1
60
0
100
AcDbLine
10
7.544679
20
-10.882297
30
0
11
8.706614
21
-6.124601
31
0
39
0
210
0
220
0
230
1
0
LINE
5
A6
100
AcDbEntity
8
1
62
256
6
ByLayer
370
18
48
1
60
0
100
AcDbLine
10
6.798439
20
-10.632822
30
0
11
7.544679
21
-10.882297
31
0
39
0
210
0
220
0
230
1
0
LINE
5
A7
100
AcDbEntity
8
1
62
256
6
ByLayer
370
18
48
1
60
0
100
AcDbLine
10
12.209732
20
-16.854425
30
0
11
9.353776
21
-16.180652
31
0
39
0
210
0
220
0
230
1
0
LINE
5
A8
100
AcDbEntity
8
1
62
256
6
ByLayer
370
18
48
1
60
0
100
AcDbLine
10
6.848541
20
-10.793056
30
0
11
7.69654
21
-11.07655
31
0
39
0
210
0
220
0
230
1
0
LINE
5
A9
100
AcDbEntity
8
1
62
256
6
ByLayer
370
18
48
1
60
0
100
AcDbLine
10
12.124558
20
-16.896651
30
0
11
12.209732
21
-16.854425
31
0
39
0
210
0
220
0
230
1
0
LINE
5
AA
100
AcDbEntity
8
1
62
256
6
ByLayer
370
18
48
1
60
0
100
AcDbLine
10
14.07482
20
-2.500241
30
0
11
15.555187
21
-2.849487
31
0
39
0
210
0
220
0
230
1
0
LINE
5
AB
100
AcDbEntity
8
1
62
256
6
ByLayer
370
18
48
1
60
0
100
AcDbLine
10
7.867422
20
-3.992094
30
0
11
5.875534
21
-12.148144
31
0
39
0
210
0
220
0
230
1
0
LINE
5
AC
100
AcDbEntity
8
1
62
256
6
ByLayer
370
18
48
1
60
0
100
AcDbLine
10
10.38585
20
-4.834028
30
0
11
7.867422
21
-3.992094
31
0
39
0
210
0
220
0
230
1
0
LINE
5
AD
100
AcDbEntity
8
1
62
256
6
ByLayer
370
18
48
1
60
0
100
AcDbLine
10
10.610269
20
-11.876582
30
0
11
8.935134
21
-11.482432
31
0
39
0
210
0
220
0
230
1
0
LINE
5
AE
100
AcDbEntity
8
1
62
256
6
ByLayer
370
18
48
1
60
0
100
AcDbLine
10
8.393962
20
-12.990078
30
0
11
10.38585
21
-4.834028
31
0
39
0
210
0
220
0
230
1
0
LINE
5
AF
100
AcDbEntity
8
1
62
256
6
ByLayer
370
18
48
1
60
0
100
AcDbLine
10
7.69654
20
-11.07655
30
0
11
8.929614
21
-6.027567
31
0
39
0
210
0
220
0
230
1
0
LINE
5
B0
100
AcDbEntity
8
1
62
256
6
ByLayer
370
18
48
1
60
0
100
AcDbLine
10
8.081614
20
-5.744073
30
0
11
7.960374
21
-5.875126
31
0
39
0
210
0
220
0
230
1
0
LINE
5
B1
100
AcDbEntity
8
1
62
256
6
ByLayer
370
18
48
1
60
0
100
AcDbLine
10
15.555187
20
-2.849487
30
0
11
15.57115
21
-2.784124
31
0
39
0
210
0
220
0
230
1
0
LINE
5
B2
100
AcDbEntity
8
1
62
256
6
ByLayer
370
18
48
1
60
0
100
AcDbLine
10
12.459497
20
-3.316361
30
0
11
19.723047
21
-5.029968
31
0
39
0
210
0
220
0
230
1
0
LINE
5
B3
100
AcDbEntity
8
1
62
256
6
ByLayer
370
18
48
1
60
0
100
AcDbLine
10
8.081614
20
-5.744073
30
0
11
8.929614
21
-6.027567
31
0
39
0
210
0
220
0
230
1
0
LINE
5
B4
100
AcDbEntity
8
1
62
256
6
ByLayer
370
18
48
1
60
0
100
AcDbLine
10
15.171964
20
-14.615347
30
0
11
17.112843
21
-15.073236
31
0
39
0
210
0
220
0
230
1
0
LINE
5
B5
100
AcDbEntity
8
1
62
256
6
ByLayer
370
18
48
1
60
0
100
AcDbLine
10
8.935134
20
-11.482432
30
0
11
10.168207
21
-6.433448
31
0
39
0
210
0
220
0
230
1
0
LINE
5
B6
100
AcDbEntity
8
1
62
256
6
ByLayer
370
18
48
1
60
0
100
AcDbLine
10
17.624542
20
-11.874393
30
0
11
18.132433
21
-12.069869
31
0
39
0
210
0
220
0
230
1
0
LINE
5
B7
100
AcDbEntity
8
1
62
256
6
ByLayer
370
18
48
1
60
0
100
AcDbLine
10
18.251745
20
-10.661826
30
0
11
18.759636
21
-10.857303
31
0
39
0
210
0
220
0
230
1
0
LINE
5
B8
100
AcDbEntity
8
1
62
256
6
ByLayer
370
18
48
1
60
0
100
AcDbLine
10
18.074781
20
-10.030832
30
0
11
18.582671
21
-10.226308
31
0
39
0
210
0
220
0
230
1
0
LINE
5
B9
100
AcDbEntity
8
1
62
256
6
ByLayer
370
18
48
1
60
0
100
AcDbLine
10
16.294817
20
-11.94633
30
0
11
16.802708
21
-12.141807
31
0
39
0
210
0
220
0
230
1
0
LINE
5
BA
100
AcDbEntity
8
1
62
256
6
ByLayer
370
18
48
1
60
0
100
AcDbLine
10
18.073641
20
-11.391098
30
0
11
18.581531
21
-11.586574
31
0
39
0
210
0
220
0
230
1
0
LINE
5
BB
100
AcDbEntity
8
1
62
256
6
ByLayer
370
18
48
1
60
0
100
AcDbLine
10
0.5
20
12.439682
30
0
11
0
21
12.4375
31
0
39
0
210
0
220
0
230
1
0
LINE
5
BC
100
AcDbEntity
8
1
62
256
6
ByLayer
370
18
48
1
60
0
100
AcDbLine
10
6.187911
20
-17.5593
30
0
11
6.233056
21
-17.576676
31
0
39
0
210
0
220
0
230
1
0
LINE
5
BD
100
AcDbEntity
8
1
62
256
6
ByLayer
370
18
48
1
60
0
100
AcDbLine
10
9.894494
20
12.47062
30
0
11
2.839842
21
12.477784
31
0
39
0
210
0
220
0
230
1
0
LINE
5
BE
100
AcDbEntity
8
1
62
256
6
ByLayer
370
18
48
1
60
0
100
AcDbLine
10
34.198061
20
-9.634116
30
0
11
34.049945
21
-9.753122
31
0
39
0
210
0
220
0
230
1
0
LINE
5
BF
100
AcDbEntity
8
1
62
256
6
ByLayer
370
18
48
1
60
0
100
AcDbLine
10
30.802869
20
-18.382855
30
0
11
30.642766
21
-18.587669
31
0
39
0
210
0
220
0
230
1
0
LINE
5
C0
100
AcDbEntity
8
1
62
256
6
ByLayer
370
18
48
1
60
0
100
AcDbLine
10
12.090516
20
10.692138
30
0
11
9.894494
21
12.47062
31
0
39
0
210
0
220
0
230
1
0
LINE
5
C1
100
AcDbEntity
8
1
62
256
6
ByLayer
370
18
48
1
60
0
100
AcDbLine
10
0.5
20
-12.9375
30
0
11
0.5
21
12.439682
31
0
39
0
210
0
220
0
230
1
0
LINE
5
C2
100
AcDbEntity
8
1
62
256
6
ByLayer
370
18
48
1
60
0
100
AcDbLine
10
16.163826
20
7.777031
30
0
11
12.983696
21
10.064713
31
0
39
0
210
0
220
0
230
1
0
LINE
5
C3
100
AcDbEntity
8
1
62
256
6
ByLayer
370
18
48
1
60
0
100
AcDbLine
10
2.16761
20
-17.288566
30
0
11
5.217966
21
-17.448429
31
0
39
0
210
0
220
0
230
1
0
LINE
5
C4
100
AcDbEntity
8
1
62
256
6
ByLayer
370
18
48
1
60
0
100
AcDbLine
10
2.839842
20
12.477784
30
0
11
2.16761
21
-17.288566
31
0
39
0
210
0
220
0
230
1
0
LINE
5
C5
100
AcDbEntity
8
1
62
256
6
ByLayer
370
18
48
1
60
0
100
AcDbLine
10
0.5
20
12.439682
30
0
11
2.839842
21
12.477784
31
0
39
0
210
0
220
0
230
1
0
LINE
5
C6
100
AcDbEntity
8
1
62
256
6
ByLayer
370
18
48
1
60
0
100
AcDbLine
10
0
20
-12.4375
30
0
11
0
21
12.4375
31
0
39
0
210
0
220
0
230
1
0
LINE
5
C7
100
AcDbEntity
8
1
62
256
6
ByLayer
370
18
48
1
60
0
100
AcDbLine
10
0.5
20
-12.9375
30
0
11
0
21
-12.4375
31
0
39
0
210
0
220
0
230
1
0
LINE
5
C8
100
AcDbEntity
8
1
62
256
6
ByLayer
370
18
48
1
60
0
100
AcDbLine
10
34.198061
20
-9.634116
30
0
11
34.215184
21
-9.40297
31
0
39
0
210
0
220
0
230
1
0
LINE
5
C9
100
AcDbEntity
8
1
62
256
6
ByLayer
370
18
48
1
60
0
100
AcDbLine
10
12.983696
20
10.064713
30
0
11
12.93855
21
10.082089
31
0
39
0
210
0
220
0
230
1
0
LINE
5
CA
100
AcDbEntity
8
1
62
256
6
ByLayer
370
18
48
1
60
0
100
AcDbLine
10
30.802869
20
-18.382855
30
0
11
30.77311
21
-18.195536
31
0
39
0
210
0
220
0
230
1
0
LINE
5
CB
100
AcDbEntity
8
1
62
256
6
ByLayer
370
18
48
1
60
0
100
AcDbLine
10
32.360508
20
-9.657005
30
0
11
34.049945
21
-9.753122
31
0
39
0
210
0
220
0
230
1
0
LINE
5
CC
100
AcDbEntity
8
1
62
256
6
ByLayer
370
18
48
1
60
0
100
AcDbLine
10
1.615026
20
-17.098833
30
0
11
0.5
21
-12.9375
31
0
39
0
210
0
220
0
230
1
0
LINE
5
CD
100
AcDbEntity
8
1
62
256
6
ByLayer
370
18
48
1
60
0
100
AcDbLine
10
2.16761
20
-17.288566
30
0
11
1.615026
21
-17.098833
31
0
39
0
210
0
220
0
230
1
0
LINE
5
CE
100
AcDbEntity
8
1
62
256
6
ByLayer
370
18
48
1
60
0
100
AcDbLine
10
6.233056
20
-17.576676
30
0
11
9.870349
21
-17.992444
31
0
39
0
210
0
220
0
230
1
0
LINE
5
CF
100
AcDbEntity
8
1
62
256
6
ByLayer
370
18
48
1
60
0
100
AcDbLine
10
16.163826
20
7.777031
30
0
11
31.080263
21
-4.30328
31
0
39
0
210
0
220
0
230
1
0
LINE
5
D0
100
AcDbEntity
8
SK1
62
256
6
ByLayer
370
18
48
1
60
0
100
AcDbLine
10
0
20
-12.4375
30
0
11
0
21
12.4375
31
0
39
0
210
0
220
0
230
1
0
LINE
5
D2
100
AcDbEntity
8
SK1
62
256
6
ByLayer
370
18
48
1
60
0
100
AcDbLine
10
-104.772015
20
-12.4375
30
0
11
-104.772015
21
12.4375
31
0
39
0
210
0
220
0
230
1
0
LINE
5
D3
100
AcDbEntity
8
SK1
62
256
6
ByLayer
370
18
48
1
60
0
100
AcDbLine
10
-104.772015
20
12.4375
30
0
11
0
21
12.4375
31
0
39
0
210
0
220
0
230
1
0
LINE
5
D4
100
AcDbEntity
8
SK1
62
256
6
ByLayer
370
18
48
1
60
0
100
AcDbLine
10
0
20
-12.4375
30
0
11
-104.772015
21
-12.4375
31
0
39
0
210
0
220
0
230
1
0
LINE
5
D5
100
AcDbEntity
8
1
62
256
6
ByLayer
370
18
48
1
60
0
100
AcDbLine
10
32.302462
20
-19.206732
30
0
11
45.749597
21
-19.911466
31
0
39
0
210
0
220
0
230
1
0
LINE
5
D6
100
AcDbEntity
8
1
62
256
6
ByLayer
370
18
48
1
60
0
100
AcDbLine
10
46.292275
20
-18.49804
30
0
11
35.828276
21
-10.023606
31
0
39
0
210
0
220
0
230
1
0
LINE
5
D7
100
AcDbEntity
8
1
62
256
6
ByLayer
370
18
48
1
60
0
100
AcDbLine
10
30.794998
20
-18.62697
30
0
11
31.870034
21
-19.040728
31
0
39
0
210
0
220
0
230
1
0
LINE
5
D8
100
AcDbEntity
8
1
62
256
6
ByLayer
370
18
48
1
60
0
100
AcDbLine
10
34.320812
20
-9.443843
30
0
11
35.395848
21
-9.857602
31
0
39
0
210
0
220
0
230
1
0
MTEXT
5
160
100
AcDbEntity
8
SK6
62
256
6
ByLayer
370
18
48
1
60
0
100
AcDbMText
10
-43.222015
20
21.492646
30
0
210
0
220
0
230
1
1
\W0.7700;DVJNL 2525M 16
40
3.5
41
0
44
1.084337
50
0
71
7
72
5
7
iso_b_vert
0
DIMENSION
5
180
100
AcDbEntity
8
2
62
256
6
ByLayer
370
13
48
1
60
0
100
AcDbDimension
2
DimnDraft3D2
10
44.744064
20
-19.859076
30
0
11
34.28985
21
-31.616193
31
0
70
34
71
5
72
1
41
1
210
0
220
0
230
1
3
Standard
100
AcDb2LineAngularDimension
13
46.577985
23
-19.9125
33
0
14
46.577985
24
-18.325
34
0
15
45.742694
25
-19.911412
35
0
16
31.025665
26
-34.713789
36
0
40
0
0
DIMENSION
5
195
100
AcDbEntity
8
2
62
256
6
ByLayer
370
13
48
1
60
0
100
AcDbDimension
2
DimnDraft3D3
10
46.577985
20
-48.1625
30
0
11
17.770572
21
-48.1625
31
0
70
32
71
5
72
1
41
1
210
0
220
0
230
1
3
Standard
100
AcDbAlignedDimension
13
0
23
-14.4375
33
0
14
46.577985
24
-21.9125
34
0
50
0
100
AcDbRotatedDimension
1001
ACAD
1000
DSTYLE
1002
{
1070
   279
1070
     0
1070
   172
1070
     1
1070
   173
1070
     1
1070
   340
1005
161
1070
    77
1070
     1
1070
    73
1070
     0
1070
   171
1070
     3
1070
   274
1070
     4
1070
   177
1070
     2
1070
   176
1070
     2
1070
   178
1070
     7
1070
    78
1070
     8
1070
    41
1041
3.175
1070
   147
1041
2.25
1070
    42
1041
2.0
1070
    44
1041
2.0
1070
   140
1041
4.5
1070
   343
1005
181
1070
   344
1005
181
1002
}
0
DIMENSION
5
1A3
100
AcDbEntity
8
2
62
256
6
ByLayer
370
13
48
1
60
0
100
AcDbDimension
2
DimnDraft3D4
10
68.827985
20
-19.9125
30
0
11
68.827985
21
-9.019079
31
0
70
32
71
5
72
1
41
1
210
0
220
0
230
1
3
Standard
100
AcDbAlignedDimension
13
2
23
12.4375
33
0
14
48.577985
24
-19.9125
34
0
50
90
100
AcDbRotatedDimension
1001
ACAD
1000
DSTYLE
1002
{
1070
    74
1070
     0
1070
   279
1070
     0
1070
   172
1070
     1
1070
   173
1070
     1
1070
   340
1005
161
1070
    77
1070
     1
1070
    73
1070
     0
1070
   171
1070
     3
1070
   274
1070
     4
1070
   177
1070
     2
1070
   176
1070
     2
1070
   178
1070
     7
1070
    78
1070
     8
1070
    41
1041
3.175
1070
   147
1041
2.25
1070
    42
1041
2.0
1070
    44
1041
2.0
1070
   140
1041
4.5
1070
   343
1005
181
1070
   344
1005
181
1002
}
0
DIMENSION
5
1B1
100
AcDbEntity
8
SK2
62
256
6
ByLayer
370
13
48
1
60
0
100
AcDbDimension
2
DimnDraft3D5
10
-112.522015
20
-12.4375
30
0
11
-112.522015
21
-5.281579
31
0
70
32
71
5
72
1
41
1
210
0
220
0
230
1
3
Standard
100
AcDbAlignedDimension
13
-106.772015
23
12.4375
33
0
14
-106.772015
24
-12.4375
34
0
50
90
100
AcDbRotatedDimension
1001
ACAD
1000
DSTYLE
1002
{
1070
    74
1070
     0
1070
   279
1070
     0
1070
   172
1070
     1
1070
   173
1070
     1
1070
   340
1005
161
1070
    77
1070
     1
1070
    73
1070
     0
1070
   171
1070
     3
1070
   274
1070
     4
1070
   177
1070
     2
1070
   176
1070
     2
1070
   178
1070
     7
1070
    78
1070
     8
1070
    41
1041
3.175
1070
   147
1041
2.25
1070
    42
1041
2.0
1070
    44
1041
2.0
1070
   140
1041
4.5
1070
   343
1005
181
1070
   344
1005
181
1002
}
0
ENDSEC
0
SECTION
2
OBJECTS
0
DICTIONARY
5
21b
330
0
100
AcDbDictionary
280
0
281
1
3
ACAD_GROUP
350
21c
3
ACAD_MLINESTYLE
350
21d
0
DICTIONARY
5
21c
330
0
100
AcDbDictionary
280
0
281
1
0
DICTIONARY
5
21d
330
0
100
AcDbDictionary
280
0
281
1
3
Standard
350
18
0
MLINESTYLE
5
18
330
21d
100
AcDbMlineStyle
2
Standard
70
0
3

62
256
51
90
52
90
71
2
49
-0.5
62
256
6
ByLayer
49
0.5
62
256
6
ByLayer
0
RASTERVARIABLES
5
20a
330

100
AcDbRasterVariables
90
0
70
1
71
1
72
1
0
ENDSEC
0
EOF
