0
SECTION
2
HEADER
9
$ACADVER
1
AC1015
9
$DWGCODEPAGE
3
ANSI_1252
9
$HANDSEED
5
213
9
$ANGBASE
50
0
9
$ANGDIR
70
0
9
$ATTMODE
70
1
9
$AUNITS
70
0
9
$AUPREC
70
0
9
$CECOLOR
62
256
9
$CELTSCALE
40
1
9
$CELTYPE
6
ByLayer
9
$CELWEIGHT
370
18
9
$CLAYER
8
0
9
$CMLJUST
70
0
9
$CMLSCALE
40
1
9
$CMLSTYLE
2
Standard
9
$DIMSTYLE
2
Standard
9
$TEXTSIZE
40
0.2
9
$TEXTSTYLE
7
Standard
9
$LUNITS
70
2
9
$LUPREC
70
4
9
$EXTNAMES
290
1
9
$INSUNITS
70
4
9
$LTSCALE
40
1
9
$LWDISPLAY
290
1
9
$PDMODE
70
0
9
$PDSIZE
40
0
9
$PLINEGEN
70
0
0
ENDSEC
0
SECTION
2
CLASSES
0
CLASS
1
RASTERVARIABLES
2
AcDbRasterVariables
3
ISM
90
0
280
0
281
0
0
ENDSEC
0
SECTION
2
TABLES
0
TABLE
2
VPORT
5
209
100
AcDbSymbolTable
0
VPORT
5
1
100
AcDbSymbolTableRecord
100
AcDbViewportTableRecord
2
*Active
70
0
10
0
20
0
11
1
21
1
12
-1
22
1
13
0
23
0
14
0.5
24
0.5
15
10
25
10
16
0
26
0
36
1
17
0
27
0
37
0
0
ENDTAB
0
TABLE
2
LTYPE
5
20a
100
AcDbSymbolTable
0
LTYPE
5
14
100
AcDbSymbolTableRecord
100
AcDbLinetypeTableRecord
70
0
2
ByBlock
3

72
65
73
0
40
0
0
LTYPE
5
15
100
AcDbSymbolTableRecord
100
AcDbLinetypeTableRecord
70
0
2
ByLayer
3

72
65
73
0
40
0
0
LTYPE
5
16
100
AcDbSymbolTableRecord
100
AcDbLinetypeTableRecord
70
0
2
CONTINUOUS
3
Solid line
72
65
73
0
40
0
0
LTYPE
5
6A
100
AcDbSymbolTableRecord
100
AcDbLinetypeTableRecord
70
0
2
CENTER
3
____ _ ____ _ ____ _ ____
72
65
73
4
40
47.5
49
22
74
0
49
-8.5
74
0
49
8.5
74
0
49
-8.5
74
0
0
LTYPE
5
6B
100
AcDbSymbolTableRecord
100
AcDbLinetypeTableRecord
70
0
2
DASHED
3
__ __ __ __ __ __ __ __ __
72
65
73
2
40
25.72
49
12.86
74
0
49
-12.86
74
0
0
ENDTAB
0
TABLE
2
LAYER
5
20b
100
AcDbSymbolTable
0
LAYER
5
10
100
AcDbSymbolTableRecord
100
AcDbLayerTableRecord
2
0
70
0
62
7
6
CONTINUOUS
290
1
370
-3
390
0
0
LAYER
5
6D
100
AcDbSymbolTableRecord
100
AcDbLayerTableRecord
2
2
70
0
62
7
6
CONTINUOUS
290
1
370
-3
390
0
0
LAYER
5
6F
100
AcDbSymbolTableRecord
100
AcDbLayerTableRecord
2
80
70
0
62
-6
6
CONTINUOUS
290
1
370
-3
390
0
0
LAYER
5
71
100
AcDbSymbolTableRecord
100
AcDbLayerTableRecord
2
81
70
0
62
-3
6
CONTINUOUS
290
1
370
-3
390
0
0
LAYER
5
73
100
AcDbSymbolTableRecord
100
AcDbLayerTableRecord
2
1
70
0
62
4
6
CONTINUOUS
290
1
370
-3
390
0
0
LAYER
5
1f6
100
AcDbSymbolTableRecord
100
AcDbLayerTableRecord
2
SK1
70
0
62
4
6
CONTINUOUS
290
1
370
-3
390
0
0
LAYER
5
1f7
100
AcDbSymbolTableRecord
100
AcDbLayerTableRecord
2
SK6
70
0
62
5
6
CONTINUOUS
290
1
370
-3
390
0
0
LAYER
5
1f8
100
AcDbSymbolTableRecord
100
AcDbLayerTableRecord
2
SK2
70
0
62
7
6
CONTINUOUS
290
1
370
-3
390
0
0
ENDTAB
0
TABLE
2
STYLE
5
20c
100
AcDbSymbolTable
0
STYLE
5
11
100
AcDbSymbolTableRecord
100
AcDbTextStyleTableRecord
2
Standard
3
txt
70
0
71
0
40
0
41
1
42
0
50
0
0
STYLE
5
14C
100
AcDbSymbolTableRecord
100
AcDbTextStyleTableRecord
2
iso_b_vert
3
simplex.shx
70
0
71
0
40
0
41
1
42
0
50
0
0
STYLE
5
14D
100
AcDbSymbolTableRecord
100
AcDbTextStyleTableRecord
2
DWGDirectTextStyle
3
simplex
70
0
71
0
40
0
41
1
42
0
50
0
0
ENDTAB
0
TABLE
2
DIMSTYLE
5
20d
100
AcDbSymbolTable
100
AcDbDimStyleTable
0
DIMSTYLE
105
27
100
AcDbSymbolTableRecord
100
AcDbDimStyleTableRecord
2
Standard
70
0
3
<>
41
0.18
42
0.0625
44
0.18
140
0.18
147
0.09
73
0
74
0
77
1
271
2
275
0
278
52
280
0
340
11
0
ENDTAB
0
TABLE
2
VIEW
5
20e
100
AcDbSymbolTable
0
ENDTAB
0
TABLE
2
UCS
5
20f
100
AcDbSymbolTable
0
ENDTAB
0
TABLE
2
APPID
5
210
100
AcDbSymbolTable
0
APPID
5
12
100
AcDbSymbolTableRecord
100
AcDbRegAppTableRecord
2
ACAD
70
0
0
ENDTAB
0
TABLE
2
BLOCK_RECORD
5
211
100
AcDbSymbolTable
0
BLOCK_RECORD
5
1F
100
AcDbSymbolTableRecord
100
AcDbBlockTableRecord
2
*Model_Space
340
0
70
0
0
BLOCK_RECORD
5
1B
100
AcDbSymbolTableRecord
100
AcDbBlockTableRecord
2
*Paper_Space
340
0
70
0
0
BLOCK_RECORD
5
23
100
AcDbSymbolTableRecord
100
AcDbBlockTableRecord
2
*Paper_Space0
340
0
70
0
0
BLOCK_RECORD
5
14F
100
AcDbSymbolTableRecord
100
AcDbBlockTableRecord
2
DimnDraft3D1
340
0
70
0
0
BLOCK_RECORD
5
15D
100
AcDbSymbolTableRecord
100
AcDbBlockTableRecord
2
_CLOSED
340
0
70
0
0
BLOCK_RECORD
5
164
100
AcDbSymbolTableRecord
100
AcDbBlockTableRecord
2
DimnDraft3D2
340
0
70
0
0
BLOCK_RECORD
5
173
100
AcDbSymbolTableRecord
100
AcDbBlockTableRecord
2
DimnDraft3D3
340
0
70
0
0
BLOCK_RECORD
5
181
100
AcDbSymbolTableRecord
100
AcDbBlockTableRecord
2
DimnDraft3D4
340
0
70
0
0
BLOCK_RECORD
5
18F
100
AcDbSymbolTableRecord
100
AcDbBlockTableRecord
2
DimnDraft3D5
340
0
70
0
0
ENDTAB
0
ENDSEC
0
SECTION
2
BLOCKS
0
BLOCK
5
20
100
AcDbEntity
8
0
100
AcDbBlockBegin
2
*Model_Space
70
0
10
0
20
0
30
0
3
*Model_Space
0
ENDBLK
5
21
100
AcDbEntity
8
0
100
AcDbBlockEnd
0
BLOCK
5
1C
100
AcDbEntity
8
0
100
AcDbBlockBegin
2
*Paper_Space
70
0
10
0
20
0
30
0
3
*Paper_Space
0
ENDBLK
5
1D
100
AcDbEntity
8
0
100
AcDbBlockEnd
0
BLOCK
5
24
100
AcDbEntity
8
0
100
AcDbBlockBegin
2
*Paper_Space0
70
0
10
0
20
0
30
0
3
*Paper_Space0
0
ENDBLK
5
25
100
AcDbEntity
8
0
100
AcDbBlockEnd
0
BLOCK
5
15A
100
AcDbEntity
8
0
100
AcDbBlockBegin
2
DimnDraft3D1
70
0
10
0
20
0
30
0
3
DimnDraft3D1
0
MTEXT
5
150
100
AcDbEntity
8
2
62
256
6
ByLayer
370
18
48
1
60
0
100
AcDbMText
10
14.615665
20
33.016447
30
0
210
0
220
0
230
1
1
\W0.7399;93%%d
40
4.5
41
0
44
1.084337
50
46.5000000000004
71
7
72
5
7
iso_b_vert
0
LINE
5
151
100
AcDbEntity
8
2
62
256
6
ByLayer
370
13
48
1
60
0
100
AcDbLine
10
32.620022
20
21.9125
30
0
11
32.620022
21
42.880865
31
0
39
0
210
0
220
0
230
1
0
LINE
5
152
100
AcDbEntity
8
2
62
256
6
ByLayer
370
13
48
1
60
0
100
AcDbLine
10
28.788842
20
19.754404
30
0
11
9.725764
21
18.755351
31
0
39
0
210
0
220
0
230
1
0
ARC
5
153
100
AcDbEntity
8
2
62
256
6
ByLayer
370
13
48
1
60
0
100
AcDbCircle
39
0
10
32.620022
20
19.955188
30
0
40
20.9256770833572
210
0
220
0
230
1
100
AcDbArc
50
90
51
183
0
LINE
5
154
100
AcDbEntity
8
2
62
256
6
ByLayer
370
13
48
1
60
0
100
AcDbLine
10
32.620022
20
40.880865
30
0
11
29.46312
21
40.342993
31
0
39
0
210
0
220
0
230
1
0
LINE
5
155
100
AcDbEntity
8
2
62
256
6
ByLayer
370
13
48
1
60
0
100
AcDbLine
10
32.620022
20
40.880865
30
0
11
29.431474
21
41.178387
31
0
39
0
210
0
220
0
230
1
0
LINE
5
156
100
AcDbEntity
8
2
62
256
6
ByLayer
370
13
48
1
60
0
100
AcDbLine
10
29.46312
20
40.342993
30
0
11
29.431474
21
41.178387
31
0
39
0
210
0
220
0
230
1
0
LINE
5
157
100
AcDbEntity
8
2
62
256
6
ByLayer
370
13
48
1
60
0
100
AcDbLine
10
11.723023
20
18.860023
30
0
11
11.259033
21
22.028626
31
0
39
0
210
0
220
0
230
1
0
LINE
5
158
100
AcDbEntity
8
2
62
256
6
ByLayer
370
13
48
1
60
0
100
AcDbLine
10
11.723023
20
18.860023
30
0
11
12.094938
21
22.040751
31
0
39
0
210
0
220
0
230
1
0
LINE
5
159
100
AcDbEntity
8
2
62
256
6
ByLayer
370
13
48
1
60
0
100
AcDbLine
10
11.259033
20
22.028626
30
0
11
12.094938
21
22.040751
31
0
39
0
210
0
220
0
230
1
0
ENDBLK
5
15B
100
AcDbEntity
8
0
100
AcDbBlockEnd
0
BLOCK
5
15E
100
AcDbEntity
8
0
100
AcDbBlockBegin
2
_CLOSED
70
0
10
0
20
0
30
0
3
_CLOSED
0
LINE
5
160
100
AcDbEntity
8
0
62
256
6
ByLayer
370
-2
48
1
60
0
100
AcDbLine
10
-1
20
0.166667
30
0
11
0
21
0
31
0
39
0
210
0
220
0
230
1
0
LINE
5
161
100
AcDbEntity
8
0
62
256
6
ByLayer
370
-2
48
1
60
0
100
AcDbLine
10
0
20
0
30
0
11
-1
21
-0.166667
31
0
39
0
210
0
220
0
230
1
0
LINE
5
162
100
AcDbEntity
8
0
62
256
6
ByLayer
370
-2
48
1
60
0
100
AcDbLine
10
-1
20
0.166667
30
0
11
-1
21
-0.166667
31
0
39
0
210
0
220
0
230
1
0
LINE
5
163
100
AcDbEntity
8
0
62
256
6
ByLayer
370
-2
48
1
60
0
100
AcDbLine
10
0
20
0
30
0
11
-1
21
0
31
0
39
0
210
0
220
0
230
1
0
ENDBLK
5
15F
100
AcDbEntity
8
0
100
AcDbBlockEnd
0
BLOCK
5
170
100
AcDbEntity
8
0
100
AcDbBlockBegin
2
DimnDraft3D2
70
0
10
0
20
0
30
0
3
DimnDraft3D2
0
MTEXT
5
165
100
AcDbEntity
8
SK2
62
256
6
ByLayer
370
18
48
1
60
0
100
AcDbMText
10
-127.604978
20
-4.156579
30
0
210
0
220
0
230
1
1
\W0.7346;25.0
40
4.5
41
0
44
1.084337
50
90
71
7
72
5
7
iso_b_vert
0
LINE
5
167
100
AcDbEntity
8
SK2
62
256
6
ByLayer
370
13
48
1
60
0
100
AcDbLine
10
-120.729978
20
-12.4375
30
0
11
-128.479978
21
-12.4375
31
0
39
0
210
0
220
0
230
1
0
LINE
5
168
100
AcDbEntity
8
SK2
62
256
6
ByLayer
370
13
48
1
60
0
100
AcDbLine
10
-120.729978
20
12.4375
30
0
11
-128.479978
21
12.4375
31
0
39
0
210
0
220
0
230
1
0
LINE
5
169
100
AcDbEntity
8
SK2
62
256
6
ByLayer
370
13
48
1
60
0
100
AcDbLine
10
-126.479978
20
-12.4375
30
0
11
-126.479978
21
12.4375
31
0
39
0
210
0
220
0
230
1
0
LINE
5
16A
100
AcDbEntity
8
SK2
62
256
6
ByLayer
370
13
48
1
60
0
100
AcDbLine
10
-126.479978
20
-12.4375
30
0
11
-126.897975
21
-9.262502
31
0
39
0
210
0
220
0
230
1
0
LINE
5
16B
100
AcDbEntity
8
SK2
62
256
6
ByLayer
370
13
48
1
60
0
100
AcDbLine
10
-126.479978
20
-12.4375
30
0
11
-126.061981
21
-9.262498
31
0
39
0
210
0
220
0
230
1
0
LINE
5
16C
100
AcDbEntity
8
SK2
62
256
6
ByLayer
370
13
48
1
60
0
100
AcDbLine
10
-126.897975
20
-9.262502
30
0
11
-126.061981
21
-9.262498
31
0
39
0
210
0
220
0
230
1
0
LINE
5
16D
100
AcDbEntity
8
SK2
62
256
6
ByLayer
370
13
48
1
60
0
100
AcDbLine
10
-126.479978
20
12.4375
30
0
11
-126.061981
21
9.262502
31
0
39
0
210
0
220
0
230
1
0
LINE
5
16E
100
AcDbEntity
8
SK2
62
256
6
ByLayer
370
13
48
1
60
0
100
AcDbLine
10
-126.479978
20
12.4375
30
0
11
-126.897975
21
9.262498
31
0
39
0
210
0
220
0
230
1
0
LINE
5
16F
100
AcDbEntity
8
SK2
62
256
6
ByLayer
370
13
48
1
60
0
100
AcDbLine
10
-126.061981
20
9.262502
30
0
11
-126.897975
21
9.262498
31
0
39
0
210
0
220
0
230
1
0
ENDBLK
5
171
100
AcDbEntity
8
0
100
AcDbBlockEnd
0
BLOCK
5
17E
100
AcDbEntity
8
0
100
AcDbBlockBegin
2
DimnDraft3D3
70
0
10
0
20
0
30
0
3
DimnDraft3D3
0
MTEXT
5
174
100
AcDbEntity
8
2
62
256
6
ByLayer
370
18
48
1
60
0
100
AcDbMText
10
53.745022
20
-0.419079
30
0
210
0
220
0
230
1
1
\W0.7346;32.0
40
4.5
41
0
44
1.084337
50
90
71
7
72
5
7
iso_b_vert
0
LINE
5
175
100
AcDbEntity
8
2
62
256
6
ByLayer
370
13
48
1
60
0
100
AcDbLine
10
2
20
-12.4375
30
0
11
56.870022
21
-12.4375
31
0
39
0
210
0
220
0
230
1
0
LINE
5
176
100
AcDbEntity
8
2
62
256
6
ByLayer
370
13
48
1
60
0
100
AcDbLine
10
34.620022
20
19.9125
30
0
11
56.870022
21
19.9125
31
0
39
0
210
0
220
0
230
1
0
LINE
5
177
100
AcDbEntity
8
2
62
256
6
ByLayer
370
13
48
1
60
0
100
AcDbLine
10
54.870022
20
-12.4375
30
0
11
54.870022
21
19.9125
31
0
39
0
210
0
220
0
230
1
0
LINE
5
178
100
AcDbEntity
8
2
62
256
6
ByLayer
370
13
48
1
60
0
100
AcDbLine
10
54.870022
20
-12.4375
30
0
11
54.452025
21
-9.262502
31
0
39
0
210
0
220
0
230
1
0
LINE
5
179
100
AcDbEntity
8
2
62
256
6
ByLayer
370
13
48
1
60
0
100
AcDbLine
10
54.870022
20
-12.4375
30
0
11
55.288019
21
-9.262498
31
0
39
0
210
0
220
0
230
1
0
LINE
5
17A
100
AcDbEntity
8
2
62
256
6
ByLayer
370
13
48
1
60
0
100
AcDbLine
10
54.452025
20
-9.262502
30
0
11
55.288019
21
-9.262498
31
0
39
0
210
0
220
0
230
1
0
LINE
5
17B
100
AcDbEntity
8
2
62
256
6
ByLayer
370
13
48
1
60
0
100
AcDbLine
10
54.870022
20
19.9125
30
0
11
55.288019
21
16.737502
31
0
39
0
210
0
220
0
230
1
0
LINE
5
17C
100
AcDbEntity
8
2
62
256
6
ByLayer
370
13
48
1
60
0
100
AcDbLine
10
54.870022
20
19.9125
30
0
11
54.452025
21
16.737498
31
0
39
0
210
0
220
0
230
1
0
LINE
5
17D
100
AcDbEntity
8
2
62
256
6
ByLayer
370
13
48
1
60
0
100
AcDbLine
10
55.288019
20
16.737502
30
0
11
54.452025
21
16.737498
31
0
39
0
210
0
220
0
230
1
0
ENDBLK
5
17F
100
AcDbEntity
8
0
100
AcDbBlockEnd
0
BLOCK
5
18C
100
AcDbEntity
8
0
100
AcDbBlockBegin
2
DimnDraft3D4
70
0
10
0
20
0
30
0
3
DimnDraft3D4
0
MTEXT
5
182
100
AcDbEntity
8
2
62
256
6
ByLayer
370
18
48
1
60
0
100
AcDbMText
10
12.153432
20
50.7875
30
0
210
0
220
0
230
1
1
\W0.7346;32.6
40
4.5
41
0
44
1.084337
50
0
71
7
72
5
7
iso_b_vert
0
LINE
5
183
100
AcDbEntity
8
2
62
256
6
ByLayer
370
13
48
1
60
0
100
AcDbLine
10
0
20
14.4375
30
0
11
0
21
51.6625
31
0
39
0
210
0
220
0
230
1
0
LINE
5
184
100
AcDbEntity
8
2
62
256
6
ByLayer
370
13
48
1
60
0
100
AcDbLine
10
32.620022
20
21.9125
30
0
11
32.620022
21
51.6625
31
0
39
0
210
0
220
0
230
1
0
LINE
5
185
100
AcDbEntity
8
2
62
256
6
ByLayer
370
13
48
1
60
0
100
AcDbLine
10
0
20
49.6625
30
0
11
32.620022
21
49.6625
31
0
39
0
210
0
220
0
230
1
0
LINE
5
186
100
AcDbEntity
8
2
62
256
6
ByLayer
370
13
48
1
60
0
100
AcDbLine
10
0
20
49.6625
30
0
11
3.174998
21
50.080497
31
0
39
0
210
0
220
0
230
1
0
LINE
5
187
100
AcDbEntity
8
2
62
256
6
ByLayer
370
13
48
1
60
0
100
AcDbLine
10
0
20
49.6625
30
0
11
3.175002
21
49.244503
31
0
39
0
210
0
220
0
230
1
0
LINE
5
188
100
AcDbEntity
8
2
62
256
6
ByLayer
370
13
48
1
60
0
100
AcDbLine
10
3.174998
20
50.080497
30
0
11
3.175002
21
49.244503
31
0
39
0
210
0
220
0
230
1
0
LINE
5
189
100
AcDbEntity
8
2
62
256
6
ByLayer
370
13
48
1
60
0
100
AcDbLine
10
32.620022
20
49.6625
30
0
11
29.445024
21
49.244503
31
0
39
0
210
0
220
0
230
1
0
LINE
5
18A
100
AcDbEntity
8
2
62
256
6
ByLayer
370
13
48
1
60
0
100
AcDbLine
10
32.620022
20
49.6625
30
0
11
29.44502
21
50.080497
31
0
39
0
210
0
220
0
230
1
0
LINE
5
18B
100
AcDbEntity
8
2
62
256
6
ByLayer
370
13
48
1
60
0
100
AcDbLine
10
29.445024
20
49.244503
30
0
11
29.44502
21
50.080497
31
0
39
0
210
0
220
0
230
1
0
ENDBLK
5
18D
100
AcDbEntity
8
0
100
AcDbBlockEnd
0
BLOCK
5
19A
100
AcDbEntity
8
0
100
AcDbBlockBegin
2
DimnDraft3D5
70
0
10
0
20
0
30
0
3
DimnDraft3D5
0
MTEXT
5
190
100
AcDbEntity
8
SK2
62
256
6
ByLayer
370
18
48
1
60
0
100
AcDbMText
10
-48.330636
20
60.7875
30
0
210
0
220
0
230
1
1
\W0.6864;150.0
40
4.5
41
0
44
1.084337
50
0
71
7
72
5
7
iso_b_vert
0
LINE
5
191
100
AcDbEntity
8
SK2
62
256
6
ByLayer
370
13
48
1
60
0
100
AcDbLine
10
32.620022
20
21.9125
30
0
11
32.620022
21
61.6625
31
0
39
0
210
0
220
0
230
1
0
LINE
5
192
100
AcDbEntity
8
SK2
62
256
6
ByLayer
370
13
48
1
60
0
100
AcDbLine
10
-118.729978
20
14.4375
30
0
11
-118.729978
21
61.6625
31
0
39
0
210
0
220
0
230
1
0
LINE
5
193
100
AcDbEntity
8
SK2
62
256
6
ByLayer
370
13
48
1
60
0
100
AcDbLine
10
32.620022
20
59.6625
30
0
11
-118.729978
21
59.6625
31
0
39
0
210
0
220
0
230
1
0
LINE
5
194
100
AcDbEntity
8
SK2
62
256
6
ByLayer
370
13
48
1
60
0
100
AcDbLine
10
32.620022
20
59.6625
30
0
11
29.445024
21
59.244503
31
0
39
0
210
0
220
0
230
1
0
LINE
5
195
100
AcDbEntity
8
SK2
62
256
6
ByLayer
370
13
48
1
60
0
100
AcDbLine
10
32.620022
20
59.6625
30
0
11
29.44502
21
60.080497
31
0
39
0
210
0
220
0
230
1
0
LINE
5
196
100
AcDbEntity
8
SK2
62
256
6
ByLayer
370
13
48
1
60
0
100
AcDbLine
10
29.445024
20
59.244503
30
0
11
29.44502
21
60.080497
31
0
39
0
210
0
220
0
230
1
0
LINE
5
197
100
AcDbEntity
8
SK2
62
256
6
ByLayer
370
13
48
1
60
0
100
AcDbLine
10
-118.729978
20
59.6625
30
0
11
-115.55498
21
60.080497
31
0
39
0
210
0
220
0
230
1
0
LINE
5
198
100
AcDbEntity
8
SK2
62
256
6
ByLayer
370
13
48
1
60
0
100
AcDbLine
10
-118.729978
20
59.6625
30
0
11
-115.554976
21
59.244503
31
0
39
0
210
0
220
0
230
1
0
LINE
5
199
100
AcDbEntity
8
SK2
62
256
6
ByLayer
370
13
48
1
60
0
100
AcDbLine
10
-115.55498
20
60.080497
30
0
11
-115.554976
21
59.244503
31
0
39
0
210
0
220
0
230
1
0
ENDBLK
5
19B
100
AcDbEntity
8
0
100
AcDbBlockEnd
0
ENDSEC
0
SECTION
2
ENTITIES
0
ELLIPSE
5
D6
100
AcDbEntity
8
1
62
256
6
ByLayer
370
18
48
1
60
0
100
AcDbEllipse
10
12.363497
20
16.587866
30
0
11
-0.884806807834083
21
0.796683628196065
31
0
210
0
220
0
230
1
40
0.989133
41
3.08030928552193E-05
42
0.399602511653151
0
ELLIPSE
5
D7
100
AcDbEntity
8
1
62
256
6
ByLayer
370
18
48
1
60
0
100
AcDbEllipse
10
12.902371
20
2.619126
30
0
11
-0.282395033681411
21
0.254269630416365
31
0
210
0
220
0
230
1
40
0.989133
41
-0.836049082912811
42
-0.318229654113944
0
ELLIPSE
5
D8
100
AcDbEntity
8
1
62
256
6
ByLayer
370
18
48
1
60
0
100
AcDbEllipse
10
14.598206
20
1.259392
30
0
11
-0.282395033681411
21
0.254269630416365
31
0
210
0
220
0
230
1
40
0.989133
41
-2.82332933848586
42
-2.18989739851422
0
ELLIPSE
5
D9
100
AcDbEntity
8
1
62
256
6
ByLayer
370
18
48
1
60
0
100
AcDbEllipse
10
12.896652
20
3.419301
30
0
11
0.315836550827908
21
-0.284380507702498
31
0
210
0
220
0
230
1
40
0.989133
41
-0.836049082912855
42
1.70780797076858E-06
0
ELLIPSE
5
DA
100
AcDbEntity
8
1
62
256
6
ByLayer
370
18
48
1
60
0
100
AcDbEllipse
10
15.379272
20
1.428717
30
0
11
0.315836550827908
21
-0.284380507702498
31
0
210
0
220
0
230
1
40
0.989133
41
3.141592404269
42
-2.18989739851422
0
ELLIPSE
5
DB
100
AcDbEntity
8
1
62
256
6
ByLayer
370
18
48
1
60
0
100
AcDbEllipse
10
13.677717
20
3.588626
30
0
11
-0.282395033681411
21
0.254269630416365
31
0
210
0
220
0
230
1
40
0.989133
41
-1.88324663410937
42
-0.318314806973424
0
ELLIPSE
5
DC
100
AcDbEntity
8
1
62
256
6
ByLayer
370
18
48
1
60
0
100
AcDbEllipse
10
15.373552
20
2.228892
30
0
11
-0.282395033681411
21
0.254269630416365
31
0
210
0
220
0
230
1
40
0.989133
41
-2.82328871126029
42
-1.14269984731761
0
ELLIPSE
5
DD
100
AcDbEntity
8
1
62
256
6
ByLayer
370
18
48
1
60
0
100
AcDbEllipse
10
14.059259
20
2.336601
30
0
11
2.97257930190972
21
-2.67652242543527
31
0
210
0
220
0
230
1
40
0.989133
41
3.14156599396955
42
-0.843188245713926
0
ELLIPSE
5
DE
100
AcDbEntity
8
1
62
256
6
ByLayer
370
18
48
1
60
0
100
AcDbEllipse
10
14.059259
20
2.336601
30
0
11
2.97257930190972
21
-2.67652242543527
31
0
210
0
220
0
230
1
40
0.989133
41
-0.843188245713916
42
-2.24484073350127E-16
0
ELLIPSE
5
DF
100
AcDbEntity
8
1
62
256
6
ByLayer
370
18
48
1
60
0
100
AcDbEllipse
10
14.137962
20
2.424009
30
0
11
0.854616549299044
21
-0.769500197312641
31
0
210
0
220
0
230
1
40
0.989133
41
-1.83029855914153
42
-1.16860069716441
0
ELLIPSE
5
E0
100
AcDbEntity
8
1
62
256
6
ByLayer
370
18
48
1
60
0
100
AcDbEllipse
10
14.137962
20
2.424009
30
0
11
0.854616549299044
21
-0.769500197312641
31
0
210
0
220
0
230
1
40
0.989133
41
-0.623043618385812
42
-3.90407084087178E-16
0
ELLIPSE
5
E1
100
AcDbEntity
8
1
62
256
6
ByLayer
370
18
48
1
60
0
100
AcDbEllipse
10
14.137962
20
2.424009
30
0
11
0.854616549299044
21
-0.769500197312641
31
0
210
0
220
0
230
1
40
0.989133
41
0
42
-2.39686508418744
0
ELLIPSE
5
E2
100
AcDbEntity
8
1
62
256
6
ByLayer
370
18
48
1
60
0
100
AcDbEllipse
10
14.088772
20
2.369379
30
0
11
0.854616549299044
21
-0.769500197312641
31
0
210
0
220
0
230
1
40
0.989133
41
3.10926649371959
42
-1.74419945169647
0
ELLIPSE
5
E3
100
AcDbEntity
8
1
62
256
6
ByLayer
370
18
48
1
60
0
100
AcDbEllipse
10
14.088772
20
2.369379
30
0
11
0.854616549299044
21
-0.769500197312641
31
0
210
0
220
0
230
1
40
0.989133
41
0.0323712461178856
42
3.10926649371959
0
ELLIPSE
5
E4
100
AcDbEntity
8
1
62
256
6
ByLayer
370
18
48
1
60
0
100
AcDbEllipse
10
24.837296
20
0.921072
30
0
11
1.85749022834621
21
-1.67249171384646
31
0
210
0
220
0
230
1
40
0.989133
41
0.336074430666887
42
0.463168242146559
0
ELLIPSE
5
E5
100
AcDbEntity
8
1
62
256
6
ByLayer
370
18
48
1
60
0
100
AcDbEllipse
10
24.611545
20
0.664453
30
0
11
1.8565649727549
21
-1.67165860997004
31
0
210
0
220
0
230
1
40
0.989133
41
0.392598961462733
42
1.31446014751728
0
ELLIPSE
5
E6
100
AcDbEntity
8
1
62
256
6
ByLayer
370
18
48
1
60
0
100
AcDbEllipse
10
24.596789
20
0.648064
30
0
11
1.74509324893329
21
-1.57128901901622
31
0
210
0
220
0
230
1
40
0.989133
41
0.308929819053247
42
1.31446014751728
0
ELLIPSE
5
E7
100
AcDbEntity
8
1
62
256
6
ByLayer
370
18
48
1
60
0
100
AcDbEllipse
10
22.621764
20
13.107187
30
0
11
1.91731364973177
21
-1.72635696440575
31
0
210
0
220
0
230
1
40
0.989133
41
0.296919353297114
42
2.96236437855348
0
ELLIPSE
5
E8
100
AcDbEntity
8
1
62
256
6
ByLayer
370
18
48
1
60
0
100
AcDbEllipse
10
22.852477
20
1.556785
30
0
11
0.59005699142908
21
-0.531289701448902
31
0
210
0
220
0
230
1
40
0.989133
41
-0.477654586812227
42
-1.48555757790718E-06
0
ELLIPSE
5
E9
100
AcDbEntity
8
1
62
256
6
ByLayer
370
18
48
1
60
0
100
AcDbEllipse
10
12.246544
20
17.601383
30
0
11
0.59005699142908
21
-0.531289701448902
31
0
210
0
220
0
230
1
40
0.989133
41
-3.14156164904431
42
-1.82713250607251
0
ELLIPSE
5
EA
100
AcDbEntity
8
1
62
256
6
ByLayer
370
18
48
1
60
0
100
AcDbEllipse
10
14.865585
20
-5.62028
30
0
11
-2.24171979658924
21
1.99366304915848
31
0
210
0
220
0
230
1
40
0.986421
41
0.0200321271045534
42
0.0517566673072177
0
ELLIPSE
5
EB
100
AcDbEntity
8
1
62
256
6
ByLayer
370
18
48
1
60
0
100
AcDbEllipse
10
14.497929
20
2.887391
30
0
11
-3.10104571861512
21
2.7579005513359
31
0
210
0
220
0
230
1
40
0.986421
41
-3.08983598628256
42
-0.0818101225414362
0
ELLIPSE
5
EC
100
AcDbEntity
8
1
62
256
6
ByLayer
370
18
48
1
60
0
100
AcDbEllipse
10
13.18586
20
1.246257
30
0
11
-1.94282382371068
21
1.72784130927068
31
0
210
0
220
0
230
1
40
0.986421
41
1.51495352683506
42
1.72912167959672
0
ELLIPSE
5
ED
100
AcDbEntity
8
1
62
256
6
ByLayer
370
18
48
1
60
0
100
AcDbEllipse
10
15.838634
20
-3.074522
30
0
11
-3.28068342852644
21
-4.41891790157752
31
0
210
0
220
0
230
1
40
0.228919
41
-0.617781203485269
42
-0.56478889546996
0
ELLIPSE
5
EE
100
AcDbEntity
8
1
62
256
6
ByLayer
370
18
48
1
60
0
100
AcDbEllipse
10
22.981609
20
13.516335
30
0
11
-2.15299364263047
21
0.712543777384687
31
0
210
0
220
0
230
1
40
0.796789
41
-1.84925906857485
42
-0.994047735094808
0
ELLIPSE
5
EF
100
AcDbEntity
8
1
62
256
6
ByLayer
370
18
48
1
60
0
100
AcDbEllipse
10
10.06891
20
1.551687
30
0
11
3.4405503147163
21
4.29099213841106
31
0
210
0
220
0
230
1
40
0.008497
41
-2.41197047134371
42
-1.97020273205746
0
ELLIPSE
5
F0
100
AcDbEntity
8
1
62
256
6
ByLayer
370
18
48
1
60
0
100
AcDbEllipse
10
8.355977
20
2.925129
30
0
11
-3.60151565270227
21
-4.16162751812651
31
0
210
0
220
0
230
1
40
0.245887
41
0.565499166389148
42
0.618491475306525
0
ELLIPSE
5
F1
100
AcDbEntity
8
1
62
256
6
ByLayer
370
18
48
1
60
0
100
AcDbEllipse
10
15.218263
20
-2.996142
30
0
11
-0.319113840418956
21
-4.20275756560241
31
0
210
0
220
0
230
1
40
0.493388
41
0.26641199149635
42
0.626027724874712
0
ELLIPSE
5
F2
100
AcDbEntity
8
1
62
256
6
ByLayer
370
18
48
1
60
0
100
AcDbEllipse
10
1.62355
20
-1.664306
30
0
11
4.37888221872984
21
5.46126272161408
31
0
210
0
220
0
230
1
40
0.008497
41
0.810541504948336
42
0.825322541688223
0
ELLIPSE
5
F3
100
AcDbEntity
8
1
62
256
6
ByLayer
370
18
48
1
60
0
100
AcDbEllipse
10
14.125702
20
-1.701079
30
0
11
3.4405503147163
21
4.29099213841106
31
0
210
0
220
0
230
1
40
0.008497
41
-2.41197047134321
42
-1.97020273205735
0
ELLIPSE
5
F4
100
AcDbEntity
8
1
62
256
6
ByLayer
370
18
48
1
60
0
100
AcDbEllipse
10
8.664984
20
2.258327
30
0
11
-4.12938943208102
21
-1.10398636342456
31
0
210
0
220
0
230
1
40
0.502065
41
-0.598165190217799
42
-0.238549456830941
0
ELLIPSE
5
F5
100
AcDbEntity
8
1
62
256
6
ByLayer
370
18
48
1
60
0
100
AcDbEllipse
10
6.637219
20
-0.11715
30
0
11
-1.97078381381167
21
2.26216854654994
31
0
210
0
220
0
230
1
40
0.996407
41
0.698021397989422
42
1.74971046105297
0
ELLIPSE
5
F6
100
AcDbEntity
8
1
62
256
6
ByLayer
370
18
48
1
60
0
100
AcDbEllipse
10
7.033352
20
0.306661
30
0
11
0.690275074202066
21
-1.87710423843092
31
0
210
0
220
0
230
1
40
0.774127
41
-2.54163774287469
42
-1.12896224861509
0
ELLIPSE
5
F7
100
AcDbEntity
8
1
62
256
6
ByLayer
370
18
48
1
60
0
100
AcDbEllipse
10
13.190498
20
-5.371619
30
0
11
-1.97078381355201
21
2.26216854677576
31
0
210
0
220
0
230
1
40
0.996407
41
1.74971046116819
42
2.801399524232
0
ELLIPSE
5
F8
100
AcDbEntity
8
1
62
256
6
ByLayer
370
18
48
1
60
0
100
AcDbEllipse
10
22.981609
20
13.516335
30
0
11
-1.04761654269511
21
1.99157809150694
31
0
210
0
220
0
230
1
40
0.79442
41
-2.08302461839525
42
-1.22781328492254
0
ELLIPSE
5
F9
100
AcDbEntity
8
1
62
256
6
ByLayer
370
18
48
1
60
0
100
AcDbEllipse
10
17.367828
20
-4.1677
30
0
11
-2.0143528749998
21
-2.86980617534219
31
0
210
0
220
0
230
1
40
0.363769
41
-0.632507193743916
42
0.090710912652884
0
ELLIPSE
5
FA
100
AcDbEntity
8
1
62
256
6
ByLayer
370
18
48
1
60
0
100
AcDbEllipse
10
6.965813
20
4.172716
30
0
11
-2.36584609143606
21
-2.58782137116363
31
0
210
0
220
0
230
1
40
0.380682
41
-0.0892706007680801
42
0.633947505633056
0
ELLIPSE
5
FB
100
AcDbEntity
8
1
62
256
6
ByLayer
370
18
48
1
60
0
100
AcDbEllipse
10
13.596815
20
-4.955974
30
0
11
1.97714422436062
21
-0.301497456170792
31
0
210
0
220
0
230
1
40
0.77957
41
-1.98939348704779
42
-0.576717992788205
0
ELLIPSE
5
FC
100
AcDbEntity
8
1
62
256
6
ByLayer
370
18
48
1
60
0
100
AcDbEllipse
10
14.295367
20
2.598826
30
0
11
-1.70923309859801
21
1.53900039462537
31
0
210
0
220
0
230
1
40
0.989133
41
0
42
6.28318530717959
0
ELLIPSE
5
FD
100
AcDbEntity
8
1
62
256
6
ByLayer
370
18
48
1
60
0
100
AcDbEllipse
10
13.835123
20
3.763443
30
0
11
-0.282395033681411
21
0.254269630416365
31
0
210
0
220
0
230
1
40
0.989133
41
-1.88324663410938
42
0.951695255075542
0
ELLIPSE
5
FE
100
AcDbEntity
8
1
62
256
6
ByLayer
370
18
48
1
60
0
100
AcDbEllipse
10
14.368608
20
3.986131
30
0
11
0.315836550827908
21
-0.284380507702498
31
0
210
0
220
0
230
1
40
0.989133
41
-1.88324663410946
42
-0.0955022961210826
0
ELLIPSE
5
FF
100
AcDbEntity
8
1
62
256
6
ByLayer
370
18
48
1
60
0
100
AcDbEllipse
10
13.059776
20
2.793943
30
0
11
-0.282395033681411
21
0.254269630416365
31
0
210
0
220
0
230
1
40
0.989133
41
-0.836049082912781
42
1.99889280627218
0
ELLIPSE
5
100
100
AcDbEntity
8
1
62
256
6
ByLayer
370
18
48
1
60
0
100
AcDbEllipse
10
13.054057
20
3.594118
30
0
11
0.315836550827908
21
-0.284380507702498
31
0
210
0
220
0
230
1
40
0.989133
41
-0.836049082912833
42
0.951695255075484
0
ELLIPSE
5
101
100
AcDbEntity
8
1
62
256
6
ByLayer
370
18
48
1
60
0
100
AcDbEllipse
10
15.530958
20
2.403709
30
0
11
-0.282395033681411
21
0.254269630416365
31
0
210
0
220
0
230
1
40
0.989133
41
2.30554357067704
42
-1.14269984731765
0
ELLIPSE
5
102
100
AcDbEntity
8
1
62
256
6
ByLayer
370
18
48
1
60
0
100
AcDbEllipse
10
15.070714
20
3.568326
30
0
11
-0.282395033681411
21
0.254269630416365
31
0
210
0
220
0
230
1
40
0.989133
41
-2.93044418530599
42
-0.0955022961210259
0
ELLIPSE
5
103
100
AcDbEntity
8
1
62
256
6
ByLayer
370
18
48
1
60
0
100
AcDbEllipse
10
14.755612
20
1.434209
30
0
11
-0.282395033681411
21
0.254269630416365
31
0
210
0
220
0
230
1
40
0.989133
41
1.25834601948034
42
-2.1898973985142
0
ELLIPSE
5
104
100
AcDbEntity
8
1
62
256
6
ByLayer
370
18
48
1
60
0
100
AcDbEllipse
10
14.223153
20
2.518624
30
0
11
-2.97257930190959
21
2.67652242543542
31
0
210
0
220
0
230
1
40
0.989133
41
0
42
6.28318530717959
0
ELLIPSE
5
105
100
AcDbEntity
8
1
62
256
6
ByLayer
370
18
48
1
60
0
100
AcDbEllipse
10
12.82341
20
2.031996
30
0
11
0.315836550827908
21
-0.284380507702498
31
0
210
0
220
0
230
1
40
0.989133
41
0.211148468283729
42
1.99889280627212
0
ELLIPSE
5
106
100
AcDbEntity
8
1
62
256
6
ByLayer
370
18
48
1
60
0
100
AcDbEllipse
10
15.609918
20
2.990839
30
0
11
0.315836550827908
21
-0.284380507702498
31
0
210
0
220
0
230
1
40
0.989133
41
-2.93044418530605
42
-1.14269984731762
0
ELLIPSE
5
107
100
AcDbEntity
8
1
62
256
6
ByLayer
370
18
48
1
60
0
100
AcDbEllipse
10
13.520021
20
1.629326
30
0
11
-0.282395033681411
21
0.254269630416365
31
0
210
0
220
0
230
1
40
0.989133
41
0.211148468283766
42
3.04609035746877
0
ELLIPSE
5
108
100
AcDbEntity
8
1
62
256
6
ByLayer
370
18
48
1
60
0
100
AcDbEllipse
10
14.526014
20
4.160948
30
0
11
0.315836550827908
21
-0.284380507702498
31
0
210
0
220
0
230
1
40
0.989133
41
-1.88324663410948
42
-0.0955022961210584
0
ELLIPSE
5
109
100
AcDbEntity
8
1
62
256
6
ByLayer
370
18
48
1
60
0
100
AcDbEllipse
10
14.06472
20
1.036705
30
0
11
0.315836550827908
21
-0.284380507702498
31
0
210
0
220
0
230
1
40
0.989133
41
1.25834601948032
42
3.04609035746874
0
ELLIPSE
5
10A
100
AcDbEntity
8
1
62
256
6
ByLayer
370
18
48
1
60
0
100
AcDbEllipse
10
15.767324
20
3.165656
30
0
11
0.315836550827908
21
-0.284380507702498
31
0
210
0
220
0
230
1
40
0.989133
41
-2.93044418530605
42
-1.14269984731777
0
ELLIPSE
5
10B
100
AcDbEntity
8
1
62
256
6
ByLayer
370
18
48
1
60
0
100
AcDbEllipse
10
14.913308
20
3.393509
30
0
11
-0.282395033681411
21
0.254269630416365
31
0
210
0
220
0
230
1
40
0.989133
41
-2.93044418530602
42
-0.0955022961210259
0
ELLIPSE
5
10C
100
AcDbEntity
8
1
62
256
6
ByLayer
370
18
48
1
60
0
100
AcDbEllipse
10
15.536677
20
1.603534
30
0
11
0.315836550827908
21
-0.284380507702498
31
0
210
0
220
0
230
1
40
0.989133
41
2.30554357067706
42
-2.18989739851431
0
ELLIPSE
5
10D
100
AcDbEntity
8
1
62
256
6
ByLayer
370
18
48
1
60
0
100
AcDbEllipse
10
25.655806
20
1.83012
30
0
11
1.78014847609341
21
-1.60285288732497
31
0
210
0
220
0
230
1
40
0.989133
41
-0.256336179277633
42
0.347999970292414
0
ELLIPSE
5
10E
100
AcDbEntity
8
1
62
256
6
ByLayer
370
18
48
1
60
0
100
AcDbEllipse
10
18.535372
20
-12.4463
30
0
11
-1.27882645805238
21
-2.51067257323384E-05
31
0
210
0
220
0
230
1
40
0.00273
41
-2.99087208646589
42
-1.42007575967024
0
ELLIPSE
5
10F
100
AcDbEntity
8
1
62
256
6
ByLayer
370
18
48
1
60
0
100
AcDbEllipse
10
2.194693
20
0.655782
30
0
11
-0.552805684032042
21
1.1721452734397
31
0
210
0
220
0
230
1
40
0.483183
41
-0.63278352209081
42
0.938012804703863
0
ELLIPSE
5
110
100
AcDbEntity
8
1
62
256
6
ByLayer
370
18
48
1
60
0
100
AcDbEllipse
10
25.490076
20
1.72184
30
0
11
1.78014847609341
21
-1.60285288732497
31
0
210
0
220
0
230
1
40
0.989133
41
-1.40719220426332
42
-0.25633617927762
0
ELLIPSE
5
111
100
AcDbEntity
8
1
62
256
6
ByLayer
370
18
48
1
60
0
100
AcDbEllipse
10
24.557587
20
1.128977
30
0
11
-1.08409418492728
21
0.976122788508282
31
0
210
0
220
0
230
1
40
0.989133
41
1.31446014751727
42
2.06070441566124
0
ELLIPSE
5
112
100
AcDbEntity
8
1
62
256
6
ByLayer
370
18
48
1
60
0
100
AcDbEllipse
10
25.704532
20
1.878337
30
0
11
1.76049377056335
21
-1.58515571097622
31
0
210
0
220
0
230
1
40
0.989133
41
0.321109521196016
42
1.31446014751729
0
ELLIPSE
5
113
100
AcDbEntity
8
1
62
256
6
ByLayer
370
18
48
1
60
0
100
AcDbEllipse
10
12.714826
20
18.121463
30
0
11
-0.590056991429053
21
0.531289701448931
31
0
210
0
220
0
230
1
40
0.989133
41
-0.779934954875866
42
1.31446014751728
0
ELLIPSE
5
114
100
AcDbEntity
8
1
62
256
6
ByLayer
370
18
48
1
60
0
100
AcDbEllipse
10
31.829708
20
19.123231
30
0
11
-0.590056991429053
21
0.531289701448931
31
0
210
0
220
0
230
1
40
0.989133
41
-2.87433005726906
42
-0.779934954875898
0
ELLIPSE
5
115
100
AcDbEntity
8
1
62
256
6
ByLayer
370
18
48
1
60
0
100
AcDbEllipse
10
23.320759
20
2.076865
30
0
11
-0.590056991429053
21
0.531289701448931
31
0
210
0
220
0
230
1
40
0.989133
41
1.31446014751728
42
-2.87433005726913
0
POINT
5
6C
100
AcDbEntity
8
2
62
256
6
ByLayer
370
18
48
1
60
0
100
AcDbPoint
10
32.620022
20
19.9125
30
0
39
0
210
0
220
0
230
1
50
360
0
POINT
5
6E
100
AcDbEntity
8
80
62
256
6
ByLayer
370
18
48
1
60
0
100
AcDbPoint
10
0
20
0
30
0
39
0
210
0
220
0
230
1
50
360
0
POINT
5
70
100
AcDbEntity
8
81
62
256
6
ByLayer
370
18
48
1
60
0
100
AcDbPoint
10
32.620022
20
19.9125
30
0
39
0
210
0
220
0
230
1
50
360
0
SPLINE
5
116
100
AcDbEntity
8
1
62
256
6
ByLayer
370
18
48
1
60
0
100
AcDbSpline
70
4
71
3
72
8
73
4
40
0
40
0
40
0
40
0
40
1
40
1
40
1
40
1
41
1
10
27.1357211099117
20
-0.0327530272431602
30
0
41
1
10
27.175559345495
20
0.058051201152125
30
0
41
1
10
27.2098781949056
20
0.151184375563247
30
0
41
1
10
27.2382071510666
20
0.245671511440236
30
0
0
SPLINE
5
117
100
AcDbEntity
8
1
62
256
6
ByLayer
370
18
48
1
60
0
100
AcDbSpline
70
4
71
3
72
10
73
6
40
0
40
0
40
0
40
0
40
0.628627889082421
40
0.628627889082421
40
1
40
1
40
1
40
1
41
1
10
15.7142517430804
20
-7.03582744978436
30
0
41
1
10
15.494598784253
20
-7.29383736343368
30
0
41
1
10
15.2302149247267
20
-7.55725686500614
30
0
41
1
10
14.7271540819206
20
-7.92621050168776
30
0
41
1
10
14.5198637917625
20
-8.05348431200494
30
0
41
1
10
14.2962331811973
20
-8.15937040030184
30
0
0
SPLINE
5
118
100
AcDbEntity
8
1
62
256
6
ByLayer
370
18
48
1
60
0
100
AcDbSpline
70
4
71
3
72
8
73
4
40
0
40
0
40
0
40
0
40
1
40
1
40
1
40
1
41
1
10
22.0591169293941
20
15.3069851591407
30
0
41
1
10
21.9764249835202
20
15.2886091800361
30
0
41
1
10
21.8965938559972
20
15.2668108002513
30
0
41
1
10
21.8209602372267
20
15.2421238303075
30
0
0
SPLINE
5
119
100
AcDbEntity
8
1
62
256
6
ByLayer
370
18
48
1
60
0
100
AcDbSpline
70
4
71
3
72
8
73
4
40
0
40
0
40
0
40
0
40
1
40
1
40
1
40
1
41
1
10
9.48968763246512
20
1.79789961296188
30
0
41
1
10
9.44957923565727
20
2.67141338076007
30
0
41
1
10
9.72687778864275
20
3.54131461711302
30
0
41
1
10
10.3033440377296
20
4.26213320647736
30
0
0
SPLINE
5
11A
100
AcDbEntity
8
1
62
256
6
ByLayer
370
18
48
1
60
0
100
AcDbSpline
70
4
71
3
72
10
73
6
40
0
40
0
40
0
40
0
40
0.5
40
0.5
40
1
40
1
40
1
40
1
41
1
10
15.4563247713939
20
-7.09208480072979
30
0
41
1
10
15.0690015073922
20
-7.26945945830704
30
0
41
1
10
14.7152143218475
20
-7.27684286145251
30
0
41
1
10
13.7531574195843
20
-7.0906822308348
30
0
41
1
10
13.110387070721
20
-6.83337243822717
30
0
41
1
10
12.5260031862096
20
-6.40522024780461
30
0
0
SPLINE
5
11B
100
AcDbEntity
8
1
62
256
6
ByLayer
370
18
48
1
60
0
100
AcDbSpline
70
4
71
3
72
8
73
4
40
0
40
0
40
0
40
0
40
1
40
1
40
1
40
1
41
1
10
18.5127226306825
20
1.3770461930421
30
0
41
1
10
18.38265471533
20
1.12456880561962
30
0
41
1
10
18.2263461587079
20
0.880482862339875
30
0
41
1
10
18.0476307205782
20
0.65701546903739
30
0
0
SPLINE
5
11C
100
AcDbEntity
8
1
62
256
6
ByLayer
370
18
48
1
60
0
100
AcDbSpline
70
4
71
3
72
12
73
8
40
0
40
0
40
0
40
0
40
0.10885398860713
40
0.502629237162304
40
0.699516861439891
40
0.896404485717479
40
1
40
1
40
1
40
1
41
1.02441262532206
10
18.3155555973885
20
5.69645872315005
30
0
41
1.02394775682001
10
18.5045530420425
20
5.97760206134519
30
0
41
1.02173322384668
10
19.3934585201276
20
7.31179496023188
30
0
41
1.01876555595691
10
20.6069771142847
20
9.20882266890338
30
0
41
1.01610930227499
10
21.396360758821
20
10.4933712832723
30
0
41
1.01814069306376
10
21.833471416377
20
11.0293388954377
30
0
41
1.02005196006971
10
22.206781311217
20
11.5182490233967
30
0
41
1.02076673234773
10
22.3413371627326
20
11.6983660441593
30
0
0
SPLINE
5
11D
100
AcDbEntity
8
1
62
256
6
ByLayer
370
18
48
1
60
0
100
AcDbSpline
70
4
71
3
72
8
73
4
40
0
40
0
40
0
40
0
40
1
40
1
40
1
40
1
41
1
10
17.1811278039619
20
13.9862780726924
30
0
41
1
10
17.2570244956873
20
14.0576608485447
30
0
41
1
10
17.3347731042651
20
14.1272836557975
30
0
41
1
10
17.4141383989469
20
14.1952296505356
30
0
0
SPLINE
5
11E
100
AcDbEntity
8
1
62
256
6
ByLayer
370
18
48
1
60
0
100
AcDbSpline
70
4
71
3
72
10
73
6
40
0
40
0
40
0
40
0
40
0.5
40
0.5
40
1
40
1
40
1
40
1
41
1
10
22.7589132815404
20
9.96167698900797
30
0
41
1
10
23.2205681531319
20
9.90990260341513
30
0
41
1
10
23.6688114945122
20
9.92154450557257
30
0
41
1
10
24.4843863767708
20
10.3274189570637
30
0
41
1
10
24.8435603739981
20
10.7515799223039
30
0
41
1
10
24.9886597230822
20
11.4831248682206
30
0
0
SPLINE
5
11F
100
AcDbEntity
8
1
62
256
6
ByLayer
370
18
48
1
60
0
100
AcDbSpline
70
4
71
3
72
8
73
4
40
0
40
0
40
0
40
0
40
1
40
1
40
1
40
1
41
1
10
19.314509402901
20
14.8304589188616
30
0
41
1
10
19.7169092790113
20
14.9088670172171
30
0
41
1
10
20.1212848257501
20
14.9860877690634
30
0
41
1
10
20.5255287296978
20
15.0616974329089
30
0
0
SPLINE
5
120
100
AcDbEntity
8
1
62
256
6
ByLayer
370
18
48
1
60
0
100
AcDbSpline
70
4
71
3
72
11
73
7
40
0
40
0
40
0
40
0
40
0.423407924939466
40
0.740963868644065
40
0.899741840496365
40
1
40
1
40
1
40
1
41
1.02805999725225
10
19.8418195547104
20
-0.152459353861259
30
0
41
1.02767136955277
10
20.2929644309026
20
0.583382070605947
30
0
41
1.02349884684923
10
21.2242114164844
20
3.71777973411696
30
0
41
1.01876555595691
10
22.0597727074437
20
7.84129938530355
30
0
41
1.01635405201137
10
22.3771477895376
20
9.39066693714487
30
0
41
1.01722454828226
10
22.6421471993209
20
9.79809375679944
30
0
41
1.01774327987904
10
22.7589132815406
20
9.96167698900834
30
0
0
SPLINE
5
121
100
AcDbEntity
8
1
62
256
6
ByLayer
370
18
48
1
60
0
100
AcDbSpline
70
4
71
2
72
6
73
3
40
0
40
0
40
0
40
1
40
1
40
1
41
1.02805999725224
10
10.3589984687141
20
7.45093911889951
30
0
41
0.93055444607248
10
10.9763913685422
20
7.25146670486688
30
0
41
0.937301687719828
10
12.1731618901752
20
6.46015449134377
30
0
0
SPLINE
5
122
100
AcDbEntity
8
1
62
256
6
ByLayer
370
18
48
1
60
0
100
AcDbSpline
70
4
71
3
72
8
73
4
40
0
40
0
40
0
40
0
40
1
40
1
40
1
40
1
41
1
10
5.64318750976014
20
1.55424662644708
30
0
41
1
10
6.47703186869501
20
1.70409048084272
30
0
41
1
10
7.92962450148383
20
1.6854145969059
30
0
41
1
10
9.49005263968974
20
1.58111634341094
30
0
0
SPLINE
5
123
100
AcDbEntity
8
1
62
256
6
ByLayer
370
18
48
1
60
0
100
AcDbSpline
70
4
71
3
72
15
73
11
40
0
40
0
40
0
40
0
40
0.227604479949749
40
0.227604479949749
40
0.479423709218443
40
0.479423709218443
40
0.785574270382839
40
0.785574270382839
40
0.785574270382839
40
1
40
1
40
1
40
1
41
1
10
18.3155555973886
20
5.69645872314996
30
0
41
1
10
18.5123615433704
20
5.41629942118163
30
0
41
1
10
18.6694819571715
20
5.10226125553123
30
0
41
1
10
18.9039564372416
20
4.41864791979393
30
0
41
1
10
18.9746939834443
20
4.03899833255554
30
0
41
1
10
19.0207058236614
20
3.20181438174302
30
0
41
1
10
18.9733270018108
20
2.73301743845238
30
0
41
1
10
18.8581272586336
20
2.28712016918104
30
0
41
1
10
18.7769451772187
20
1.9728931803154
30
0
41
1
10
18.6610154961566
20
1.66554922484016
30
0
41
1
10
18.512722634573
20
1.37704620059404
30
0
0
SPLINE
5
124
100
AcDbEntity
8
1
62
256
6
ByLayer
370
18
48
1
60
0
100
AcDbSpline
70
4
71
3
72
10
73
6
40
0
40
0
40
0
40
0
40
0.26471563914559
40
0.26471563914559
40
1
40
1
40
1
40
1
41
1
10
22.5192363043325
20
12.9255960302325
30
0
41
1
10
22.5005258942089
20
12.8204475500336
30
0
41
1
10
22.4827393868645
20
12.7142775573041
30
0
41
1
10
22.4186091140191
20
12.3100794751745
30
0
41
1
10
22.3775608024108
20
12.0063891860371
30
0
41
1
10
22.3413371627388
20
11.6983660441677
30
0
0
SPLINE
5
125
100
AcDbEntity
8
1
62
256
6
ByLayer
370
18
48
1
60
0
100
AcDbSpline
70
4
71
3
72
10
73
6
40
0
40
0
40
0
40
0
40
0.967465556419471
40
0.967465556419471
40
1
40
1
40
1
40
1
41
1
10
21.3706134545915
20
12.4766997375984
30
0
41
1
10
21.7525450404281
20
12.6138967999457
30
0
41
1
10
22.1255605079542
20
12.757653534525
30
0
41
1
10
22.4952162739166
20
12.9152979711725
30
0
41
1
10
22.5072354546933
20
12.9204417258693
30
0
41
1
10
22.5192363043472
20
12.9255960302388
30
0
0
SPLINE
5
126
100
AcDbEntity
8
1
62
256
6
ByLayer
370
18
48
1
60
0
100
AcDbSpline
70
4
71
2
72
6
73
3
40
0
40
0
40
0
40
1
40
1
40
1
41
0.937301687603846
10
18.5127226519962
20
1.37704618375199
30
0
41
0.930554446910518
10
19.5335197542779
20
0.390295716202557
30
0
41
1.02805999725225
10
19.8418195547104
20
-0.152459353861259
30
0
0
SPLINE
5
127
100
AcDbEntity
8
1
62
256
6
ByLayer
370
18
48
1
60
0
100
AcDbSpline
70
4
71
3
72
11
73
7
40
0
40
0
40
0
40
0
40
0.65664265674397
40
0.65664265674397
40
0.65664265674397
40
1
40
1
40
1
40
1
41
1
10
4.55973826135005
20
2.06751521218791
30
0
41
1
10
4.32519694528622
20
1.77965533354734
30
0
41
1
10
4.09083847783586
20
1.43452908015914
30
0
41
1
10
3.91053147022217
20
1.03399478325002
30
0
41
1
10
3.81548196728301
20
0.822851653900074
30
0
41
1
10
3.73475935940331
20
0.594094907923846
30
0
41
1
10
3.67869333555882
20
0.353854252435781
30
0
0
SPLINE
5
128
100
AcDbEntity
8
1
62
256
6
ByLayer
370
18
48
1
60
0
100
AcDbSpline
70
4
71
3
72
8
73
4
40
0
40
0
40
0
40
0
40
1
40
1
40
1
40
1
41
1
10
14.3505672927573
20
-2.31608147937493
30
0
41
1
10
14.7874464291701
20
-3.81428829945651
30
0
41
1
10
15.1090938591407
20
-5.21603103432165
30
0
41
1
10
15.1260085957564
20
-6.04915184631366
30
0
0
SPLINE
5
129
100
AcDbEntity
8
1
62
256
6
ByLayer
370
18
48
1
60
0
100
AcDbSpline
70
4
71
3
72
11
73
7
40
0
40
0
40
0
40
0
40
0.564783939443778
40
0.564783939443778
40
0.564783939443778
40
1
40
1
40
1
40
1
41
1
10
17.1811278039619
20
13.9862780726924
30
0
41
1
10
16.9190457960331
20
13.7397832545174
30
0
41
1
10
16.6033198197937
20
13.4751568668751
30
0
41
1
10
16.2451921655423
20
13.2387588230552
30
0
41
1
10
15.966946429599
20
13.055090382773
30
0
41
1
10
15.6640960854902
20
12.8792854870692
30
0
41
1
10
15.3540515971787
20
12.7119583409348
30
0
0
SPLINE
5
12A
100
AcDbEntity
8
1
62
256
6
ByLayer
370
18
48
1
60
0
100
AcDbSpline
70
4
71
3
72
8
73
4
40
0
40
0
40
0
40
0
40
1
40
1
40
1
40
1
41
1
10
13.3409704201442
20
-2.86564070687064
30
0
41
1
10
13.1447514618781
20
-3.02963843056733
30
0
41
1
10
12.9733769690404
20
-3.20844942031456
30
0
41
1
10
12.8213591702431
20
-3.39665624697199
30
0
0
SPLINE
5
12B
100
AcDbEntity
8
1
62
256
6
ByLayer
370
18
48
1
60
0
100
AcDbSpline
70
4
71
3
72
8
73
4
40
0
40
0
40
0
40
0
40
1
40
1
40
1
40
1
41
1
10
5.91712015694799
20
-1.10812407393391
30
0
41
1
10
5.89877030345241
20
-1.09341102105876
30
0
41
1
10
5.88089041658526
20
-1.07841231712595
30
0
41
1
10
5.863458400328
20
-1.0631408823634
30
0
0
SPLINE
5
12C
100
AcDbEntity
8
1
62
256
6
ByLayer
370
18
48
1
60
0
100
AcDbSpline
70
4
71
3
72
20
73
16
40
0
40
0
40
0
40
0
40
0.332873226652389
40
0.332873226652389
40
0.501657261698206
40
0.501657261698206
40
0.631212321676513
40
0.631212321676513
40
0.722542323637668
40
0.722542323637668
40
0.814765347404189
40
0.814765347404189
40
0.896421359038796
40
0.896421359038796
40
1
40
1
40
1
40
1
41
1
10
22.3413371627388
20
11.6983660441677
30
0
41
1
10
22.3169022519884
20
11.490933749333
30
0
41
1
10
22.3003126705441
20
11.2738536705456
30
0
41
1
10
22.3044701091607
20
10.9304873310739
30
0
41
1
10
22.3110865166617
20
10.8107147524357
30
0
41
1
10
22.3395279710954
20
10.5972672144508
30
0
41
1
10
22.3578443442706
20
10.5022588055952
30
0
41
1
10
22.4029746867127
20
10.3482002880031
30
0
41
1
10
22.42622171091
20
10.2855852101917
30
0
41
1
10
22.4807030111795
20
10.1738972823724
30
0
41
1
10
22.5128505100149
20
10.1236236885734
30
0
41
1
10
22.5765940654138
20
10.0495945336207
30
0
41
1
10
22.6085184729503
20
10.0224706415472
30
0
41
1
10
22.6800522565
20
9.978740074163
30
0
41
1
10
22.7203261280975
20
9.96600108124917
30
0
41
1
10
22.7589132815404
20
9.96167698900797
30
0
0
SPLINE
5
12D
100
AcDbEntity
8
1
62
256
6
ByLayer
370
18
48
1
60
0
100
AcDbSpline
70
4
71
3
72
8
73
4
40
0
40
0
40
0
40
0
40
1
40
1
40
1
40
1
41
1.01923193622652
10
24.8218248923912
20
8.25574817344537
30
0
41
1.02059843499303
10
24.9053896175227
20
8.82097962476179
30
0
41
1.02233811057541
10
24.987444661862
20
9.52847323955865
30
0
41
1.02417041321379
10
25.0254685397301
20
10.2512441489348
30
0
0
SPLINE
5
12E
100
AcDbEntity
8
1
62
256
6
ByLayer
370
18
48
1
60
0
100
AcDbSpline
70
4
71
2
72
6
73
3
40
0
40
0
40
0
40
1
40
1
40
1
41
1.02805999725224
10
19.8418195547104
20
-0.152459353861231
30
0
41
1.02805999725224
10
20.1329120317791
20
-0.664921306690211
30
0
41
1.02805999725224
10
20.4240045088478
20
-1.17738325951916
30
0
0
SPLINE
5
12F
100
AcDbEntity
8
1
62
256
6
ByLayer
370
18
48
1
60
0
100
AcDbSpline
70
4
71
3
72
8
73
4
40
0
40
0
40
0
40
0
40
1
40
1
40
1
40
1
41
1
10
23.8373304480181
20
5.91000047696878
30
0
41
1
10
24.0574158766446
20
6.69410652826386
30
0
41
1
10
24.3481570817439
20
7.41824527465633
30
0
41
1
10
24.6717587412257
20
7.98023289774838
30
0
0
SPLINE
5
130
100
AcDbEntity
8
1
62
256
6
ByLayer
370
18
48
1
60
0
100
AcDbSpline
70
4
71
3
72
12
73
8
40
0
40
0
40
0
40
0
40
0.10885400284168
40
0.502629245107337
40
0.699516866240166
40
0.896404487372994
40
1
40
1
40
1
40
1
41
1.0244126255267
10
16.433198971642
20
7.20574647181323
30
0
41
1.02394775696077
10
16.6652566448718
20
7.45236384997558
30
0
41
1.02173322391444
10
17.7677753113667
20
8.61528012512276
30
0
41
1.01876555595691
10
19.3423667114333
20
10.2227969618321
30
0
41
1.01610930227499
10
20.4131540425096
20
11.2817139481206
30
0
41
1.01814069306376
10
20.8356502499725
20
11.8293995381426
30
0
41
1.0200519600697
10
21.2261576967414
20
12.3045205374311
30
0
41
1.02076673234771
10
21.37061345458
20
12.4766997375846
30
0
0
SPLINE
5
131
100
AcDbEntity
8
1
62
256
6
ByLayer
370
18
48
1
60
0
100
AcDbSpline
70
4
71
3
72
8
73
4
40
0
40
0
40
0
40
0
40
1
40
1
40
1
40
1
41
1.02417048357497
10
19.3144214470069
20
14.8304342605182
30
0
41
1.02233815524058
10
18.618343044849
20
14.6352874437197
30
0
41
1.02059845272928
10
17.9467773116373
20
14.4004563830386
30
0
41
1.01923193651505
10
17.414187545274
20
14.1952485867719
30
0
0
SPLINE
5
132
100
AcDbEntity
8
1
62
256
6
ByLayer
370
18
48
1
60
0
100
AcDbSpline
70
4
71
3
72
8
73
4
40
0
40
0
40
0
40
0
40
1
40
1
40
1
40
1
41
1
10
12.173161878469
20
6.46015448157644
30
0
41
1
10
11.9506828633428
20
6.27460515621942
30
0
41
1
10
11.7500246790361
20
6.07107570879955
30
0
41
1
10
11.5723672421634
20
5.84893124979681
30
0
0
SPLINE
5
133
100
AcDbEntity
8
1
62
256
6
ByLayer
370
18
48
1
60
0
100
AcDbSpline
70
4
71
3
72
10
73
6
40
0
40
0
40
0
40
0
40
0.5
40
0.5
40
1
40
1
40
1
40
1
41
1
10
23.8373304480181
20
5.91000047696852
30
0
41
1
10
23.4812784712814
20
4.64148165099678
30
0
41
1
10
23.0274858156823
20
3.40876994705423
30
0
41
1
10
21.8869468117478
20
1.02868870580744
30
0
41
1
10
21.2431994791268
20
-0.132894301928275
30
0
41
1
10
20.4240045088478
20
-1.17738325951916
30
0
0
SPLINE
5
134
100
AcDbEntity
8
1
62
256
6
ByLayer
370
18
48
1
60
0
100
AcDbSpline
70
4
71
3
72
8
73
4
40
0
40
0
40
0
40
0
40
1
40
1
40
1
40
1
41
1
10
14.3505672927573
20
-2.3160814793749
30
0
41
1
10
14.4204574821108
20
-2.29705320004811
30
0
41
1
10
14.4908441568677
20
-2.28116075720223
30
0
41
1
10
14.5612226645102
20
-2.26849596357693
30
0
0
SPLINE
5
135
100
AcDbEntity
8
1
62
256
6
ByLayer
370
18
48
1
60
0
100
AcDbSpline
70
4
71
3
72
8
73
4
40
0
40
0
40
0
40
0
40
1
40
1
40
1
40
1
41
1
10
9.48968763246518
20
1.79789961296197
30
0
41
1
10
9.4929667657787
20
1.72648394133841
30
0
41
1
10
9.49312942073396
20
1.65420360783006
30
0
41
1
10
9.49005263969116
20
1.58111634341958
30
0
0
SPLINE
5
136
100
AcDbEntity
8
1
62
256
6
ByLayer
370
18
48
1
60
0
100
AcDbSpline
70
4
71
3
72
8
73
4
40
0
40
0
40
0
40
0
40
1
40
1
40
1
40
1
41
1
10
25.0254748016093
20
10.2513631845894
30
0
41
1
10
25.0150027693014
20
10.660815136745
30
0
41
1
10
25.0027176995032
20
11.0721175575363
30
0
41
1
10
24.9886597230822
20
11.4831248682204
30
0
0
SPLINE
5
137
100
AcDbEntity
8
1
62
256
6
ByLayer
370
18
48
1
60
0
100
AcDbSpline
70
4
71
3
72
10
73
6
40
0
40
0
40
0
40
0
40
0.5
40
0.5
40
1
40
1
40
1
40
1
41
1
10
9.19313052733406
20
7.82761739423279
30
0
41
1
10
10.0344729289033
20
8.85941923259378
30
0
41
1
10
11.0145727773242
20
9.73084295492163
30
0
41
1
10
13.0734593642064
20
11.3596264854525
30
0
41
1
10
14.1901418556238
20
12.0838107596857
30
0
41
1
10
15.3540515971784
20
12.7119583409346
30
0
0
SPLINE
5
138
100
AcDbEntity
8
1
62
256
6
ByLayer
370
18
48
1
60
0
100
AcDbSpline
70
4
71
1
72
4
73
2
40
0
40
0
40
1
40
1
41
1
10
10.3589984687141
20
7.4509391188995
30
0
41
1
10
9.19313052733406
20
7.82761739423279
30
0
0
SPLINE
5
139
100
AcDbEntity
8
1
62
256
6
ByLayer
370
18
48
1
60
0
100
AcDbSpline
70
4
71
3
72
11
73
7
40
0
40
0
40
0
40
0
40
0.423407924946041
40
0.740963868655571
40
0.899741840510336
40
1
40
1
40
1
40
1
41
1.02805999725224
10
10.3589984687141
20
7.45093911889951
30
0
41
1.02767136955277
10
10.9787174664225
20
8.05161652341692
30
0
41
1.02349884684923
10
13.8394063720308
20
9.63897289874398
30
0
41
1.01876555595691
10
17.6771256027789
20
11.3553393529262
30
0
41
1.01635405201144
10
19.1151470535752
20
12.0061640754516
30
0
41
1.01722454828215
10
19.4516678278309
20
12.3562445180437
30
0
41
1.0177432798788
10
19.5843292747955
20
12.5070827251848
30
0
0
SPLINE
5
13A
100
AcDbEntity
8
1
62
256
6
ByLayer
370
18
48
1
60
0
100
AcDbSpline
70
4
71
3
72
8
73
4
40
0
40
0
40
0
40
0
40
1
40
1
40
1
40
1
41
1
10
24.8218171987137
20
8.25569613387376
30
0
41
1
10
24.7738271055546
20
8.16259326259029
30
0
41
1
10
24.7238520077642
20
8.07070144197007
30
0
41
1
10
24.6717587412257
20
7.98023289774832
30
0
0
SPLINE
5
13B
100
AcDbEntity
8
1
62
256
6
ByLayer
370
18
48
1
60
0
100
AcDbSpline
70
4
71
3
72
8
73
4
40
0
40
0
40
0
40
0
40
1
40
1
40
1
40
1
41
1
10
12.4703988579943
20
-6.36259305687111
30
0
41
1
10
12.4887487114899
20
-6.37730610974629
30
0
41
1
10
12.507286273005
20
-6.39150719445237
30
0
41
1
10
12.5260031862096
20
-6.40522024780458
30
0
0
SPLINE
5
13C
100
AcDbEntity
8
1
62
256
6
ByLayer
370
18
48
1
60
0
100
AcDbSpline
70
4
71
3
72
8
73
4
40
0
40
0
40
0
40
0
40
1
40
1
40
1
40
1
41
1
10
9.17328208462692
20
0.476043675639858
30
0
41
1
10
9.05498164241135
20
0.249570289841529
30
0
41
1
10
8.91658539220231
20
0.0443170929322321
30
0
41
1
10
8.76456759340493
20
-0.143889733725189
30
0
0
SPLINE
5
13D
100
AcDbEntity
8
1
62
256
6
ByLayer
370
18
48
1
60
0
100
AcDbSpline
70
4
71
3
72
8
73
4
40
0
40
0
40
0
40
0
40
1
40
1
40
1
40
1
41
1
10
16.7786075161443
20
-0.929782574282001
30
0
41
1
10
16.2039006628308
20
-1.64840119932674
30
0
41
1
10
15.4150179108901
20
-2.11485331107011
30
0
41
1
10
14.5612226645102
20
-2.2684959635769
30
0
0
SPLINE
5
13E
100
AcDbEntity
8
1
62
256
6
ByLayer
370
18
48
1
60
0
100
AcDbSpline
70
4
71
3
72
20
73
16
40
0
40
0
40
0
40
0
40
0.110576036200126
40
0.110576036200126
40
0.19717936912281
40
0.19717936912281
40
0.284291117387373
40
0.284291117387373
40
0.365904217918076
40
0.365904217918076
40
0.497270233392075
40
0.497270233392075
40
0.733496364826726
40
0.733496364826726
40
1
40
1
40
1
40
1
41
1
10
19.5843292748506
20
12.5070827252475
30
0
41
1
10
19.5986908025242
20
12.4671905115931
30
0
41
1
10
19.6228503836892
20
12.4274502060662
30
0
41
1
10
19.6891847681192
20
12.3628295925327
30
0
41
1
10
19.7272118889827
20
12.336087911963
30
0
41
1
10
19.8187588266766
20
12.2912152889942
30
0
41
1
10
19.8736014395243
20
12.2726308476981
30
0
41
1
10
19.98703127376
20
12.2470114327453
30
0
41
1
10
20.0463357814338
20
12.2389365616977
30
0
41
1
10
20.2011173250411
20
12.2279578598667
30
0
41
1
10
20.2992902704782
20
12.2306831234027
30
0
41
1
10
20.5624211889518
20
12.2538964517432
30
0
41
1
10
20.7246674841328
20
12.2862661869637
30
0
41
1
10
21.050016292448
20
12.3680321566779
30
0
41
1
10
21.2138329206092
20
12.4203458419716
30
0
41
1
10
21.3706134545915
20
12.4766997375984
30
0
0
SPLINE
5
13F
100
AcDbEntity
8
1
62
256
6
ByLayer
370
18
48
1
60
0
100
AcDbSpline
70
4
71
3
72
8
73
4
40
0
40
0
40
0
40
0
40
1
40
1
40
1
40
1
41
1
10
12.5784017748922
20
-6.24166601408831
30
0
41
1
10
12.8449307193411
20
-5.45576414865849
30
0
41
1
10
13.107415091534
20
-4.2114081907269
30
0
41
1
10
13.3409704201443
20
-2.86564070687066
30
0
0
SPLINE
5
140
100
AcDbEntity
8
1
62
256
6
ByLayer
370
18
48
1
60
0
100
AcDbSpline
70
4
71
3
72
10
73
6
40
0
40
0
40
0
40
0
40
0.5
40
0.5
40
1
40
1
40
1
40
1
41
1
10
5.86345840032806
20
-1.0631408823634
30
0
41
1
10
5.31788751593683
20
-0.585189849826946
30
0
41
1
10
4.92501727100426
20
-0.0149449852374062
30
0
41
1
10
4.51689450820624
20
0.902373456641016
30
0
41
1
10
4.44068394896675
20
1.25454592905382
30
0
41
1
10
4.52156080793333
20
1.67549257585432
30
0
0
SPLINE
5
141
100
AcDbEntity
8
1
62
256
6
ByLayer
370
18
48
1
60
0
100
AcDbSpline
70
4
71
3
72
8
73
4
40
0
40
0
40
0
40
0
40
1
40
1
40
1
40
1
41
1
10
24.8787712732612
20
12.7903475550273
30
0
41
1
10
24.8858428674367
20
12.8700080806639
30
0
41
1
10
24.8892484708272
20
12.9530850302113
30
0
41
1
10
24.8887701779253
20
13.0381475428645
30
0
0
SPLINE
5
142
100
AcDbEntity
8
1
62
256
6
ByLayer
370
18
48
1
60
0
100
AcDbSpline
70
4
71
3
72
15
73
11
40
0
40
0
40
0
40
0
40
0.32216372042646
40
0.32216372042646
40
0.644833452600231
40
0.644833452600231
40
0.912233455904559
40
0.912233455904559
40
0.912233455904559
40
1
40
1
40
1
40
1
41
1
10
12.1731618901781
20
6.46015449134188
30
0
41
1
10
12.545208398864
20
6.7700196368443
30
0
41
1
10
12.9762666985537
20
7.01939318163204
30
0
41
1
10
13.8821589350114
20
7.36510289506458
30
0
41
1
10
14.3694921016494
20
7.4665733864492
30
0
41
1
10
15.2563179787001
20
7.49560984236828
30
0
41
1
10
15.6672756302807
20
7.44920986447806
30
0
41
1
10
16.0544748592053
20
7.33798394339354
30
0
41
1
10
16.1831503883272
20
7.30102091976516
30
0
41
1
10
16.3099201040395
20
7.2568390617551
30
0
41
1
10
16.433199073758
20
7.20574658033613
30
0
0
SPLINE
5
143
100
AcDbEntity
8
1
62
256
6
ByLayer
370
18
48
1
60
0
100
AcDbSpline
70
4
71
3
72
12
73
8
40
0
40
0
40
0
40
0
40
0.471343086678526
40
0.471343086678526
40
0.89261972610824
40
0.89261972610824
40
1
40
1
40
1
40
1
41
1
10
13.3409704201442
20
-2.86564070687066
30
0
41
1
10
13.4775855912532
20
-2.75145919616301
30
0
41
1
10
13.6288341048871
20
-2.64361402459068
30
0
41
1
10
13.9309368313129
20
-2.47113684190126
30
0
41
1
10
14.0834488192698
20
-2.40162981676559
30
0
41
1
10
14.2729441721422
20
-2.33840808899285
30
0
41
1
10
14.3118742259788
20
-2.32661604065581
30
0
41
1
10
14.3505672927573
20
-2.31608147937493
30
0
0
SPLINE
5
144
100
AcDbEntity
8
1
62
256
6
ByLayer
370
18
48
1
60
0
100
AcDbSpline
70
4
71
3
72
10
73
6
40
0
40
0
40
0
40
0
40
0.5
40
0.5
40
1
40
1
40
1
40
1
41
1
10
20.5255287296763
20
15.0616974328992
30
0
41
1
10
19.861751413739
20
14.7605038299332
30
0
41
1
10
19.5274576307218
20
14.3072683167663
30
0
41
1
10
19.3270014445213
20
13.4132347796489
30
0
41
1
10
19.4229448609821
20
12.9552422107491
30
0
41
1
10
19.5843292748497
20
12.5070827252466
30
0
0
SPLINE
5
145
100
AcDbEntity
8
1
62
256
6
ByLayer
370
18
48
1
60
0
100
AcDbSpline
70
4
71
3
72
12
73
8
40
0
40
0
40
0
40
0
40
0.286978363858301
40
0.286978363858301
40
0.569998995185624
40
0.569998995185624
40
1
40
1
40
1
40
1
41
1
10
16.4331990737572
20
7.2057465803357
30
0
41
1
10
16.6486819027389
20
7.11642770595262
30
0
41
1
10
16.8579556557224
20
7.00884514641126
30
0
41
1
10
17.2526423020076
20
6.76357849992809
30
0
41
1
10
17.4397000604682
20
6.62548858608594
30
0
41
1
10
17.8776252892936
20
6.24476059289378
30
0
41
1
10
18.1152528610419
20
5.98156440221877
30
0
41
1
10
18.3155555973886
20
5.69645872314996
30
0
0
SPLINE
5
146
100
AcDbEntity
8
1
62
256
6
ByLayer
370
18
48
1
60
0
100
AcDbSpline
70
4
71
3
72
12
73
8
40
0
40
0
40
0
40
0
40
0.46693897235862
40
0.46693897235862
40
0.928803236876553
40
0.928803236876553
40
1
40
1
40
1
40
1
41
1
10
9.49005263969116
20
1.58111634341958
30
0
41
1
10
9.48280753937001
20
1.40901291600792
30
0
41
1
10
9.45238599887949
20
1.22586240574148
30
0
41
1
10
9.3551071587525
20
0.87736588441598
30
0
41
1
10
9.28783497525097
20
0.706974359673495
30
0
41
1
10
9.19821531331172
20
0.52449207074261
30
0
41
1
10
9.18586937823829
20
0.500140686173552
30
0
41
1
10
9.17328208462692
20
0.476043675639829
30
0
0
SPLINE
5
147
100
AcDbEntity
8
1
62
256
6
ByLayer
370
18
48
1
60
0
100
AcDbSpline
70
4
71
3
72
8
73
4
40
0
40
0
40
0
40
0
40
1
40
1
40
1
40
1
41
1
10
9.17328208462692
20
0.476043675639829
30
0
41
1
10
7.90513006635007
20
-0.0415735964173791
30
0
41
1
10
6.74572538187709
20
-0.555997446000646
30
0
41
1
10
6.01493862982153
20
-0.97903106604025
30
0
0
SPLINE
5
148
100
AcDbEntity
8
1
62
256
6
ByLayer
370
18
48
1
60
0
100
AcDbSpline
70
4
71
3
72
8
73
4
40
0
40
0
40
0
40
0
40
1
40
1
40
1
40
1
41
1
10
24.2157548586827
20
-0.276516142204201
30
0
41
1
10
23.9554701631277
20
-0.164088213233555
30
0
41
1
10
23.6654402550619
20
0.018215499910724
30
0
41
1
10
23.4398899554922
20
0.355362952661579
30
0
0
SPLINE
5
149
100
AcDbEntity
8
1
62
256
6
ByLayer
370
18
48
1
60
0
100
AcDbSpline
70
4
71
3
72
10
73
6
40
0
40
0
40
0
40
0
40
0.585516416900592
40
0.585516416900592
40
1
40
1
40
1
40
1
41
1
10
27.2382071510667
20
0.245671511440577
30
0
41
1
10
27.3633879195972
20
0.373219999556284
30
0
41
1
10
27.4873094539834
20
0.503737487876549
30
0
41
1
10
27.6972684791079
20
0.731245240958089
30
0
41
1
10
27.7837969762201
20
0.826894316352821
30
0
41
1
10
27.8699086899442
20
0.923813554258828
30
0
0
SPLINE
5
14A
100
AcDbEntity
8
1
62
256
6
ByLayer
370
18
48
1
60
0
100
AcDbSpline
70
4
71
3
72
8
73
4
40
0
40
0
40
0
40
0
40
1
40
1
40
1
40
1
41
1
10
23.4398899554922
20
0.355362952661551
30
0
41
1
10
23.4373524704673
20
0.359155927506635
30
0
41
1
10
23.4348218338079
20
0.362961367156572
30
0
41
1
10
23.4323004704418
20
0.366775672074254
30
0
0
LINE
5
72
100
AcDbEntity
8
1
62
256
6
ByLayer
370
18
48
1
60
0
100
AcDbLine
10
11.48664
20
17.39338
30
0
11
11.47869
21
17.38455
31
0
39
0
210
0
220
0
230
1
0
LINE
5
74
100
AcDbEntity
8
1
62
256
6
ByLayer
370
18
48
1
60
0
100
AcDbLine
10
15.711793
20
-7.038719
30
0
11
16.114593
21
-6.566848
31
0
39
0
210
0
220
0
230
1
0
LINE
5
75
100
AcDbEntity
8
1
62
256
6
ByLayer
370
18
48
1
60
0
100
AcDbLine
10
12.124769
20
18.652753
30
0
11
11.656487
21
18.132672
31
0
39
0
210
0
220
0
230
1
0
LINE
5
76
100
AcDbEntity
8
1
62
256
6
ByLayer
370
18
48
1
60
0
100
AcDbLine
10
23.442534
20
1.025496
30
0
11
23.910816
21
1.545576
31
0
39
0
210
0
220
0
230
1
0
LINE
5
77
100
AcDbEntity
8
1
62
256
6
ByLayer
370
18
48
1
60
0
100
AcDbLine
10
12.890474
20
-3.313364
30
0
11
12.584929
21
-3.671303
31
0
39
0
210
0
220
0
230
1
0
LINE
5
78
100
AcDbEntity
8
1
62
256
6
ByLayer
370
18
48
1
60
0
100
AcDbLine
10
13.212488
20
3.134921
30
0
11
13.369894
21
3.309737
31
0
39
0
210
0
220
0
230
1
0
LINE
5
79
100
AcDbEntity
8
1
62
256
6
ByLayer
370
18
48
1
60
0
100
AcDbLine
10
15.220841
20
1.887915
30
0
11
15.063435
21
1.713098
31
0
39
0
210
0
220
0
230
1
0
LINE
5
7A
100
AcDbEntity
8
1
62
256
6
ByLayer
370
18
48
1
60
0
100
AcDbLine
10
17.031838
20
-0.339922
30
0
11
17.195733
21
-0.157898
31
0
39
0
210
0
220
0
230
1
0
LINE
5
7B
100
AcDbEntity
8
1
62
256
6
ByLayer
370
18
48
1
60
0
100
AcDbLine
10
11.250574
20
5.195147
30
0
11
11.086679
21
5.013123
31
0
39
0
210
0
220
0
230
1
0
LINE
5
7C
100
AcDbEntity
8
80
62
256
6
ByLayer
370
18
48
1
60
0
100
AcDbLine
10
0
20
0
30
0
11
-5
21
0
31
0
39
0
210
0
220
0
230
1
0
LINE
5
7D
100
AcDbEntity
8
81
62
256
6
ByLayer
370
18
48
1
60
0
100
AcDbLine
10
32.620022
20
19.9125
30
0
11
42.620022
21
19.9125
31
0
39
0
210
0
220
0
230
1
0
LINE
5
7E
100
AcDbEntity
8
1
62
256
6
ByLayer
370
18
48
1
60
0
100
AcDbLine
10
17.031838
20
-0.339922
30
0
11
17.032028
21
-0.339711
31
0
39
0
210
0
220
0
230
1
0
LINE
5
7F
100
AcDbEntity
8
1
62
256
6
ByLayer
370
18
48
1
60
0
100
AcDbLine
10
25.308999
20
-12.457482
30
0
11
16.837356
21
-5.664853
31
0
39
0
210
0
220
0
230
1
0
LINE
5
80
100
AcDbEntity
8
1
62
256
6
ByLayer
370
18
48
1
60
0
100
AcDbLine
10
5.600893
20
3.344629
30
0
11
4.802751
21
3.984585
31
0
39
0
210
0
220
0
230
1
0
LINE
5
81
100
AcDbEntity
8
1
62
256
6
ByLayer
370
18
48
1
60
0
100
AcDbLine
10
23.348761
20
0.339185
30
0
11
22.303607
21
1.920289
31
0
39
0
210
0
220
0
230
1
0
LINE
5
82
100
AcDbEntity
8
1
62
256
6
ByLayer
370
18
48
1
60
0
100
AcDbLine
10
15.221913
20
12.633438
30
0
11
12.310831
21
17.037306
31
0
39
0
210
0
220
0
230
1
0
LINE
5
83
100
AcDbEntity
8
1
62
256
6
ByLayer
370
18
48
1
60
0
100
AcDbLine
10
19.847705
20
-12.446613
30
0
11
14.413173
21
-8.089163
31
0
39
0
210
0
220
0
230
1
0
LINE
5
84
100
AcDbEntity
8
1
62
256
6
ByLayer
370
18
48
1
60
0
100
AcDbLine
10
3.722808
20
0.482453
30
0
11
2.279767
21
1.639495
31
0
39
0
210
0
220
0
230
1
0
LINE
5
85
100
AcDbEntity
8
1
62
256
6
ByLayer
370
18
48
1
60
0
100
AcDbLine
10
12.409201
20
17.042461
30
0
11
15.294884
21
12.677015
31
0
39
0
210
0
220
0
230
1
0
LINE
5
86
100
AcDbEntity
8
1
62
256
6
ByLayer
370
18
48
1
60
0
100
AcDbLine
10
22.34661
20
2.009202
30
0
11
23.4323
21
0.366776
31
0
39
0
210
0
220
0
230
1
0
LINE
5
87
100
AcDbEntity
8
1
62
256
6
ByLayer
370
18
48
1
60
0
100
AcDbLine
10
18.343356
20
-12.442852
30
0
11
13.259435
21
-8.366526
31
0
39
0
210
0
220
0
230
1
0
LINE
5
88
100
AcDbEntity
8
1
62
256
6
ByLayer
370
18
48
1
60
0
100
AcDbLine
10
3.703537
20
-0.704534
30
0
11
1.411064
21
1.133589
31
0
39
0
210
0
220
0
230
1
0
LINE
5
89
100
AcDbEntity
8
1
62
256
6
ByLayer
370
18
48
1
60
0
100
AcDbLine
10
26.681721
20
2.01701
30
0
11
25.255009
21
4.175332
31
0
39
0
210
0
220
0
230
1
0
LINE
5
8A
100
AcDbEntity
8
1
62
256
6
ByLayer
370
18
48
1
60
0
100
AcDbLine
10
25.951764
20
5.571232
30
0
11
25.967194
21
5.590922
31
0
39
0
210
0
220
0
230
1
0
LINE
5
8B
100
AcDbEntity
8
1
62
256
6
ByLayer
370
18
48
1
60
0
100
AcDbLine
10
25.967194
20
5.590922
30
0
11
26.470983
21
6.611409
31
0
39
0
210
0
220
0
230
1
0
LINE
5
8C
100
AcDbEntity
8
1
62
256
6
ByLayer
370
18
48
1
60
0
100
AcDbLine
10
30.036352
20
13.391142
30
0
11
29.910723
21
13.502394
31
0
39
0
210
0
220
0
230
1
0
LINE
5
8D
100
AcDbEntity
8
1
62
256
6
ByLayer
370
18
48
1
60
0
100
AcDbLine
10
19.799701
20
-12.445751
30
0
11
14.386404
21
-8.105328
31
0
39
0
210
0
220
0
230
1
0
LINE
5
8E
100
AcDbEntity
8
1
62
256
6
ByLayer
370
18
48
1
60
0
100
AcDbLine
10
3.71261
20
0.453002
30
0
11
2.08386
21
1.758946
31
0
39
0
210
0
220
0
230
1
0
LINE
5
8F
100
AcDbEntity
8
1
62
256
6
ByLayer
370
18
48
1
60
0
100
AcDbLine
10
26.542667
20
1.919411
30
0
11
25.167408
21
3.999894
31
0
39
0
210
0
220
0
230
1
0
LINE
5
90
100
AcDbEntity
8
1
62
256
6
ByLayer
370
18
48
1
60
0
100
AcDbLine
10
12.056879
20
17.691591
30
0
11
15.359799
21
12.694952
31
0
39
0
210
0
220
0
230
1
0
LINE
5
91
100
AcDbEntity
8
1
62
256
6
ByLayer
370
18
48
1
60
0
100
AcDbLine
10
22.378937
20
2.076437
30
0
11
22.662812
21
1.646993
31
0
39
0
210
0
220
0
230
1
0
LINE
5
92
100
AcDbEntity
8
1
62
256
6
ByLayer
370
18
48
1
60
0
100
AcDbLine
10
22.618537
20
1.597821
30
0
11
22.662812
21
1.646993
31
0
39
0
210
0
220
0
230
1
0
LINE
5
93
100
AcDbEntity
8
1
62
256
6
ByLayer
370
18
48
1
60
0
100
AcDbLine
10
11.588597
20
17.171511
30
0
11
11.698634
21
17.005048
31
0
39
0
210
0
220
0
230
1
0
LINE
5
94
100
AcDbEntity
8
1
62
256
6
ByLayer
370
18
48
1
60
0
100
AcDbLine
10
16.778608
20
-0.929783
30
0
11
16.656397
21
-1.072949
31
0
39
0
210
0
220
0
230
1
0
LINE
5
95
100
AcDbEntity
8
1
62
256
6
ByLayer
370
18
48
1
60
0
100
AcDbLine
10
16.601398
20
-1.127176
30
0
11
17.735561
21
0.291433
31
0
39
0
210
0
220
0
230
1
0
LINE
5
96
100
AcDbEntity
8
1
62
256
6
ByLayer
370
18
48
1
60
0
100
AcDbLine
10
21.581867
20
15.230652
30
0
11
20.525529
21
15.061697
31
0
39
0
210
0
220
0
230
1
0
LINE
5
97
100
AcDbEntity
8
1
62
256
6
ByLayer
370
18
48
1
60
0
100
AcDbLine
10
22.519236
20
12.925596
30
0
11
24.119297
21
14.969872
31
0
39
0
210
0
220
0
230
1
0
LINE
5
98
100
AcDbEntity
8
1
62
256
6
ByLayer
370
18
48
1
60
0
100
AcDbLine
10
12.821359
20
-3.396656
30
0
11
12.525128
21
-3.743684
31
0
39
0
210
0
220
0
230
1
0
LINE
5
99
100
AcDbEntity
8
1
62
256
6
ByLayer
370
18
48
1
60
0
100
AcDbLine
10
24.919856
20
12.554227
30
0
11
24.98866
21
11.483125
31
0
39
0
210
0
220
0
230
1
0
LINE
5
9A
100
AcDbEntity
8
1
62
256
6
ByLayer
370
18
48
1
60
0
100
AcDbLine
10
15.126009
20
-6.049152
30
0
11
19.84182
21
-0.152459
31
0
39
0
210
0
220
0
230
1
0
LINE
5
9B
100
AcDbEntity
8
1
62
256
6
ByLayer
370
18
48
1
60
0
100
AcDbLine
10
11.323161
20
-7.706554
30
0
11
4.769883
21
-2.452085
31
0
39
0
210
0
220
0
230
1
0
LINE
5
9C
100
AcDbEntity
8
1
62
256
6
ByLayer
370
18
48
1
60
0
100
AcDbLine
10
21.82096
20
15.242124
30
0
11
21.581867
21
15.230652
31
0
39
0
210
0
220
0
230
1
0
LINE
5
9D
100
AcDbEntity
8
1
62
256
6
ByLayer
370
18
48
1
60
0
100
AcDbLine
10
18.047631
20
0.657015
30
0
11
16.778608
21
-0.929783
31
0
39
0
210
0
220
0
230
1
0
LINE
5
9E
100
AcDbEntity
8
1
62
256
6
ByLayer
370
18
48
1
60
0
100
AcDbLine
10
7.528537
20
-1.666418
30
0
11
11.585328
21
-4.919184
31
0
39
0
210
0
220
0
230
1
0
LINE
5
9F
100
AcDbEntity
8
1
62
256
6
ByLayer
370
18
48
1
60
0
100
AcDbLine
10
22.283487
20
15.342872
30
0
11
22.059117
21
15.306985
31
0
39
0
210
0
220
0
230
1
0
LINE
5
A0
100
AcDbEntity
8
1
62
256
6
ByLayer
370
18
48
1
60
0
100
AcDbLine
10
24.919856
20
12.554227
30
0
11
24.878771
21
12.790348
31
0
39
0
210
0
220
0
230
1
0
LINE
5
A1
100
AcDbEntity
8
1
62
256
6
ByLayer
370
18
48
1
60
0
100
AcDbLine
10
4.940453
20
2.513514
30
0
11
4.559738
21
2.067515
31
0
39
0
210
0
220
0
230
1
0
LINE
5
A2
100
AcDbEntity
8
1
62
256
6
ByLayer
370
18
48
1
60
0
100
AcDbLine
10
12.470399
20
-6.362593
30
0
11
11.323161
21
-7.706554
31
0
39
0
210
0
220
0
230
1
0
LINE
5
A3
100
AcDbEntity
8
1
62
256
6
ByLayer
370
18
48
1
60
0
100
AcDbLine
10
24.874156
20
13.265654
30
0
11
24.88877
21
13.038148
31
0
39
0
210
0
220
0
230
1
0
LINE
5
A4
100
AcDbEntity
8
1
62
256
6
ByLayer
370
18
48
1
60
0
100
AcDbLine
10
12.525128
20
-3.743684
30
0
11
11.585328
21
-4.919184
31
0
39
0
210
0
220
0
230
1
0
LINE
5
A5
100
AcDbEntity
8
1
62
256
6
ByLayer
370
18
48
1
60
0
100
AcDbLine
10
5.643188
20
1.554247
30
0
11
10.358998
21
7.450939
31
0
39
0
210
0
220
0
230
1
0
LINE
5
A6
100
AcDbEntity
8
1
62
256
6
ByLayer
370
18
48
1
60
0
100
AcDbLine
10
18.047631
20
0.657015
30
0
11
17.735561
21
0.291433
31
0
39
0
210
0
220
0
230
1
0
LINE
5
A7
100
AcDbEntity
8
1
62
256
6
ByLayer
370
18
48
1
60
0
100
AcDbLine
10
5.91712
20
-1.108124
30
0
11
12.470399
21
-6.362593
31
0
39
0
210
0
220
0
230
1
0
LINE
5
A8
100
AcDbEntity
8
1
62
256
6
ByLayer
370
18
48
1
60
0
100
AcDbLine
10
17.064183
20
-5.381861
30
0
11
17.065796
21
-5.376517
31
0
39
0
210
0
220
0
230
1
0
LINE
5
A9
100
AcDbEntity
8
1
62
256
6
ByLayer
370
18
48
1
60
0
100
AcDbLine
10
9.193131
20
7.827617
30
0
11
5.834922
21
3.628484
31
0
39
0
210
0
220
0
230
1
0
LINE
5
AA
100
AcDbEntity
8
1
62
256
6
ByLayer
370
18
48
1
60
0
100
AcDbLine
10
16.174645
20
-6.494147
30
0
11
17.064183
21
-5.381861
31
0
39
0
210
0
220
0
230
1
0
LINE
5
AB
100
AcDbEntity
8
1
62
256
6
ByLayer
370
18
48
1
60
0
100
AcDbLine
10
10.303344
20
4.262133
30
0
11
11.572367
21
5.848931
31
0
39
0
210
0
220
0
230
1
0
LINE
5
AC
100
AcDbEntity
8
1
62
256
6
ByLayer
370
18
48
1
60
0
100
AcDbLine
10
5.829991
20
3.6258
30
0
11
5.834922
21
3.628484
31
0
39
0
210
0
220
0
230
1
0
LINE
5
AD
100
AcDbEntity
8
1
62
256
6
ByLayer
370
18
48
1
60
0
100
AcDbLine
10
20.424005
20
-1.177383
30
0
11
17.065796
21
-5.376517
31
0
39
0
210
0
220
0
230
1
0
LINE
5
AE
100
AcDbEntity
8
1
62
256
6
ByLayer
370
18
48
1
60
0
100
AcDbLine
10
5.829991
20
3.6258
30
0
11
4.940453
21
2.513514
31
0
39
0
210
0
220
0
230
1
0
LINE
5
AF
100
AcDbEntity
8
1
62
256
6
ByLayer
370
18
48
1
60
0
100
AcDbLine
10
5.91712
20
-1.108124
30
0
11
4.769883
21
-2.452085
31
0
39
0
210
0
220
0
230
1
0
LINE
5
B0
100
AcDbEntity
8
1
62
256
6
ByLayer
370
18
48
1
60
0
100
AcDbLine
10
5.829991
20
3.6258
30
0
11
4.607438
21
2.126045
31
0
39
0
210
0
220
0
230
1
0
LINE
5
B1
100
AcDbEntity
8
1
62
256
6
ByLayer
370
18
48
1
60
0
100
AcDbLine
10
12.899671
20
2.996848
30
0
11
13.057077
21
3.171665
31
0
39
0
210
0
220
0
230
1
0
LINE
5
B2
100
AcDbEntity
8
1
62
256
6
ByLayer
370
18
48
1
60
0
100
AcDbLine
10
14.656183
20
3.673256
30
0
11
14.813589
21
3.848073
31
0
39
0
210
0
220
0
230
1
0
LINE
5
B3
100
AcDbEntity
8
1
62
256
6
ByLayer
370
18
48
1
60
0
100
AcDbLine
10
14.003852
20
3.776268
30
0
11
14.161258
21
3.951085
31
0
39
0
210
0
220
0
230
1
0
LINE
5
B4
100
AcDbEntity
8
1
62
256
6
ByLayer
370
18
48
1
60
0
100
AcDbLine
10
14.966908
20
1.339322
30
0
11
15.124314
21
1.514139
31
0
39
0
210
0
220
0
230
1
0
LINE
5
B5
100
AcDbEntity
8
1
62
256
6
ByLayer
370
18
48
1
60
0
100
AcDbLine
10
15.242143
20
3.203429
30
0
11
15.399549
21
3.378246
31
0
39
0
210
0
220
0
230
1
0
LINE
5
B6
100
AcDbEntity
8
1
62
256
6
ByLayer
370
18
48
1
60
0
100
AcDbLine
10
15.485129
20
2.588569
30
0
11
15.642535
21
2.763386
31
0
39
0
210
0
220
0
230
1
0
LINE
5
B7
100
AcDbEntity
8
1
62
256
6
ByLayer
370
18
48
1
60
0
100
AcDbLine
10
19.847705
20
-12.446613
30
0
11
19.799701
21
-12.445751
31
0
39
0
210
0
220
0
230
1
0
LINE
5
B8
100
AcDbEntity
8
1
62
256
6
ByLayer
370
18
48
1
60
0
100
AcDbLine
10
26.975821
20
-0.166791
30
0
11
26.810091
21
-0.275071
31
0
39
0
210
0
220
0
230
1
0
LINE
5
B9
100
AcDbEntity
8
1
62
256
6
ByLayer
370
18
48
1
60
0
100
AcDbLine
10
23.4323
20
0.366776
30
0
11
23.348761
21
0.339185
31
0
39
0
210
0
220
0
230
1
0
LINE
5
BA
100
AcDbEntity
8
1
62
256
6
ByLayer
370
18
48
1
60
0
100
AcDbLine
10
0
20
-12.4375
30
0
11
0
21
12.4375
31
0
39
0
210
0
220
0
230
1
0
LINE
5
BB
100
AcDbEntity
8
1
62
256
6
ByLayer
370
18
48
1
60
0
100
AcDbLine
10
27.667582
20
3.160904
30
0
11
26.132432
21
5.483272
31
0
39
0
210
0
220
0
230
1
0
LINE
5
BC
100
AcDbEntity
8
1
62
256
6
ByLayer
370
18
48
1
60
0
100
AcDbLine
10
18.343356
20
-12.442852
30
0
11
2.775746
21
-12.449612
31
0
39
0
210
0
220
0
230
1
0
LINE
5
BD
100
AcDbEntity
8
1
62
256
6
ByLayer
370
18
48
1
60
0
100
AcDbLine
10
2.775746
20
-12.449612
30
0
11
1.411064
21
1.133589
31
0
39
0
210
0
220
0
230
1
0
LINE
5
BE
100
AcDbEntity
8
1
62
256
6
ByLayer
370
18
48
1
60
0
100
AcDbLine
10
30.11017
20
-12.455397
30
0
11
25.308999
21
-12.457482
31
0
39
0
210
0
220
0
230
1
0
LINE
5
BF
100
AcDbEntity
8
1
62
256
6
ByLayer
370
18
48
1
60
0
100
AcDbLine
10
26.132432
20
5.483272
30
0
11
30.036352
21
13.391142
31
0
39
0
210
0
220
0
230
1
0
LINE
5
C0
100
AcDbEntity
8
1
62
256
6
ByLayer
370
18
48
1
60
0
100
AcDbLine
10
12.310831
20
17.037306
30
0
11
4.173338
21
16.610838
31
0
39
0
210
0
220
0
230
1
0
LINE
5
C1
100
AcDbEntity
8
1
62
256
6
ByLayer
370
18
48
1
60
0
100
AcDbLine
10
0
20
-12.4375
30
0
11
2.775746
21
-12.449612
31
0
39
0
210
0
220
0
230
1
0
LINE
5
C2
100
AcDbEntity
8
1
62
256
6
ByLayer
370
18
48
1
60
0
100
AcDbLine
10
26.542667
20
1.919411
30
0
11
26.681721
21
2.01701
31
0
39
0
210
0
220
0
230
1
0
LINE
5
C3
100
AcDbEntity
8
1
62
256
6
ByLayer
370
18
48
1
60
0
100
AcDbLine
10
4.802751
20
3.984585
30
0
11
3.592561
21
16.030061
31
0
39
0
210
0
220
0
230
1
0
LINE
5
C4
100
AcDbEntity
8
1
62
256
6
ByLayer
370
18
48
1
60
0
100
AcDbLine
10
31.143574
20
12.410632
30
0
11
30.036352
21
13.391142
31
0
39
0
210
0
220
0
230
1
0
LINE
5
C5
100
AcDbEntity
8
1
62
256
6
ByLayer
370
18
48
1
60
0
100
AcDbLine
10
2.08386
20
1.758946
30
0
11
2.279767
21
1.639495
31
0
39
0
210
0
220
0
230
1
0
LINE
5
C6
100
AcDbEntity
8
1
62
256
6
ByLayer
370
18
48
1
60
0
100
AcDbLine
10
12.310831
20
17.037306
30
0
11
12.409201
21
17.042461
31
0
39
0
210
0
220
0
230
1
0
LINE
5
C7
100
AcDbEntity
8
1
62
256
6
ByLayer
370
18
48
1
60
0
100
AcDbLine
10
25.308999
20
-12.457482
30
0
11
19.847705
21
-12.446613
31
0
39
0
210
0
220
0
230
1
0
LINE
5
C8
100
AcDbEntity
8
1
62
256
6
ByLayer
370
18
48
1
60
0
100
AcDbLine
10
25.967194
20
5.590922
30
0
11
26.132432
21
5.483272
31
0
39
0
210
0
220
0
230
1
0
LINE
5
C9
100
AcDbEntity
8
1
62
256
6
ByLayer
370
18
48
1
60
0
100
AcDbLine
10
30.11017
20
-12.455397
30
0
11
31.143574
21
12.410632
31
0
39
0
210
0
220
0
230
1
0
LINE
5
CA
100
AcDbEntity
8
1
62
256
6
ByLayer
370
18
48
1
60
0
100
AcDbLine
10
3.592561
20
16.030061
30
0
11
0
21
12.4375
31
0
39
0
210
0
220
0
230
1
0
LINE
5
CB
100
AcDbEntity
8
1
62
256
6
ByLayer
370
18
48
1
60
0
100
AcDbLine
10
2.279767
20
1.639495
30
0
11
4.802751
21
3.984585
31
0
39
0
210
0
220
0
230
1
0
LINE
5
CC
100
AcDbEntity
8
1
62
256
6
ByLayer
370
18
48
1
60
0
100
AcDbLine
10
26.681721
20
2.01701
30
0
11
27.667582
21
3.160904
31
0
39
0
210
0
220
0
230
1
0
LINE
5
CD
100
AcDbEntity
8
1
62
256
6
ByLayer
370
18
48
1
60
0
100
AcDbLine
10
3.592561
20
16.030061
30
0
11
4.173338
21
16.610838
31
0
39
0
210
0
220
0
230
1
0
LINE
5
CE
100
AcDbEntity
8
SK1
62
256
6
ByLayer
370
18
48
1
60
0
100
AcDbLine
10
0
20
12.4375
30
0
11
-118.729978
21
12.4375
31
0
39
0
210
0
220
0
230
1
0
LINE
5
D0
100
AcDbEntity
8
SK1
62
256
6
ByLayer
370
18
48
1
60
0
100
AcDbLine
10
-118.729978
20
12.4375
30
0
11
-118.729978
21
-12.4375
31
0
39
0
210
0
220
0
230
1
0
LINE
5
D1
100
AcDbEntity
8
SK1
62
256
6
ByLayer
370
18
48
1
60
0
100
AcDbLine
10
0
20
12.4375
30
0
11
0
21
-12.4375
31
0
39
0
210
0
220
0
230
1
0
LINE
5
D2
100
AcDbEntity
8
SK1
62
256
6
ByLayer
370
18
48
1
60
0
100
AcDbLine
10
-118.729978
20
-12.4375
30
0
11
0
21
-12.4375
31
0
39
0
210
0
220
0
230
1
0
LINE
5
D3
100
AcDbEntity
8
1
62
256
6
ByLayer
370
18
48
1
60
0
100
AcDbLine
10
12.056879
20
17.691591
30
0
11
11.588597
21
17.171511
31
0
39
0
210
0
220
0
230
1
0
LINE
5
D4
100
AcDbEntity
8
1
62
256
6
ByLayer
370
18
48
1
60
0
100
AcDbLine
10
31.779762
20
19.911395
30
0
11
12.66488
21
18.909627
31
0
39
0
210
0
220
0
230
1
0
LINE
5
D5
100
AcDbEntity
8
1
62
256
6
ByLayer
370
18
48
1
60
0
100
AcDbLine
10
24.028652
20
1.718574
30
0
11
32.537601
21
18.76494
31
0
39
0
210
0
220
0
230
1
0
MTEXT
5
14B
100
AcDbEntity
8
SK6
62
256
6
ByLayer
370
18
48
1
60
0
100
AcDbMText
10
-57.179978
20
-23.322491
30
0
210
0
220
0
230
1
1
\W0.7821;DTJNR 2525M 22
40
3.5
41
0
44
1.084337
50
0
71
7
72
5
7
iso_b_vert
0
DIMENSION
5
15C
100
AcDbEntity
8
2
62
256
6
ByLayer
370
13
48
1
60
0
100
AcDbDimension
2
DimnDraft3D1
10
30.786101
20
19.859076
30
0
11
14.176887
21
37.457069
31
0
70
34
71
5
72
1
41
1
210
0
220
0
230
1
3
Standard
100
AcDb2LineAngularDimension
13
32.620022
23
19.9125
33
0
14
32.620022
24
18.325
34
0
15
31.78473
25
19.911412
35
0
16
17.441072
26
34.359474
36
0
40
0
0
DIMENSION
5
172
100
AcDbEntity
8
SK2
62
256
6
ByLayer
370
13
48
1
60
0
100
AcDbDimension
2
DimnDraft3D2
10
-126.479978
20
12.4375
30
0
11
-126.479978
21
-5.281579
31
0
70
32
71
5
72
1
41
1
210
0
220
0
230
1
3
Standard
100
AcDbAlignedDimension
13
-120.729978
23
-12.4375
33
0
14
-120.729978
24
12.4375
34
0
50
90
100
AcDbRotatedDimension
1001
ACAD
1000
DSTYLE
1002
{
1070
    74
1070
     0
1070
   279
1070
     0
1070
   172
1070
     1
1070
   173
1070
     1
1070
   340
1005
14C
1070
    77
1070
     1
1070
    73
1070
     0
1070
   171
1070
     3
1070
   274
1070
     4
1070
   177
1070
     2
1070
   176
1070
     2
1070
   178
1070
     7
1070
    78
1070
     8
1070
    41
1041
3.175
1070
   147
1041
2.25
1070
    42
1041
2.0
1070
    44
1041
2.0
1070
   140
1041
4.5
1070
   343
1005
15D
1070
   344
1005
15D
1002
}
0
DIMENSION
5
180
100
AcDbEntity
8
2
62
256
6
ByLayer
370
13
48
1
60
0
100
AcDbDimension
2
DimnDraft3D3
10
54.870022
20
19.9125
30
0
11
54.870022
21
-1.544079
31
0
70
32
71
5
72
1
41
1
210
0
220
0
230
1
3
Standard
100
AcDbAlignedDimension
13
2
23
-12.4375
33
0
14
34.620022
24
19.9125
34
0
50
90
100
AcDbRotatedDimension
1001
ACAD
1000
DSTYLE
1002
{
1070
    74
1070
     0
1070
   279
1070
     0
1070
   172
1070
     1
1070
   173
1070
     1
1070
   340
1005
14C
1070
    77
1070
     1
1070
    73
1070
     0
1070
   171
1070
     3
1070
   274
1070
     4
1070
   177
1070
     2
1070
   176
1070
     2
1070
   178
1070
     7
1070
    78
1070
     8
1070
    41
1041
3.175
1070
   147
1041
2.25
1070
    42
1041
2.0
1070
    44
1041
2.0
1070
   140
1041
4.5
1070
   343
1005
15D
1070
   344
1005
15D
1002
}
0
DIMENSION
5
18E
100
AcDbEntity
8
2
62
256
6
ByLayer
370
13
48
1
60
0
100
AcDbDimension
2
DimnDraft3D4
10
32.620022
20
49.6625
30
0
11
11.028432
21
49.6625
31
0
70
32
71
5
72
1
41
1
210
0
220
0
230
1
3
Standard
100
AcDbAlignedDimension
13
0
23
14.4375
33
0
14
32.620022
24
21.9125
34
0
50
0
100
AcDbRotatedDimension
1001
ACAD
1000
DSTYLE
1002
{
1070
   279
1070
     0
1070
   172
1070
     1
1070
   173
1070
     1
1070
   340
1005
14C
1070
    77
1070
     1
1070
    73
1070
     0
1070
   171
1070
     3
1070
   274
1070
     4
1070
   177
1070
     2
1070
   176
1070
     2
1070
   178
1070
     7
1070
    78
1070
     8
1070
    41
1041
3.175
1070
   147
1041
2.25
1070
    42
1041
2.0
1070
    44
1041
2.0
1070
   140
1041
4.5
1070
   343
1005
15D
1070
   344
1005
15D
1002
}
0
DIMENSION
5
19C
100
AcDbEntity
8
SK2
62
256
6
ByLayer
370
13
48
1
60
0
100
AcDbDimension
2
DimnDraft3D5
10
-118.729978
20
59.6625
30
0
11
-49.455636
21
59.6625
31
0
70
32
71
5
72
1
41
1
210
0
220
0
230
1
3
Standard
100
AcDbAlignedDimension
13
32.620022
23
21.9125
33
0
14
-118.729978
24
14.4375
34
0
50
0
100
AcDbRotatedDimension
1001
ACAD
1000
DSTYLE
1002
{
1070
   279
1070
     0
1070
   172
1070
     1
1070
   173
1070
     1
1070
   340
1005
14C
1070
    77
1070
     1
1070
    73
1070
     0
1070
   171
1070
     3
1070
   274
1070
     4
1070
   177
1070
     2
1070
   176
1070
     2
1070
   178
1070
     7
1070
    78
1070
     8
1070
    41
1041
3.175
1070
   147
1041
2.25
1070
    42
1041
2.0
1070
    44
1041
2.0
1070
   140
1041
4.5
1070
   343
1005
15D
1070
   344
1005
15D
1002
}
0
ENDSEC
0
SECTION
2
OBJECTS
0
DICTIONARY
5
206
330
0
100
AcDbDictionary
280
0
281
1
3
ACAD_GROUP
350
207
3
ACAD_MLINESTYLE
350
208
0
DICTIONARY
5
207
330
0
100
AcDbDictionary
280
0
281
1
0
DICTIONARY
5
208
330
0
100
AcDbDictionary
280
0
281
1
3
Standard
350
18
0
MLINESTYLE
5
18
330
208
100
AcDbMlineStyle
2
Standard
70
0
3

62
256
51
90
52
90
71
2
49
-0.5
62
256
6
ByLayer
49
0.5
62
256
6
ByLayer
0
RASTERVARIABLES
5
1f5
330

100
AcDbRasterVariables
90
0
70
1
71
1
72
1
0
ENDSEC
0
EOF
