0
SECTION
2
HEADER
9
$ACADVER
1
AC1015
9
$DWGCODEPAGE
3
ANSI_1252
9
$HANDSEED
5
22f
9
$ANGBASE
50
0
9
$ANGDIR
70
0
9
$ATTMODE
70
1
9
$AUNITS
70
0
9
$AUPREC
70
0
9
$CECOLOR
62
256
9
$CELTSCALE
40
1
9
$CELTYPE
6
ByLayer
9
$CELWEIGHT
370
18
9
$CLAYER
8
0
9
$CMLJUST
70
0
9
$CMLSCALE
40
1
9
$CMLSTYLE
2
Standard
9
$DIMSTYLE
2
Standard
9
$TEXTSIZE
40
0.2
9
$TEXTSTYLE
7
Standard
9
$LUNITS
70
2
9
$LUPREC
70
4
9
$EXTNAMES
290
1
9
$INSUNITS
70
4
9
$LTSCALE
40
1
9
$LWDISPLAY
290
1
9
$PDMODE
70
0
9
$PDSIZE
40
0
9
$PLINEGEN
70
0
0
ENDSEC
0
SECTION
2
CLASSES
0
CLASS
1
RASTERVARIABLES
2
AcDbRasterVariables
3
ISM
90
0
280
0
281
0
0
ENDSEC
0
SECTION
2
TABLES
0
TABLE
2
VPORT
5
225
100
AcDbSymbolTable
0
VPORT
5
1
100
AcDbSymbolTableRecord
100
AcDbViewportTableRecord
2
*Active
70
0
10
0
20
0
11
1
21
1
12
-1
22
1
13
0
23
0
14
0.5
24
0.5
15
10
25
10
16
0
26
0
36
1
17
0
27
0
37
0
0
ENDTAB
0
TABLE
2
LTYPE
5
226
100
AcDbSymbolTable
0
LTYPE
5
14
100
AcDbSymbolTableRecord
100
AcDbLinetypeTableRecord
70
0
2
ByBlock
3

72
65
73
0
40
0
0
LTYPE
5
15
100
AcDbSymbolTableRecord
100
AcDbLinetypeTableRecord
70
0
2
ByLayer
3

72
65
73
0
40
0
0
LTYPE
5
16
100
AcDbSymbolTableRecord
100
AcDbLinetypeTableRecord
70
0
2
CONTINUOUS
3
Solid line
72
65
73
0
40
0
0
LTYPE
5
6A
100
AcDbSymbolTableRecord
100
AcDbLinetypeTableRecord
70
0
2
CENTER
3
____ _ ____ _ ____ _ ____
72
65
73
4
40
47.5
49
22
74
0
49
-8.5
74
0
49
8.5
74
0
49
-8.5
74
0
0
LTYPE
5
6B
100
AcDbSymbolTableRecord
100
AcDbLinetypeTableRecord
70
0
2
DASHED
3
__ __ __ __ __ __ __ __ __
72
65
73
2
40
25.72
49
12.86
74
0
49
-12.86
74
0
0
ENDTAB
0
TABLE
2
LAYER
5
227
100
AcDbSymbolTable
0
LAYER
5
10
100
AcDbSymbolTableRecord
100
AcDbLayerTableRecord
2
0
70
0
62
7
6
CONTINUOUS
290
1
370
-3
390
0
0
LAYER
5
6D
100
AcDbSymbolTableRecord
100
AcDbLayerTableRecord
2
2
70
0
62
7
6
CONTINUOUS
290
1
370
-3
390
0
0
LAYER
5
6F
100
AcDbSymbolTableRecord
100
AcDbLayerTableRecord
2
80
70
0
62
-6
6
CONTINUOUS
290
1
370
-3
390
0
0
LAYER
5
71
100
AcDbSymbolTableRecord
100
AcDbLayerTableRecord
2
81
70
0
62
-3
6
CONTINUOUS
290
1
370
-3
390
0
0
LAYER
5
73
100
AcDbSymbolTableRecord
100
AcDbLayerTableRecord
2
1
70
0
62
4
6
CONTINUOUS
290
1
370
-3
390
0
0
LAYER
5
212
100
AcDbSymbolTableRecord
100
AcDbLayerTableRecord
2
SK1
70
0
62
4
6
CONTINUOUS
290
1
370
-3
390
0
0
LAYER
5
213
100
AcDbSymbolTableRecord
100
AcDbLayerTableRecord
2
SK6
70
0
62
5
6
CONTINUOUS
290
1
370
-3
390
0
0
LAYER
5
214
100
AcDbSymbolTableRecord
100
AcDbLayerTableRecord
2
SK2
70
0
62
7
6
CONTINUOUS
290
1
370
-3
390
0
0
ENDTAB
0
TABLE
2
STYLE
5
228
100
AcDbSymbolTable
0
STYLE
5
11
100
AcDbSymbolTableRecord
100
AcDbTextStyleTableRecord
2
Standard
3
txt
70
0
71
0
40
0
41
1
42
0
50
0
0
STYLE
5
168
100
AcDbSymbolTableRecord
100
AcDbTextStyleTableRecord
2
iso_b_vert
3
simplex.shx
70
0
71
0
40
0
41
1
42
0
50
0
0
STYLE
5
169
100
AcDbSymbolTableRecord
100
AcDbTextStyleTableRecord
2
DWGDirectTextStyle
3
simplex
70
0
71
0
40
0
41
1
42
0
50
0
0
ENDTAB
0
TABLE
2
DIMSTYLE
5
229
100
AcDbSymbolTable
100
AcDbDimStyleTable
0
DIMSTYLE
105
27
100
AcDbSymbolTableRecord
100
AcDbDimStyleTableRecord
2
Standard
70
0
3
<>
41
0.18
42
0.0625
44
0.18
140
0.18
147
0.09
73
0
74
0
77
1
271
2
275
0
278
52
280
0
340
11
0
ENDTAB
0
TABLE
2
VIEW
5
22a
100
AcDbSymbolTable
0
ENDTAB
0
TABLE
2
UCS
5
22b
100
AcDbSymbolTable
0
ENDTAB
0
TABLE
2
APPID
5
22c
100
AcDbSymbolTable
0
APPID
5
12
100
AcDbSymbolTableRecord
100
AcDbRegAppTableRecord
2
ACAD
70
0
0
ENDTAB
0
TABLE
2
BLOCK_RECORD
5
22d
100
AcDbSymbolTable
0
BLOCK_RECORD
5
1F
100
AcDbSymbolTableRecord
100
AcDbBlockTableRecord
2
*Model_Space
340
0
70
0
0
BLOCK_RECORD
5
1B
100
AcDbSymbolTableRecord
100
AcDbBlockTableRecord
2
*Paper_Space
340
0
70
0
0
BLOCK_RECORD
5
23
100
AcDbSymbolTableRecord
100
AcDbBlockTableRecord
2
*Paper_Space0
340
0
70
0
0
BLOCK_RECORD
5
16B
100
AcDbSymbolTableRecord
100
AcDbBlockTableRecord
2
DimnDraft3D11
340
0
70
0
0
BLOCK_RECORD
5
17A
100
AcDbSymbolTableRecord
100
AcDbBlockTableRecord
2
DimnDraft3D2
340
0
70
0
0
BLOCK_RECORD
5
188
100
AcDbSymbolTableRecord
100
AcDbBlockTableRecord
2
_CLOSED
340
0
70
0
0
BLOCK_RECORD
5
18F
100
AcDbSymbolTableRecord
100
AcDbBlockTableRecord
2
DimnDraft3D3
340
0
70
0
0
BLOCK_RECORD
5
19D
100
AcDbSymbolTableRecord
100
AcDbBlockTableRecord
2
DimnDraft3D4
340
0
70
0
0
BLOCK_RECORD
5
1AB
100
AcDbSymbolTableRecord
100
AcDbBlockTableRecord
2
DimnDraft3D5
340
0
70
0
0
ENDTAB
0
ENDSEC
0
SECTION
2
BLOCKS
0
BLOCK
5
20
100
AcDbEntity
8
0
100
AcDbBlockBegin
2
*Model_Space
70
0
10
0
20
0
30
0
3
*Model_Space
0
ENDBLK
5
21
100
AcDbEntity
8
0
100
AcDbBlockEnd
0
BLOCK
5
1C
100
AcDbEntity
8
0
100
AcDbBlockBegin
2
*Paper_Space
70
0
10
0
20
0
30
0
3
*Paper_Space
0
ENDBLK
5
1D
100
AcDbEntity
8
0
100
AcDbBlockEnd
0
BLOCK
5
24
100
AcDbEntity
8
0
100
AcDbBlockBegin
2
*Paper_Space0
70
0
10
0
20
0
30
0
3
*Paper_Space0
0
ENDBLK
5
25
100
AcDbEntity
8
0
100
AcDbBlockEnd
0
BLOCK
5
16C
100
AcDbEntity
8
0
100
AcDbBlockBegin
2
DimnDraft3D11
70
0
10
0
20
0
30
0
3
DimnDraft3D11
0
LINE
5
16E
100
AcDbEntity
8
SK2
62
256
6
ByLayer
370
25
48
1
60
0
100
AcDbLine
10
24.924434
20
-21.9125
30
0
11
24.924434
21
-60.1625
31
0
39
0
210
0
220
0
230
1
0
LINE
5
170
100
AcDbEntity
8
SK2
62
256
6
ByLayer
370
25
48
1
60
0
100
AcDbLine
10
-146.425566
20
-14.4375
30
0
11
-146.425566
21
-60.1625
31
0
39
0
210
0
220
0
230
1
0
LINE
5
171
100
AcDbEntity
8
SK2
62
256
6
ByLayer
370
25
48
1
60
0
100
AcDbLine
10
24.924434
20
-58.1625
30
0
11
-146.425566
21
-58.1625
31
0
39
0
210
0
220
0
230
1
0
LINE
5
172
100
AcDbEntity
8
SK2
62
256
6
ByLayer
370
25
48
1
60
0
100
AcDbLine
10
24.924434
20
-58.1625
30
0
11
21.749436
21
-58.580497
31
0
39
0
210
0
220
0
230
1
0
LINE
5
173
100
AcDbEntity
8
SK2
62
256
6
ByLayer
370
25
48
1
60
0
100
AcDbLine
10
24.924434
20
-58.1625
30
0
11
21.749432
21
-57.744503
31
0
39
0
210
0
220
0
230
1
0
LINE
5
174
100
AcDbEntity
8
SK2
62
256
6
ByLayer
370
25
48
1
60
0
100
AcDbLine
10
21.749436
20
-58.580497
30
0
11
21.749432
21
-57.744503
31
0
39
0
210
0
220
0
230
1
0
LINE
5
175
100
AcDbEntity
8
SK2
62
256
6
ByLayer
370
25
48
1
60
0
100
AcDbLine
10
-146.425566
20
-58.1625
30
0
11
-143.250568
21
-57.744503
31
0
39
0
210
0
220
0
230
1
0
LINE
5
176
100
AcDbEntity
8
SK2
62
256
6
ByLayer
370
25
48
1
60
0
100
AcDbLine
10
-146.425566
20
-58.1625
30
0
11
-143.250564
21
-58.580497
31
0
39
0
210
0
220
0
230
1
0
LINE
5
177
100
AcDbEntity
8
SK2
62
256
6
ByLayer
370
25
48
1
60
0
100
AcDbLine
10
-143.250568
20
-57.744503
30
0
11
-143.250564
21
-58.580497
31
0
39
0
210
0
220
0
230
1
0
MTEXT
5
178
100
AcDbEntity
8
SK2
62
256
6
ByLayer
370
18
48
1
60
0
100
AcDbMText
10
-66.026224
20
-57.0375
30
0
210
0
220
0
230
1
1
\W0.6864;170.0
40
4.5
41
0
44
1.084337
50
0
71
7
72
5
7
iso_b_vert
0
ENDBLK
5
16D
100
AcDbEntity
8
0
100
AcDbBlockEnd
0
BLOCK
5
185
100
AcDbEntity
8
0
100
AcDbBlockBegin
2
DimnDraft3D2
70
0
10
0
20
0
30
0
3
DimnDraft3D2
0
MTEXT
5
17B
100
AcDbEntity
8
2
62
256
6
ByLayer
370
18
48
1
60
0
100
AcDbMText
10
8.178799
20
-31.821965
30
0
210
0
220
0
230
1
1
\W0.7399;93%%d
40
4.5
41
0
44
1.084337
50
313.5
71
7
72
5
7
iso_b_vert
0
LINE
5
17C
100
AcDbEntity
8
2
62
256
6
ByLayer
370
13
48
1
60
0
100
AcDbLine
10
24.924434
20
-21.9125
30
0
11
24.924434
21
-43.395593
31
0
39
0
210
0
220
0
230
1
0
LINE
5
17D
100
AcDbEntity
8
2
62
256
6
ByLayer
370
13
48
1
60
0
100
AcDbLine
10
21.093254
20
-19.754404
30
0
11
1.516154
21
-18.728412
31
0
39
0
210
0
220
0
230
1
0
ARC
5
17E
100
AcDbEntity
8
2
62
256
6
ByLayer
370
13
48
1
60
0
100
AcDbCircle
39
0
10
24.924434
20
-19.955188
30
0
40
21.440404685267
210
0
220
0
230
1
100
AcDbArc
50
177
51
270
0
LINE
5
17F
100
AcDbEntity
8
2
62
256
6
ByLayer
370
13
48
1
60
0
100
AcDbLine
10
24.924434
20
-41.395593
30
0
11
21.73616
21
-41.696002
31
0
39
0
210
0
220
0
230
1
0
LINE
5
180
100
AcDbEntity
8
2
62
256
6
ByLayer
370
13
48
1
60
0
100
AcDbLine
10
24.924434
20
-41.395593
30
0
11
21.767043
21
-40.86058
31
0
39
0
210
0
220
0
230
1
0
LINE
5
181
100
AcDbEntity
8
2
62
256
6
ByLayer
370
13
48
1
60
0
100
AcDbLine
10
21.73616
20
-41.696002
30
0
11
21.767043
21
-40.86058
31
0
39
0
210
0
220
0
230
1
0
LINE
5
182
100
AcDbEntity
8
2
62
256
6
ByLayer
370
13
48
1
60
0
100
AcDbLine
10
3.513413
20
-18.833084
30
0
11
3.882447
21
-22.014145
31
0
39
0
210
0
220
0
230
1
0
LINE
5
183
100
AcDbEntity
8
2
62
256
6
ByLayer
370
13
48
1
60
0
100
AcDbLine
10
3.513413
20
-18.833084
30
0
11
3.046553
21
-22.001269
31
0
39
0
210
0
220
0
230
1
0
LINE
5
184
100
AcDbEntity
8
2
62
256
6
ByLayer
370
13
48
1
60
0
100
AcDbLine
10
3.882447
20
-22.014145
30
0
11
3.046553
21
-22.001269
31
0
39
0
210
0
220
0
230
1
0
ENDBLK
5
186
100
AcDbEntity
8
0
100
AcDbBlockEnd
0
BLOCK
5
189
100
AcDbEntity
8
0
100
AcDbBlockBegin
2
_CLOSED
70
0
10
0
20
0
30
0
3
_CLOSED
0
LINE
5
18B
100
AcDbEntity
8
0
62
256
6
ByLayer
370
-2
48
1
60
0
100
AcDbLine
10
-1
20
0.166667
30
0
11
0
21
0
31
0
39
0
210
0
220
0
230
1
0
LINE
5
18C
100
AcDbEntity
8
0
62
256
6
ByLayer
370
-2
48
1
60
0
100
AcDbLine
10
0
20
0
30
0
11
-1
21
-0.166667
31
0
39
0
210
0
220
0
230
1
0
LINE
5
18D
100
AcDbEntity
8
0
62
256
6
ByLayer
370
-2
48
1
60
0
100
AcDbLine
10
-1
20
0.166667
30
0
11
-1
21
-0.166667
31
0
39
0
210
0
220
0
230
1
0
LINE
5
18E
100
AcDbEntity
8
0
62
256
6
ByLayer
370
-2
48
1
60
0
100
AcDbLine
10
0
20
0
30
0
11
-1
21
0
31
0
39
0
210
0
220
0
230
1
0
ENDBLK
5
18A
100
AcDbEntity
8
0
100
AcDbBlockEnd
0
BLOCK
5
19A
100
AcDbEntity
8
0
100
AcDbBlockBegin
2
DimnDraft3D3
70
0
10
0
20
0
30
0
3
DimnDraft3D3
0
MTEXT
5
190
100
AcDbEntity
8
2
62
256
6
ByLayer
370
18
48
1
60
0
100
AcDbMText
10
8.068796
20
-47.0375
30
0
210
0
220
0
230
1
1
\W0.7756;24.9
40
4.5
41
0
44
1.084337
50
0
71
7
72
5
7
iso_b_vert
0
LINE
5
191
100
AcDbEntity
8
2
62
256
6
ByLayer
370
13
48
1
60
0
100
AcDbLine
10
0
20
-14.4375
30
0
11
0
21
-50.1625
31
0
39
0
210
0
220
0
230
1
0
LINE
5
192
100
AcDbEntity
8
2
62
256
6
ByLayer
370
13
48
1
60
0
100
AcDbLine
10
24.924434
20
-21.9125
30
0
11
24.924434
21
-50.1625
31
0
39
0
210
0
220
0
230
1
0
LINE
5
193
100
AcDbEntity
8
2
62
256
6
ByLayer
370
13
48
1
60
0
100
AcDbLine
10
0
20
-48.1625
30
0
11
24.924434
21
-48.1625
31
0
39
0
210
0
220
0
230
1
0
LINE
5
194
100
AcDbEntity
8
2
62
256
6
ByLayer
370
13
48
1
60
0
100
AcDbLine
10
0
20
-48.1625
30
0
11
3.174998
21
-47.744503
31
0
39
0
210
0
220
0
230
1
0
LINE
5
195
100
AcDbEntity
8
2
62
256
6
ByLayer
370
13
48
1
60
0
100
AcDbLine
10
0
20
-48.1625
30
0
11
3.175002
21
-48.580497
31
0
39
0
210
0
220
0
230
1
0
LINE
5
196
100
AcDbEntity
8
2
62
256
6
ByLayer
370
13
48
1
60
0
100
AcDbLine
10
3.174998
20
-47.744503
30
0
11
3.175002
21
-48.580497
31
0
39
0
210
0
220
0
230
1
0
LINE
5
197
100
AcDbEntity
8
2
62
256
6
ByLayer
370
13
48
1
60
0
100
AcDbLine
10
24.924434
20
-48.1625
30
0
11
21.749436
21
-48.580497
31
0
39
0
210
0
220
0
230
1
0
LINE
5
198
100
AcDbEntity
8
2
62
256
6
ByLayer
370
13
48
1
60
0
100
AcDbLine
10
24.924434
20
-48.1625
30
0
11
21.749432
21
-47.744503
31
0
39
0
210
0
220
0
230
1
0
LINE
5
199
100
AcDbEntity
8
2
62
256
6
ByLayer
370
13
48
1
60
0
100
AcDbLine
10
21.749436
20
-48.580497
30
0
11
21.749432
21
-47.744503
31
0
39
0
210
0
220
0
230
1
0
ENDBLK
5
19B
100
AcDbEntity
8
0
100
AcDbBlockEnd
0
BLOCK
5
1A8
100
AcDbEntity
8
0
100
AcDbBlockBegin
2
DimnDraft3D4
70
0
10
0
20
0
30
0
3
DimnDraft3D4
0
MTEXT
5
19E
100
AcDbEntity
8
2
62
256
6
ByLayer
370
18
48
1
60
0
100
AcDbMText
10
46.049434
20
-7.894079
30
0
210
0
220
0
230
1
1
\W0.7346;32.0
40
4.5
41
0
44
1.084337
50
90
71
7
72
5
7
iso_b_vert
0
LINE
5
19F
100
AcDbEntity
8
2
62
256
6
ByLayer
370
13
48
1
60
0
100
AcDbLine
10
2
20
12.4375
30
0
11
49.174434
21
12.4375
31
0
39
0
210
0
220
0
230
1
0
LINE
5
1A0
100
AcDbEntity
8
2
62
256
6
ByLayer
370
13
48
1
60
0
100
AcDbLine
10
26.924434
20
-19.9125
30
0
11
49.174434
21
-19.9125
31
0
39
0
210
0
220
0
230
1
0
LINE
5
1A1
100
AcDbEntity
8
2
62
256
6
ByLayer
370
13
48
1
60
0
100
AcDbLine
10
47.174434
20
12.4375
30
0
11
47.174434
21
-19.9125
31
0
39
0
210
0
220
0
230
1
0
LINE
5
1A2
100
AcDbEntity
8
2
62
256
6
ByLayer
370
13
48
1
60
0
100
AcDbLine
10
47.174434
20
12.4375
30
0
11
47.592431
21
9.262502
31
0
39
0
210
0
220
0
230
1
0
LINE
5
1A3
100
AcDbEntity
8
2
62
256
6
ByLayer
370
13
48
1
60
0
100
AcDbLine
10
47.174434
20
12.4375
30
0
11
46.756437
21
9.262498
31
0
39
0
210
0
220
0
230
1
0
LINE
5
1A4
100
AcDbEntity
8
2
62
256
6
ByLayer
370
13
48
1
60
0
100
AcDbLine
10
47.592431
20
9.262502
30
0
11
46.756437
21
9.262498
31
0
39
0
210
0
220
0
230
1
0
LINE
5
1A5
100
AcDbEntity
8
2
62
256
6
ByLayer
370
13
48
1
60
0
100
AcDbLine
10
47.174434
20
-19.9125
30
0
11
46.756437
21
-16.737502
31
0
39
0
210
0
220
0
230
1
0
LINE
5
1A6
100
AcDbEntity
8
2
62
256
6
ByLayer
370
13
48
1
60
0
100
AcDbLine
10
47.174434
20
-19.9125
30
0
11
47.592431
21
-16.737498
31
0
39
0
210
0
220
0
230
1
0
LINE
5
1A7
100
AcDbEntity
8
2
62
256
6
ByLayer
370
13
48
1
60
0
100
AcDbLine
10
46.756437
20
-16.737502
30
0
11
47.592431
21
-16.737498
31
0
39
0
210
0
220
0
230
1
0
ENDBLK
5
1A9
100
AcDbEntity
8
0
100
AcDbBlockEnd
0
BLOCK
5
1B6
100
AcDbEntity
8
0
100
AcDbBlockBegin
2
DimnDraft3D5
70
0
10
0
20
0
30
0
3
DimnDraft3D5
0
MTEXT
5
1AC
100
AcDbEntity
8
SK2
62
256
6
ByLayer
370
18
48
1
60
0
100
AcDbMText
10
-155.300566
20
-4.156579
30
0
210
0
220
0
230
1
1
\W0.7346;25.0
40
4.5
41
0
44
1.084337
50
90
71
7
72
5
7
iso_b_vert
0
LINE
5
1AD
100
AcDbEntity
8
SK2
62
256
6
ByLayer
370
13
48
1
60
0
100
AcDbLine
10
-148.425566
20
12.4375
30
0
11
-156.175566
21
12.4375
31
0
39
0
210
0
220
0
230
1
0
LINE
5
1AE
100
AcDbEntity
8
SK2
62
256
6
ByLayer
370
13
48
1
60
0
100
AcDbLine
10
-148.425566
20
-12.4375
30
0
11
-156.175566
21
-12.4375
31
0
39
0
210
0
220
0
230
1
0
LINE
5
1AF
100
AcDbEntity
8
SK2
62
256
6
ByLayer
370
13
48
1
60
0
100
AcDbLine
10
-154.175566
20
12.4375
30
0
11
-154.175566
21
-12.4375
31
0
39
0
210
0
220
0
230
1
0
LINE
5
1B0
100
AcDbEntity
8
SK2
62
256
6
ByLayer
370
13
48
1
60
0
100
AcDbLine
10
-154.175566
20
12.4375
30
0
11
-153.757569
21
9.262502
31
0
39
0
210
0
220
0
230
1
0
LINE
5
1B1
100
AcDbEntity
8
SK2
62
256
6
ByLayer
370
13
48
1
60
0
100
AcDbLine
10
-154.175566
20
12.4375
30
0
11
-154.593563
21
9.262498
31
0
39
0
210
0
220
0
230
1
0
LINE
5
1B2
100
AcDbEntity
8
SK2
62
256
6
ByLayer
370
13
48
1
60
0
100
AcDbLine
10
-153.757569
20
9.262502
30
0
11
-154.593563
21
9.262498
31
0
39
0
210
0
220
0
230
1
0
LINE
5
1B3
100
AcDbEntity
8
SK2
62
256
6
ByLayer
370
13
48
1
60
0
100
AcDbLine
10
-154.175566
20
-12.4375
30
0
11
-154.593563
21
-9.262502
31
0
39
0
210
0
220
0
230
1
0
LINE
5
1B4
100
AcDbEntity
8
SK2
62
256
6
ByLayer
370
13
48
1
60
0
100
AcDbLine
10
-154.175566
20
-12.4375
30
0
11
-153.757569
21
-9.262498
31
0
39
0
210
0
220
0
230
1
0
LINE
5
1B5
100
AcDbEntity
8
SK2
62
256
6
ByLayer
370
13
48
1
60
0
100
AcDbLine
10
-154.593563
20
-9.262502
30
0
11
-153.757569
21
-9.262498
31
0
39
0
210
0
220
0
230
1
0
ENDBLK
5
1B7
100
AcDbEntity
8
0
100
AcDbBlockEnd
0
ENDSEC
0
SECTION
2
ENTITIES
0
ELLIPSE
5
D6
100
AcDbEntity
8
1
62
256
6
ByLayer
370
18
48
1
60
0
100
AcDbEllipse
10
10.762514
20
-5.500493
30
0
11
-0.21551199938844
21
-0.194047875844074
31
0
210
0
220
0
230
1
40
0.989133
41
2.69101284290193
42
2.78834531482254
0
ELLIPSE
5
D7
100
AcDbEntity
8
1
62
256
6
ByLayer
370
18
48
1
60
0
100
AcDbEllipse
10
9.720571
20
-6.629514
30
0
11
0.23409062002537
21
0.210776141003051
31
0
210
0
220
0
230
1
40
0.989133
41
-9.53575747078737E-07
42
0.33493363852513
0
ELLIPSE
5
D8
100
AcDbEntity
8
1
62
256
6
ByLayer
370
18
48
1
60
0
100
AcDbEllipse
10
11.341624
20
-5.329741
30
0
11
0.23409062002537
21
0.210776141003051
31
0
210
0
220
0
230
1
40
0.989133
41
2.69101284290202
42
3.14158319757527
0
ELLIPSE
5
D9
100
AcDbEntity
8
1
62
256
6
ByLayer
370
18
48
1
60
0
100
AcDbEllipse
10
10.867243
20
-6.40476
30
0
11
0.668830342929627
21
0.602217545723003
31
0
210
0
220
0
230
1
40
0.989133
41
-3.11269729544513
42
-0.028831001484718
0
ELLIPSE
5
DA
100
AcDbEntity
8
1
62
256
6
ByLayer
370
18
48
1
60
0
100
AcDbEllipse
10
10.901675
20
-6.443002
30
0
11
0.668830342929627
21
0.602217545723003
31
0
210
0
220
0
230
1
40
0.989133
41
0.559267714610449
42
1.17333872682098
0
ELLIPSE
5
DB
100
AcDbEntity
8
1
62
256
6
ByLayer
370
18
48
1
60
0
100
AcDbEllipse
10
10.901675
20
-6.443002
30
0
11
0.668830342929627
21
0.602217545723003
31
0
210
0
220
0
230
1
40
0.989133
41
-0.487929836586125
42
0.103319352981283
0
ELLIPSE
5
DC
100
AcDbEntity
8
1
62
256
6
ByLayer
370
18
48
1
60
0
100
AcDbEllipse
10
10.901675
20
-6.443002
30
0
11
0.668830342929627
21
0.602217545723003
31
0
210
0
220
0
230
1
40
0.989133
41
2.95593336389879
42
-2.76930898916639
0
ELLIPSE
5
DD
100
AcDbEntity
8
1
62
256
6
ByLayer
370
18
48
1
60
0
100
AcDbEllipse
10
10.901675
20
-6.443002
30
0
11
0.668830342929627
21
0.602217545723003
31
0
210
0
220
0
230
1
40
0.989133
41
1.83315882397805
42
2.44016055196179
0
ELLIPSE
5
DE
100
AcDbEntity
8
1
62
256
6
ByLayer
370
18
48
1
60
0
100
AcDbEllipse
10
10.152729
20
-7.043512
30
0
11
-0.21551199938844
21
-0.194047875844074
31
0
210
0
220
0
230
1
40
0.989133
41
0.353238143606269
42
1.3821311897216
0
ELLIPSE
5
DF
100
AcDbEntity
8
1
62
256
6
ByLayer
370
18
48
1
60
0
100
AcDbEllipse
10
10.827891
20
-6.361056
30
0
11
2.37806344152756
21
2.14121794034846
31
0
210
0
220
0
230
1
40
0.989133
41
0.843188067548106
42
3.14152688142747
0
ELLIPSE
5
E0
100
AcDbEntity
8
1
62
256
6
ByLayer
370
18
48
1
60
0
100
AcDbEllipse
10
10.827891
20
-6.361056
30
0
11
2.37806344152756
21
2.14121794034846
31
0
210
0
220
0
230
1
40
0.989133
41
-0.716741483125899
42
-2.80605091687659E-16
0
ELLIPSE
5
E1
100
AcDbEntity
8
1
62
256
6
ByLayer
370
18
48
1
60
0
100
AcDbEllipse
10
10.827891
20
-6.361056
30
0
11
2.37806344152756
21
2.14121794034846
31
0
210
0
220
0
230
1
40
0.989133
41
3.24250561401403E-05
42
0.843188067548105
0
ELLIPSE
5
E2
100
AcDbEntity
8
1
62
256
6
ByLayer
370
18
48
1
60
0
100
AcDbEllipse
10
11.650621
20
-5.842491
30
0
11
-0.21551199938844
21
-0.194047875844074
31
0
210
0
220
0
230
1
40
0.989133
41
1.64381529170535
42
2.78835510516432
0
ELLIPSE
5
E3
100
AcDbEntity
8
1
62
256
6
ByLayer
370
18
48
1
60
0
100
AcDbEllipse
10
10.461726
20
-7.556262
30
0
11
0.23409062002537
21
0.210776141003051
31
0
210
0
220
0
230
1
40
0.989133
41
-1.01994184368874E-05
42
0.19577603570307
0
ELLIPSE
5
E4
100
AcDbEntity
8
1
62
256
6
ByLayer
370
18
48
1
60
0
100
AcDbEllipse
10
12.082779
20
-6.256489
30
0
11
0.23409062002537
21
0.210776141003051
31
0
210
0
220
0
230
1
40
0.989133
41
2.83017044572398
42
-3.14159241313826
0
ELLIPSE
5
E5
100
AcDbEntity
8
1
62
256
6
ByLayer
370
18
48
1
60
0
100
AcDbEllipse
10
11.040836
20
-7.38551
30
0
11
-0.21551199938844
21
-0.194047875844074
31
0
210
0
220
0
230
1
40
0.989133
41
0.35327628658697
42
2.42932874091837
0
ELLIPSE
5
E6
100
AcDbEntity
8
1
62
256
6
ByLayer
370
18
48
1
60
0
100
AcDbEllipse
10
11.789782
20
-6.784999
30
0
11
-0.21551199938844
21
-0.194047875844074
31
0
210
0
220
0
230
1
40
0.989133
41
0.596617740508826
42
2.78881233080579
0
ELLIPSE
5
E7
100
AcDbEntity
8
1
62
256
6
ByLayer
370
18
48
1
60
0
100
AcDbEllipse
10
17.588126
20
-6.427395
30
0
11
0.590056991429027
21
0.531289701448961
31
0
210
0
220
0
230
1
40
0.989133
41
1.37350150423418E-06
42
1.61284869072863
0
ELLIPSE
5
E8
100
AcDbEntity
8
1
62
256
6
ByLayer
370
18
48
1
60
0
100
AcDbEllipse
10
17.557136
20
-14.826134
30
0
11
1.41569089253438
21
1.27469380511369
31
0
210
0
220
0
230
1
40
0.989133
41
-3.10189751778513
42
-0.156261719732317
0
ELLIPSE
5
E9
100
AcDbEntity
8
1
62
256
6
ByLayer
370
18
48
1
60
0
100
AcDbEllipse
10
10.012597
20
-17.887615
30
0
11
0.590056991429027
21
0.531289701448961
31
0
210
0
220
0
230
1
40
0.989133
41
1.8271325060725
42
3.14156164904429
0
ELLIPSE
5
EA
100
AcDbEntity
8
1
62
256
6
ByLayer
370
18
48
1
60
0
100
AcDbEllipse
10
12.045743
20
0.442525
30
0
11
-2.24171979658924
21
-1.99366304915848
31
0
210
0
220
0
230
1
40
0.986421
41
-0.0517566673072184
42
-0.0201405995016321
0
ELLIPSE
5
EB
100
AcDbEntity
8
1
62
256
6
ByLayer
370
18
48
1
60
0
100
AcDbEllipse
10
11.250346
20
-6.88959
30
0
11
-2.50325377285799
21
-2.2262570715603
31
0
210
0
220
0
230
1
40
0.986421
41
0.0671821682038426
42
3.08983598628257
0
ELLIPSE
5
EC
100
AcDbEntity
8
1
62
256
6
ByLayer
370
18
48
1
60
0
100
AcDbEllipse
10
17.95114
20
-7.537758
30
0
11
1.76049377056318
21
1.58515571097639
31
0
210
0
220
0
230
1
40
0.989133
41
0.777753293310906
42
1.33165515689148
0
ELLIPSE
5
ED
100
AcDbEntity
8
1
62
256
6
ByLayer
370
18
48
1
60
0
100
AcDbEllipse
10
17.056757
20
-6.334716
30
0
11
1.85656497275473
21
1.67165860997022
31
0
210
0
220
0
230
1
40
0.989133
41
-0.793043033483985
42
-0.418898835881289
0
ELLIPSE
5
EE
100
AcDbEntity
8
1
62
256
6
ByLayer
370
18
48
1
60
0
100
AcDbEllipse
10
17.042
20
-6.318327
30
0
11
1.74509324893313
21
1.57128901901639
31
0
210
0
220
0
230
1
40
0.989133
41
-0.793043033483983
42
-0.351084803212919
0
ELLIPSE
5
EF
100
AcDbEntity
8
1
62
256
6
ByLayer
370
18
48
1
60
0
100
AcDbEllipse
10
16.947956
20
-6.559251
30
0
11
0.884806807833969
21
0.796683628196041
31
0
210
0
220
0
230
1
40
0.989133
41
0.14212593299856
42
0.769593548975528
0
ELLIPSE
5
F0
100
AcDbEntity
8
1
62
256
6
ByLayer
370
18
48
1
60
0
100
AcDbEllipse
10
10.129549
20
-16.874099
30
0
11
-0.884806807833986
21
-0.796683628196019
31
0
210
0
220
0
230
1
40
0.989133
41
-0.399602483995033
42
-3.07753884957612E-05
0
ELLIPSE
5
F1
100
AcDbEntity
8
1
62
256
6
ByLayer
370
18
48
1
60
0
100
AcDbEllipse
10
6.426929
20
-6.47322
30
0
11
-2.92261365336253
21
3.42440637873187
31
0
210
0
220
0
230
1
40
0.206199
41
-0.61249818128767
42
-0.550849996601302
0
ELLIPSE
5
F2
100
AcDbEntity
8
1
62
256
6
ByLayer
370
18
48
1
60
0
100
AcDbEllipse
10
17.777637
20
-15.078367
30
0
11
-1.61982724802496
21
-0.505967627526763
31
0
210
0
220
0
230
1
40
0.828245
41
1.59515298393383
42
1.87623666901056
0
ELLIPSE
5
F3
100
AcDbEntity
8
1
62
256
6
ByLayer
370
18
48
1
60
0
100
AcDbEllipse
10
11.604485
20
-2.38697
30
0
11
-0.355765360726922
21
3.65163204469803
31
0
210
0
220
0
230
1
40
0.450788
41
-0.605251230494779
42
-0.313627366938398
0
ELLIPSE
5
F4
100
AcDbEntity
8
1
62
256
6
ByLayer
370
18
48
1
60
0
100
AcDbEllipse
10
5.150773
20
-7.603574
30
0
11
-1.80506244380532
21
2.01282414339267
31
0
210
0
220
0
230
1
40
0.337398
41
-0.624812356275789
42
0.116678527452792
0
ELLIPSE
5
F5
100
AcDbEntity
8
1
62
256
6
ByLayer
370
18
48
1
60
0
100
AcDbEllipse
10
0.722294
20
-2.625718
30
0
11
3.75332761605415
21
-4.68108233281207
31
0
210
0
220
0
230
1
40
0.008497
41
-0.812430626025318
42
-0.810541504948245
0
ELLIPSE
5
F6
100
AcDbEntity
8
1
62
256
6
ByLayer
370
18
48
1
60
0
100
AcDbEllipse
10
11.865829
20
-2.112268
30
0
11
-2.70802358942852
21
3.59648577605556
31
0
210
0
220
0
230
1
40
0.189222
41
0.550288894916549
42
0.611937080356435
0
ELLIPSE
5
F7
100
AcDbEntity
8
1
62
256
6
ByLayer
370
18
48
1
60
0
100
AcDbEllipse
10
5.01652
20
-4.060043
30
0
11
-1.64231984482171
21
-1.8851404554763
31
0
210
0
220
0
230
1
40
0.996407
41
-1.74971046106422
42
-0.635916064953087
0
ELLIPSE
5
F8
100
AcDbEntity
8
1
62
256
6
ByLayer
370
18
48
1
60
0
100
AcDbEllipse
10
9.775449
20
-0.244298
30
0
11
-1.64231984465331
21
-1.88514045562304
31
0
210
0
220
0
230
1
40
0.996407
41
-2.86350485726531
42
-1.74971046115401
0
ELLIPSE
5
F9
100
AcDbEntity
8
1
62
256
6
ByLayer
370
18
48
1
60
0
100
AcDbEllipse
10
17.777637
20
-15.078367
30
0
11
-0.757597426894055
21
-1.50579673446087
31
0
210
0
220
0
230
1
40
0.826259
41
1.20144493848105
42
1.4825286234095
0
ELLIPSE
5
FA
100
AcDbEntity
8
1
62
256
6
ByLayer
370
18
48
1
60
0
100
AcDbEllipse
10
10.862714
20
-2.916574
30
0
11
2.81499571204061
21
-3.51081174960905
31
0
210
0
220
0
230
1
40
0.008497
41
1.94288547246098
42
2.38176204129022
0
ELLIPSE
5
FB
100
AcDbEntity
8
1
62
256
6
ByLayer
370
18
48
1
60
0
100
AcDbEllipse
10
13.254013
20
-1.106335
30
0
11
-1.57382819360886
21
2.19830177676341
31
0
210
0
220
0
230
1
40
0.320461
41
-0.117834440468624
42
0.623656443259437
0
ELLIPSE
5
FC
100
AcDbEntity
8
1
62
256
6
ByLayer
370
18
48
1
60
0
100
AcDbEllipse
10
6.845557
20
-6.202715
30
0
11
-3.57777169386133
21
1.03546212876579
31
0
210
0
220
0
230
1
40
0.460545
41
0.286624782296732
42
0.578248645780117
0
ELLIPSE
5
FD
100
AcDbEntity
8
1
62
256
6
ByLayer
370
18
48
1
60
0
100
AcDbEllipse
10
5.360142
20
-4.484428
30
0
11
0.704568163081537
21
1.65637667925261
31
0
210
0
220
0
230
1
40
0.78494
41
1.16685001526802
42
2.59707982171681
0
ELLIPSE
5
FE
100
AcDbEntity
8
1
62
256
6
ByLayer
370
18
48
1
60
0
100
AcDbEllipse
10
7.430045
20
-5.668915
30
0
11
2.81499571204061
21
-3.51081174960905
31
0
210
0
220
0
230
1
40
0.008497
41
1.94288547246096
42
2.38176204128965
0
ELLIPSE
5
FF
100
AcDbEntity
8
1
62
256
6
ByLayer
370
18
48
1
60
0
100
AcDbEllipse
10
10.176861
20
-0.622345
30
0
11
1.76329603787241
21
0.361644967922211
31
0
210
0
220
0
230
1
40
0.789807
41
0.520101998968099
42
1.95033180541692
0
ELLIPSE
5
100
100
AcDbEntity
8
1
62
256
6
ByLayer
370
18
48
1
60
0
100
AcDbEllipse
10
11.173647
20
-7.533011
30
0
11
-0.21551199938844
21
-0.194047875844074
31
0
210
0
220
0
230
1
40
0.989133
41
-0.450579810687777
42
2.42932874091831
0
ELLIPSE
5
101
100
AcDbEntity
8
1
62
256
6
ByLayer
370
18
48
1
60
0
100
AcDbEllipse
10
10.9913
20
-6.54254
30
0
11
-2.37806344152761
21
-2.1412179403484
31
0
210
0
220
0
230
1
40
0.989133
41
0
42
6.28318530717959
0
ELLIPSE
5
102
100
AcDbEntity
8
1
62
256
6
ByLayer
370
18
48
1
60
0
100
AcDbEllipse
10
11.030226
20
-6.585772
30
0
11
0.668830342929627
21
0.602217545723003
31
0
210
0
220
0
230
1
40
0.989133
41
-1.7221114379698
42
-1.53512738778273
0
ELLIPSE
5
103
100
AcDbEntity
8
1
62
256
6
ByLayer
370
18
48
1
60
0
100
AcDbEllipse
10
11.034486
20
-6.590503
30
0
11
0.687408963566561
21
0.618945810881976
31
0
210
0
220
0
230
1
40
0.989133
41
2.41362576112193
42
2.70671582269828
0
ELLIPSE
5
104
100
AcDbEntity
8
1
62
256
6
ByLayer
370
18
48
1
60
0
100
AcDbEllipse
10
11.034486
20
-6.590503
30
0
11
0.687408963566561
21
0.618945810881976
31
0
210
0
220
0
230
1
40
0.989133
41
-0.727966892467826
42
-0.434876830891476
0
ELLIPSE
5
105
100
AcDbEntity
8
1
62
256
6
ByLayer
370
18
48
1
60
0
100
AcDbEllipse
10
10.28554
20
-7.191014
30
0
11
-0.21551199938844
21
-0.194047875844074
31
0
210
0
220
0
230
1
40
0.989133
41
-1.49777736188435
42
1.3821311897216
0
ELLIPSE
5
106
100
AcDbEntity
8
1
62
256
6
ByLayer
370
18
48
1
60
0
100
AcDbEllipse
10
10.901675
20
-6.443002
30
0
11
0.668830342929627
21
0.602217545723003
31
0
210
0
220
0
230
1
40
0.989133
41
-2.58232493897927
42
-1.72211143796976
0
ELLIPSE
5
107
100
AcDbEntity
8
1
62
256
6
ByLayer
370
18
48
1
60
0
100
AcDbEllipse
10
11.034486
20
-6.590503
30
0
11
0.687408963566561
21
0.618945810881976
31
0
210
0
220
0
230
1
40
0.989133
41
-2.82236199486105
42
-2.52927193328469
0
ELLIPSE
5
108
100
AcDbEntity
8
1
62
256
6
ByLayer
370
18
48
1
60
0
100
AcDbEllipse
10
11.474435
20
-5.477243
30
0
11
0.23409062002537
21
0.210776141003051
31
0
210
0
220
0
230
1
40
0.989133
41
-2.23266173163323
42
-1.75946146386801
0
ELLIPSE
5
109
100
AcDbEntity
8
1
62
256
6
ByLayer
370
18
48
1
60
0
100
AcDbEllipse
10
11.474435
20
-5.477243
30
0
11
0.23409062002537
21
0.210776141003051
31
0
210
0
220
0
230
1
40
0.989133
41
2.691012842902
42
-3.11897219651226
0
ELLIPSE
5
10A
100
AcDbEntity
8
1
62
256
6
ByLayer
370
18
48
1
60
0
100
AcDbEllipse
10
11.030226
20
-6.585772
30
0
11
0.668830342929627
21
0.602217545723003
31
0
210
0
220
0
230
1
40
0.989133
41
-0.674913886782943
42
-0.487929836585975
0
ELLIPSE
5
10B
100
AcDbEntity
8
1
62
256
6
ByLayer
370
18
48
1
60
0
100
AcDbEllipse
10
10.895325
20
-5.647995
30
0
11
-0.21551199938844
21
-0.194047875844074
31
0
210
0
220
0
230
1
40
0.989133
41
2.69101284290188
42
-0.71226391267155
0
ELLIPSE
5
10C
100
AcDbEntity
8
1
62
256
6
ByLayer
370
18
48
1
60
0
100
AcDbEllipse
10
11.034486
20
-6.590503
30
0
11
0.687408963566561
21
0.618945810881976
31
0
210
0
220
0
230
1
40
0.989133
41
0.319230658728739
42
0.612320720305107
0
ELLIPSE
5
10D
100
AcDbEntity
8
1
62
256
6
ByLayer
370
18
48
1
60
0
100
AcDbEllipse
10
11.775642
20
-7.517251
30
0
11
0.23409062002537
21
0.210776141003051
31
0
210
0
220
0
230
1
40
0.989133
41
1.956128473153
42
2.42932874091834
0
ELLIPSE
5
10E
100
AcDbEntity
8
1
62
256
6
ByLayer
370
18
48
1
60
0
100
AcDbEllipse
10
11.030226
20
-6.585772
30
0
11
0.668830342929627
21
0.602217545723003
31
0
210
0
220
0
230
1
40
0.989133
41
0.372283664423344
42
0.559267714610476
0
ELLIPSE
5
10F
100
AcDbEntity
8
1
62
256
6
ByLayer
370
18
48
1
60
0
100
AcDbEllipse
10
10.461726
20
-7.556262
30
0
11
0.23409062002537
21
0.210776141003051
31
0
210
0
220
0
230
1
40
0.989133
41
0.735775343330504
42
1.38213118972154
0
ELLIPSE
5
110
100
AcDbEntity
8
1
62
256
6
ByLayer
370
18
48
1
60
0
100
AcDbEllipse
10
12.082779
20
-6.256489
30
0
11
0.23409062002537
21
0.210776141003051
31
0
210
0
220
0
230
1
40
0.989133
41
1.64381529170543
42
2.29017113809641
0
ELLIPSE
5
111
100
AcDbEntity
8
1
62
256
6
ByLayer
370
18
48
1
60
0
100
AcDbEllipse
10
12.21559
20
-6.403991
30
0
11
0.23409062002537
21
0.210776141003051
31
0
210
0
220
0
230
1
40
0.989133
41
3.00332602434966
42
-2.80665901506471
0
ELLIPSE
5
112
100
AcDbEntity
8
1
62
256
6
ByLayer
370
18
48
1
60
0
100
AcDbEllipse
10
11.030226
20
-6.585772
30
0
11
0.668830342929627
21
0.602217545723003
31
0
210
0
220
0
230
1
40
0.989133
41
-2.7693089891742
42
-2.5823249389742
0
ELLIPSE
5
113
100
AcDbEntity
8
1
62
256
6
ByLayer
370
18
48
1
60
0
100
AcDbEllipse
10
11.034486
20
-6.590503
30
0
11
-1.41197516840702
21
-1.27134815208186
31
0
210
0
220
0
230
1
40
0.989133
41
0
42
6.28318530717959
0
ELLIPSE
5
114
100
AcDbEntity
8
1
62
256
6
ByLayer
370
18
48
1
60
0
100
AcDbEllipse
10
10.594537
20
-7.703763
30
0
11
0.23409062002537
21
0.210776141003051
31
0
210
0
220
0
230
1
40
0.989133
41
-0.450579810687912
42
0.0226204570773045
0
ELLIPSE
5
115
100
AcDbEntity
8
1
62
256
6
ByLayer
370
18
48
1
60
0
100
AcDbEllipse
10
11.034486
20
-6.590503
30
0
11
0.687408963566561
21
0.618945810881976
31
0
210
0
220
0
230
1
40
0.989133
41
-1.77516444366443
42
-1.48207438208809
0
ELLIPSE
5
116
100
AcDbEntity
8
1
62
256
6
ByLayer
370
18
48
1
60
0
100
AcDbEllipse
10
11.642831
20
-7.369749
30
0
11
0.23409062002537
21
0.210776141003051
31
0
210
0
220
0
230
1
40
0.989133
41
0.596617740508732
42
1.24297358689975
0
ELLIPSE
5
117
100
AcDbEntity
8
1
62
256
6
ByLayer
370
18
48
1
60
0
100
AcDbEllipse
10
12.21559
20
-6.403991
30
0
11
0.23409062002537
21
0.210776141003051
31
0
210
0
220
0
230
1
40
0.989133
41
1.64381529170538
42
2.11701555947068
0
ELLIPSE
5
118
100
AcDbEntity
8
1
62
256
6
ByLayer
370
18
48
1
60
0
100
AcDbEllipse
10
11.030226
20
-6.585772
30
0
11
0.668830342929627
21
0.602217545723003
31
0
210
0
220
0
230
1
40
0.989133
41
1.41948121561999
42
1.60646526580708
0
ELLIPSE
5
119
100
AcDbEntity
8
1
62
256
6
ByLayer
370
18
48
1
60
0
100
AcDbEllipse
10
11.642831
20
-7.369749
30
0
11
0.23409062002537
21
0.210776141003051
31
0
210
0
220
0
230
1
40
0.989133
41
1.78297289452724
42
2.42932874091826
0
ELLIPSE
5
11A
100
AcDbEntity
8
1
62
256
6
ByLayer
370
18
48
1
60
0
100
AcDbEllipse
10
11.783432
20
-5.989992
30
0
11
-0.21551199938844
21
-0.194047875844074
31
0
210
0
220
0
230
1
40
0.989133
41
1.64381529170539
42
-1.75946146386829
0
ELLIPSE
5
11B
100
AcDbEntity
8
1
62
256
6
ByLayer
370
18
48
1
60
0
100
AcDbEllipse
10
10.146379
20
-6.248506
30
0
11
-0.21551199938844
21
-0.194047875844074
31
0
210
0
220
0
230
1
40
0.989133
41
-2.54497491308091
42
0.334933638525015
0
ELLIPSE
5
11C
100
AcDbEntity
8
1
62
256
6
ByLayer
370
18
48
1
60
0
100
AcDbEllipse
10
10.901675
20
-6.443002
30
0
11
0.668830342929627
21
0.602217545723003
31
0
210
0
220
0
230
1
40
0.989133
41
-1.5351273877827
42
-0.674913886773221
0
ELLIPSE
5
11D
100
AcDbEntity
8
1
62
256
6
ByLayer
370
18
48
1
60
0
100
AcDbEllipse
10
10.293331
20
-5.663756
30
0
11
0.23409062002537
21
0.210776141003051
31
0
210
0
220
0
230
1
40
0.989133
41
-1.18546418043671
42
-0.712263912671466
0
ELLIPSE
5
11E
100
AcDbEntity
8
1
62
256
6
ByLayer
370
18
48
1
60
0
100
AcDbEllipse
10
10.594537
20
-7.703763
30
0
11
0.23409062002537
21
0.210776141003051
31
0
210
0
220
0
230
1
40
0.989133
41
0.908930921956445
42
1.38213118972174
0
ELLIPSE
5
11F
100
AcDbEntity
8
1
62
256
6
ByLayer
370
18
48
1
60
0
100
AcDbEllipse
10
10.293331
20
-5.663756
30
0
11
0.23409062002537
21
0.210776141003051
31
0
210
0
220
0
230
1
40
0.989133
41
-2.54497491308101
42
-2.07177464531584
0
ELLIPSE
5
120
100
AcDbEntity
8
1
62
256
6
ByLayer
370
18
48
1
60
0
100
AcDbEllipse
10
11.775642
20
-7.517251
30
0
11
0.23409062002537
21
0.210776141003051
31
0
210
0
220
0
230
1
40
0.989133
41
0.596617740508694
42
1.06981800827403
0
ELLIPSE
5
121
100
AcDbEntity
8
1
62
256
6
ByLayer
370
18
48
1
60
0
100
AcDbEllipse
10
11.922594
20
-6.932501
30
0
11
-0.21551199938844
21
-0.194047875844074
31
0
210
0
220
0
230
1
40
0.989133
41
0.596617740508773
42
-2.80665901506462
0
ELLIPSE
5
122
100
AcDbEntity
8
1
62
256
6
ByLayer
370
18
48
1
60
0
100
AcDbEllipse
10
9.853382
20
-6.777016
30
0
11
0.23409062002537
21
0.210776141003051
31
0
210
0
220
0
230
1
40
0.989133
41
-0.138266629240092
42
0.334933638525186
0
ELLIPSE
5
123
100
AcDbEntity
8
1
62
256
6
ByLayer
370
18
48
1
60
0
100
AcDbEllipse
10
9.853382
20
-6.777016
30
0
11
0.23409062002537
21
0.210776141003051
31
0
210
0
220
0
230
1
40
0.989133
41
-1.49777736188454
42
-1.02457709411927
0
ELLIPSE
5
124
100
AcDbEntity
8
1
62
256
6
ByLayer
370
18
48
1
60
0
100
AcDbEllipse
10
11.030226
20
-6.585772
30
0
11
0.668830342929627
21
0.602217545723003
31
0
210
0
220
0
230
1
40
0.989133
41
2.46667876680684
42
2.65366281700384
0
ELLIPSE
5
125
100
AcDbEntity
8
1
62
256
6
ByLayer
370
18
48
1
60
0
100
AcDbEllipse
10
11.034486
20
-6.590503
30
0
11
0.687408963566561
21
0.618945810881976
31
0
210
0
220
0
230
1
40
0.989133
41
1.36642820992536
42
1.65951827150168
0
ELLIPSE
5
126
100
AcDbEntity
8
1
62
256
6
ByLayer
370
18
48
1
60
0
100
AcDbEllipse
10
1.728664
20
-4.540608
30
0
11
-0.552805684032063
21
-1.17214527343969
31
0
210
0
220
0
230
1
40
0.483183
41
-0.93801280470388
42
0.632783522090793
0
ELLIPSE
5
127
100
AcDbEntity
8
1
62
256
6
ByLayer
370
18
48
1
60
0
100
AcDbEllipse
10
18.149744
20
-7.5486
30
0
11
1.76049377056318
21
1.58515571097639
31
0
210
0
220
0
230
1
40
0.989133
41
-0.793043033483983
42
0.777753293310928
0
ELLIPSE
5
128
100
AcDbEntity
8
1
62
256
6
ByLayer
370
18
48
1
60
0
100
AcDbEllipse
10
13.129973
20
-14.970904
30
0
11
-1.56973692380095
21
-1.98552100718418
31
0
210
0
220
0
230
1
40
0.482826
41
-1.39634722269654
42
-1.05401673773912
0
ELLIPSE
5
129
100
AcDbEntity
8
1
62
256
6
ByLayer
370
18
48
1
60
0
100
AcDbEllipse
10
10.480879
20
-18.407695
30
0
11
-0.590056991429039
21
-0.531289701448947
31
0
210
0
220
0
230
1
40
0.989133
41
-1.31446014751729
42
0.77993495487589
0
ELLIPSE
5
12A
100
AcDbEntity
8
1
62
256
6
ByLayer
370
18
48
1
60
0
100
AcDbEllipse
10
18.056409
20
-6.947475
30
0
11
-0.590056991429039
21
-0.531289701448947
31
0
210
0
220
0
230
1
40
0.989133
41
2.87433005726912
42
-1.31446014751729
0
ELLIPSE
5
12B
100
AcDbEntity
8
1
62
256
6
ByLayer
370
18
48
1
60
0
100
AcDbEllipse
10
24.13412
20
-19.123231
30
0
11
-0.590056991429039
21
-0.531289701448947
31
0
210
0
220
0
230
1
40
0.989133
41
0.779934954875889
42
2.87433005726913
0
POINT
5
6C
100
AcDbEntity
8
2
62
256
6
ByLayer
370
18
48
1
60
0
100
AcDbPoint
10
24.924434
20
44.7875
30
0
39
0
210
0
220
0
230
1
50
360
0
POINT
5
6E
100
AcDbEntity
8
80
62
256
6
ByLayer
370
18
48
1
60
0
100
AcDbPoint
10
0
20
0
30
0
39
0
210
0
220
0
230
1
50
360
0
POINT
5
70
100
AcDbEntity
8
81
62
256
6
ByLayer
370
18
48
1
60
0
100
AcDbPoint
10
24.924434
20
-19.9125
30
0
39
0
210
0
220
0
230
1
50
360
0
SPLINE
5
12C
100
AcDbEntity
8
1
62
256
6
ByLayer
370
18
48
1
60
0
100
AcDbSpline
70
4
71
3
72
10
73
6
40
0
40
0
40
0
40
0
40
0.690921703394062
40
0.690921703394062
40
1
40
1
40
1
40
1
41
1
10
11.8674440230243
20
1.15558911836609
30
0
41
1
10
11.6871733194427
20
1.36736241105302
30
0
41
1
10
11.47107562642
20
1.58382720366697
30
0
41
1
10
11.0972281888988
20
1.86234233942477
30
0
41
1
10
10.9722410497248
20
1.94416744097276
30
0
41
1
10
10.8390301429216
20
2.01764458621619
30
0
0
SPLINE
5
12D
100
AcDbEntity
8
1
62
256
6
ByLayer
370
18
48
1
60
0
100
AcDbSpline
70
4
71
2
72
6
73
3
40
0
40
0
40
0
40
1
40
1
40
1
41
1.02990374504916
10
7.98895703227061
20
-10.4975932846866
30
0
41
1.02990374504916
10
7.59185971142361
20
-10.6075976341114
30
0
41
1.02990374504916
10
7.19476239057666
20
-10.7176019835361
30
0
0
SPLINE
5
12E
100
AcDbEntity
8
1
62
256
6
ByLayer
370
18
48
1
60
0
100
AcDbSpline
70
4
71
2
72
6
73
3
40
0
40
0
40
0
40
1
40
1
40
1
41
1
10
14.3136953821315
20
-15.9666012853362
30
0
41
1
10
13.9611333901396
20
-15.8446211595722
30
0
41
1
10
13.6139535549945
20
-15.7062126304517
30
0
0
SPLINE
5
12F
100
AcDbEntity
8
1
62
256
6
ByLayer
370
18
48
1
60
0
100
AcDbSpline
70
4
71
3
72
12
73
8
40
0
40
0
40
0
40
0
40
0.36965908387578
40
0.36965908387578
40
0.727704501586106
40
0.727704501586106
40
1
40
1
40
1
40
1
41
1
10
4.08398535376784
20
-5.61478153071965
30
0
41
1
10
4.31173380401538
20
-5.66262962003051
30
0
41
1
10
4.61826275370208
20
-5.68923892035829
30
0
41
1
10
5.31206282712606
20
-5.70523680262775
30
0
41
1
10
5.70470184085673
20
-5.69610897919318
30
0
41
1
10
6.43537607208344
20
-5.65716957889535
30
0
41
1
10
6.76877264555287
20
-5.63257774891895
30
0
41
1
10
7.10777709621999
20
-5.60212119065096
30
0
0
SPLINE
5
130
100
AcDbEntity
8
1
62
256
6
ByLayer
370
18
48
1
60
0
100
AcDbSpline
70
4
71
3
72
8
73
4
40
0
40
0
40
0
40
0
40
1
40
1
40
1
40
1
41
1
10
19.2757627537599
20
-11.1657528475114
30
0
41
1
10
19.2437032844465
20
-11.1151500534893
30
0
41
1
10
19.2110248531545
20
-11.0649774629188
30
0
41
1
10
19.1777137737498
20
-11.0152672889725
30
0
0
SPLINE
5
131
100
AcDbEntity
8
1
62
256
6
ByLayer
370
18
48
1
60
0
100
AcDbSpline
70
4
71
3
72
10
73
6
40
0
40
0
40
0
40
0
40
0.106616270583435
40
0.106616270583435
40
1
40
1
40
1
40
1
41
1
10
16.376104283507
20
-13.2965779043885
30
0
41
1
10
16.364364756557
20
-13.25991767132
30
0
41
1
10
16.352794256763
20
-13.2230635510915
30
0
41
1
10
16.2459923129584
20
-12.8760108696739
30
0
41
1
10
16.1624590888033
20
-12.5521244104344
30
0
41
1
10
16.0914880301281
20
-12.2176340908625
30
0
0
SPLINE
5
132
100
AcDbEntity
8
1
62
256
6
ByLayer
370
18
48
1
60
0
100
AcDbSpline
70
4
71
3
72
8
73
4
40
0
40
0
40
0
40
0
40
1
40
1
40
1
40
1
41
1
10
14.3201924780911
20
-15.9658964288171
30
0
41
1
10
13.6863807658422
20
-14.9693023306051
30
0
41
1
10
14.2267904392087
20
-13.8762350566131
30
0
41
1
10
13.7805924492384
20
-12.8436267501334
30
0
0
SPLINE
5
133
100
AcDbEntity
8
1
62
256
6
ByLayer
370
18
48
1
60
0
100
AcDbSpline
70
4
71
3
72
15
73
11
40
0
40
0
40
0
40
0
40
0.225043240787981
40
0.225043240787981
40
0.520482827227109
40
0.520482827227109
40
0.820975208236873
40
0.820975208236873
40
0.820975208236873
40
1
40
1
40
1
40
1
41
1
10
14.2082663825839
20
-9.27032729597173
30
0
41
1
10
14.3830898994527
20
-9.04695676225202
30
0
41
1
10
14.5249794413135
20
-8.79221080906117
30
0
41
1
10
14.7618153782078
20
-8.18142033920594
30
0
41
1
10
14.8341554830392
20
-7.80849111620896
30
0
41
1
10
14.864198528713
20
-7.06159214906111
30
0
41
1
10
14.8204824761233
20
-6.6762557144078
30
0
41
1
10
14.720932647383
20
-6.31103481123176
30
0
41
1
10
14.661137393154
20
-6.09166249254949
30
0
41
1
10
14.5804683754684
20
-5.87676702553009
30
0
41
1
10
14.4807115312012
20
-5.67394058283341
30
0
0
SPLINE
5
134
100
AcDbEntity
8
1
62
256
6
ByLayer
370
18
48
1
60
0
100
AcDbSpline
70
4
71
2
72
8
73
5
40
0
40
0
40
0
40
0.145991510278034
40
0.563470207586077
40
1
40
1
40
1
41
1.02393576174182
10
14.2082663823112
20
-9.27032729555892
30
0
41
1.02323174907608
10
14.3542998382543
20
-9.49138284968675
30
0
41
1.02039724512338
10
14.9093751936816
20
-10.3430509040988
30
0
41
1.01644464721285
10
15.6610948927047
20
-11.6214390327748
30
0
41
1.01495409538129
10
16.0914880301697
20
-12.2176340909201
30
0
0
SPLINE
5
135
100
AcDbEntity
8
1
62
256
6
ByLayer
370
18
48
1
60
0
100
AcDbSpline
70
4
71
3
72
16
73
12
40
0
40
0
40
0
40
0
40
0.346164403850465
40
0.346164403850465
40
0.57405813868187
40
0.57405813868187
40
0.756733946461153
40
0.756733946461153
40
0.941193093213319
40
0.941193093213319
40
1
40
1
40
1
40
1
41
1
10
11.7739174556679
20
1.13601566300198
30
0
41
1
10
11.5473915801298
20
1.26769609801434
30
0
41
1
10
11.3337239621313
20
1.31254456338436
30
0
41
1
10
10.9183323933182
20
1.32278171138736
30
0
41
1
10
10.731009838912
20
1.30774590370268
30
0
41
1
10
10.3501773475942
20
1.23140524579142
30
0
41
1
10
10.1621829132324
20
1.17810348348863
30
0
41
1
10
9.77730742205688
20
1.02645049683952
30
0
41
1
10
9.57455047536615
20
0.924498191353138
30
0
41
1
10
9.32228991611282
20
0.767301789736649
30
0
41
1
10
9.26119288990026
20
0.726823867392483
30
0
41
1
10
9.20170702919239
20
0.685320342316089
30
0
0
SPLINE
5
136
100
AcDbEntity
8
1
62
256
6
ByLayer
370
18
48
1
60
0
100
AcDbSpline
70
4
71
3
72
8
73
4
40
0
40
0
40
0
40
0
40
1
40
1
40
1
40
1
41
1
10
14.4807115672932
20
-5.67394054732065
30
0
41
1
10
14.9851934885386
20
-5.17755381538291
30
0
41
1
10
15.3380041402565
20
-4.75862032082102
30
0
41
1
10
15.4700167678629
20
-4.49922237244465
30
0
0
SPLINE
5
137
100
AcDbEntity
8
1
62
256
6
ByLayer
370
18
48
1
60
0
100
AcDbSpline
70
4
71
3
72
8
73
4
40
0
40
0
40
0
40
0
40
1
40
1
40
1
40
1
41
1
10
7.9889570322706
20
-10.4975932846866
30
0
41
1
10
8.28155071162945
20
-10.4165386523486
30
0
41
1
10
8.7766389176607
20
-10.1556203606833
30
0
41
1
10
9.37721822292929
20
-9.76596054967246
30
0
0
SPLINE
5
138
100
AcDbEntity
8
1
62
256
6
ByLayer
370
18
48
1
60
0
100
AcDbSpline
70
4
71
3
72
8
73
4
40
0
40
0
40
0
40
0
40
1
40
1
40
1
40
1
41
1
10
14.4807115312012
20
-5.67394058283341
30
0
41
1
10
14.3713778499995
20
-5.45578887114405
30
0
41
1
10
14.2380112487191
20
-5.24448477337958
30
0
41
1
10
14.0845386101055
20
-5.05258120392219
30
0
0
SPLINE
5
139
100
AcDbEntity
8
1
62
256
6
ByLayer
370
18
48
1
60
0
100
AcDbSpline
70
4
71
3
72
12
73
8
40
0
40
0
40
0
40
0
40
0.307573270173418
40
0.307573270173418
40
0.648852820657669
40
0.648852820657669
40
1
40
1
40
1
40
1
41
1
10
12.9481782054429
20
-10.280675633741
30
0
41
1
10
13.0985290214314
20
-10.2090091445272
30
0
41
1
10
13.2444086712884
20
-10.1261940168344
30
0
41
1
10
13.537599432879
20
-9.93103033245163
30
0
41
1
10
13.6843244538284
20
-9.81577021776749
30
0
41
1
10
13.9608348469403
20
-9.56107192984513
30
0
41
1
10
14.0910027565014
20
-9.42011482166896
30
0
41
1
10
14.2082663825839
20
-9.27032729597173
30
0
0
SPLINE
5
13A
100
AcDbEntity
8
1
62
256
6
ByLayer
370
18
48
1
60
0
100
AcDbSpline
70
4
71
3
72
8
73
4
40
0
40
0
40
0
40
0
40
1
40
1
40
1
40
1
41
1
10
6.43440696712924
20
-4.3702346686201
30
0
41
1
10
5.62244827320194
20
-3.99225200332091
30
0
41
1
10
4.90637119652257
20
-3.62862193403254
30
0
41
1
10
4.44155618296281
20
-3.3248557501127
30
0
0
SPLINE
5
13B
100
AcDbEntity
8
1
62
256
6
ByLayer
370
18
48
1
60
0
100
AcDbSpline
70
4
71
3
72
10
73
6
40
0
40
0
40
0
40
0
40
0.759976532001902
40
0.759976532001902
40
1
40
1
40
1
40
1
41
1
10
15.3941486495692
20
-12.7767661395485
30
0
41
1
10
15.65662986454
20
-12.8993162795702
30
0
41
1
10
15.9094609880436
20
-13.029151746152
30
0
41
1
10
16.2269945806438
20
-13.2084958590679
30
0
41
1
10
16.3021304581565
20
-13.2522222090565
30
0
41
1
10
16.376104283507
20
-13.2965779043885
30
0
0
SPLINE
5
13C
100
AcDbEntity
8
1
62
256
6
ByLayer
370
18
48
1
60
0
100
AcDbSpline
70
4
71
3
72
8
73
4
40
0
40
0
40
0
40
0
40
1
40
1
40
1
40
1
41
1
10
13.4918548344858
20
-15.5742324727589
30
0
41
1
10
13.5325084771312
20
-15.6180553233462
30
0
41
1
10
13.5737513628035
20
-15.6613608688848
30
0
41
1
10
13.6155492480781
20
-15.704155326513
30
0
0
SPLINE
5
13D
100
AcDbEntity
8
1
62
256
6
ByLayer
370
18
48
1
60
0
100
AcDbSpline
70
4
71
3
72
10
73
6
40
0
40
0
40
0
40
0
40
0.560518156563273
40
0.560518156563273
40
1
40
1
40
1
40
1
41
1
10
18.3806092261776
20
-9.21947322660762
30
0
41
1
10
18.4921056972018
20
-9.6016347288132
30
0
41
1
10
18.6277566657147
20
-9.97535421776291
30
0
41
1
10
18.9038256388245
20
-10.5689990408686
30
0
41
1
10
19.0395885725425
20
-10.8091428432593
30
0
41
1
10
19.1777137737499
20
-11.0152672889725
30
0
0
SPLINE
5
13E
100
AcDbEntity
8
1
62
256
6
ByLayer
370
18
48
1
60
0
100
AcDbSpline
70
4
71
2
72
8
73
5
40
0
40
0
40
0
40
0.58160376004415
40
0.872405640066225
40
1
40
1
40
1
41
1.02990374504916
10
7.98895703227061
20
-10.4975932846866
30
0
41
1.02669755169729
10
9.54602263172253
20
-11.34746177585
30
0
41
1.02039724512338
10
12.1160968425733
20
-12.3345055783595
30
0
41
1.01761724169577
10
13.4325495915486
20
-12.700517594062
30
0
41
1.01686274329252
10
13.7805924492382
20
-12.8436267501334
30
0
0
SPLINE
5
13F
100
AcDbEntity
8
1
62
256
6
ByLayer
370
18
48
1
60
0
100
AcDbSpline
70
4
71
3
72
8
73
4
40
0
40
0
40
0
40
0
40
1
40
1
40
1
40
1
41
1
10
7.19476239057667
20
-10.7176019835361
30
0
41
1
10
8.57168468372663
20
-12.192136266578
30
0
41
1
10
10.1564574024733
20
-13.4201020787396
30
0
41
1
10
11.9231776046217
20
-14.3970912881569
30
0
0
SPLINE
5
140
100
AcDbEntity
8
1
62
256
6
ByLayer
370
18
48
1
60
0
100
AcDbSpline
70
4
71
3
72
8
73
4
40
0
40
0
40
0
40
0
40
1
40
1
40
1
40
1
41
1
10
9.86707676291542
20
-1.61789377279584
30
0
41
1
10
9.89492149470152
20
-1.65238623773118
30
0
41
1
10
9.92300502634816
20
-1.68718973427059
30
0
41
1
10
9.95128836408912
20
-1.72225609390375
30
0
0
SPLINE
5
141
100
AcDbEntity
8
1
62
256
6
ByLayer
370
18
48
1
60
0
100
AcDbSpline
70
4
71
3
72
24
73
20
40
0
40
0
40
0
40
0
40
0.142613444608223
40
0.142613444608223
40
0.190795218269491
40
0.190795218269491
40
0.226951176162323
40
0.226951176162323
40
0.263437466712852
40
0.263437466712852
40
0.296119365572354
40
0.296119365572354
40
0.352324850832281
40
0.352324850832281
40
0.455294648588096
40
0.455294648588096
40
0.662705158043603
40
0.662705158043603
40
1
40
1
40
1
40
1
41
1
10
13.7805924492384
20
-12.8436267501334
30
0
41
1
10
13.7240669509073
20
-12.7824473720337
30
0
41
1
10
13.6710291880788
20
-12.7182978476975
30
0
41
1
10
13.6401023229033
20
-12.627699237846
30
0
41
1
10
13.6361062843278
20
-12.6039316408749
30
0
41
1
10
13.6418531655497
20
-12.5632732534662
30
0
41
1
10
13.6486619283236
20
-12.5458263196373
30
0
41
1
10
13.672760805438
20
-12.5139031228008
30
0
41
1
10
13.6905655035539
20
-12.4990886989859
30
0
41
1
10
13.731499587354
20
-12.475867300714
30
0
41
1
10
13.7542258602483
20
-12.466641032172
30
0
41
1
10
13.8195087548692
20
-12.4465500918832
30
0
41
1
10
13.8655853838798
20
-12.438680282147
30
0
41
1
10
13.9964395180978
20
-12.425407450007
30
0
41
1
10
14.0846696598155
20
-12.4266650818806
30
0
41
1
10
14.3427116976999
20
-12.4447589946214
30
0
41
1
10
14.5122063928073
20
-12.4764193143956
30
0
41
1
10
14.9314723354671
20
-12.582339094374
30
0
41
1
10
15.1733806159233
20
-12.6737709947318
30
0
41
1
10
15.3941486495692
20
-12.7767661395485
30
0
0
SPLINE
5
142
100
AcDbEntity
8
1
62
256
6
ByLayer
370
18
48
1
60
0
100
AcDbSpline
70
4
71
1
72
4
73
2
40
0
40
0
40
1
40
1
41
1
10
15.4700167678629
20
-4.49922237244468
30
0
41
1
10
15.8283420885291
20
-3.79513175083179
30
0
0
SPLINE
5
143
100
AcDbEntity
8
1
62
256
6
ByLayer
370
18
48
1
60
0
100
AcDbSpline
70
4
71
2
72
6
73
3
40
0
40
0
40
0
40
1
40
1
40
1
41
1
10
19.2781165199495
20
-11.1646434448047
30
0
41
1
10
19.3371121005722
20
-11.5341203141986
30
0
41
1
10
19.3789207776414
20
-11.9052648254413
30
0
0
SPLINE
5
144
100
AcDbEntity
8
1
62
256
6
ByLayer
370
18
48
1
60
0
100
AcDbSpline
70
4
71
3
72
12
73
8
40
0
40
0
40
0
40
0
40
0.501637567130164
40
0.501637567130164
40
0.88695747130445
40
0.88695747130445
40
1
40
1
40
1
40
1
41
1
10
9.95128836408912
20
-1.72225609390375
30
0
41
1
10
10.0801862899787
20
-1.88206683005518
30
0
41
1
10
10.2285373918074
20
-2.03986933510828
30
0
41
1
10
10.5186737434652
20
-2.28932296599092
30
0
41
1
10
10.6570515349236
20
-2.38992709489122
30
0
41
1
10
10.8400665911637
20
-2.49708632219424
30
0
41
1
10
10.8824089473584
20
-2.52020220671824
30
0
41
1
10
10.9247520209244
20
-2.54164150323808
30
0
0
SPLINE
5
145
100
AcDbEntity
8
1
62
256
6
ByLayer
370
18
48
1
60
0
100
AcDbSpline
70
4
71
3
72
12
73
8
40
0
40
0
40
0
40
0
40
0.41535644474115
40
0.41535644474115
40
0.825259843212197
40
0.825259843212197
40
1
40
1
40
1
40
1
41
1
10
7.10777709622005
20
-5.60212119065116
30
0
41
1
10
7.06609216657245
20
-5.43538041274599
30
0
41
1
10
7.00135169098797
20
-5.26293612288552
30
0
41
1
10
6.84458880238168
20
-4.94243438756703
30
0
41
1
10
6.75129617447931
20
-4.7895880578973
30
0
41
1
10
6.60840303925562
20
-4.58916577648148
30
0
41
1
10
6.56399683801635
20
-4.53085805551413
30
0
41
1
10
6.51861856830305
20
-4.47459698972796
30
0
0
SPLINE
5
146
100
AcDbEntity
8
1
62
256
6
ByLayer
370
18
48
1
60
0
100
AcDbSpline
70
4
71
3
72
11
73
7
40
0
40
0
40
0
40
0
40
0.717036925638434
40
0.717036925638434
40
0.717036925638434
40
1
40
1
40
1
40
1
41
1
10
3.27471836577934
20
-5.86821816225145
30
0
41
1
10
3.08169866120909
20
-5.63141836443774
30
0
41
1
10
2.88836676843312
20
-5.34853403962174
30
0
41
1
10
2.73729844448985
20
-5.01994258355259
30
0
41
1
10
2.67709226973506
20
-4.88898703899733
30
0
41
1
10
2.62334618681155
20
-4.75004031368564
30
0
41
1
10
2.57963866139198
20
-4.6047986727138
30
0
0
SPLINE
5
147
100
AcDbEntity
8
1
62
256
6
ByLayer
370
18
48
1
60
0
100
AcDbSpline
70
4
71
3
72
8
73
4
40
0
40
0
40
0
40
0
40
1
40
1
40
1
40
1
41
1
10
18.3806092261776
20
-9.21947322660759
30
0
41
1
10
17.818057453792
20
-7.29128995382294
30
0
41
1
10
16.9603857573378
20
-5.45696377458748
30
0
41
1
10
15.8283420885291
20
-3.79513175083176
30
0
0
SPLINE
5
148
100
AcDbEntity
8
1
62
256
6
ByLayer
370
18
48
1
60
0
100
AcDbSpline
70
4
71
3
72
8
73
4
40
0
40
0
40
0
40
0
40
1
40
1
40
1
40
1
41
1
10
4.37263353574798
20
-3.18291644230982
30
0
41
1
10
4.34959995211375
20
-3.20138494583199
30
0
41
1
10
4.32748323435089
20
-3.22040008223172
30
0
41
1
10
4.30621437118106
20
-3.23992311232448
30
0
0
SPLINE
5
149
100
AcDbEntity
8
1
62
256
6
ByLayer
370
18
48
1
60
0
100
AcDbSpline
70
4
71
3
72
14
73
10
40
0
40
0
40
0
40
0
40
0.262932482489344
40
0.262932482489344
40
0.526305718382455
40
0.526305718382455
40
0.786105451116564
40
0.786105451116564
40
1
40
1
40
1
40
1
41
1
10
19.1025916933361
20
-14.1956847120044
30
0
41
1
10
19.1431695778941
20
-14.3139633813891
30
0
41
1
10
19.1711831915051
20
-14.4496475218942
30
0
41
1
10
19.1950202521797
20
-14.7362183346874
30
0
41
1
10
19.1910573726317
20
-14.8907986229562
30
0
41
1
10
19.1539120717027
20
-15.1941276561312
30
0
41
1
10
19.1208692436396
20
-15.3464915889553
30
0
41
1
10
19.0416675469038
20
-15.6099835752822
30
0
41
1
10
18.9984517825841
20
-15.7255031983596
30
0
41
1
10
18.9501871419285
20
-15.8346421640283
30
0
0
SPLINE
5
14A
100
AcDbEntity
8
1
62
256
6
ByLayer
370
18
48
1
60
0
100
AcDbSpline
70
4
71
3
72
25
73
21
40
0
40
0
40
0
40
0
40
0.442411593548776
40
0.442411593548776
40
0.442411593548776
40
0.583396916265379
40
0.583396916265379
40
0.651602530488664
40
0.651602530488664
40
0.706341521306467
40
0.706341521306467
40
0.74247528698776
40
0.74247528698776
40
0.778972968742963
40
0.778972968742963
40
0.811539464980218
40
0.811539464980218
40
0.868309796146716
40
0.868309796146716
40
1
40
1
40
1
40
1
41
1
10
16.0914880301281
20
-12.2176340908625
30
0
41
1
10
16.0254974703049
20
-11.9061745982405
30
0
41
1
10
15.9842435265778
20
-11.5604384566767
30
0
41
1
10
16.0022297323129
20
-11.2027137013194
30
0
41
1
10
16.008068560262
20
-11.0865861905786
30
0
41
1
10
16.0203504473998
20
-10.9675507967873
30
0
41
1
10
16.054924973328
20
-10.7948381050322
30
0
41
1
10
16.0690031557446
20
-10.7384166063832
30
0
41
1
10
16.1015400420784
20
-10.6420644037123
30
0
41
1
10
16.1189099949949
20
-10.600254953535
30
0
41
1
10
16.1533999567281
20
-10.5403766914932
30
0
41
1
10
16.1689495622925
20
-10.5187104721236
30
0
41
1
10
16.2023226932975
20
-10.4848444695903
30
0
41
1
10
16.2206280528687
20
-10.4724470420825
30
0
41
1
10
16.2548077356685
20
-10.459947903289
30
0
41
1
10
16.2710985339232
20
-10.4584068949042
30
0
41
1
10
16.3135601528408
20
-10.4633892732723
30
0
41
1
10
16.3389516233382
20
-10.4763143582647
30
0
41
1
10
16.4163036576367
20
-10.5330676871632
30
0
41
1
10
16.4623612696464
20
-10.5944746855596
30
0
41
1
10
16.5053527311632
20
-10.6588931165304
30
0
0
SPLINE
5
14B
100
AcDbEntity
8
1
62
256
6
ByLayer
370
18
48
1
60
0
100
AcDbSpline
70
4
71
3
72
10
73
6
40
0
40
0
40
0
40
0
40
0.679966690484319
40
0.679966690484319
40
1
40
1
40
1
40
1
41
1
10
7.18249095115175
20
-6.17284007255495
30
0
41
1
10
7.1810244108695
20
-6.04504088265676
30
0
41
1
10
7.16897809562687
20
-5.91476338908617
30
0
41
1
10
7.13592557971208
20
-5.7241148928745
30
0
41
1
10
7.12298315573992
20
-5.66294581515353
30
0
41
1
10
7.10777709622005
20
-5.60212119065116
30
0
0
SPLINE
5
14C
100
AcDbEntity
8
1
62
256
6
ByLayer
370
18
48
1
60
0
100
AcDbSpline
70
4
71
3
72
12
73
8
40
0
40
0
40
0
40
0
40
0.391502209781616
40
0.391502209781616
40
0.886018843801028
40
0.886018843801028
40
1
40
1
40
1
40
1
41
1
10
9.25827604122395
20
0.537227071222276
30
0
41
1
10
9.33819402302464
20
0.338315089696806
30
0
41
1
10
9.41946032276246
20
0.0955490572761732
30
0
41
1
10
9.60072609057556
20
-0.516780793530785
30
0
41
1
10
9.70210325993975
20
-0.909910580566873
30
0
41
1
10
9.82219649097812
20
-1.42091929052515
30
0
41
1
10
9.8447284627299
20
-1.51884607146448
30
0
41
1
10
9.86707676291621
20
-1.61789377279555
30
0
0
SPLINE
5
14D
100
AcDbEntity
8
1
62
256
6
ByLayer
370
18
48
1
60
0
100
AcDbSpline
70
4
71
3
72
8
73
4
40
0
40
0
40
0
40
0
40
1
40
1
40
1
40
1
41
1
10
10.9247520209244
20
-2.54164150323808
30
0
41
1
10
11.3032609953918
20
-1.3452576836838
30
0
41
1
10
11.5723356236996
20
-0.245688183757522
30
0
41
1
10
11.5650450893602
20
0.383589381522285
30
0
0
SPLINE
5
14E
100
AcDbEntity
8
1
62
256
6
ByLayer
370
18
48
1
60
0
100
AcDbSpline
70
4
71
3
72
16
73
12
40
0
40
0
40
0
40
0
40
0.151798394921707
40
0.151798394921707
40
0.302355402833638
40
0.302355402833638
40
0.469907609657963
40
0.469907609657963
40
0.750934341340612
40
0.750934341340612
40
1
40
1
40
1
40
1
41
1
10
4.306214371181
20
-3.23992311232448
30
0
41
1
10
4.17051141423326
20
-3.36448702958771
30
0
41
1
10
4.03842669204664
20
-3.50240543670029
30
0
41
1
10
3.80883946054871
20
-3.78214217434075
30
0
41
1
10
3.70755794765648
20
-3.92750423166106
30
0
41
1
10
3.52990876977157
20
-4.22468716634705
30
0
41
1
10
3.45532653420685
20
-4.37846341967341
30
0
41
1
10
3.30304669264569
20
-4.75648286475649
30
0
41
1
10
3.2512026969622
20
-4.96281567211062
30
0
41
1
10
3.21584337240012
20
-5.32587000442035
30
0
41
1
10
3.22493494350181
20
-5.49280275276746
30
0
41
1
10
3.2789246466956
20
-5.67533454218574
30
0
0
SPLINE
5
14F
100
AcDbEntity
8
1
62
256
6
ByLayer
370
18
48
1
60
0
100
AcDbSpline
70
4
71
3
72
10
73
6
40
0
40
0
40
0
40
0
40
0.207845795367676
40
0.207845795367676
40
1
40
1
40
1
40
1
41
1
10
10.9247520209244
20
-2.54164150323808
30
0
41
1
10
10.9611364605067
20
-2.56006380287812
30
0
41
1
10
10.9978608697835
20
-2.57758096633447
30
0
41
1
10
11.1745373223646
20
-2.65675382354229
30
0
41
1
10
11.3188727594536
20
-2.70612606470817
30
0
41
1
10
11.4628852133274
20
-2.74078721605829
30
0
0
SPLINE
5
150
100
AcDbEntity
8
1
62
256
6
ByLayer
370
18
48
1
60
0
100
AcDbSpline
70
4
71
3
72
8
73
4
40
0
40
0
40
0
40
0
40
1
40
1
40
1
40
1
41
1
10
13.0631296894637
20
-3.77540229100654
30
0
41
1
10
12.6374442172889
20
-3.24312134298566
30
0
41
1
10
12.0761587079606
20
-2.88839087702456
30
0
41
1
10
11.4628852133274
20
-2.74078721605829
30
0
0
SPLINE
5
151
100
AcDbEntity
8
1
62
256
6
ByLayer
370
18
48
1
60
0
100
AcDbSpline
70
4
71
3
72
8
73
4
40
0
40
0
40
0
40
0
40
1
40
1
40
1
40
1
41
1
10
6.51861856830305
20
-4.47459698972796
30
0
41
1
10
6.4903352305621
20
-4.43953063009482
30
0
41
1
10
6.46225169891505
20
-4.40472713355499
30
0
41
1
10
6.43440696712889
20
-4.37023466861964
30
0
0
SPLINE
5
152
100
AcDbEntity
8
1
62
256
6
ByLayer
370
18
48
1
60
0
100
AcDbSpline
70
4
71
3
72
8
73
4
40
0
40
0
40
0
40
0
40
1
40
1
40
1
40
1
41
1
10
9.3772182082605
20
-9.76596053772064
30
0
41
1
10
9.18474603021178
20
-9.6091387267243
30
0
41
1
10
9.01092523018372
20
-9.43546666447665
30
0
41
1
10
8.85751869379487
20
-9.24364574983636
30
0
0
SPLINE
5
153
100
AcDbEntity
8
1
62
256
6
ByLayer
370
18
48
1
60
0
100
AcDbSpline
70
4
71
3
72
11
73
7
40
0
40
0
40
0
40
0
40
0.55992619571858
40
0.55992619571858
40
0.55992619571858
40
1
40
1
40
1
40
1
41
1
10
13.4918548344858
20
-15.5742324727589
30
0
41
1
10
13.2783037602922
20
-15.3440337449648
30
0
41
1
10
13.0081668285538
20
-15.1060595248259
30
0
41
1
10
12.7040871363238
20
-14.8873595642961
30
0
41
1
10
12.4633712310252
20
-14.7142320574848
30
0
41
1
10
12.1980051635356
20
-14.5490698296276
30
0
41
1
10
11.9231776046217
20
-14.3970912881569
30
0
0
SPLINE
5
154
100
AcDbEntity
8
1
62
256
6
ByLayer
370
18
48
1
60
0
100
AcDbSpline
70
4
71
3
72
8
73
4
40
0
40
0
40
0
40
0
40
1
40
1
40
1
40
1
41
1
10
7.18249095115175
20
-6.17284007255495
30
0
41
1
10
7.18971411503424
20
-6.80229055808022
30
0
41
1
10
7.4158867537364
20
-7.44101618902212
30
0
41
1
10
7.836109773153
20
-7.96646683692072
30
0
0
SPLINE
5
155
100
AcDbEntity
8
1
62
256
6
ByLayer
370
18
48
1
60
0
100
AcDbSpline
70
4
71
3
72
8
73
4
40
0
40
0
40
0
40
0
40
1
40
1
40
1
40
1
41
1
10
9.13156211626966
20
0.632828890537468
30
0
41
1
10
9.15459569990389
20
0.65129739405964
30
0
41
1
10
9.17798553792858
20
0.668769762131177
30
0
41
1
10
9.20170702919233
20
0.685320342316089
30
0
0
SPLINE
5
156
100
AcDbEntity
8
1
62
256
6
ByLayer
370
18
48
1
60
0
100
AcDbSpline
70
4
71
2
72
8
73
5
40
0
40
0
40
0
40
0.581603760070721
40
0.872405640106082
40
1
40
1
40
1
41
1.02990374504916
10
15.4700167678629
20
-4.49922237244467
30
0
41
1.02669755169729
10
15.9643300253799
20
-6.20121381997888
30
0
41
1.02039724512338
10
16.3706028447047
20
-8.92321012721013
30
0
41
1.01761724169608
10
16.442023434181
20
-10.2874984501591
30
0
41
1.01686274329306
10
16.5053527311632
20
-10.6588931165302
30
0
0
SPLINE
5
157
100
AcDbEntity
8
1
62
256
6
ByLayer
370
18
48
1
60
0
100
AcDbSpline
70
4
71
3
72
16
73
12
40
0
40
0
40
0
40
0
40
0.283825424659826
40
0.283825424659826
40
0.572792249827487
40
0.572792249827487
40
0.572792249827487
40
0.894188232602851
40
0.894188232602851
40
0.894188232602851
40
1
40
1
40
1
40
1
41
1
10
9.37721822292929
20
-9.76596054967246
30
0
41
1
10
9.65418708214963
20
-9.98904979663669
30
0
41
1
10
9.97252937724107
20
-10.1724953864076
30
0
41
1
10
10.6440252729135
20
-10.4394980117362
30
0
41
1
10
11.0060930326013
20
-10.5253241624513
30
0
41
1
10
11.3684152420368
20
-10.5541801104433
30
0
41
1
10
11.7690437625457
20
-10.5860868372486
30
0
41
1
10
12.1850260226983
20
-10.547705233848
30
0
41
1
10
12.5703943406523
20
-10.4281320538595
30
0
41
1
10
12.6996242575647
20
-10.3880342269366
30
0
41
1
10
12.8264390318906
20
-10.3386853135254
30
0
41
1
10
12.9481782054429
20
-10.280675633741
30
0
0
SPLINE
5
158
100
AcDbEntity
8
1
62
256
6
ByLayer
370
18
48
1
60
0
100
AcDbSpline
70
4
71
2
72
8
73
5
40
0
40
0
40
0
40
0.145991510275432
40
0.563470207592135
40
1
40
1
40
1
41
1.02393576174177
10
12.9481782050754
20
-10.2806756333561
30
0
41
1.02323174907605
10
13.1310637376343
20
-10.4721829105891
30
0
41
1.02039724512338
10
13.83680477435
20
-11.2030460694265
30
0
41
1.01644464721292
10
14.9119282380153
20
-12.2221265862064
30
0
41
1.01495409538139
10
15.3941486495826
20
-12.7767661395638
30
0
0
SPLINE
5
159
100
AcDbEntity
8
1
62
256
6
ByLayer
370
18
48
1
60
0
100
AcDbSpline
70
4
71
3
72
14
73
10
40
0
40
0
40
0
40
0
40
0.304391776008978
40
0.304391776008978
40
0.577373879687163
40
0.577373879687163
40
0.851610378463924
40
0.851610378463924
40
1
40
1
40
1
40
1
41
1
10
18.23602799838
20
-16.4072604273196
30
0
41
1
10
18.0699335061427
20
-16.4408930781856
30
0
41
1
10
17.8928673457763
20
-16.4617240901813
30
0
41
1
10
17.5555620007273
20
-16.4678659620828
30
0
41
1
10
17.3916658756995
20
-16.4562595056028
30
0
41
1
10
17.0826184127738
20
-16.4016386444152
30
0
41
1
10
16.9334714059448
20
-16.3575992691573
30
0
41
1
10
16.7327030892822
20
-16.2700785672144
30
0
41
1
10
16.6664269514011
20
-16.2351128711838
30
0
41
1
10
16.6062415275618
20
-16.1972773673754
30
0
0
SPLINE
5
15A
100
AcDbEntity
8
1
62
256
6
ByLayer
370
18
48
1
60
0
100
AcDbSpline
70
4
71
3
72
8
73
4
40
0
40
0
40
0
40
0
40
1
40
1
40
1
40
1
41
1
10
16.5053527311632
20
-10.6588931165304
30
0
41
1
10
17.3966438333968
20
-11.3341318988933
30
0
41
1
10
18.5570169043596
20
-11.0578286689592
30
0
41
1
10
19.3768136320193
20
-11.9114589157692
30
0
0
SPLINE
5
15B
100
AcDbEntity
8
1
62
256
6
ByLayer
370
18
48
1
60
0
100
AcDbSpline
70
4
71
3
72
10
73
6
40
0
40
0
40
0
40
0
40
0.123732606265453
40
0.123732606265453
40
1
40
1
40
1
40
1
41
1
10
10.1601944204655
20
-6.80757485050955
30
0
41
1
10
10.160040654523
20
-6.81017801977626
30
0
41
1
10
10.1598660888554
20
-6.81275589332034
30
0
41
1
10
10.1583126724226
20
-6.83319917794509
30
0
41
1
10
10.1560078592519
20
-6.84988382241679
30
0
41
1
10
10.153132647517
20
-6.86538144084724
30
0
0
SPLINE
5
15C
100
AcDbEntity
8
1
62
256
6
ByLayer
370
18
48
1
60
0
100
AcDbSpline
70
4
71
3
72
8
73
4
40
0
40
0
40
0
40
0
40
1
40
1
40
1
40
1
41
1
10
11.4944566419034
20
-7.38190619689374
30
0
41
1
10
11.5002224865279
20
-7.36517286749387
30
0
41
1
10
11.5078752297072
20
-7.34785867473786
30
0
41
1
10
11.5182747642135
20
-7.33055223791317
30
0
0
SPLINE
5
15D
100
AcDbEntity
8
1
62
256
6
ByLayer
370
18
48
1
60
0
100
AcDbSpline
70
4
71
3
72
8
73
4
40
0
40
0
40
0
40
0
40
1
40
1
40
1
40
1
41
1
10
10.5745158635604
20
-5.79910026423846
30
0
41
1
10
10.5655837796141
20
-5.81231712862265
30
0
41
1
10
10.5549706488153
20
-5.82634347783966
30
0
41
1
10
10.5421779027142
20
-5.84099198391658
30
0
0
SPLINE
5
15E
100
AcDbEntity
8
1
62
256
6
ByLayer
370
18
48
1
60
0
100
AcDbSpline
70
4
71
3
72
8
73
4
40
0
40
0
40
0
40
0
40
1
40
1
40
1
40
1
41
1
10
11.6493720084502
20
-7.22543746483325
30
0
41
1
10
11.6686743961661
20
-7.21892867325553
30
0
41
1
10
11.687422547449
20
-7.21507442691376
30
0
41
1
10
11.7052061735605
20
-7.21292561056768
30
0
0
SPLINE
5
15F
100
AcDbEntity
8
1
62
256
6
ByLayer
370
18
48
1
60
0
100
AcDbSpline
70
4
71
3
72
10
73
6
40
0
40
0
40
0
40
0
40
0.516155291935602
40
0.516155291935602
40
1
40
1
40
1
40
1
41
1
10
10.1139734336996
20
-6.60016455789903
30
0
41
1
10
10.1179340803011
20
-6.60634315104556
30
0
41
1
10
10.1218236643349
20
-6.61303706256555
30
0
41
1
10
10.1291235034208
20
-6.62717565034527
30
0
41
1
10
10.1325631975521
20
-6.63457724164951
30
0
41
1
10
10.135835338966
20
-6.64259606166814
30
0
0
SPLINE
5
160
100
AcDbEntity
8
1
62
256
6
ByLayer
370
18
48
1
60
0
100
AcDbSpline
70
4
71
3
72
10
73
6
40
0
40
0
40
0
40
0
40
0.315026012182545
40
0.315026012182545
40
1
40
1
40
1
40
1
41
1
10
10.7793400954561
20
-7.44724020442652
30
0
41
1
10
10.7846828437602
20
-7.45135592615537
30
0
41
1
10
10.7898057572927
20
-7.45555048691045
30
0
41
1
10
10.8053326262699
20
-7.46895422123961
30
0
41
1
10
10.815000308825
20
-7.47835936573577
30
0
41
1
10
10.8238525683457
20
-7.48780382084882
30
0
0
SPLINE
5
161
100
AcDbEntity
8
1
62
256
6
ByLayer
370
18
48
1
60
0
100
AcDbSpline
70
4
71
3
72
10
73
6
40
0
40
0
40
0
40
0
40
0.315026012182482
40
0.315026012182482
40
1
40
1
40
1
40
1
41
1
10
11.2811125714704
20
-5.72430401740181
30
0
41
1
10
11.2765275334161
20
-5.72102981815908
30
0
41
1
10
11.272220060034
20
-5.71774089544013
30
0
41
1
10
11.259407702166
20
-5.70735193112043
30
0
41
1
10
11.2518025792979
20
-5.70023749122512
30
0
41
1
10
11.2451199371181
20
-5.69320264028337
30
0
0
SPLINE
5
162
100
AcDbEntity
8
1
62
256
6
ByLayer
370
18
48
1
60
0
100
AcDbSpline
70
4
71
3
72
10
73
6
40
0
40
0
40
0
40
0
40
0.123732606265392
40
0.123732606265392
40
1
40
1
40
1
40
1
41
1
10
11.9002582464622
20
-6.36396937132014
30
0
41
1
10
11.9007109941338
20
-6.36169825490344
30
0
41
1
10
11.9011934832476
20
-6.35946236499248
30
0
41
1
10
11.9052776482054
20
-6.34182976135136
30
0
41
1
10
11.9101907861807
20
-6.32804195505031
30
0
41
1
10
11.9158398579467
20
-6.31562502028498
30
0
0
SPLINE
5
163
100
AcDbEntity
8
1
62
256
6
ByLayer
370
18
48
1
60
0
100
AcDbSpline
70
4
71
3
72
10
73
6
40
0
40
0
40
0
40
0
40
0.629893813379519
40
0.629893813379519
40
1
40
1
40
1
40
1
41
1
10
10.5739438228547
20
-7.39156752421403
30
0
41
1
10
10.5834138098954
20
-7.38965592534939
30
0
41
1
10
10.59347952905
20
-7.38827644342848
30
0
41
1
10
10.6105210089311
20
-7.38727732669355
30
0
41
1
10
10.617079435179
20
-7.3871671483881
30
0
41
1
10
10.6238837697082
20
-7.38737618866983
30
0
0
SPLINE
5
164
100
AcDbEntity
8
1
62
256
6
ByLayer
370
18
48
1
60
0
100
AcDbSpline
70
4
71
3
72
10
73
6
40
0
40
0
40
0
40
0
40
0.629893813379444
40
0.629893813379444
40
1
40
1
40
1
40
1
41
1
10
11.4950286826061
20
-5.78943893691485
30
0
41
1
10
11.4835606252628
20
-5.78913145389598
30
0
41
1
10
11.4715887984703
20
-5.78839398881956
30
0
41
1
10
11.4517861745289
20
-5.78632654440582
30
0
41
1
10
11.4442608551051
20
-5.78536287904964
30
0
41
1
10
11.4365688972177
20
-5.78416803315778
30
0
0
SPLINE
5
165
100
AcDbEntity
8
1
62
256
6
ByLayer
370
18
48
1
60
0
100
AcDbSpline
70
4
71
3
72
8
73
4
40
0
40
0
40
0
40
0
40
1
40
1
40
1
40
1
41
1
10
10.4110806584775
20
-5.9461067569965
30
0
41
1
10
10.3941714823565
20
-5.95527347932199
30
0
41
1
10
10.378383718693
20
-5.96241556920276
30
0
41
1
10
10.3637663319033
20
-5.96808085056452
30
0
0
SPLINE
5
166
100
AcDbEntity
8
1
62
256
6
ByLayer
370
18
48
1
60
0
100
AcDbSpline
70
4
71
3
72
10
73
6
40
0
40
0
40
0
40
0
40
0.516155291935451
40
0.516155291935451
40
1
40
1
40
1
40
1
41
1
10
11.9549990717642
20
-6.58084190323319
30
0
41
1
10
11.9494007980189
20
-6.57284454088617
30
0
41
1
10
11.9439368076361
20
-6.56440207397145
30
0
41
1
10
11.9337849711172
20
-6.54709602215053
30
0
41
1
10
11.9290496551558
20
-6.53825549702725
30
0
41
1
10
11.9246173279596
20
-6.52894816015919
30
0
0
INSERT
5
179
100
AcDbEntity
8
SK2
62
256
6
ByLayer
370
25
48
1
60
0
100
AcDbBlockReference
2
DimnDraft3D11
10
0
20
0
30
0
41
1
42
1
43
1
50
0
210
0
220
0
230
1
0
LINE
5
72
100
AcDbEntity
8
1
62
256
6
ByLayer
370
18
48
1
60
0
100
AcDbLine
10
10.087473
20
-6.56624
30
0
11
9.954662
21
-6.418738
31
0
39
0
210
0
220
0
230
1
0
LINE
5
74
100
AcDbEntity
8
1
62
256
6
ByLayer
370
18
48
1
60
0
100
AcDbLine
10
10.828628
20
-7.492987
30
0
11
10.695817
21
-7.345485
31
0
39
0
210
0
220
0
230
1
0
LINE
5
75
100
AcDbEntity
8
1
62
256
6
ByLayer
370
18
48
1
60
0
100
AcDbLine
10
12.198539
20
0.767724
30
0
11
11.865178
21
1.158248
31
0
39
0
210
0
220
0
230
1
0
LINE
5
76
100
AcDbEntity
8
1
62
256
6
ByLayer
370
18
48
1
60
0
100
AcDbLine
10
18.646466
20
-6.416185
30
0
11
18.178183
21
-5.896105
31
0
39
0
210
0
220
0
230
1
0
LINE
5
77
100
AcDbEntity
8
1
62
256
6
ByLayer
370
18
48
1
60
0
100
AcDbLine
10
9.42254
20
-18.418905
30
0
11
9.890822
21
-18.938985
31
0
39
0
210
0
220
0
230
1
0
LINE
5
78
100
AcDbEntity
8
1
62
256
6
ByLayer
370
18
48
1
60
0
100
AcDbLine
10
9.244743
20
-17.670783
30
0
11
9.252693
21
-17.679612
31
0
39
0
210
0
220
0
230
1
0
LINE
5
79
100
AcDbEntity
8
1
62
256
6
ByLayer
370
18
48
1
60
0
100
AcDbLine
10
11.107533
20
-5.540518
30
0
11
11.240344
21
-5.688019
31
0
39
0
210
0
220
0
230
1
0
LINE
5
7A
100
AcDbEntity
8
1
62
256
6
ByLayer
370
18
48
1
60
0
100
AcDbLine
10
8.449828
20
-8.502274
30
0
11
8.613237
21
-8.683758
31
0
39
0
210
0
220
0
230
1
0
LINE
5
7B
100
AcDbEntity
8
1
62
256
6
ByLayer
370
18
48
1
60
0
100
AcDbLine
10
13.369364
20
-4.401322
30
0
11
13.205955
21
-4.219838
31
0
39
0
210
0
220
0
230
1
0
LINE
5
7C
100
AcDbEntity
8
1
62
256
6
ByLayer
370
18
48
1
60
0
100
AcDbLine
10
11.848689
20
-6.467265
30
0
11
11.9815
21
-6.614767
31
0
39
0
210
0
220
0
230
1
0
LINE
5
7D
100
AcDbEntity
8
1
62
256
6
ByLayer
370
18
48
1
60
0
100
AcDbLine
10
9.765065
20
-1.506426
30
0
11
10.017829
21
-1.802532
31
0
39
0
210
0
220
0
230
1
0
LINE
5
7E
100
AcDbEntity
8
80
62
256
6
ByLayer
370
18
48
1
60
0
100
AcDbLine
10
0
20
0
30
0
11
-5
21
0
31
0
39
0
210
0
220
0
230
1
0
LINE
5
7F
100
AcDbEntity
8
81
62
256
6
ByLayer
370
18
48
1
60
0
100
AcDbLine
10
24.924434
20
-19.9125
30
0
11
34.924434
21
-19.9125
31
0
39
0
210
0
220
0
230
1
0
LINE
5
80
100
AcDbEntity
8
1
62
256
6
ByLayer
370
18
48
1
60
0
100
AcDbLine
10
9.879751
20
-6.361701
30
0
11
10.005934
21
-6.501841
31
0
39
0
210
0
220
0
230
1
0
LINE
5
81
100
AcDbEntity
8
1
62
256
6
ByLayer
370
18
48
1
60
0
100
AcDbLine
10
13.205955
20
-4.219838
30
0
11
13.205886
21
-4.219762
31
0
39
0
210
0
220
0
230
1
0
LINE
5
82
100
AcDbEntity
8
1
62
256
6
ByLayer
370
18
48
1
60
0
100
AcDbLine
10
17.31622
20
-6.426264
30
0
11
17.398462
21
-6.517603
31
0
39
0
210
0
220
0
230
1
0
LINE
5
83
100
AcDbEntity
8
1
62
256
6
ByLayer
370
18
48
1
60
0
100
AcDbLine
10
9.822932
20
-17.977823
30
0
11
12.111689
21
-14.515404
31
0
39
0
210
0
220
0
230
1
0
LINE
5
84
100
AcDbEntity
8
1
62
256
6
ByLayer
370
18
48
1
60
0
100
AcDbLine
10
9.35465
20
-17.457743
30
0
11
9.464613
21
-17.291391
31
0
39
0
210
0
220
0
230
1
0
LINE
5
85
100
AcDbEntity
8
1
62
256
6
ByLayer
370
18
48
1
60
0
100
AcDbLine
10
11.985563
20
-14.436099
30
0
11
10.076884
21
-17.323538
31
0
39
0
210
0
220
0
230
1
0
LINE
5
86
100
AcDbEntity
8
1
62
256
6
ByLayer
370
18
48
1
60
0
100
AcDbLine
10
17.505722
20
3.636001
30
0
11
12.875191
21
-0.076793
31
0
39
0
210
0
220
0
230
1
0
LINE
5
87
100
AcDbEntity
8
1
62
256
6
ByLayer
370
18
48
1
60
0
100
AcDbLine
10
4.214618
20
-7.020907
30
0
11
3.790076
21
-7.361308
31
0
39
0
210
0
220
0
230
1
0
LINE
5
88
100
AcDbEntity
8
1
62
256
6
ByLayer
370
18
48
1
60
0
100
AcDbLine
10
15.233127
20
5.235448
30
0
11
11.049843
21
1.881258
31
0
39
0
210
0
220
0
230
1
0
LINE
5
89
100
AcDbEntity
8
1
62
256
6
ByLayer
370
18
48
1
60
0
100
AcDbLine
10
2.668596
20
-4.83889
30
0
11
1.813739
21
-5.52432
31
0
39
0
210
0
220
0
230
1
0
LINE
5
8A
100
AcDbEntity
8
1
62
256
6
ByLayer
370
18
48
1
60
0
100
AcDbLine
10
14.434486
20
5.79753
30
0
11
10.000672
21
2.242464
31
0
39
0
210
0
220
0
230
1
0
LINE
5
8B
100
AcDbEntity
8
1
62
256
6
ByLayer
370
18
48
1
60
0
100
AcDbLine
10
2.543746
20
-3.736556
30
0
11
0.945036
21
-5.018415
31
0
39
0
210
0
220
0
230
1
0
LINE
5
8C
100
AcDbEntity
8
1
62
256
6
ByLayer
370
18
48
1
60
0
100
AcDbLine
10
11.996663
20
-14.443172
30
0
11
11.91341
21
-14.569116
31
0
39
0
210
0
220
0
230
1
0
LINE
5
8D
100
AcDbEntity
8
1
62
256
6
ByLayer
370
18
48
1
60
0
100
AcDbLine
10
20.314462
20
-9.694687
30
0
11
20.388588
21
-9.409724
31
0
39
0
210
0
220
0
230
1
0
LINE
5
8E
100
AcDbEntity
8
1
62
256
6
ByLayer
370
18
48
1
60
0
100
AcDbLine
10
19.537572
20
-6.470158
30
0
11
19.440904
21
-7.944646
31
0
39
0
210
0
220
0
230
1
0
LINE
5
8F
100
AcDbEntity
8
1
62
256
6
ByLayer
370
18
48
1
60
0
100
AcDbLine
10
22.350054
20
-13.382915
30
0
11
22.215135
21
-13.502393
31
0
39
0
210
0
220
0
230
1
0
LINE
5
90
100
AcDbEntity
8
1
62
256
6
ByLayer
370
18
48
1
60
0
100
AcDbLine
10
15.208135
20
5.253038
30
0
11
11.023808
21
1.898012
31
0
39
0
210
0
220
0
230
1
0
LINE
5
91
100
AcDbEntity
8
1
62
256
6
ByLayer
370
18
48
1
60
0
100
AcDbLine
10
2.657702
20
-4.809996
30
0
11
1.617831
21
-5.643772
31
0
39
0
210
0
220
0
230
1
0
LINE
5
92
100
AcDbEntity
8
1
62
256
6
ByLayer
370
18
48
1
60
0
100
AcDbLine
10
19.373863
20
-6.445637
30
0
11
19.29478
21
-7.651892
31
0
39
0
210
0
220
0
230
1
0
LINE
5
93
100
AcDbEntity
8
1
62
256
6
ByLayer
370
18
48
1
60
0
100
AcDbLine
10
12.847465
20
-3.522756
30
0
11
13.863856
21
-4.794057
31
0
39
0
210
0
220
0
230
1
0
LINE
5
94
100
AcDbEntity
8
1
62
256
6
ByLayer
370
18
48
1
60
0
100
AcDbLine
10
16.376104
20
-13.296578
30
0
11
18.664409
21
-16.205733
31
0
39
0
210
0
220
0
230
1
0
LINE
5
95
100
AcDbEntity
8
1
62
256
6
ByLayer
370
18
48
1
60
0
100
AcDbLine
10
8.219335
20
1.701481
30
0
11
3.460407
21
-2.114265
31
0
39
0
210
0
220
0
230
1
0
LINE
5
96
100
AcDbEntity
8
1
62
256
6
ByLayer
370
18
48
1
60
0
100
AcDbLine
10
9.131562
20
0.632829
30
0
11
8.219335
21
1.701481
31
0
39
0
210
0
220
0
230
1
0
LINE
5
97
100
AcDbEntity
8
1
62
256
6
ByLayer
370
18
48
1
60
0
100
AcDbLine
10
4.322211
20
-7.15322
30
0
11
3.279913
21
-5.874591
31
0
39
0
210
0
220
0
230
1
0
LINE
5
98
100
AcDbEntity
8
1
62
256
6
ByLayer
370
18
48
1
60
0
100
AcDbLine
10
14.084539
20
-5.052581
30
0
11
13.06313
21
-3.775402
31
0
39
0
210
0
220
0
230
1
0
LINE
5
99
100
AcDbEntity
8
1
62
256
6
ByLayer
370
18
48
1
60
0
100
AcDbLine
10
11.565045
20
0.383589
30
0
11
15.470017
21
-4.499222
31
0
39
0
210
0
220
0
230
1
0
LINE
5
9A
100
AcDbEntity
8
1
62
256
6
ByLayer
370
18
48
1
60
0
100
AcDbLine
10
13.06313
20
-3.775402
30
0
11
12.847465
21
-3.522756
31
0
39
0
210
0
220
0
230
1
0
LINE
5
9B
100
AcDbEntity
8
1
62
256
6
ByLayer
370
18
48
1
60
0
100
AcDbLine
10
4.083985
20
-5.614782
30
0
11
7.988957
21
-10.497593
31
0
39
0
210
0
220
0
230
1
0
LINE
5
9C
100
AcDbEntity
8
1
62
256
6
ByLayer
370
18
48
1
60
0
100
AcDbLine
10
19.37826
20
-11.89941
30
0
11
19.102592
21
-14.195685
31
0
39
0
210
0
220
0
230
1
0
LINE
5
9D
100
AcDbEntity
8
1
62
256
6
ByLayer
370
18
48
1
60
0
100
AcDbLine
10
16.606242
20
-16.197277
30
0
11
14.308134
21
-15.964676
31
0
39
0
210
0
220
0
230
1
0
LINE
5
9E
100
AcDbEntity
8
1
62
256
6
ByLayer
370
18
48
1
60
0
100
AcDbLine
10
4.372634
20
-3.182916
30
0
11
3.460407
21
-2.114265
31
0
39
0
210
0
220
0
230
1
0
LINE
5
9F
100
AcDbEntity
8
1
62
256
6
ByLayer
370
18
48
1
60
0
100
AcDbLine
10
15.828342
20
-3.795132
30
0
11
12.998007
21
-0.256055
31
0
39
0
210
0
220
0
230
1
0
LINE
5
A0
100
AcDbEntity
8
1
62
256
6
ByLayer
370
18
48
1
60
0
100
AcDbLine
10
4.322211
20
-7.15322
30
0
11
4.364427
21
-7.178525
31
0
39
0
210
0
220
0
230
1
0
LINE
5
A1
100
AcDbEntity
8
1
62
256
6
ByLayer
370
18
48
1
60
0
100
AcDbLine
10
4.322211
20
-7.15322
30
0
11
3.588814
21
-6.236174
31
0
39
0
210
0
220
0
230
1
0
LINE
5
A2
100
AcDbEntity
8
1
62
256
6
ByLayer
370
18
48
1
60
0
100
AcDbLine
10
5.409853
20
-3.107268
30
0
11
8.842523
21
-0.354927
31
0
39
0
210
0
220
0
230
1
0
LINE
5
A3
100
AcDbEntity
8
1
62
256
6
ByLayer
370
18
48
1
60
0
100
AcDbLine
10
4.372634
20
-3.182916
30
0
11
9.131562
21
0.632829
31
0
39
0
210
0
220
0
230
1
0
LINE
5
A4
100
AcDbEntity
8
1
62
256
6
ByLayer
370
18
48
1
60
0
100
AcDbLine
10
7.194762
20
-10.717602
30
0
11
4.364427
21
-7.178525
31
0
39
0
210
0
220
0
230
1
0
LINE
5
A5
100
AcDbEntity
8
1
62
256
6
ByLayer
370
18
48
1
60
0
100
AcDbLine
10
3.588814
20
-6.236174
30
0
11
3.274718
21
-5.868218
31
0
39
0
210
0
220
0
230
1
0
LINE
5
A6
100
AcDbEntity
8
1
62
256
6
ByLayer
370
18
48
1
60
0
100
AcDbLine
10
9.705286
20
-1.434071
30
0
11
8.842523
21
-0.354927
31
0
39
0
210
0
220
0
230
1
0
LINE
5
A7
100
AcDbEntity
8
1
62
256
6
ByLayer
370
18
48
1
60
0
100
AcDbLine
10
12.981901
20
-0.209814
30
0
11
12.998007
21
-0.256055
31
0
39
0
210
0
220
0
230
1
0
LINE
5
A8
100
AcDbEntity
8
1
62
256
6
ByLayer
370
18
48
1
60
0
100
AcDbLine
10
7.83611
20
-7.966467
30
0
11
8.857519
21
-9.243646
31
0
39
0
210
0
220
0
230
1
0
LINE
5
A9
100
AcDbEntity
8
1
62
256
6
ByLayer
370
18
48
1
60
0
100
AcDbLine
10
12.248504
20
0.707231
30
0
11
12.981901
21
-0.209814
31
0
39
0
210
0
220
0
230
1
0
LINE
5
AA
100
AcDbEntity
8
1
62
256
6
ByLayer
370
18
48
1
60
0
100
AcDbLine
10
14.084539
20
-5.052581
30
0
11
13.863856
21
-4.794057
31
0
39
0
210
0
220
0
230
1
0
LINE
5
AB
100
AcDbEntity
8
1
62
256
6
ByLayer
370
18
48
1
60
0
100
AcDbLine
10
11.924617
20
-6.528948
30
0
11
11.796066
21
-6.386178
31
0
39
0
210
0
220
0
230
1
0
LINE
5
AC
100
AcDbEntity
8
1
62
256
6
ByLayer
370
18
48
1
60
0
100
AcDbLine
10
11.040104
20
-5.418645
30
0
11
11.172915
21
-5.566147
31
0
39
0
210
0
220
0
230
1
0
LINE
5
AD
100
AcDbEntity
8
1
62
256
6
ByLayer
370
18
48
1
60
0
100
AcDbLine
10
10.650789
20
-7.30447
30
0
11
10.77934
21
-7.44724
31
0
39
0
210
0
220
0
230
1
0
LINE
5
AE
100
AcDbEntity
8
1
62
256
6
ByLayer
370
18
48
1
60
0
100
AcDbLine
10
11.771707
20
-6.221199
30
0
11
11.900258
21
-6.363969
31
0
39
0
210
0
220
0
230
1
0
LINE
5
AF
100
AcDbEntity
8
1
62
256
6
ByLayer
370
18
48
1
60
0
100
AcDbLine
10
10.300843
20
-7.289293
30
0
11
10.433655
21
-7.436795
31
0
39
0
210
0
220
0
230
1
0
LINE
5
B0
100
AcDbEntity
8
1
62
256
6
ByLayer
370
18
48
1
60
0
100
AcDbLine
10
11.857771
20
-6.040936
30
0
11
11.990583
21
-6.188438
31
0
39
0
210
0
220
0
230
1
0
LINE
5
B1
100
AcDbEntity
8
1
62
256
6
ByLayer
370
18
48
1
60
0
100
AcDbLine
10
11.520821
20
-7.082667
30
0
11
11.649372
21
-7.225437
31
0
39
0
210
0
220
0
230
1
0
LINE
5
B2
100
AcDbEntity
8
1
62
256
6
ByLayer
370
18
48
1
60
0
100
AcDbLine
10
11.719343
20
-7.065292
30
0
11
11.852154
21
-7.212794
31
0
39
0
210
0
220
0
230
1
0
LINE
5
B3
100
AcDbEntity
8
1
62
256
6
ByLayer
370
18
48
1
60
0
100
AcDbLine
10
10.623884
20
-7.387376
30
0
11
10.495333
21
-7.244606
31
0
39
0
210
0
220
0
230
1
0
LINE
5
B4
100
AcDbEntity
8
1
62
256
6
ByLayer
370
18
48
1
60
0
100
AcDbLine
10
11.329395
20
-7.377955
30
0
11
11.462207
21
-7.525457
31
0
39
0
210
0
220
0
230
1
0
LINE
5
B5
100
AcDbEntity
8
1
62
256
6
ByLayer
370
18
48
1
60
0
100
AcDbLine
10
11.518275
20
-7.330552
30
0
11
11.389724
21
-7.187782
31
0
39
0
210
0
220
0
230
1
0
LINE
5
B6
100
AcDbEntity
8
1
62
256
6
ByLayer
370
18
48
1
60
0
100
AcDbLine
10
19.373863
20
-6.445637
30
0
11
19.537572
21
-6.470158
31
0
39
0
210
0
220
0
230
1
0
LINE
5
B7
100
AcDbEntity
8
1
62
256
6
ByLayer
370
18
48
1
60
0
100
AcDbLine
10
0
20
12.4375
30
0
11
2.699987
21
12.449281
31
0
39
0
210
0
220
0
230
1
0
LINE
5
B8
100
AcDbEntity
8
1
62
256
6
ByLayer
370
18
48
1
60
0
100
AcDbLine
10
1.617831
20
-5.643772
30
0
11
1.813739
21
-5.52432
31
0
39
0
210
0
220
0
230
1
0
LINE
5
B9
100
AcDbEntity
8
1
62
256
6
ByLayer
370
18
48
1
60
0
100
AcDbLine
10
1.813739
20
-5.52432
30
0
11
3.790076
21
-7.361308
31
0
39
0
210
0
220
0
230
1
0
LINE
5
BA
100
AcDbEntity
8
1
62
256
6
ByLayer
370
18
48
1
60
0
100
AcDbLine
10
15.233127
20
5.235448
30
0
11
17.505722
21
3.636001
31
0
39
0
210
0
220
0
230
1
0
LINE
5
BB
100
AcDbEntity
8
1
62
256
6
ByLayer
370
18
48
1
60
0
100
AcDbLine
10
2.980621
20
-15.418121
30
0
11
0
21
-12.4375
31
0
39
0
210
0
220
0
230
1
0
LINE
5
BC
100
AcDbEntity
8
1
62
256
6
ByLayer
370
18
48
1
60
0
100
AcDbLine
10
10.076884
20
-17.323538
30
0
11
10.175254
21
-17.328694
31
0
39
0
210
0
220
0
230
1
0
LINE
5
BD
100
AcDbEntity
8
1
62
256
6
ByLayer
370
18
48
1
60
0
100
AcDbLine
10
3.790076
20
-7.361308
30
0
11
2.980621
21
-15.418121
31
0
39
0
210
0
220
0
230
1
0
LINE
5
BE
100
AcDbEntity
8
1
62
256
6
ByLayer
370
18
48
1
60
0
100
AcDbLine
10
22.940055
20
-0.18867
30
0
11
17.505722
21
3.636001
31
0
39
0
210
0
220
0
230
1
0
LINE
5
BF
100
AcDbEntity
8
1
62
256
6
ByLayer
370
18
48
1
60
0
100
AcDbLine
10
14.434486
20
5.79753
30
0
11
15.208135
21
5.253038
31
0
39
0
210
0
220
0
230
1
0
LINE
5
C0
100
AcDbEntity
8
1
62
256
6
ByLayer
370
18
48
1
60
0
100
AcDbLine
10
15.208135
20
5.253038
30
0
11
15.233127
21
5.235448
31
0
39
0
210
0
220
0
230
1
0
LINE
5
C1
100
AcDbEntity
8
1
62
256
6
ByLayer
370
18
48
1
60
0
100
AcDbLine
10
4.98467
20
12.448289
30
0
11
14.434486
21
5.79753
31
0
39
0
210
0
220
0
230
1
0
LINE
5
C2
100
AcDbEntity
8
1
62
256
6
ByLayer
370
18
48
1
60
0
100
AcDbLine
10
23.447986
20
-12.410632
30
0
11
22.350054
21
-13.382915
31
0
39
0
210
0
220
0
230
1
0
LINE
5
C3
100
AcDbEntity
8
1
62
256
6
ByLayer
370
18
48
1
60
0
100
AcDbLine
10
10.076884
20
-17.323538
30
0
11
4.598952
21
-17.036452
31
0
39
0
210
0
220
0
230
1
0
LINE
5
C4
100
AcDbEntity
8
1
62
256
6
ByLayer
370
18
48
1
60
0
100
AcDbLine
10
18.303895
20
-5.19731
30
0
11
18.105292
21
-5.186467
31
0
39
0
210
0
220
0
230
1
0
LINE
5
C5
100
AcDbEntity
8
1
62
256
6
ByLayer
370
18
48
1
60
0
100
AcDbLine
10
4.98467
20
12.448289
30
0
11
2.699987
21
12.449281
31
0
39
0
210
0
220
0
230
1
0
LINE
5
C6
100
AcDbEntity
8
1
62
256
6
ByLayer
370
18
48
1
60
0
100
AcDbLine
10
20.502185
20
-7.677034
30
0
11
20.388588
21
-9.409724
31
0
39
0
210
0
220
0
230
1
0
LINE
5
C7
100
AcDbEntity
8
1
62
256
6
ByLayer
370
18
48
1
60
0
100
AcDbLine
10
20.388588
20
-9.409724
30
0
11
22.350054
21
-13.382915
31
0
39
0
210
0
220
0
230
1
0
LINE
5
C8
100
AcDbEntity
8
1
62
256
6
ByLayer
370
18
48
1
60
0
100
AcDbLine
10
2.980621
20
-15.418121
30
0
11
4.598952
21
-17.036452
31
0
39
0
210
0
220
0
230
1
0
LINE
5
C9
100
AcDbEntity
8
1
62
256
6
ByLayer
370
18
48
1
60
0
100
AcDbLine
10
19.537572
20
-6.470158
30
0
11
20.502185
21
-7.677034
31
0
39
0
210
0
220
0
230
1
0
LINE
5
CA
100
AcDbEntity
8
1
62
256
6
ByLayer
370
18
48
1
60
0
100
AcDbLine
10
10.175254
20
-17.328694
30
0
11
11.520919
21
-15.292978
31
0
39
0
210
0
220
0
230
1
0
LINE
5
CB
100
AcDbEntity
8
1
62
256
6
ByLayer
370
18
48
1
60
0
100
AcDbLine
10
22.940055
20
-0.18867
30
0
11
23.447986
21
-12.410632
31
0
39
0
210
0
220
0
230
1
0
LINE
5
CC
100
AcDbEntity
8
1
62
256
6
ByLayer
370
18
48
1
60
0
100
AcDbLine
10
2.699987
20
12.449281
30
0
11
0.945036
21
-5.018415
31
0
39
0
210
0
220
0
230
1
0
LINE
5
CD
100
AcDbEntity
8
1
62
256
6
ByLayer
370
18
48
1
60
0
100
AcDbLine
10
0
20
-12.4375
30
0
11
0
21
12.4375
31
0
39
0
210
0
220
0
230
1
0
LINE
5
CE
100
AcDbEntity
8
SK1
62
256
6
ByLayer
370
18
48
1
60
0
100
AcDbLine
10
-146.425566
20
-12.4375
30
0
11
-146.425566
21
12.4375
31
0
39
0
210
0
220
0
230
1
0
LINE
5
D0
100
AcDbEntity
8
SK1
62
256
6
ByLayer
370
18
48
1
60
0
100
AcDbLine
10
-146.425566
20
12.4375
30
0
11
0
21
12.4375
31
0
39
0
210
0
220
0
230
1
0
LINE
5
D1
100
AcDbEntity
8
SK1
62
256
6
ByLayer
370
18
48
1
60
0
100
AcDbLine
10
0
20
-12.4375
30
0
11
0
21
12.4375
31
0
39
0
210
0
220
0
230
1
0
LINE
5
D2
100
AcDbEntity
8
SK1
62
256
6
ByLayer
370
18
48
1
60
0
100
AcDbLine
10
0
20
-12.4375
30
0
11
-146.425566
21
-12.4375
31
0
39
0
210
0
220
0
230
1
0
LINE
5
D3
100
AcDbEntity
8
1
62
256
6
ByLayer
370
18
48
1
60
0
100
AcDbLine
10
9.822932
20
-17.977823
30
0
11
9.35465
21
-17.457743
31
0
39
0
210
0
220
0
230
1
0
LINE
5
D4
100
AcDbEntity
8
1
62
256
6
ByLayer
370
18
48
1
60
0
100
AcDbLine
10
24.084174
20
-19.911395
30
0
11
10.430933
21
-19.195859
31
0
39
0
210
0
220
0
230
1
0
LINE
5
D5
100
AcDbEntity
8
1
62
256
6
ByLayer
370
18
48
1
60
0
100
AcDbLine
10
18.764302
20
-6.589183
30
0
11
24.842013
21
-18.76494
31
0
39
0
210
0
220
0
230
1
0
MTEXT
5
167
100
AcDbEntity
8
SK6
62
256
6
ByLayer
370
18
48
1
60
0
100
AcDbMText
10
-74.875566
20
21.56839
30
0
210
0
220
0
230
1
1
\W0.7660;DTJNL 3225P 16
40
3.5
41
0
44
1.084337
50
0
71
7
72
5
7
iso_b_vert
0
DIMENSION
5
187
100
AcDbEntity
8
2
62
256
6
ByLayer
370
13
48
1
60
0
100
AcDbDimension
2
DimnDraft3D2
10
23.090513
20
-19.859076
30
0
11
12.636299
21
-31.616193
31
0
70
34
71
5
72
1
41
1
210
0
220
0
230
1
3
Standard
100
AcDb2LineAngularDimension
13
24.924434
23
-19.9125
33
0
14
24.924434
24
-18.325
34
0
15
24.089142
25
-19.911412
35
0
16
9.372114
26
-34.713789
36
0
40
0
0
DIMENSION
5
19C
100
AcDbEntity
8
2
62
256
6
ByLayer
370
13
48
1
60
0
100
AcDbDimension
2
DimnDraft3D3
10
24.924434
20
-48.1625
30
0
11
6.943796
21
-48.1625
31
0
70
32
71
5
72
1
41
1
210
0
220
0
230
1
3
Standard
100
AcDbAlignedDimension
13
0
23
-14.4375
33
0
14
24.924434
24
-21.9125
34
0
50
0
100
AcDbRotatedDimension
1001
ACAD
1000
DSTYLE
1002
{
1070
   279
1070
     0
1070
   172
1070
     1
1070
   173
1070
     1
1070
   340
1005
168
1070
    77
1070
     1
1070
    73
1070
     0
1070
   171
1070
     3
1070
   274
1070
     4
1070
   177
1070
     2
1070
   176
1070
     2
1070
   178
1070
     7
1070
    78
1070
     8
1070
    41
1041
3.175
1070
   147
1041
2.25
1070
    42
1041
2.0
1070
    44
1041
2.0
1070
   140
1041
4.5
1070
   343
1005
188
1070
   344
1005
188
1002
}
0
DIMENSION
5
1AA
100
AcDbEntity
8
2
62
256
6
ByLayer
370
13
48
1
60
0
100
AcDbDimension
2
DimnDraft3D4
10
47.174434
20
-19.9125
30
0
11
47.174434
21
-9.019079
31
0
70
32
71
5
72
1
41
1
210
0
220
0
230
1
3
Standard
100
AcDbAlignedDimension
13
2
23
12.4375
33
0
14
26.924434
24
-19.9125
34
0
50
90
100
AcDbRotatedDimension
1001
ACAD
1000
DSTYLE
1002
{
1070
    74
1070
     0
1070
   279
1070
     0
1070
   172
1070
     1
1070
   173
1070
     1
1070
   340
1005
168
1070
    77
1070
     1
1070
    73
1070
     0
1070
   171
1070
     3
1070
   274
1070
     4
1070
   177
1070
     2
1070
   176
1070
     2
1070
   178
1070
     7
1070
    78
1070
     8
1070
    41
1041
3.175
1070
   147
1041
2.25
1070
    42
1041
2.0
1070
    44
1041
2.0
1070
   140
1041
4.5
1070
   343
1005
188
1070
   344
1005
188
1002
}
0
DIMENSION
5
1B8
100
AcDbEntity
8
SK2
62
256
6
ByLayer
370
13
48
1
60
0
100
AcDbDimension
2
DimnDraft3D5
10
-154.175566
20
-12.4375
30
0
11
-154.175566
21
-5.281579
31
0
70
32
71
5
72
1
41
1
210
0
220
0
230
1
3
Standard
100
AcDbAlignedDimension
13
-148.425566
23
12.4375
33
0
14
-148.425566
24
-12.4375
34
0
50
90
100
AcDbRotatedDimension
1001
ACAD
1000
DSTYLE
1002
{
1070
    74
1070
     0
1070
   279
1070
     0
1070
   172
1070
     1
1070
   173
1070
     1
1070
   340
1005
168
1070
    77
1070
     1
1070
    73
1070
     0
1070
   171
1070
     3
1070
   274
1070
     4
1070
   177
1070
     2
1070
   176
1070
     2
1070
   178
1070
     7
1070
    78
1070
     8
1070
    41
1041
3.175
1070
   147
1041
2.25
1070
    42
1041
2.0
1070
    44
1041
2.0
1070
   140
1041
4.5
1070
   343
1005
188
1070
   344
1005
188
1002
}
0
ENDSEC
0
SECTION
2
OBJECTS
0
DICTIONARY
5
222
330
0
100
AcDbDictionary
280
0
281
1
3
ACAD_GROUP
350
223
3
ACAD_MLINESTYLE
350
224
0
DICTIONARY
5
223
330
0
100
AcDbDictionary
280
0
281
1
0
DICTIONARY
5
224
330
0
100
AcDbDictionary
280
0
281
1
3
Standard
350
18
0
MLINESTYLE
5
18
330
224
100
AcDbMlineStyle
2
Standard
70
0
3

62
256
51
90
52
90
71
2
49
-0.5
62
256
6
ByLayer
49
0.5
62
256
6
ByLayer
0
RASTERVARIABLES
5
211
330

100
AcDbRasterVariables
90
0
70
1
71
1
72
1
0
ENDSEC
0
EOF
