0
SECTION
2
HEADER
9
$ACADVER
1
AC1015
9
$DWGCODEPAGE
3
ANSI_1252
9
$HANDSEED
5
231
9
$ANGBASE
50
0
9
$ANGDIR
70
0
9
$ATTMODE
70
1
9
$AUNITS
70
0
9
$AUPREC
70
0
9
$CECOLOR
62
256
9
$CELTSCALE
40
1
9
$CELTYPE
6
ByLayer
9
$CELWEIGHT
370
18
9
$CLAYER
8
0
9
$CMLJUST
70
0
9
$CMLSCALE
40
1
9
$CMLSTYLE
2
Standard
9
$DIMSTYLE
2
Standard
9
$TEXTSIZE
40
0.2
9
$TEXTSTYLE
7
Standard
9
$LUNITS
70
2
9
$LUPREC
70
4
9
$EXTNAMES
290
1
9
$INSUNITS
70
4
9
$LTSCALE
40
1
9
$LWDISPLAY
290
1
9
$PDMODE
70
0
9
$PDSIZE
40
0
9
$PLINEGEN
70
0
0
ENDSEC
0
SECTION
2
CLASSES
0
CLASS
1
RASTERVARIABLES
2
AcDbRasterVariables
3
ISM
90
0
280
0
281
0
0
ENDSEC
0
SECTION
2
TABLES
0
TABLE
2
VPORT
5
227
100
AcDbSymbolTable
0
VPORT
5
1
100
AcDbSymbolTableRecord
100
AcDbViewportTableRecord
2
*Active
70
0
10
0
20
0
11
1
21
1
12
-1
22
1
13
0
23
0
14
0.5
24
0.5
15
10
25
10
16
0
26
0
36
1
17
0
27
0
37
0
0
ENDTAB
0
TABLE
2
LTYPE
5
228
100
AcDbSymbolTable
0
LTYPE
5
14
100
AcDbSymbolTableRecord
100
AcDbLinetypeTableRecord
70
0
2
ByBlock
3

72
65
73
0
40
0
0
LTYPE
5
15
100
AcDbSymbolTableRecord
100
AcDbLinetypeTableRecord
70
0
2
ByLayer
3

72
65
73
0
40
0
0
LTYPE
5
16
100
AcDbSymbolTableRecord
100
AcDbLinetypeTableRecord
70
0
2
CONTINUOUS
3
Solid line
72
65
73
0
40
0
0
LTYPE
5
6A
100
AcDbSymbolTableRecord
100
AcDbLinetypeTableRecord
70
0
2
CENTER
3
____ _ ____ _ ____ _ ____
72
65
73
4
40
47.5
49
22
74
0
49
-8.5
74
0
49
8.5
74
0
49
-8.5
74
0
0
LTYPE
5
6B
100
AcDbSymbolTableRecord
100
AcDbLinetypeTableRecord
70
0
2
DASHED
3
__ __ __ __ __ __ __ __ __
72
65
73
2
40
25.72
49
12.86
74
0
49
-12.86
74
0
0
ENDTAB
0
TABLE
2
LAYER
5
229
100
AcDbSymbolTable
0
LAYER
5
10
100
AcDbSymbolTableRecord
100
AcDbLayerTableRecord
2
0
70
0
62
7
6
CONTINUOUS
290
1
370
-3
390
0
0
LAYER
5
6D
100
AcDbSymbolTableRecord
100
AcDbLayerTableRecord
2
2
70
0
62
7
6
CONTINUOUS
290
1
370
-3
390
0
0
LAYER
5
6F
100
AcDbSymbolTableRecord
100
AcDbLayerTableRecord
2
80
70
0
62
-6
6
CONTINUOUS
290
1
370
-3
390
0
0
LAYER
5
71
100
AcDbSymbolTableRecord
100
AcDbLayerTableRecord
2
81
70
0
62
-3
6
CONTINUOUS
290
1
370
-3
390
0
0
LAYER
5
73
100
AcDbSymbolTableRecord
100
AcDbLayerTableRecord
2
1
70
0
62
4
6
CONTINUOUS
290
1
370
-3
390
0
0
LAYER
5
214
100
AcDbSymbolTableRecord
100
AcDbLayerTableRecord
2
SK1
70
0
62
4
6
CONTINUOUS
290
1
370
-3
390
0
0
LAYER
5
215
100
AcDbSymbolTableRecord
100
AcDbLayerTableRecord
2
SK6
70
0
62
5
6
CONTINUOUS
290
1
370
-3
390
0
0
LAYER
5
216
100
AcDbSymbolTableRecord
100
AcDbLayerTableRecord
2
SK2
70
0
62
7
6
CONTINUOUS
290
1
370
-3
390
0
0
ENDTAB
0
TABLE
2
STYLE
5
22a
100
AcDbSymbolTable
0
STYLE
5
11
100
AcDbSymbolTableRecord
100
AcDbTextStyleTableRecord
2
Standard
3
txt
70
0
71
0
40
0
41
1
42
0
50
0
0
STYLE
5
16A
100
AcDbSymbolTableRecord
100
AcDbTextStyleTableRecord
2
iso_b_vert
3
simplex.shx
70
0
71
0
40
0
41
1
42
0
50
0
0
STYLE
5
16B
100
AcDbSymbolTableRecord
100
AcDbTextStyleTableRecord
2
DWGDirectTextStyle
3
simplex
70
0
71
0
40
0
41
1
42
0
50
0
0
ENDTAB
0
TABLE
2
DIMSTYLE
5
22b
100
AcDbSymbolTable
100
AcDbDimStyleTable
0
DIMSTYLE
105
27
100
AcDbSymbolTableRecord
100
AcDbDimStyleTableRecord
2
Standard
70
0
3
<>
41
0.18
42
0.0625
44
0.18
140
0.18
147
0.09
73
0
74
0
77
1
271
2
275
0
278
52
280
0
340
11
0
ENDTAB
0
TABLE
2
VIEW
5
22c
100
AcDbSymbolTable
0
ENDTAB
0
TABLE
2
UCS
5
22d
100
AcDbSymbolTable
0
ENDTAB
0
TABLE
2
APPID
5
22e
100
AcDbSymbolTable
0
APPID
5
12
100
AcDbSymbolTableRecord
100
AcDbRegAppTableRecord
2
ACAD
70
0
0
ENDTAB
0
TABLE
2
BLOCK_RECORD
5
22f
100
AcDbSymbolTable
0
BLOCK_RECORD
5
1F
100
AcDbSymbolTableRecord
100
AcDbBlockTableRecord
2
*Model_Space
340
0
70
0
0
BLOCK_RECORD
5
1B
100
AcDbSymbolTableRecord
100
AcDbBlockTableRecord
2
*Paper_Space
340
0
70
0
0
BLOCK_RECORD
5
23
100
AcDbSymbolTableRecord
100
AcDbBlockTableRecord
2
*Paper_Space0
340
0
70
0
0
BLOCK_RECORD
5
16D
100
AcDbSymbolTableRecord
100
AcDbBlockTableRecord
2
DimnDraft3D1
340
0
70
0
0
BLOCK_RECORD
5
17B
100
AcDbSymbolTableRecord
100
AcDbBlockTableRecord
2
_CLOSED
340
0
70
0
0
BLOCK_RECORD
5
182
100
AcDbSymbolTableRecord
100
AcDbBlockTableRecord
2
DimnDraft3D2
340
0
70
0
0
BLOCK_RECORD
5
191
100
AcDbSymbolTableRecord
100
AcDbBlockTableRecord
2
DimnDraft3D3
340
0
70
0
0
BLOCK_RECORD
5
19F
100
AcDbSymbolTableRecord
100
AcDbBlockTableRecord
2
DimnDraft3D4
340
0
70
0
0
BLOCK_RECORD
5
1AD
100
AcDbSymbolTableRecord
100
AcDbBlockTableRecord
2
DimnDraft3D5
340
0
70
0
0
ENDTAB
0
ENDSEC
0
SECTION
2
BLOCKS
0
BLOCK
5
20
100
AcDbEntity
8
0
100
AcDbBlockBegin
2
*Model_Space
70
0
10
0
20
0
30
0
3
*Model_Space
0
ENDBLK
5
21
100
AcDbEntity
8
0
100
AcDbBlockEnd
0
BLOCK
5
1C
100
AcDbEntity
8
0
100
AcDbBlockBegin
2
*Paper_Space
70
0
10
0
20
0
30
0
3
*Paper_Space
0
ENDBLK
5
1D
100
AcDbEntity
8
0
100
AcDbBlockEnd
0
BLOCK
5
24
100
AcDbEntity
8
0
100
AcDbBlockBegin
2
*Paper_Space0
70
0
10
0
20
0
30
0
3
*Paper_Space0
0
ENDBLK
5
25
100
AcDbEntity
8
0
100
AcDbBlockEnd
0
BLOCK
5
178
100
AcDbEntity
8
0
100
AcDbBlockBegin
2
DimnDraft3D1
70
0
10
0
20
0
30
0
3
DimnDraft3D1
0
MTEXT
5
16E
100
AcDbEntity
8
2
62
256
6
ByLayer
370
18
48
1
60
0
100
AcDbMText
10
42.589799
20
-2.295813
30
0
210
0
220
0
230
1
1
\W0.6369;91%%d
40
4.5
41
0
44
1.084337
50
44.4999999999991
71
7
72
5
7
iso_b_vert
0
LINE
5
16F
100
AcDbEntity
8
2
62
256
6
ByLayer
370
13
48
1
60
0
100
AcDbLine
10
24.003295
20
16.105354
30
0
11
23.512215
21
-12.028598
31
0
39
0
210
0
220
0
230
1
0
LINE
5
170
100
AcDbEntity
8
2
62
256
6
ByLayer
370
13
48
1
60
0
100
AcDbLine
10
26.055773
20
19.9125
30
0
11
56.015713
21
19.9125
31
0
39
0
210
0
220
0
230
1
0
ARC
5
171
100
AcDbEntity
8
2
62
256
6
ByLayer
370
13
48
1
60
0
100
AcDbCircle
39
0
10
24.069749
20
19.9125
30
0
40
29.945963611285
210
0
220
0
230
1
100
AcDbArc
50
269
51
0
0
LINE
5
172
100
AcDbEntity
8
2
62
256
6
ByLayer
370
13
48
1
60
0
100
AcDbLine
10
23.54712
20
-10.028903
30
0
11
26.718216
21
-9.58226
31
0
39
0
210
0
220
0
230
1
0
LINE
5
173
100
AcDbEntity
8
2
62
256
6
ByLayer
370
13
48
1
60
0
100
AcDbLine
10
23.54712
20
-10.028903
30
0
11
26.725766
21
-10.418219
31
0
39
0
210
0
220
0
230
1
0
LINE
5
174
100
AcDbEntity
8
2
62
256
6
ByLayer
370
13
48
1
60
0
100
AcDbLine
10
26.718216
20
-9.58226
30
0
11
26.725766
21
-10.418219
31
0
39
0
210
0
220
0
230
1
0
LINE
5
175
100
AcDbEntity
8
2
62
256
6
ByLayer
370
13
48
1
60
0
100
AcDbLine
10
54.015713
20
19.9125
30
0
11
54.349495
21
16.727547
31
0
39
0
210
0
220
0
230
1
0
LINE
5
176
100
AcDbEntity
8
2
62
256
6
ByLayer
370
13
48
1
60
0
100
AcDbLine
10
54.015713
20
19.9125
30
0
11
53.513795
21
16.749679
31
0
39
0
210
0
220
0
230
1
0
LINE
5
177
100
AcDbEntity
8
2
62
256
6
ByLayer
370
13
48
1
60
0
100
AcDbLine
10
54.349495
20
16.727547
30
0
11
53.513795
21
16.749679
31
0
39
0
210
0
220
0
230
1
0
ENDBLK
5
179
100
AcDbEntity
8
0
100
AcDbBlockEnd
0
BLOCK
5
17C
100
AcDbEntity
8
0
100
AcDbBlockBegin
2
_CLOSED
70
0
10
0
20
0
30
0
3
_CLOSED
0
LINE
5
17E
100
AcDbEntity
8
0
62
256
6
ByLayer
370
-2
48
1
60
0
100
AcDbLine
10
-1
20
0.166667
30
0
11
0
21
0
31
0
39
0
210
0
220
0
230
1
0
LINE
5
17F
100
AcDbEntity
8
0
62
256
6
ByLayer
370
-2
48
1
60
0
100
AcDbLine
10
0
20
0
30
0
11
-1
21
-0.166667
31
0
39
0
210
0
220
0
230
1
0
LINE
5
180
100
AcDbEntity
8
0
62
256
6
ByLayer
370
-2
48
1
60
0
100
AcDbLine
10
-1
20
0.166667
30
0
11
-1
21
-0.166667
31
0
39
0
210
0
220
0
230
1
0
LINE
5
181
100
AcDbEntity
8
0
62
256
6
ByLayer
370
-2
48
1
60
0
100
AcDbLine
10
0
20
0
30
0
11
-1
21
0
31
0
39
0
210
0
220
0
230
1
0
ENDBLK
5
17D
100
AcDbEntity
8
0
100
AcDbBlockEnd
0
BLOCK
5
18E
100
AcDbEntity
8
0
100
AcDbBlockBegin
2
DimnDraft3D2
70
0
10
0
20
0
30
0
3
DimnDraft3D2
0
MTEXT
5
183
100
AcDbEntity
8
SK2
62
256
6
ByLayer
370
18
48
1
60
0
100
AcDbMText
10
-156.169226
20
-4.156579
30
0
210
0
220
0
230
1
1
\W0.7346;25.0
40
4.5
41
0
44
1.084337
50
90
71
7
72
5
7
iso_b_vert
0
LINE
5
185
100
AcDbEntity
8
SK2
62
256
6
ByLayer
370
13
48
1
60
0
100
AcDbLine
10
-149.294226
20
-12.4375
30
0
11
-157.044226
21
-12.4375
31
0
39
0
210
0
220
0
230
1
0
LINE
5
186
100
AcDbEntity
8
SK2
62
256
6
ByLayer
370
13
48
1
60
0
100
AcDbLine
10
-149.294226
20
12.4375
30
0
11
-157.044226
21
12.4375
31
0
39
0
210
0
220
0
230
1
0
LINE
5
187
100
AcDbEntity
8
SK2
62
256
6
ByLayer
370
13
48
1
60
0
100
AcDbLine
10
-155.044226
20
-12.4375
30
0
11
-155.044226
21
12.4375
31
0
39
0
210
0
220
0
230
1
0
LINE
5
188
100
AcDbEntity
8
SK2
62
256
6
ByLayer
370
13
48
1
60
0
100
AcDbLine
10
-155.044226
20
-12.4375
30
0
11
-155.462223
21
-9.262502
31
0
39
0
210
0
220
0
230
1
0
LINE
5
189
100
AcDbEntity
8
SK2
62
256
6
ByLayer
370
13
48
1
60
0
100
AcDbLine
10
-155.044226
20
-12.4375
30
0
11
-154.62623
21
-9.262498
31
0
39
0
210
0
220
0
230
1
0
LINE
5
18A
100
AcDbEntity
8
SK2
62
256
6
ByLayer
370
13
48
1
60
0
100
AcDbLine
10
-155.462223
20
-9.262502
30
0
11
-154.62623
21
-9.262498
31
0
39
0
210
0
220
0
230
1
0
LINE
5
18B
100
AcDbEntity
8
SK2
62
256
6
ByLayer
370
13
48
1
60
0
100
AcDbLine
10
-155.044226
20
12.4375
30
0
11
-154.62623
21
9.262502
31
0
39
0
210
0
220
0
230
1
0
LINE
5
18C
100
AcDbEntity
8
SK2
62
256
6
ByLayer
370
13
48
1
60
0
100
AcDbLine
10
-155.044226
20
12.4375
30
0
11
-155.462223
21
9.262498
31
0
39
0
210
0
220
0
230
1
0
LINE
5
18D
100
AcDbEntity
8
SK2
62
256
6
ByLayer
370
13
48
1
60
0
100
AcDbLine
10
-154.62623
20
9.262502
30
0
11
-155.462223
21
9.262498
31
0
39
0
210
0
220
0
230
1
0
ENDBLK
5
18F
100
AcDbEntity
8
0
100
AcDbBlockEnd
0
BLOCK
5
19C
100
AcDbEntity
8
0
100
AcDbBlockBegin
2
DimnDraft3D3
70
0
10
0
20
0
30
0
3
DimnDraft3D3
0
MTEXT
5
192
100
AcDbEntity
8
2
62
256
6
ByLayer
370
18
48
1
60
0
100
AcDbMText
10
63.180774
20
-0.419079
30
0
210
0
220
0
230
1
1
\W0.7346;32.0
40
4.5
41
0
44
1.084337
50
90
71
7
72
5
7
iso_b_vert
0
LINE
5
193
100
AcDbEntity
8
2
62
256
6
ByLayer
370
13
48
1
60
0
100
AcDbLine
10
2
20
-12.4375
30
0
11
66.305773
21
-12.4375
31
0
39
0
210
0
220
0
230
1
0
LINE
5
194
100
AcDbEntity
8
2
62
256
6
ByLayer
370
13
48
1
60
0
100
AcDbLine
10
26.055773
20
19.9125
30
0
11
66.305773
21
19.9125
31
0
39
0
210
0
220
0
230
1
0
LINE
5
195
100
AcDbEntity
8
2
62
256
6
ByLayer
370
13
48
1
60
0
100
AcDbLine
10
64.305774
20
-12.4375
30
0
11
64.305774
21
19.9125
31
0
39
0
210
0
220
0
230
1
0
LINE
5
196
100
AcDbEntity
8
2
62
256
6
ByLayer
370
13
48
1
60
0
100
AcDbLine
10
64.305774
20
-12.4375
30
0
11
63.887777
21
-9.262502
31
0
39
0
210
0
220
0
230
1
0
LINE
5
197
100
AcDbEntity
8
2
62
256
6
ByLayer
370
13
48
1
60
0
100
AcDbLine
10
64.305774
20
-12.4375
30
0
11
64.72377
21
-9.262498
31
0
39
0
210
0
220
0
230
1
0
LINE
5
198
100
AcDbEntity
8
2
62
256
6
ByLayer
370
13
48
1
60
0
100
AcDbLine
10
63.887777
20
-9.262502
30
0
11
64.72377
21
-9.262498
31
0
39
0
210
0
220
0
230
1
0
LINE
5
199
100
AcDbEntity
8
2
62
256
6
ByLayer
370
13
48
1
60
0
100
AcDbLine
10
64.305774
20
19.9125
30
0
11
64.72377
21
16.737502
31
0
39
0
210
0
220
0
230
1
0
LINE
5
19A
100
AcDbEntity
8
2
62
256
6
ByLayer
370
13
48
1
60
0
100
AcDbLine
10
64.305774
20
19.9125
30
0
11
63.887777
21
16.737498
31
0
39
0
210
0
220
0
230
1
0
LINE
5
19B
100
AcDbEntity
8
2
62
256
6
ByLayer
370
13
48
1
60
0
100
AcDbLine
10
64.72377
20
16.737502
30
0
11
63.887777
21
16.737498
31
0
39
0
210
0
220
0
230
1
0
ENDBLK
5
19D
100
AcDbEntity
8
0
100
AcDbBlockEnd
0
BLOCK
5
1AA
100
AcDbEntity
8
0
100
AcDbBlockBegin
2
DimnDraft3D4
70
0
10
0
20
0
30
0
3
DimnDraft3D4
0
MTEXT
5
1A0
100
AcDbEntity
8
2
62
256
6
ByLayer
370
18
48
1
60
0
100
AcDbMText
10
8.196966
20
36.7875
30
0
210
0
220
0
230
1
1
\W0.7531;24.1
40
4.5
41
0
44
1.084337
50
0
71
7
72
5
7
iso_b_vert
0
LINE
5
1A1
100
AcDbEntity
8
2
62
256
6
ByLayer
370
13
48
1
60
0
100
AcDbLine
10
0
20
14.4375
30
0
11
0
21
37.6625
31
0
39
0
210
0
220
0
230
1
0
LINE
5
1A2
100
AcDbEntity
8
2
62
256
6
ByLayer
370
13
48
1
60
0
100
AcDbLine
10
24.055774
20
21.9125
30
0
11
24.055774
21
37.6625
31
0
39
0
210
0
220
0
230
1
0
LINE
5
1A3
100
AcDbEntity
8
2
62
256
6
ByLayer
370
13
48
1
60
0
100
AcDbLine
10
0
20
35.6625
30
0
11
24.055774
21
35.6625
31
0
39
0
210
0
220
0
230
1
0
LINE
5
1A4
100
AcDbEntity
8
2
62
256
6
ByLayer
370
13
48
1
60
0
100
AcDbLine
10
0
20
35.6625
30
0
11
3.174998
21
36.080497
31
0
39
0
210
0
220
0
230
1
0
LINE
5
1A5
100
AcDbEntity
8
2
62
256
6
ByLayer
370
13
48
1
60
0
100
AcDbLine
10
0
20
35.6625
30
0
11
3.175002
21
35.244503
31
0
39
0
210
0
220
0
230
1
0
LINE
5
1A6
100
AcDbEntity
8
2
62
256
6
ByLayer
370
13
48
1
60
0
100
AcDbLine
10
3.174998
20
36.080497
30
0
11
3.175002
21
35.244503
31
0
39
0
210
0
220
0
230
1
0
LINE
5
1A7
100
AcDbEntity
8
2
62
256
6
ByLayer
370
13
48
1
60
0
100
AcDbLine
10
24.055774
20
35.6625
30
0
11
20.880775
21
35.244503
31
0
39
0
210
0
220
0
230
1
0
LINE
5
1A8
100
AcDbEntity
8
2
62
256
6
ByLayer
370
13
48
1
60
0
100
AcDbLine
10
24.055774
20
35.6625
30
0
11
20.880772
21
36.080497
31
0
39
0
210
0
220
0
230
1
0
LINE
5
1A9
100
AcDbEntity
8
2
62
256
6
ByLayer
370
13
48
1
60
0
100
AcDbLine
10
20.880775
20
35.244503
30
0
11
20.880772
21
36.080497
31
0
39
0
210
0
220
0
230
1
0
ENDBLK
5
1AB
100
AcDbEntity
8
0
100
AcDbBlockEnd
0
BLOCK
5
1B8
100
AcDbEntity
8
0
100
AcDbBlockBegin
2
DimnDraft3D5
70
0
10
0
20
0
30
0
3
DimnDraft3D5
0
MTEXT
5
1AE
100
AcDbEntity
8
SK2
62
256
6
ByLayer
370
18
48
1
60
0
100
AcDbMText
10
-66.894884
20
46.7875
30
0
210
0
220
0
230
1
1
\W0.6864;170.0
40
4.5
41
0
44
1.084337
50
0
71
7
72
5
7
iso_b_vert
0
LINE
5
1AF
100
AcDbEntity
8
SK2
62
256
6
ByLayer
370
13
48
1
60
0
100
AcDbLine
10
24.055774
20
21.9125
30
0
11
24.055774
21
47.6625
31
0
39
0
210
0
220
0
230
1
0
LINE
5
1B0
100
AcDbEntity
8
SK2
62
256
6
ByLayer
370
13
48
1
60
0
100
AcDbLine
10
-147.294226
20
14.4375
30
0
11
-147.294226
21
47.6625
31
0
39
0
210
0
220
0
230
1
0
LINE
5
1B1
100
AcDbEntity
8
SK2
62
256
6
ByLayer
370
13
48
1
60
0
100
AcDbLine
10
24.055774
20
45.6625
30
0
11
-147.294226
21
45.6625
31
0
39
0
210
0
220
0
230
1
0
LINE
5
1B2
100
AcDbEntity
8
SK2
62
256
6
ByLayer
370
13
48
1
60
0
100
AcDbLine
10
24.055774
20
45.6625
30
0
11
20.880775
21
45.244503
31
0
39
0
210
0
220
0
230
1
0
LINE
5
1B3
100
AcDbEntity
8
SK2
62
256
6
ByLayer
370
13
48
1
60
0
100
AcDbLine
10
24.055774
20
45.6625
30
0
11
20.880772
21
46.080497
31
0
39
0
210
0
220
0
230
1
0
LINE
5
1B4
100
AcDbEntity
8
SK2
62
256
6
ByLayer
370
13
48
1
60
0
100
AcDbLine
10
20.880775
20
45.244503
30
0
11
20.880772
21
46.080497
31
0
39
0
210
0
220
0
230
1
0
LINE
5
1B5
100
AcDbEntity
8
SK2
62
256
6
ByLayer
370
13
48
1
60
0
100
AcDbLine
10
-147.294226
20
45.6625
30
0
11
-144.119228
21
46.080497
31
0
39
0
210
0
220
0
230
1
0
LINE
5
1B6
100
AcDbEntity
8
SK2
62
256
6
ByLayer
370
13
48
1
60
0
100
AcDbLine
10
-147.294226
20
45.6625
30
0
11
-144.119225
21
45.244503
31
0
39
0
210
0
220
0
230
1
0
LINE
5
1B7
100
AcDbEntity
8
SK2
62
256
6
ByLayer
370
13
48
1
60
0
100
AcDbLine
10
-144.119228
20
46.080497
30
0
11
-144.119225
21
45.244503
31
0
39
0
210
0
220
0
230
1
0
ENDBLK
5
1B9
100
AcDbEntity
8
0
100
AcDbBlockEnd
0
ENDSEC
0
SECTION
2
ENTITIES
0
ELLIPSE
5
D7
100
AcDbEntity
8
1
62
256
6
ByLayer
370
18
48
1
60
0
100
AcDbEllipse
10
10.960686
20
11.502214
30
0
11
-0.827077622327805
21
0.85646394977826
31
0
210
0
220
0
230
1
40
0.989133
41
0.142125932998701
42
0.769593548975613
0
ELLIPSE
5
D8
100
AcDbEntity
8
1
62
256
6
ByLayer
370
18
48
1
60
0
100
AcDbEllipse
10
21.507209
20
5.047944
30
0
11
0.827077622327789
21
-0.856463949778264
31
0
210
0
220
0
230
1
40
0.989133
41
-0.399602483994901
42
-3.07753883954538E-05
0
ELLIPSE
5
D9
100
AcDbEntity
8
1
62
256
6
ByLayer
370
18
48
1
60
0
100
AcDbEllipse
10
4.134259
20
6.358629
30
0
11
2.07068345614488
21
-2.17077636444842
31
0
210
0
220
0
230
1
40
0.986421
41
-0.0517566673072102
42
-0.0200260445400312
0
ELLIPSE
5
DA
100
AcDbEntity
8
1
62
256
6
ByLayer
370
18
48
1
60
0
100
AcDbEllipse
10
11.489667
20
5.819604
30
0
11
-2.31226319269512
21
2.4240336069674
31
0
210
0
220
0
230
1
40
0.986421
41
-3.07406703684438
42
-0.0517566673072058
0
ELLIPSE
5
DB
100
AcDbEntity
8
1
62
256
6
ByLayer
370
18
48
1
60
0
100
AcDbEllipse
10
10.118442
20
5.28359
30
0
11
-0.20145092743311
21
0.208608542098208
31
0
210
0
220
0
230
1
40
0.989133
41
-0.450579810687868
42
-0.353247338767258
0
ELLIPSE
5
DC
100
AcDbEntity
8
1
62
256
6
ByLayer
370
18
48
1
60
0
100
AcDbEllipse
10
11.283138
20
4.281684
30
0
11
0.218817386694583
21
-0.226592037106677
31
0
210
0
220
0
230
1
40
0.989133
41
3.1415917000141
42
-2.80665901506461
0
ELLIPSE
5
DD
100
AcDbEntity
8
1
62
256
6
ByLayer
370
18
48
1
60
0
100
AcDbEllipse
10
9.927583
20
5.856388
30
0
11
0.218817386694583
21
-0.226592037106677
31
0
210
0
220
0
230
1
40
0.989133
41
-0.450579810687813
42
-9.45601456224364E-06
0
ELLIPSE
5
DE
100
AcDbEntity
8
1
62
256
6
ByLayer
370
18
48
1
60
0
100
AcDbEllipse
10
11.018503
20
5.419813
30
0
11
0.625192533413094
21
-0.64740582030479
31
0
210
0
220
0
230
1
40
0.989133
41
3.11265975917456
42
-1.48898808349858
0
ELLIPSE
5
DF
100
AcDbEntity
8
1
62
256
6
ByLayer
370
18
48
1
60
0
100
AcDbEllipse
10
11.018503
20
5.419813
30
0
11
0.625192533413094
21
-0.64740582030479
31
0
210
0
220
0
230
1
40
0.989133
41
0.0289900441172165
42
3.11265975917456
0
ELLIPSE
5
E0
100
AcDbEntity
8
1
62
256
6
ByLayer
370
18
48
1
60
0
100
AcDbEllipse
10
11.055519
20
5.455559
30
0
11
0.625192533413094
21
-0.64740582030479
31
0
210
0
220
0
230
1
40
0.989133
41
2.6536628170037
42
-3.05675457406408
0
ELLIPSE
5
E1
100
AcDbEntity
8
1
62
256
6
ByLayer
370
18
48
1
60
0
100
AcDbEllipse
10
11.055519
20
5.455559
30
0
11
0.625192533413094
21
-0.64740582030479
31
0
210
0
220
0
230
1
40
0.989133
41
-0.185659289691015
42
0.372283664423393
0
ELLIPSE
5
E2
100
AcDbEntity
8
1
62
256
6
ByLayer
370
18
48
1
60
0
100
AcDbEllipse
10
11.055519
20
5.455559
30
0
11
0.625192533413094
21
-0.64740582030479
31
0
210
0
220
0
230
1
40
0.989133
41
-1.3084338296117
42
-0.701432101627958
0
ELLIPSE
5
E3
100
AcDbEntity
8
1
62
256
6
ByLayer
370
18
48
1
60
0
100
AcDbEllipse
10
11.055519
20
5.455559
30
0
11
0.625192533413094
21
-0.64740582030479
31
0
210
0
220
0
230
1
40
0.989133
41
-2.58232493897931
42
-1.96825392676877
0
ELLIPSE
5
E4
100
AcDbEntity
8
1
62
256
6
ByLayer
370
18
48
1
60
0
100
AcDbEllipse
10
11.681802
20
4.728027
30
0
11
-0.20145092743311
21
0.208608542098208
31
0
210
0
220
0
230
1
40
0.989133
41
-2.78835450998348
42
-1.75946146386815
0
ELLIPSE
5
E5
100
AcDbEntity
8
1
62
256
6
ByLayer
370
18
48
1
60
0
100
AcDbEllipse
10
10.976199
20
5.37896
30
0
11
2.22290678546878
21
-2.3018873610837
31
0
210
0
220
0
230
1
40
0.989133
41
3.14152277429463
42
-0.773405829057338
0
ELLIPSE
5
E6
100
AcDbEntity
8
1
62
256
6
ByLayer
370
18
48
1
60
0
100
AcDbEllipse
10
10.976199
20
5.37896
30
0
11
2.22290678546878
21
-2.3018873610837
31
0
210
0
220
0
230
1
40
0.989133
41
-0.773405829057334
42
-2.80605091687659E-16
0
ELLIPSE
5
E7
100
AcDbEntity
8
1
62
256
6
ByLayer
370
18
48
1
60
0
100
AcDbEllipse
10
10.429237
20
6.183092
30
0
11
-0.20145092743311
21
0.208608542098208
31
0
210
0
220
0
230
1
40
0.989133
41
-1.49777736188445
42
-0.353237548425477
0
ELLIPSE
5
E8
100
AcDbEntity
8
1
62
256
6
ByLayer
370
18
48
1
60
0
100
AcDbEllipse
10
12.183455
20
5.054731
30
0
11
0.218817386694583
21
-0.226592037106677
31
0
210
0
220
0
230
1
40
0.989133
41
3.14158245417135
42
-2.94581661788673
0
ELLIPSE
5
E9
100
AcDbEntity
8
1
62
256
6
ByLayer
370
18
48
1
60
0
100
AcDbEllipse
10
10.8279
20
6.629435
30
0
11
0.218817386694583
21
-0.226592037106677
31
0
210
0
220
0
230
1
40
0.989133
41
-0.311422207865773
42
2.40451575602175E-07
0
ELLIPSE
5
EA
100
AcDbEntity
8
1
62
256
6
ByLayer
370
18
48
1
60
0
100
AcDbEllipse
10
11.992597
20
5.627529
30
0
11
-0.20145092743311
21
0.208608542098208
31
0
210
0
220
0
230
1
40
0.989133
41
-2.78831636700296
42
-0.71226391267155
0
ELLIPSE
5
EB
100
AcDbEntity
8
1
62
256
6
ByLayer
370
18
48
1
60
0
100
AcDbEllipse
10
11.366314
20
6.355061
30
0
11
-0.20145092743311
21
0.208608542098208
31
0
210
0
220
0
230
1
40
0.989133
41
-2.54497491308105
42
-0.352780322784089
0
ELLIPSE
5
EC
100
AcDbEntity
8
1
62
256
6
ByLayer
370
18
48
1
60
0
100
AcDbEllipse
10
22.52419
20
4.966434
30
0
11
0.55155874614444
21
-0.571155801468893
31
0
210
0
220
0
230
1
40
0.989133
41
-1.31446014751726
42
-3.10045454643506E-05
0
ELLIPSE
5
ED
100
AcDbEntity
8
1
62
256
6
ByLayer
370
18
48
1
60
0
100
AcDbEllipse
10
10.732491
20
11.603113
30
0
11
-1.73543346385629
21
1.79709395938974
31
0
210
0
220
0
230
1
40
0.989133
41
-0.793043033483985
42
-0.418898835881289
0
ELLIPSE
5
EE
100
AcDbEntity
8
1
62
256
6
ByLayer
370
18
48
1
60
0
100
AcDbEllipse
10
10.716626
20
11.587793
30
0
11
-1.63123470828744
21
1.68919298933894
31
0
210
0
220
0
230
1
40
0.989133
41
-0.793043033483991
42
-0.351084803212928
0
ELLIPSE
5
EF
100
AcDbEntity
8
1
62
256
6
ByLayer
370
18
48
1
60
0
100
AcDbEllipse
10
19.201273
20
12.399533
30
0
11
1.32332419572438
21
-1.37034231964514
31
0
210
0
220
0
230
1
40
0.989133
41
0.0397561131940563
42
2.98519558895536
0
ELLIPSE
5
F0
100
AcDbEntity
8
1
62
256
6
ByLayer
370
18
48
1
60
0
100
AcDbEllipse
10
19.201273
20
12.399533
30
0
11
1.32332419572438
21
-1.37034231964514
31
0
210
0
220
0
230
1
40
0.989133
41
-0.77340561626235
42
-0.755950144754704
0
ELLIPSE
5
F1
100
AcDbEntity
8
1
62
256
6
ByLayer
370
18
48
1
60
0
100
AcDbEllipse
10
10.806568
20
12.137393
30
0
11
0.55155874614444
21
-0.571155801468893
31
0
210
0
220
0
230
1
40
0.989133
41
-3.1415912800883
42
-1.54127688361949
0
ELLIPSE
5
F2
100
AcDbEntity
8
1
62
256
6
ByLayer
370
18
48
1
60
0
100
AcDbEllipse
10
11.903586
20
12.538936
30
0
11
1.64563042348719
21
-1.70410018881702
31
0
210
0
220
0
230
1
40
0.989133
41
-2.36383936027887
42
-1.80893096967494
0
ELLIPSE
5
F3
100
AcDbEntity
8
1
62
256
6
ByLayer
370
18
48
1
60
0
100
AcDbEllipse
10
19.500461
20
7.980119
30
0
11
-2.0390945100149
21
1.49948699862587
31
0
210
0
220
0
230
1
40
0.482826
41
1.74524543089525
42
2.08757591585562
0
ELLIPSE
5
F4
100
AcDbEntity
8
1
62
256
6
ByLayer
370
18
48
1
60
0
100
AcDbEllipse
10
1.626661
20
5.338229
30
0
11
-0.580899836841952
21
1.53871757686319
31
0
210
0
220
0
230
1
40
0.367444
41
-0.641738812129692
42
0.929057514665942
0
ELLIPSE
5
F5
100
AcDbEntity
8
1
62
256
6
ByLayer
370
18
48
1
60
0
100
AcDbEllipse
10
11.907491
20
12.737797
30
0
11
1.64563042348719
21
-1.70410018881702
31
0
210
0
220
0
230
1
40
0.989133
41
2.34854962010584
42
-2.36383936027887
0
ELLIPSE
5
F6
100
AcDbEntity
8
1
62
256
6
ByLayer
370
18
48
1
60
0
100
AcDbEllipse
10
23.266219
20
19.122477
30
0
11
-0.551558746144447
21
0.571155801468886
31
0
210
0
220
0
230
1
40
0.989133
41
-2.36165769871386
42
-0.267262596320695
0
ELLIPSE
5
F7
100
AcDbEntity
8
1
62
256
6
ByLayer
370
18
48
1
60
0
100
AcDbEllipse
10
23.02761
20
5.452581
30
0
11
-0.551558746144447
21
0.571155801468886
31
0
210
0
220
0
230
1
40
0.989133
41
1.82713250607252
42
-2.36165769871387
0
ELLIPSE
5
F8
100
AcDbEntity
8
1
62
256
6
ByLayer
370
18
48
1
60
0
100
AcDbEllipse
10
11.309989
20
12.62354
30
0
11
-0.551558746144447
21
0.571155801468886
31
0
210
0
220
0
230
1
40
0.989133
41
-0.267262596320619
42
1.82713250607246
0
ELLIPSE
5
F9
100
AcDbEntity
8
1
62
256
6
ByLayer
370
18
48
1
60
0
100
AcDbEllipse
10
11.198296
20
5.593437
30
0
11
0.642558992674568
21
-0.665389315313256
31
0
210
0
220
0
230
1
40
0.989133
41
-2.82236199486105
42
-2.52927193328469
0
ELLIPSE
5
FA
100
AcDbEntity
8
1
62
256
6
ByLayer
370
18
48
1
60
0
100
AcDbEllipse
10
11.193717
20
5.589015
30
0
11
0.625192533413094
21
-0.64740582030479
31
0
210
0
220
0
230
1
40
0.989133
41
0.372283664423227
42
0.559267714620206
0
ELLIPSE
5
FB
100
AcDbEntity
8
1
62
256
6
ByLayer
370
18
48
1
60
0
100
AcDbEllipse
10
11.193717
20
5.589015
30
0
11
0.625192533413094
21
-0.64740582030479
31
0
210
0
220
0
230
1
40
0.989133
41
-0.674913886773252
42
-0.487929836586133
0
ELLIPSE
5
FC
100
AcDbEntity
8
1
62
256
6
ByLayer
370
18
48
1
60
0
100
AcDbEllipse
10
12.183455
20
5.054731
30
0
11
0.218817386694583
21
-0.226592037106677
31
0
210
0
220
0
230
1
40
0.989133
41
-2.40581731025914
42
-1.75946146386803
0
ELLIPSE
5
FD
100
AcDbEntity
8
1
62
256
6
ByLayer
370
18
48
1
60
0
100
AcDbEllipse
10
11.193717
20
5.589015
30
0
11
0.625192533413094
21
-0.64740582030479
31
0
210
0
220
0
230
1
40
0.989133
41
-1.72211143796979
42
-1.53512738778268
0
ELLIPSE
5
FE
100
AcDbEntity
8
1
62
256
6
ByLayer
370
18
48
1
60
0
100
AcDbEllipse
10
11.425915
20
4.419562
30
0
11
0.218817386694583
21
-0.226592037106677
31
0
210
0
220
0
230
1
40
0.989133
41
1.64381529170543
42
2.11701555947072
0
ELLIPSE
5
FF
100
AcDbEntity
8
1
62
256
6
ByLayer
370
18
48
1
60
0
100
AcDbEllipse
10
11.425915
20
4.419562
30
0
11
0.218817386694583
21
-0.226592037106677
31
0
210
0
220
0
230
1
40
0.989133
41
3.00332602434976
42
-2.80665901506461
0
ELLIPSE
5
100
100
AcDbEntity
8
1
62
256
6
ByLayer
370
18
48
1
60
0
100
AcDbEllipse
10
10.261219
20
5.421468
30
0
11
-0.20145092743311
21
0.208608542098208
31
0
210
0
220
0
230
1
40
0.989133
41
-0.450579810687824
42
2.42932874091813
0
ELLIPSE
5
101
100
AcDbEntity
8
1
62
256
6
ByLayer
370
18
48
1
60
0
100
AcDbEllipse
10
12.098613
20
6.366484
30
0
11
0.218817386694583
21
-0.226592037106677
31
0
210
0
220
0
230
1
40
0.989133
41
-2.54497491308096
42
-2.07177464531574
0
ELLIPSE
5
102
100
AcDbEntity
8
1
62
256
6
ByLayer
370
18
48
1
60
0
100
AcDbEllipse
10
10.297979
20
4.82039
30
0
11
0.218817386694583
21
-0.226592037106677
31
0
210
0
220
0
230
1
40
0.989133
41
1.95612847315308
42
2.42932874091839
0
ELLIPSE
5
103
100
AcDbEntity
8
1
62
256
6
ByLayer
370
18
48
1
60
0
100
AcDbEllipse
10
11.198296
20
5.593437
30
0
11
0.642558992674568
21
-0.665389315313256
31
0
210
0
220
0
230
1
40
0.989133
41
1.36642820992534
42
1.65951827150173
0
ELLIPSE
5
104
100
AcDbEntity
8
1
62
256
6
ByLayer
370
18
48
1
60
0
100
AcDbEllipse
10
11.055519
20
5.455559
30
0
11
0.625192533413094
21
-0.64740582030479
31
0
210
0
220
0
230
1
40
0.989133
41
1.60646526580713
42
2.46667876681661
0
ELLIPSE
5
105
100
AcDbEntity
8
1
62
256
6
ByLayer
370
18
48
1
60
0
100
AcDbEllipse
10
10.970677
20
6.767313
30
0
11
0.218817386694583
21
-0.226592037106677
31
0
210
0
220
0
230
1
40
0.989133
41
-1.49777736188441
42
-1.02457709411912
0
ELLIPSE
5
106
100
AcDbEntity
8
1
62
256
6
ByLayer
370
18
48
1
60
0
100
AcDbEllipse
10
12.098613
20
6.366484
30
0
11
0.218817386694583
21
-0.226592037106677
31
0
210
0
220
0
230
1
40
0.989133
41
-1.18546418043677
42
-0.7122639126715
0
ELLIPSE
5
107
100
AcDbEntity
8
1
62
256
6
ByLayer
370
18
48
1
60
0
100
AcDbEllipse
10
11.198296
20
5.593437
30
0
11
0.642558992674568
21
-0.665389315313256
31
0
210
0
220
0
230
1
40
0.989133
41
2.41362576112198
42
2.7067158226983
0
ELLIPSE
5
108
100
AcDbEntity
8
1
62
256
6
ByLayer
370
18
48
1
60
0
100
AcDbEllipse
10
10.8279
20
6.629435
30
0
11
0.218817386694583
21
-0.226592037106677
31
0
210
0
220
0
230
1
40
0.989133
41
-1.49777736188436
42
-0.851421515493288
0
ELLIPSE
5
109
100
AcDbEntity
8
1
62
256
6
ByLayer
370
18
48
1
60
0
100
AcDbEllipse
10
10.887502
20
4.693935
30
0
11
-0.20145092743311
21
0.208608542098208
31
0
210
0
220
0
230
1
40
0.989133
41
0.596617740508826
42
-2.80665901506457
0
ELLIPSE
5
10A
100
AcDbEntity
8
1
62
256
6
ByLayer
370
18
48
1
60
0
100
AcDbEllipse
10
11.055519
20
5.455559
30
0
11
0.625192533413094
21
-0.64740582030479
31
0
210
0
220
0
230
1
40
0.989133
41
0.559267714610498
42
1.41948121562
0
ELLIPSE
5
10B
100
AcDbEntity
8
1
62
256
6
ByLayer
370
18
48
1
60
0
100
AcDbEllipse
10
11.193717
20
5.589015
30
0
11
0.625192533413094
21
-0.64740582030479
31
0
210
0
220
0
230
1
40
0.989133
41
-2.76930898916655
42
-2.58232493896956
0
ELLIPSE
5
10C
100
AcDbEntity
8
1
62
256
6
ByLayer
370
18
48
1
60
0
100
AcDbEllipse
10
12.326232
20
5.192609
30
0
11
0.218817386694583
21
-0.226592037106677
31
0
210
0
220
0
230
1
40
0.989133
41
-2.23266173163328
42
-1.75946146386806
0
ELLIPSE
5
10D
100
AcDbEntity
8
1
62
256
6
ByLayer
370
18
48
1
60
0
100
AcDbEllipse
10
11.198296
20
5.593437
30
0
11
0.642558992674568
21
-0.665389315313256
31
0
210
0
220
0
230
1
40
0.989133
41
-0.727966892467849
42
-0.434876830891468
0
ELLIPSE
5
10E
100
AcDbEntity
8
1
62
256
6
ByLayer
370
18
48
1
60
0
100
AcDbEllipse
10
11.198296
20
5.593437
30
0
11
-1.3198509038721
21
1.36674562064343
31
0
210
0
220
0
230
1
40
0.989133
41
0
42
6.28318530717959
0
ELLIPSE
5
10F
100
AcDbEntity
8
1
62
256
6
ByLayer
370
18
48
1
60
0
100
AcDbEllipse
10
11.193717
20
5.589015
30
0
11
0.625192533413094
21
-0.64740582030479
31
0
210
0
220
0
230
1
40
0.989133
41
1.41948121562003
42
1.60646526580715
0
ELLIPSE
5
110
100
AcDbEntity
8
1
62
256
6
ByLayer
370
18
48
1
60
0
100
AcDbEllipse
10
11.198296
20
5.593437
30
0
11
0.642558992674568
21
-0.665389315313256
31
0
210
0
220
0
230
1
40
0.989133
41
-1.77516444366444
42
-1.48207438208806
0
ELLIPSE
5
111
100
AcDbEntity
8
1
62
256
6
ByLayer
370
18
48
1
60
0
100
AcDbEllipse
10
11.193717
20
5.589015
30
0
11
0.625192533413094
21
-0.64740582030479
31
0
210
0
220
0
230
1
40
0.989133
41
2.46667876681156
42
2.65366281701153
0
ELLIPSE
5
112
100
AcDbEntity
8
1
62
256
6
ByLayer
370
18
48
1
60
0
100
AcDbEllipse
10
10.07036
20
5.994266
30
0
11
0.218817386694583
21
-0.226592037106677
31
0
210
0
220
0
230
1
40
0.989133
41
0.908930921956467
42
1.38213118972169
0
ELLIPSE
5
113
100
AcDbEntity
8
1
62
256
6
ByLayer
370
18
48
1
60
0
100
AcDbEllipse
10
10.572013
20
6.32097
30
0
11
-0.20145092743311
21
0.208608542098208
31
0
210
0
220
0
230
1
40
0.989133
41
-1.49777736188439
42
1.38213118972159
0
ELLIPSE
5
114
100
AcDbEntity
8
1
62
256
6
ByLayer
370
18
48
1
60
0
100
AcDbEllipse
10
11.955836
20
6.228606
30
0
11
0.218817386694583
21
-0.226592037106677
31
0
210
0
220
0
230
1
40
0.989133
41
-2.54497491308101
42
-1.89861906668995
0
ELLIPSE
5
115
100
AcDbEntity
8
1
62
256
6
ByLayer
370
18
48
1
60
0
100
AcDbEllipse
10
12.135374
20
5.765407
30
0
11
-0.20145092743311
21
0.208608542098208
31
0
210
0
220
0
230
1
40
0.989133
41
2.6910128429021
42
-0.712263912671559
0
ELLIPSE
5
116
100
AcDbEntity
8
1
62
256
6
ByLayer
370
18
48
1
60
0
100
AcDbEllipse
10
12.326232
20
5.192609
30
0
11
0.218817386694583
21
-0.226592037106677
31
0
210
0
220
0
230
1
40
0.989133
41
2.69101284290188
42
-3.11897219651244
0
ELLIPSE
5
117
100
AcDbEntity
8
1
62
256
6
ByLayer
370
18
48
1
60
0
100
AcDbEllipse
10
10.07036
20
5.994266
30
0
11
0.218817386694583
21
-0.226592037106677
31
0
210
0
220
0
230
1
40
0.989133
41
-0.450579810687691
42
0.0226204570775326
0
ELLIPSE
5
118
100
AcDbEntity
8
1
62
256
6
ByLayer
370
18
48
1
60
0
100
AcDbEllipse
10
11.509091
20
6.492939
30
0
11
-0.20145092743311
21
0.208608542098208
31
0
210
0
220
0
230
1
40
0.989133
41
-2.544974913081
42
0.33493363852511
0
ELLIPSE
5
119
100
AcDbEntity
8
1
62
256
6
ByLayer
370
18
48
1
60
0
100
AcDbEllipse
10
10.970677
20
6.767313
30
0
11
0.218817386694583
21
-0.226592037106677
31
0
210
0
220
0
230
1
40
0.989133
41
-0.13826662924013
42
0.334933638525186
0
ELLIPSE
5
11A
100
AcDbEntity
8
1
62
256
6
ByLayer
370
18
48
1
60
0
100
AcDbEllipse
10
11.824579
20
4.865905
30
0
11
-0.20145092743311
21
0.208608542098208
31
0
210
0
220
0
230
1
40
0.989133
41
1.64381529170539
42
-1.75946146386818
0
ELLIPSE
5
11B
100
AcDbEntity
8
1
62
256
6
ByLayer
370
18
48
1
60
0
100
AcDbEllipse
10
11.198296
20
5.593437
30
0
11
0.642558992674568
21
-0.665389315313256
31
0
210
0
220
0
230
1
40
0.989133
41
0.319230658728808
42
0.612320720305129
0
ELLIPSE
5
11C
100
AcDbEntity
8
1
62
256
6
ByLayer
370
18
48
1
60
0
100
AcDbEllipse
10
11.955836
20
6.228606
30
0
11
0.218817386694583
21
-0.226592037106677
31
0
210
0
220
0
230
1
40
0.989133
41
-1.35861975906243
42
-0.7122639126714
0
ELLIPSE
5
11D
100
AcDbEntity
8
1
62
256
6
ByLayer
370
18
48
1
60
0
100
AcDbEllipse
10
10.297979
20
4.82039
30
0
11
0.218817386694583
21
-0.226592037106677
31
0
210
0
220
0
230
1
40
0.989133
41
0.596617740508845
42
1.06981800827408
0
ELLIPSE
5
11E
100
AcDbEntity
8
1
62
256
6
ByLayer
370
18
48
1
60
0
100
AcDbEllipse
10
11.151869
20
5.548604
30
0
11
-2.22290678546881
21
2.30188736108367
31
0
210
0
220
0
230
1
40
0.989133
41
0
42
6.28318530717959
0
ELLIPSE
5
11F
100
AcDbEntity
8
1
62
256
6
ByLayer
370
18
48
1
60
0
100
AcDbEllipse
10
10.403063
20
1.959028
30
0
11
3.41043112438023
21
2.93580645579007
31
0
210
0
220
0
230
1
40
0.008497
41
1.94288547246073
42
2.38176204128923
0
ELLIPSE
5
120
100
AcDbEntity
8
1
62
256
6
ByLayer
370
18
48
1
60
0
100
AcDbEllipse
10
6.977431
20
6.016388
30
0
11
-3.63699153654646
21
-0.4829887586463
31
0
210
0
220
0
230
1
40
0.450788
41
-0.605251230554532
42
-0.313627366974839
0
ELLIPSE
5
121
100
AcDbEntity
8
1
62
256
6
ByLayer
370
18
48
1
60
0
100
AcDbEllipse
10
4.899897
20
4.113688
30
0
11
-1.94130821461605
21
1.57552893512117
31
0
210
0
220
0
230
1
40
0.996407
41
0.278087796561356
42
1.39188219267454
0
ELLIPSE
5
122
100
AcDbEntity
8
1
62
256
6
ByLayer
370
18
48
1
60
0
100
AcDbEllipse
10
7.595817
20
-4.850842
30
0
11
4.54724149917363
21
3.91440860772009
31
0
210
0
220
0
230
1
40
0.008497
41
-0.812430626025618
42
-0.810541504948145
0
ELLIPSE
5
123
100
AcDbEntity
8
1
62
256
6
ByLayer
370
18
48
1
60
0
100
AcDbEllipse
10
19.445657
20
12.628703
30
0
11
-0.562190561122541
21
1.60118247841675
31
0
210
0
220
0
230
1
40
0.828245
41
-1.54643966924683
42
-1.26535598429789
0
ELLIPSE
5
124
100
AcDbEntity
8
1
62
256
6
ByLayer
370
18
48
1
60
0
100
AcDbEllipse
10
12.416089
20
-0.251336
30
0
11
-1.94860221453557
21
-1.87420939811571
31
0
210
0
220
0
230
1
40
0.337398
41
-0.624812356270468
42
0.11667852745232
0
ELLIPSE
5
125
100
AcDbEntity
8
1
62
256
6
ByLayer
370
18
48
1
60
0
100
AcDbEllipse
10
11.241886
20
0.984594
30
0
11
-3.32032255738898
21
-3.04034332143617
31
0
210
0
220
0
230
1
40
0.206199
41
-0.612498182850435
42
-0.550849997957828
0
ELLIPSE
5
126
100
AcDbEntity
8
1
62
256
6
ByLayer
370
18
48
1
60
0
100
AcDbEllipse
10
10.956936
20
1.393526
30
0
11
-0.909968921771626
21
-3.6117293181827
31
0
210
0
220
0
230
1
40
0.460545
41
0.286624782358555
42
0.578248645882731
0
ELLIPSE
5
127
100
AcDbEntity
8
1
62
256
6
ByLayer
370
18
48
1
60
0
100
AcDbEllipse
10
5.263704
20
4.528049
30
0
11
0.422962807838338
21
-1.74960065820333
31
0
210
0
220
0
230
1
40
0.789807
41
-2.62149065462166
42
-1.19126084817287
0
ELLIPSE
5
128
100
AcDbEntity
8
1
62
256
6
ByLayer
370
18
48
1
60
0
100
AcDbEllipse
10
5.640008
20
7.620217
30
0
11
-2.14203681883489
21
-1.64958908557811
31
0
210
0
220
0
230
1
40
0.320461
41
-0.117834440469149
42
0.62365644326473
0
ELLIPSE
5
129
100
AcDbEntity
8
1
62
256
6
ByLayer
370
18
48
1
60
0
100
AcDbEllipse
10
9.291536
20
-0.150952
30
0
11
1.67995673361756
21
-0.646332246737712
31
0
210
0
220
0
230
1
40
0.78494
41
-1.97474263832179
42
-0.544512831872984
0
ELLIPSE
5
12A
100
AcDbEntity
8
1
62
256
6
ByLayer
370
18
48
1
60
0
100
AcDbEllipse
10
19.445657
20
12.628703
30
0
11
-1.53131921209057
21
0.704584371079734
31
0
210
0
220
0
230
1
40
0.826259
41
-1.94014771486692
42
-1.65906402986894
0
ELLIPSE
5
12B
100
AcDbEntity
8
1
62
256
6
ByLayer
370
18
48
1
60
0
100
AcDbEllipse
10
8.879402
20
-0.509174
30
0
11
-1.94130821494459
21
1.57552893472271
31
0
210
0
220
0
230
1
40
0.996407
41
1.39188219246714
42
2.50567658857907
0
ELLIPSE
5
12C
100
AcDbEntity
8
1
62
256
6
ByLayer
370
18
48
1
60
0
100
AcDbEllipse
10
6.693778
20
6.267988
30
0
11
-3.4997889675916
21
-2.83189221385492
31
0
210
0
220
0
230
1
40
0.189222
41
0.550288662187538
42
0.611936816645013
0
ELLIPSE
5
12D
100
AcDbEntity
8
1
62
256
6
ByLayer
370
18
48
1
60
0
100
AcDbEllipse
10
7.5326
20
5.293552
30
0
11
3.41043112438023
21
2.93580645579007
31
0
210
0
220
0
230
1
40
0.008497
41
1.94288547246086
42
2.38176204128984
0
POINT
5
6C
100
AcDbEntity
8
2
62
256
6
ByLayer
370
18
48
1
60
0
100
AcDbPoint
10
24.055774
20
19.9125
30
0
39
0
210
0
220
0
230
1
50
360
0
POINT
5
6E
100
AcDbEntity
8
80
62
256
6
ByLayer
370
18
48
1
60
0
100
AcDbPoint
10
0
20
0
30
0
39
0
210
0
220
0
230
1
50
360
0
POINT
5
70
100
AcDbEntity
8
81
62
256
6
ByLayer
370
18
48
1
60
0
100
AcDbPoint
10
24.055774
20
19.9125
30
0
39
0
210
0
220
0
230
1
50
360
0
SPLINE
5
12E
100
AcDbEntity
8
1
62
256
6
ByLayer
370
18
48
1
60
0
100
AcDbSpline
70
4
71
3
72
10
73
6
40
0
40
0
40
0
40
0
40
0.692206801802417
40
0.692206801802417
40
1
40
1
40
1
40
1
41
1
10
3.42798121263644
20
6.15567023709741
30
0
41
1
10
3.22258689180092
20
5.96809445935659
30
0
41
1
10
3.01374675500841
20
5.74453583255149
30
0
41
1
10
2.74841019019527
20
5.36114092646466
30
0
41
1
10
2.67099692253981
20
5.23337427121717
30
0
41
1
10
2.60221353119067
20
5.09768019751104
30
0
0
SPLINE
5
12F
100
AcDbEntity
8
1
62
256
6
ByLayer
370
18
48
1
60
0
100
AcDbSpline
70
4
71
3
72
8
73
4
40
0
40
0
40
0
40
0
40
1
40
1
40
1
40
1
41
1
10
10.4664228260367
20
5.07527125273299
30
0
41
1
10
10.4513367830334
20
5.08754498034929
30
0
41
1
10
10.436948585366
20
5.09766213338736
30
0
41
1
10
10.4234280471043
20
5.10612751423443
30
0
0
SPLINE
5
130
100
AcDbEntity
8
1
62
256
6
ByLayer
370
18
48
1
60
0
100
AcDbSpline
70
4
71
3
72
10
73
6
40
0
40
0
40
0
40
0
40
0.315026012182556
40
0.315026012182556
40
1
40
1
40
1
40
1
41
1
10
11.105713477798
20
6.48087785753836
30
0
41
1
10
11.1116873153005
20
6.48398295883072
30
0
41
1
10
11.1174560642358
20
6.48720979685137
30
0
41
1
10
11.1350539077046
20
6.49768386077184
30
0
41
1
10
11.1461852616223
20
6.50527000829874
30
0
41
1
10
11.1565153010419
20
6.51305215911955
30
0
0
SPLINE
5
131
100
AcDbEntity
8
1
62
256
6
ByLayer
370
18
48
1
60
0
100
AcDbSpline
70
4
71
3
72
10
73
6
40
0
40
0
40
0
40
0
40
0.516155291935546
40
0.516155291935546
40
1
40
1
40
1
40
1
41
1
10
12.1024011656288
20
5.41424723404148
30
0
41
1
10
12.0955100210721
20
5.40732083180427
30
0
41
1
10
12.0886653259904
20
5.3999369457338
30
0
41
1
10
12.0756451658639
20
5.38463235815999
30
0
41
1
10
12.0694282656676
20
5.37674185038156
30
0
41
1
10
12.0634157223656
20
5.36834622715392
30
0
0
SPLINE
5
132
100
AcDbEntity
8
1
62
256
6
ByLayer
370
18
48
1
60
0
100
AcDbSpline
70
4
71
3
72
10
73
6
40
0
40
0
40
0
40
0
40
0.629893813379204
40
0.629893813379204
40
1
40
1
40
1
40
1
41
1
10
11.503765736204
20
4.72221366987444
30
0
41
1
10
11.4925369932965
20
4.72389389203192
30
0
41
1
10
11.4807279370283
20
4.72525100836955
30
0
41
1
10
11.4610158975193
20
4.72668974198785
30
0
41
1
10
11.4534874762463
20
4.72706720987574
30
0
41
1
10
11.4457479077473
20
4.72725372006977
30
0
0
SPLINE
5
133
100
AcDbEntity
8
1
62
256
6
ByLayer
370
18
48
1
60
0
100
AcDbSpline
70
4
71
3
72
10
73
6
40
0
40
0
40
0
40
0
40
0.516155291935461
40
0.516155291935461
40
1
40
1
40
1
40
1
41
1
10
10.2941911884666
20
5.77262730013163
30
0
41
1
10
10.2993218241309
20
5.77785359869355
30
0
41
1
10
10.3044739749799
20
5.78360301379749
30
0
41
1
10
10.3144281338736
20
5.79594679839732
30
0
41
1
10
10.3192521933603
20
5.80249225553735
30
0
41
1
10
10.3240174946424
20
5.80968343114694
30
0
0
SPLINE
5
134
100
AcDbEntity
8
1
62
256
6
ByLayer
370
18
48
1
60
0
100
AcDbSpline
70
4
71
3
72
10
73
6
40
0
40
0
40
0
40
0
40
0.62989381337952
40
0.62989381337952
40
1
40
1
40
1
40
1
41
1
10
10.8928266178882
20
6.4646608642955
30
0
41
1
10
10.9019073623648
20
6.46090634416504
30
0
41
1
10
10.9116672834198
20
6.45757040095396
30
0
41
1
10
10.9284109923844
20
6.453265183849
30
0
41
1
10
10.9348999682375
20
6.45188393518711
30
0
41
1
10
10.941685309261
20
6.45077593823135
30
0
0
SPLINE
5
135
100
AcDbEntity
8
1
62
256
6
ByLayer
370
18
48
1
60
0
100
AcDbSpline
70
4
71
3
72
8
73
4
40
0
40
0
40
0
40
0
40
1
40
1
40
1
40
1
41
1
10
10.599660747608
20
4.90140370291303
30
0
41
1
10
10.5934887779405
20
4.91581446971747
30
0
41
1
10
10.585800053822
20
4.93134336055962
30
0
41
1
10
10.5760487938798
20
4.94792232207189
30
0
0
SPLINE
5
136
100
AcDbEntity
8
1
62
256
6
ByLayer
370
18
48
1
60
0
100
AcDbSpline
70
4
71
3
72
8
73
4
40
0
40
0
40
0
40
0
40
1
40
1
40
1
40
1
41
1
10
11.7969316064874
20
6.28547083126006
30
0
41
1
10
11.7996997534335
20
6.26777303106206
30
0
41
1
10
11.8042059529164
20
6.24917081190381
30
0
41
1
10
11.8113844231306
20
6.23010733623121
30
0
0
SPLINE
5
137
100
AcDbEntity
8
1
62
256
6
ByLayer
370
18
48
1
60
0
100
AcDbSpline
70
4
71
3
72
10
73
6
40
0
40
0
40
0
40
0
40
0.123732606265377
40
0.123732606265377
40
1
40
1
40
1
40
1
41
1
10
10.3784196953255
20
5.96713428112207
30
0
41
1
10
10.3787314933213
20
5.96973766159164
30
0
41
1
10
10.3790176469588
20
5.97232063835273
30
0
41
1
10
10.3811154945352
20
5.99284143885575
30
0
41
1
10
10.3817761881469
20
6.00981645316608
30
0
41
1
10
10.3816471710986
20
6.02574240626745
30
0
0
SPLINE
5
138
100
AcDbEntity
8
1
62
256
6
ByLayer
370
18
48
1
60
0
100
AcDbSpline
70
4
71
3
72
10
73
6
40
0
40
0
40
0
40
0
40
0.123732606265373
40
0.123732606265373
40
1
40
1
40
1
40
1
41
1
10
12.0090135216848
20
5.210895377181
30
0
41
1
10
12.0090231399495
20
5.20860238478622
30
0
41
1
10
12.0090680152446
20
5.20633907894955
30
0
41
1
10
12.0096908146111
20
5.18844557665946
30
0
41
1
10
12.0118341652716
20
5.17417839642684
30
0
41
1
10
12.0149451829969
20
5.1611321279056
30
0
0
SPLINE
5
139
100
AcDbEntity
8
1
62
256
6
ByLayer
370
18
48
1
60
0
100
AcDbSpline
70
4
71
3
72
8
73
4
40
0
40
0
40
0
40
0
40
1
40
1
40
1
40
1
41
1
10
11.9210103909738
20
6.10275840557011
30
0
41
1
10
11.938669223705
20
6.09296919211411
30
0
41
1
10
11.9562399460079
20
6.08592536739218
30
0
41
1
10
11.9731643069911
20
6.08074701993863
30
0
0
SPLINE
5
13A
100
AcDbEntity
8
1
62
256
6
ByLayer
370
18
48
1
60
0
100
AcDbSpline
70
4
71
3
72
10
73
6
40
0
40
0
40
0
40
0
40
0.315026012182338
40
0.315026012182338
40
1
40
1
40
1
40
1
41
1
10
11.2817197392109
20
4.69715180076341
30
0
41
1
10
11.2765604678554
20
4.69483331685555
30
0
41
1
10
11.2716683468152
20
4.69245302855285
30
0
41
1
10
11.256988701768
20
4.68479703609071
30
0
41
1
10
11.2480746747207
20
4.67935213623275
30
0
41
1
10
11.2400770530535
20
4.67382237505353
30
0
0
SPLINE
5
13B
100
AcDbEntity
8
1
62
256
6
ByLayer
370
18
48
1
60
0
100
AcDbSpline
70
4
71
2
72
8
73
5
40
0
40
0
40
0
40
0.581603760044145
40
0.872405640066218
40
1
40
1
40
1
41
1.02990374504916
10
8.95349148813369
20
9.95328112745992
30
0
41
1.02669755169729
10
10.6371948442779
20
10.5066919073156
30
0
41
1.02039724512338
10
13.3433542680233
20
11.0077135374109
30
0
41
1.01761724169577
10
14.7043189610694
20
11.126703595376
30
0
41
1.01686274329252
10
15.0732772234014
20
11.2029558008712
30
0
0
SPLINE
5
13C
100
AcDbEntity
8
1
62
256
6
ByLayer
370
18
48
1
60
0
100
AcDbSpline
70
4
71
3
72
8
73
4
40
0
40
0
40
0
40
0
40
1
40
1
40
1
40
1
41
1
10
15.3361702464393
20
13.8861261929192
30
0
41
1
10
15.3846875983738
20
13.9211518401842
30
0
41
1
10
15.4336891643246
20
13.9555613628417
30
0
41
1
10
15.4831422731378
20
13.9893673144532
30
0
0
SPLINE
5
13D
100
AcDbEntity
8
1
62
256
6
ByLayer
370
18
48
1
60
0
100
AcDbSpline
70
4
71
3
72
25
73
21
40
0
40
0
40
0
40
0
40
0.442411593548776
40
0.442411593548776
40
0.442411593548776
40
0.58339691626538
40
0.58339691626538
40
0.65160253048866
40
0.65160253048866
40
0.706341521306457
40
0.706341521306457
40
0.742475286987757
40
0.742475286987757
40
0.778972968742959
40
0.778972968742959
40
0.811539464980217
40
0.811539464980217
40
0.868309796146712
40
0.868309796146712
40
1
40
1
40
1
40
1
41
1
10
17.2286405583706
20
10.1663413373789
30
0
41
1
10
17.1047221063903
20
9.87455662454354
30
0
41
1
10
16.9991297481087
20
9.54421171516756
30
0
41
1
10
16.95047933429
20
9.19018487029055
30
0
41
1
10
16.9346860424681
20
9.0752578052348
30
0
41
1
10
16.9247871544927
20
8.95618390539525
30
0
41
1
10
16.9271602380431
20
8.78003883211647
30
0
41
1
10
16.930715821721
20
8.72193510046361
30
0
41
1
10
16.9452736267855
20
8.62099805107616
30
0
41
1
10
16.9548384373161
20
8.5765438626118
30
0
41
1
10
16.9781394515306
20
8.51094052038115
30
0
41
1
10
16.989637071031
20
8.48658408373524
30
0
41
1
10
17.0166665812132
20
8.44668560149671
30
0
41
1
10
17.0326429661077
20
8.43085285282672
30
0
41
1
10
17.0644571424442
20
8.41172130555472
30
0
41
1
10
17.080442916733
20
8.40692873986472
30
0
41
1
10
17.1237853177618
20
8.40325179251079
30
0
41
1
10
17.1515556034012
20
8.41079512845087
30
0
41
1
10
17.2393907146292
20
8.45079786821506
30
0
41
1
10
17.2968327035226
20
8.50166581447547
30
0
41
1
10
17.3517727385552
20
8.55610147333954
30
0
0
SPLINE
5
13E
100
AcDbEntity
8
1
62
256
6
ByLayer
370
18
48
1
60
0
100
AcDbSpline
70
4
71
3
72
8
73
4
40
0
40
0
40
0
40
0
40
1
40
1
40
1
40
1
41
1
10
9.139920594579
20
0.918673970138542
30
0
41
1
10
9.17342028051149
20
0.947705509332678
30
0
41
1
10
9.2072224745811
20
0.976986557763382
30
0
41
1
10
9.24128039848318
20
1.00647646436161
30
0
0
SPLINE
5
13F
100
AcDbEntity
8
1
62
256
6
ByLayer
370
18
48
1
60
0
100
AcDbSpline
70
4
71
3
72
8
73
4
40
0
40
0
40
0
40
0
40
1
40
1
40
1
40
1
41
1
10
16.2248674507629
20
14.1163814015315
30
0
41
1
10
15.4037293095826
20
13.2707546597473
30
0
41
1
10
15.7172262143637
20
12.1175920900018
30
0
41
1
10
15.0732772234015
20
11.2029558008712
30
0
0
SPLINE
5
140
100
AcDbEntity
8
1
62
256
6
ByLayer
370
18
48
1
60
0
100
AcDbSpline
70
4
71
2
72
6
73
3
40
0
40
0
40
0
40
1
40
1
40
1
41
1.02990374504916
10
8.95349148813369
20
9.95328112745992
30
0
41
0.929591662588769
10
9.36358976737701
20
9.76228941425528
30
0
41
0.932817050574084
10
10.1620203467647
20
9.00557562313606
30
0
0
SPLINE
5
141
100
AcDbEntity
8
1
62
256
6
ByLayer
370
18
48
1
60
0
100
AcDbSpline
70
4
71
3
72
10
73
6
40
0
40
0
40
0
40
0
40
0.106616270583438
40
0.106616270583438
40
1
40
1
40
1
40
1
41
1
10
17.7138659105197
20
11.1658399594489
30
0
41
1
10
17.6953124024604
20
11.1322960473563
30
0
41
1
10
17.6768916279443
20
11.0985281527849
30
0
41
1
10
17.5055787347152
20
10.7801036120315
30
0
41
1
10
17.3618228670363
20
10.4796817067444
30
0
41
1
10
17.2286405583706
20
10.1663413373789
30
0
0
SPLINE
5
142
100
AcDbEntity
8
1
62
256
6
ByLayer
370
18
48
1
60
0
100
AcDbSpline
70
4
71
3
72
12
73
8
40
0
40
0
40
0
40
0
40
0.36965908387578
40
0.36965908387578
40
0.727704501586107
40
0.727704501586107
40
1
40
1
40
1
40
1
41
1
10
4.20993575737538
20
5.88028057948836
30
0
41
1
10
4.43804175931984
20
5.89089324650158
30
0
41
1
10
4.74008021012315
20
5.86576100046761
30
0
41
1
10
5.41818382465027
20
5.76241090148625
30
0
41
1
10
5.79966473419438
20
5.68482291998032
30
0
41
1
10
6.50700771533553
20
5.51716588870318
30
0
41
1
10
6.8289595594099
20
5.43343354660749
30
0
41
1
10
7.15573057634833
20
5.34246664590637
30
0
0
SPLINE
5
143
100
AcDbEntity
8
1
62
256
6
ByLayer
370
18
48
1
60
0
100
AcDbSpline
70
4
71
3
72
10
73
6
40
0
40
0
40
0
40
0
40
0.679966690484307
40
0.679966690484307
40
1
40
1
40
1
40
1
41
1
10
7.33597439740731
20
5.88722210725643
30
0
41
1
10
7.31053350725011
20
5.76253991039528
30
0
41
1
10
7.274295270621
20
5.63729252902473
30
0
41
1
10
7.20617176271611
20
5.45674822290695
30
0
41
1
10
7.18202719784784
20
5.39923673099085
30
0
41
1
10
7.15573057634839
20
5.34246664590654
30
0
0
SPLINE
5
144
100
AcDbEntity
8
1
62
256
6
ByLayer
370
18
48
1
60
0
100
AcDbSpline
70
4
71
3
72
8
73
4
40
0
40
0
40
0
40
0
40
1
40
1
40
1
40
1
41
1
10
8.23732440615657
20
10.2868157576952
30
0
41
1
10
9.86434532337483
20
11.4803548801826
30
0
41
1
10
11.650434898889
20
12.3935450956798
30
0
41
1
10
13.5692886811555
20
13.0268349105598
30
0
0
SPLINE
5
145
100
AcDbEntity
8
1
62
256
6
ByLayer
370
18
48
1
60
0
100
AcDbSpline
70
4
71
3
72
8
73
4
40
0
40
0
40
0
40
0
40
1
40
1
40
1
40
1
41
1
10
17.3517727385552
20
8.55610147333954
30
0
41
1
10
18.3678213787088
20
9.03789514636063
30
0
41
1
10
19.4754545059114
20
8.53339666504343
30
0
41
1
10
20.4533086456245
20
9.20433843518791
30
0
0
SPLINE
5
146
100
AcDbEntity
8
1
62
256
6
ByLayer
370
18
48
1
60
0
100
AcDbSpline
70
4
71
2
72
6
73
3
40
0
40
0
40
0
40
1
40
1
40
1
41
0.932817050425109
10
14.4296569428609
20
4.04800062044946
30
0
41
0.929591664905396
10
15.0675153256738
20
3.1362241168525
30
0
41
1.02990374504916
10
15.20929357446
20
2.68611877719921
30
0
0
SPLINE
5
147
100
AcDbEntity
8
1
62
256
6
ByLayer
370
18
48
1
60
0
100
AcDbSpline
70
4
71
3
72
14
73
10
40
0
40
0
40
0
40
0
40
0.304391776008984
40
0.304391776008984
40
0.577373879687166
40
0.577373879687166
40
0.851610378463915
40
0.851610378463915
40
1
40
1
40
1
40
1
41
1
10
20.1605498537594
20
13.8269319214025
30
0
41
1
10
20.0040323567562
20
13.8897135687808
30
0
41
1
10
19.834186048357
20
13.942149728431
30
0
41
1
10
19.5039594292592
20
14.0096831298765
30
0
41
1
10
19.3405991525708
20
14.0284221032997
30
0
41
1
10
19.0260474750007
20
14.0321777961197
30
0
41
1
10
18.8707258016006
20
14.0169355544368
30
0
41
1
10
18.656025925456
20
13.9691764390654
30
0
41
1
10
18.5839420230151
20
13.9475510911728
30
0
41
1
10
18.5172719681929
20
13.9220448418829
30
0
0
SPLINE
5
148
100
AcDbEntity
8
1
62
256
6
ByLayer
370
18
48
1
60
0
100
AcDbSpline
70
4
71
3
72
15
73
11
40
0
40
0
40
0
40
0
40
0.225043240787981
40
0.225043240787981
40
0.520482827227109
40
0.520482827227109
40
0.820975208236872
40
0.820975208236872
40
0.820975208236872
40
1
40
1
40
1
40
1
41
1
10
14.8194337409108
20
7.63474860997974
30
0
41
1
10
14.9501524105911
20
7.38340661088088
30
0
41
1
10
15.0430224849222
20
7.10693279084143
30
0
41
1
10
15.1643946142556
20
6.46260915190325
30
0
41
1
10
15.1676727783908
20
6.08219335039271
30
0
41
1
10
15.0611348108846
20
5.34157565051487
30
0
41
1
10
14.9478369556623
20
4.97046479305482
30
0
41
1
10
14.7829985862043
20
4.62974605410429
30
0
41
1
10
14.6839873439633
20
4.42509112024894
30
0
41
1
10
14.5651578012358
20
4.22879735664657
30
0
41
1
10
14.4296569134944
20
4.04800066242703
30
0
0
SPLINE
5
149
100
AcDbEntity
8
1
62
256
6
ByLayer
370
18
48
1
60
0
100
AcDbSpline
70
4
71
3
72
14
73
10
40
0
40
0
40
0
40
0
40
0.262932482489331
40
0.262932482489331
40
0.526305718382459
40
0.526305718382459
40
0.786105451116571
40
0.786105451116571
40
1
40
1
40
1
40
1
41
1
10
20.6047666717778
20
11.497069961456
30
0
41
1
10
20.6673258363576
20
11.6047497407605
30
0
41
1
10
20.7205759572747
20
11.732010789058
30
0
41
1
10
20.7977527691816
20
12.0079115376344
30
0
41
1
10
20.8225807341819
20
12.1601261830868
30
0
41
1
10
20.8419635320112
20
12.464731948931
30
0
41
1
10
20.8373310357367
20
12.6206361213058
30
0
41
1
10
20.8072854548237
20
12.8946959822804
30
0
41
1
10
20.7856300258324
20
13.0165602172665
30
0
41
1
10
20.7577430881516
20
13.1331919134998
30
0
0
SPLINE
5
14A
100
AcDbEntity
8
1
62
256
6
ByLayer
370
18
48
1
60
0
100
AcDbSpline
70
4
71
2
72
6
73
3
40
0
40
0
40
0
40
1
40
1
40
1
41
1.01103575695168
10
16.2190399692025
20
14.1155213706638
30
0
41
1.01163342726563
10
15.8501604959141
20
14.0610125475791
30
0
41
1.01212826498448
10
15.4824556418053
20
13.9892332931704
30
0
0
SPLINE
5
14B
100
AcDbEntity
8
1
62
256
6
ByLayer
370
18
48
1
60
0
100
AcDbSpline
70
4
71
3
72
8
73
4
40
0
40
0
40
0
40
0
40
1
40
1
40
1
40
1
41
1
10
12.6850433129529
20
2.44502958938466
30
0
41
1
10
12.1679428248363
20
2.00102709610761
30
0
41
1
10
11.5481826973166
20
1.75858639982701
30
0
41
1
10
10.915320145473
20
1.729212262961
30
0
0
SPLINE
5
14C
100
AcDbEntity
8
1
62
256
6
ByLayer
370
18
48
1
60
0
100
AcDbSpline
70
4
71
3
72
8
73
4
40
0
40
0
40
0
40
0
40
1
40
1
40
1
40
1
41
1
10
8.02528050552172
20
-1.1832802930995
30
0
41
1
10
8.04454161900662
20
-1.20565530381919
30
0
41
1
10
8.06431703421765
20
-1.22709492998507
30
0
41
1
10
8.08457044402809
20
-1.2476694928138
30
0
0
SPLINE
5
14D
100
AcDbEntity
8
1
62
256
6
ByLayer
370
18
48
1
60
0
100
AcDbSpline
70
4
71
3
72
8
73
4
40
0
40
0
40
0
40
0
40
1
40
1
40
1
40
1
41
1
10
18.9691137912594
20
6.75403324633959
30
0
41
1
10
18.0598490016139
20
4.96505823836858
30
0
41
1
10
16.8774652151382
20
3.32262108974001
30
0
41
1
10
15.4568852432335
20
1.9000861302826
30
0
0
SPLINE
5
14E
100
AcDbEntity
8
1
62
256
6
ByLayer
370
18
48
1
60
0
100
AcDbSpline
70
4
71
3
72
12
73
8
40
0
40
0
40
0
40
0
40
0.391502209781614
40
0.391502209781614
40
0.88601884380103
40
0.88601884380103
40
1
40
1
40
1
40
1
41
1
10
8.16472798203398
20
-1.10944602129433
30
0
41
1
10
8.27644640610339
20
-0.924725633382252
30
0
41
1
10
8.39781822876233
20
-0.697483172834779
30
0
41
1
10
8.6823419676868
20
-0.121938223065456
30
0
41
1
10
8.8513425491098
20
0.249072654519807
30
0
41
1
10
9.06054517186152
20
0.732294623992573
30
0
41
1
10
9.10020310425699
20
0.82493671539541
30
0
41
1
10
9.13992059457979
20
0.918673970138087
30
0
0
SPLINE
5
14F
100
AcDbEntity
8
1
62
256
6
ByLayer
370
18
48
1
60
0
100
AcDbSpline
70
4
71
3
72
8
73
4
40
0
40
0
40
0
40
0
40
1
40
1
40
1
40
1
41
1
10
6.3708177061481
20
4.34099985843775
30
0
41
1
10
6.33675978224596
20
4.31150995183955
30
0
41
1
10
6.30295758817596
20
4.28222890340851
30
0
41
1
10
6.26945790224346
20
4.25319736421437
30
0
0
SPLINE
5
150
100
AcDbEntity
8
1
62
256
6
ByLayer
370
18
48
1
60
0
100
AcDbSpline
70
4
71
3
72
16
73
12
40
0
40
0
40
0
40
0
40
0.346164403850467
40
0.346164403850467
40
0.574058138681872
40
0.574058138681872
40
0.756733946461152
40
0.756733946461152
40
0.941193093213318
40
0.941193093213318
40
1
40
1
40
1
40
1
41
1
10
10.5543501814004
20
-2.18933878698977
30
0
41
1
10
10.3038689228416
20
-2.27303827814441
30
0
41
1
10
10.081450898989
20
-2.27316996137239
30
0
41
1
10
9.66497969858966
20
-2.19990894673444
30
0
41
1
10
9.48122514142636
20
-2.14808061058565
30
0
41
1
10
9.11732921055631
20
-1.9992227536533
30
0
41
1
10
8.94096458917778
20
-1.91086259618146
30
0
41
1
10
8.5885141052155
20
-1.6891142145447
30
0
41
1
10
8.40728134816942
20
-1.55107471569818
30
0
41
1
10
8.18798081156257
20
-1.35021544050636
30
0
41
1
10
8.13535947332826
20
-1.29926387045825
30
0
41
1
10
8.08457044402809
20
-1.24766949281377
30
0
0
SPLINE
5
151
100
AcDbEntity
8
1
62
256
6
ByLayer
370
18
48
1
60
0
100
AcDbSpline
70
4
71
3
72
8
73
4
40
0
40
0
40
0
40
0
40
1
40
1
40
1
40
1
41
1
10
6.26945790224391
20
4.25319736421471
30
0
41
1
10
5.40547605618417
20
4.0262969688481
30
0
41
1
10
4.64104742592008
20
3.79284853230689
30
0
41
1
10
4.13689673839355
20
3.56955487468463
30
0
0
SPLINE
5
152
100
AcDbEntity
8
1
62
256
6
ByLayer
370
18
48
1
60
0
100
AcDbSpline
70
4
71
3
72
16
73
12
40
0
40
0
40
0
40
0
40
0.151798394921708
40
0.151798394921708
40
0.302355402833644
40
0.302355402833644
40
0.469907609657966
40
0.469907609657966
40
0.750934341340612
40
0.750934341340612
40
1
40
1
40
1
40
1
41
1
10
3.99086791176813
20
3.5078519423403
30
0
41
1
10
3.88005152155159
20
3.65542600595651
30
0
41
1
10
3.77562739612597
20
3.81501381671311
30
0
41
1
10
3.60205091904885
20
4.13103825052883
30
0
41
1
10
3.52984488296846
20
4.29163654411644
30
0
41
1
10
3.41165227853838
20
4.61398729031055
30
0
41
1
10
3.36785647607206
20
4.77724511358522
30
0
41
1
10
3.29148761567251
20
5.17200504215893
30
0
41
1
10
3.28142412489882
20
5.38072992584142
30
0
41
1
10
3.31911412695968
20
5.73720434888324
30
0
41
1
10
3.36152442953943
20
5.89628321837918
30
0
41
1
10
3.45067829319731
20
6.06276640786547
30
0
0
SPLINE
5
153
100
AcDbEntity
8
1
62
256
6
ByLayer
370
18
48
1
60
0
100
AcDbSpline
70
4
71
2
72
6
73
3
40
0
40
0
40
0
40
1
40
1
40
1
41
1.02990374504916
10
15.20929357446
20
2.68611877719921
30
0
41
1.02990374504916
10
15.3330894088468
20
2.29310245374093
30
0
41
1.02990374504916
10
15.4568852432334
20
1.90008613028264
30
0
0
SPLINE
5
154
100
AcDbEntity
8
1
62
256
6
ByLayer
370
18
48
1
60
0
100
AcDbSpline
70
4
71
3
72
8
73
4
40
0
40
0
40
0
40
0
40
1
40
1
40
1
40
1
41
1
10
7.33597439740737
20
5.88722210725643
30
0
41
1
10
7.46127863974556
20
6.50132043928139
30
0
41
1
10
7.80364650030748
20
7.08429430903064
30
0
41
1
10
8.31411148598812
20
7.52259930309157
30
0
0
SPLINE
5
155
100
AcDbEntity
8
1
62
256
6
ByLayer
370
18
48
1
60
0
100
AcDbSpline
70
4
71
3
72
8
73
4
40
0
40
0
40
0
40
0
40
1
40
1
40
1
40
1
41
1
10
10.3475564060255
20
1.63462611995396
30
0
41
1
10
10.5039277224769
20
0.385200828994869
30
0
41
1
10
10.575617757335
20
-0.755007686635878
30
0
41
1
10
10.4657378437017
20
-1.38688177077236
30
0
0
SPLINE
5
156
100
AcDbEntity
8
1
62
256
6
ByLayer
370
18
48
1
60
0
100
AcDbSpline
70
4
71
3
72
10
73
6
40
0
40
0
40
0
40
0
40
0.207845795367728
40
0.207845795367728
40
1
40
1
40
1
40
1
41
1
10
10.3475564060255
20
1.63462611995396
30
0
41
1
10
10.3868344595484
20
1.64591575082704
30
0
41
1
10
10.4262852482934
20
1.65624828485579
30
0
41
1
10
10.6151605637198
20
1.70092364114623
30
0
41
1
10
10.7667076750933
20
1.72231445705955
30
0
41
1
10
10.915320145473
20
1.72921226296103
30
0
0
SPLINE
5
157
100
AcDbEntity
8
1
62
256
6
ByLayer
370
18
48
1
60
0
100
AcDbSpline
70
4
71
3
72
8
73
4
40
0
40
0
40
0
40
0
40
1
40
1
40
1
40
1
41
1
10
4.04577540932979
20
3.43958168505159
30
0
41
1
10
4.02651429584495
20
3.46195669577125
30
0
41
1
10
4.00823627789293
20
3.48472250848667
30
0
41
1
10
3.99086791176813
20
3.5078519423403
30
0
0
SPLINE
5
158
100
AcDbEntity
8
1
62
256
6
ByLayer
370
18
48
1
60
0
100
AcDbSpline
70
4
71
3
72
8
73
4
40
0
40
0
40
0
40
0
40
1
40
1
40
1
40
1
41
1
10
20.2163186825478
20
8.49098982025453
30
0
41
1
10
20.1750090193221
20
8.44772389207662
30
0
41
1
10
20.1331692103237
20
8.40499478868065
30
0
41
1
10
20.0907918471167
20
8.36283651569269
30
0
0
SPLINE
5
159
100
AcDbEntity
8
1
62
256
6
ByLayer
370
18
48
1
60
0
100
AcDbSpline
70
4
71
3
72
10
73
6
40
0
40
0
40
0
40
0
40
0.759976532001894
40
0.759976532001894
40
1
40
1
40
1
40
1
41
1
10
16.6455123244089
20
10.8437424905391
30
0
41
1
10
16.9278247775647
20
10.9140219153592
30
0
41
1
10
17.2021045319543
20
10.9930919094008
30
0
41
1
10
17.5498160169756
20
11.10810393581
30
0
41
1
10
17.6323492791924
20
11.1365622661951
30
0
41
1
10
17.7138659105197
20
11.1658399594489
30
0
0
SPLINE
5
15A
100
AcDbEntity
8
1
62
256
6
ByLayer
370
18
48
1
60
0
100
AcDbSpline
70
4
71
2
72
6
73
3
40
0
40
0
40
0
40
1
40
1
40
1
41
1.01212826498425
10
20.2160830194117
20
8.4903319237731
30
0
41
1.01163342726426
10
20.3422934336335
20
8.84264743618162
30
0
41
1.01103575694871
10
20.45158318598
20
9.19871321825303
30
0
0
SPLINE
5
15B
100
AcDbEntity
8
1
62
256
6
ByLayer
370
18
48
1
60
0
100
AcDbSpline
70
4
71
3
72
11
73
7
40
0
40
0
40
0
40
0
40
0.55992619571857
40
0.55992619571857
40
0.55992619571857
40
1
40
1
40
1
40
1
41
1
10
15.3361702464393
20
13.8861261929192
30
0
41
1
10
15.0813115929838
20
13.702138630894
30
0
41
1
10
14.7699178067912
20
13.5202703979755
30
0
41
1
10
14.4293581613027
20
13.3627865130213
30
0
41
1
10
14.1597639546961
20
13.2381189442709
30
0
41
1
10
13.8677818439391
20
13.1253482426068
30
0
41
1
10
13.5692886811555
20
13.0268349105598
30
0
0
SPLINE
5
15C
100
AcDbEntity
8
1
62
256
6
ByLayer
370
18
48
1
60
0
100
AcDbSpline
70
4
71
3
72
8
73
4
40
0
40
0
40
0
40
0
40
1
40
1
40
1
40
1
41
1
10
14.4296569134944
20
4.04800066242703
30
0
41
1
10
14.2822180638474
20
3.85356230173196
30
0
41
1
10
14.1122280948679
20
3.67046568178767
30
0
41
1
10
13.9257975457252
20
3.51038919656938
30
0
0
SPLINE
5
15D
100
AcDbEntity
8
1
62
256
6
ByLayer
370
18
48
1
60
0
100
AcDbSpline
70
4
71
3
72
12
73
8
40
0
40
0
40
0
40
0
40
0.501637567130159
40
0.501637567130159
40
0.886957471304466
40
0.886957471304466
40
1
40
1
40
1
40
1
41
1
10
9.24128039848318
20
1.00647646436158
30
0
41
1
10
9.39649530951255
20
1.14087318337664
30
0
41
1
10
9.57069202245009
20
1.26947045928742
30
0
41
1
10
9.90129291422841
20
1.46193061003271
30
0
41
1
10
10.0558387216583
20
1.53539158876066
30
0
41
1
10
10.2558538116859
20
1.60667175917538
30
0
41
1
10
10.3018458349972
20
1.62148760040881
30
0
41
1
10
10.3475564060255
20
1.63462611995396
30
0
0
SPLINE
5
15E
100
AcDbEntity
8
1
62
256
6
ByLayer
370
18
48
1
60
0
100
AcDbSpline
70
4
71
3
72
8
73
4
40
0
40
0
40
0
40
0
40
1
40
1
40
1
40
1
41
1
10
10.1620203301636
20
9.00557561406498
30
0
41
1
10
9.94408307825125
20
8.88665761633283
30
0
41
1
10
9.74121597037146
20
8.74796644892604
30
0
41
1
10
9.55486571876042
20
8.58795891027629
30
0
0
SPLINE
5
15F
100
AcDbEntity
8
1
62
256
6
ByLayer
370
18
48
1
60
0
100
AcDbSpline
70
4
71
2
72
8
73
5
40
0
40
0
40
0
40
0.145991510278046
40
0.563470207586085
40
1
40
1
40
1
41
1.02393576174182
10
14.8194337405653
20
7.63474860962589
30
0
41
1.02323174907608
10
15.0044417437066
20
7.82420624085793
30
0
41
1.02039724512338
10
15.7102296734731
20
8.55502411560735
30
0
41
1.01644464721285
10
16.6911681261399
20
9.66505804022804
30
0
41
1.01495409538129
10
17.2286405584226
20
10.1663413374273
30
0
0
SPLINE
5
160
100
AcDbEntity
8
1
62
256
6
ByLayer
370
18
48
1
60
0
100
AcDbSpline
70
4
71
3
72
12
73
8
40
0
40
0
40
0
40
0
40
0.415356444741149
40
0.415356444741149
40
0.825259843212191
40
0.825259843212191
40
1
40
1
40
1
40
1
41
1
10
7.15573057634839
20
5.34246664590657
30
0
41
1
10
7.08364268166804
20
5.18684072587595
30
0
41
1
10
6.98817633546435
20
5.02944540411505
30
0
41
1
10
6.77544468532528
20
4.74298187552429
30
0
41
1
10
6.65604109455808
20
4.6094528703984
30
0
41
1
10
6.4795520146626
20
4.43778466957735
30
0
41
1
10
6.42546082043879
20
4.38831396781515
30
0
41
1
10
6.3708177061481
20
4.34099985843775
30
0
0
SPLINE
5
161
100
AcDbEntity
8
1
62
256
6
ByLayer
370
18
48
1
60
0
100
AcDbSpline
70
4
71
1
72
4
73
2
40
0
40
0
40
1
40
1
41
1
10
8.95349148813369
20
9.95328112745992
30
0
41
1
10
8.23732440615657
20
10.2868157576952
30
0
0
SPLINE
5
162
100
AcDbEntity
8
1
62
256
6
ByLayer
370
18
48
1
60
0
100
AcDbSpline
70
4
71
2
72
8
73
5
40
0
40
0
40
0
40
0.58160376007072
40
0.87240564010608
40
1
40
1
40
1
41
1.02990374504916
10
15.20929357446
20
2.68611877719921
30
0
41
1.02669755169729
10
16.0043035432792
20
4.27189583720162
30
0
41
1.02039724512338
10
16.9010517688747
20
6.87485176018572
30
0
41
1.01761724169608
10
17.2208972813761
20
8.20327619656887
30
0
41
1.01686274329306
10
17.3517727385551
20
8.55610147333941
30
0
0
SPLINE
5
163
100
AcDbEntity
8
1
62
256
6
ByLayer
370
18
48
1
60
0
100
AcDbSpline
70
4
71
3
72
12
73
8
40
0
40
0
40
0
40
0
40
0.307573270173404
40
0.307573270173404
40
0.64885282065766
40
0.64885282065766
40
1
40
1
40
1
40
1
41
1
10
13.765724436865
20
8.85880852696525
30
0
41
1
10
13.9005429369214
20
8.76065496570394
30
0
41
1
10
14.0288838803439
20
8.6524067935936
30
0
41
1
10
14.281482073406
20
8.40670907135473
30
0
41
1
10
14.404620085635
20
8.26651591633225
30
0
41
1
10
14.6297055788164
20
7.96558983152568
30
0
41
1
10
14.731747415108
20
7.80329765526383
30
0
41
1
10
14.8194337409108
20
7.63474860997974
30
0
0
SPLINE
5
164
100
AcDbEntity
8
1
62
256
6
ByLayer
370
18
48
1
60
0
100
AcDbSpline
70
4
71
2
72
8
73
5
40
0
40
0
40
0
40
0.145991510275431
40
0.563470207592131
40
1
40
1
40
1
41
1.02393576174177
10
13.7657244364313
20
8.85880852665641
30
0
41
1.02323174907605
10
13.9815488353652
20
9.01246775053966
30
0
41
1.02039724512338
10
14.8133262260702
20
9.59692775551316
30
0
41
1.01644464721292
10
16.0647009560992
20
10.3928046295075
30
0
41
1.01495409538139
10
16.645512324425
20
10.8437424905516
30
0
0
SPLINE
5
165
100
AcDbEntity
8
1
62
256
6
ByLayer
370
18
48
1
60
0
100
AcDbSpline
70
4
71
3
72
10
73
6
40
0
40
0
40
0
40
0
40
0.71585535451806
40
0.71585535451806
40
1
40
1
40
1
40
1
41
1
10
10.7472630990639
20
-2.18681096429094
30
0
41
1
10
10.5173438438321
20
-2.38797728023536
30
0
41
1
10
10.2413790302579
20
-2.59106392100702
30
0
41
1
10
9.78948534692034
20
-2.8182476760218
30
0
41
1
10
9.65249897544328
20
-2.87681018906565
30
0
41
1
10
9.5088711823941
20
-2.92555994921176
30
0
0
SPLINE
5
166
100
AcDbEntity
8
1
62
256
6
ByLayer
370
18
48
1
60
0
100
AcDbSpline
70
4
71
3
72
16
73
12
40
0
40
0
40
0
40
0
40
0.283825424659828
40
0.283825424659828
40
0.572792249827489
40
0.572792249827489
40
0.572792249827489
40
0.894188232602856
40
0.894188232602856
40
0.894188232602856
40
1
40
1
40
1
40
1
41
1
10
10.1620203467732
20
9.00557562312804
30
0
41
1
10
10.4756079159411
20
9.17364586271941
30
0
41
1
10
10.8223043638112
20
9.29551723826302
30
0
41
1
10
11.5311059957511
20
9.43528628664902
30
0
41
1
10
11.9023880842399
20
9.4537843244639
30
0
41
1
10
12.2634798479642
20
9.41623575843005
30
0
41
1
10
12.6627478345835
20
9.37471739144723
30
0
41
1
10
13.0642269996591
20
9.26129733091162
30
0
41
1
10
13.421178113201
20
9.07315619883482
30
0
41
1
10
13.5408785675344
20
9.0100647049747
30
0
41
1
10
13.6565590732974
20
8.93826429864814
30
0
41
1
10
13.765724436865
20
8.85880852696525
30
0
0
SPLINE
5
167
100
AcDbEntity
8
1
62
256
6
ByLayer
370
18
48
1
60
0
100
AcDbSpline
70
4
71
3
72
24
73
20
40
0
40
0
40
0
40
0
40
0.142613444608223
40
0.142613444608223
40
0.190795218269489
40
0.190795218269489
40
0.226951176162322
40
0.226951176162322
40
0.263437466712852
40
0.263437466712852
40
0.296119365572357
40
0.296119365572357
40
0.352324850832284
40
0.352324850832284
40
0.455294648588112
40
0.455294648588112
40
0.662705158043638
40
0.662705158043638
40
1
40
1
40
1
40
1
41
1
10
15.0732772234015
20
11.2029558008712
30
0
41
1
10
15.0055579138073
20
11.1542617619826
30
0
41
1
10
14.9406746990894
20
11.1020654588225
30
0
41
1
10
14.8922548838867
20
11.0203157877761
30
0
41
1
10
14.8835982666375
20
10.9981175964973
30
0
41
1
10
14.8811539934641
20
10.9578457070828
30
0
41
1
10
14.8843724472086
20
10.9397714307672
30
0
41
1
10
14.9016999140203
20
10.9045742089905
30
0
41
1
10
14.9162472794818
20
10.8870310592408
30
0
41
1
10
14.9518493869135
20
10.8571533325849
30
0
41
1
10
14.9723449684245
20
10.8441020293303
30
0
41
1
10
15.0324961207132
20
10.8127968993374
30
0
41
1
10
15.0762065866277
20
10.7967892225636
30
0
41
1
10
15.2021473657269
20
10.7600848475333
30
0
41
1
10
15.2890958977069
20
10.7451829113955
30
0
41
1
10
15.5462585461434
20
10.7155065856736
30
0
41
1
10
15.7191110822753
20
10.7150905478422
30
0
41
1
10
16.1521765125322
20
10.7406904699579
30
0
41
1
10
16.4080804254956
20
10.7847084577175
30
0
41
1
10
16.6455123244089
20
10.8437424905391
30
0
0
SPLINE
5
168
100
AcDbEntity
8
1
62
256
6
ByLayer
370
18
48
1
60
0
100
AcDbSpline
70
4
71
3
72
10
73
6
40
0
40
0
40
0
40
0
40
0.56051815656327
40
0.56051815656327
40
1
40
1
40
1
40
1
41
1
10
18.9691137912594
20
6.75403324633962
30
0
41
1
10
19.1493279870873
20
7.10860398974572
30
0
41
1
10
19.3523541528003
20
7.44973986775091
30
0
41
1
10
19.7357672378687
20
7.97896558483089
30
0
41
1
10
19.9150730795407
20
8.18802621104061
30
0
41
1
10
20.0907918471167
20
8.36283651569264
30
0
0
LINE
5
72
100
AcDbEntity
8
1
62
256
6
ByLayer
370
18
48
1
60
0
100
AcDbLine
10
22.334287
20
4.19148
30
0
11
22.342834
21
4.199734
31
0
39
0
210
0
220
0
230
1
0
LINE
5
74
100
AcDbEntity
8
1
62
256
6
ByLayer
370
18
48
1
60
0
100
AcDbLine
10
3.803926
20
6.499982
30
0
11
3.425274
21
6.153195
31
0
39
0
210
0
220
0
230
1
0
LINE
5
75
100
AcDbEntity
8
1
62
256
6
ByLayer
370
18
48
1
60
0
100
AcDbLine
10
11.207098
20
4.646154
30
0
11
11.064321
21
4.508276
31
0
39
0
210
0
220
0
230
1
0
LINE
5
76
100
AcDbEntity
8
1
62
256
6
ByLayer
370
18
48
1
60
0
100
AcDbLine
10
12.107415
20
5.419201
30
0
11
11.964638
21
5.281323
31
0
39
0
210
0
220
0
230
1
0
LINE
5
77
100
AcDbEntity
8
1
62
256
6
ByLayer
370
18
48
1
60
0
100
AcDbLine
10
11.046718
20
6.402843
30
0
11
11.189495
21
6.540721
31
0
39
0
210
0
220
0
230
1
0
LINE
5
78
100
AcDbEntity
8
1
62
256
6
ByLayer
370
18
48
1
60
0
100
AcDbLine
10
10.75843
20
13.194696
30
0
11
10.25501
21
12.708548
31
0
39
0
210
0
220
0
230
1
0
LINE
5
79
100
AcDbEntity
8
1
62
256
6
ByLayer
370
18
48
1
60
0
100
AcDbLine
10
6.161646
20
4.147383
30
0
11
6.450752
21
4.41216
31
0
39
0
210
0
220
0
230
1
0
LINE
5
7A
100
AcDbEntity
8
1
62
256
6
ByLayer
370
18
48
1
60
0
100
AcDbLine
10
23.075748
20
4.395278
30
0
11
23.579169
21
4.881425
31
0
39
0
210
0
220
0
230
1
0
LINE
5
7B
100
AcDbEntity
8
1
62
256
6
ByLayer
370
18
48
1
60
0
100
AcDbLine
10
10.146401
20
5.629796
30
0
11
10.289178
21
5.767674
31
0
39
0
210
0
220
0
230
1
0
LINE
5
7C
100
AcDbEntity
8
1
62
256
6
ByLayer
370
18
48
1
60
0
100
AcDbLine
10
13.199106
20
3.077073
30
0
11
13.374776
21
3.246716
31
0
39
0
210
0
220
0
230
1
0
LINE
5
7D
100
AcDbEntity
8
1
62
256
6
ByLayer
370
18
48
1
60
0
100
AcDbLine
10
8.928963
20
7.850491
30
0
11
8.753292
21
7.680848
31
0
39
0
210
0
220
0
230
1
0
LINE
5
7E
100
AcDbEntity
8
80
62
256
6
ByLayer
370
18
48
1
60
0
100
AcDbLine
10
0
20
0
30
0
11
-5
21
0
31
0
39
0
210
0
220
0
230
1
0
LINE
5
7F
100
AcDbEntity
8
81
62
256
6
ByLayer
370
18
48
1
60
0
100
AcDbLine
10
24.055774
20
19.9125
30
0
11
34.055774
21
19.9125
31
0
39
0
210
0
220
0
230
1
0
LINE
5
80
100
AcDbEntity
8
1
62
256
6
ByLayer
370
18
48
1
60
0
100
AcDbLine
10
8.19103
20
7.402871
30
0
11
9.304201
21
8.358389
31
0
39
0
210
0
220
0
230
1
0
LINE
5
81
100
AcDbEntity
8
1
62
256
6
ByLayer
370
18
48
1
60
0
100
AcDbLine
10
11.009933
20
4.43142
30
0
11
11.145584
21
4.562417
31
0
39
0
210
0
220
0
230
1
0
LINE
5
82
100
AcDbEntity
8
1
62
256
6
ByLayer
370
18
48
1
60
0
100
AcDbLine
10
13.199106
20
3.077073
30
0
11
13.19917
21
3.077135
31
0
39
0
210
0
220
0
230
1
0
LINE
5
83
100
AcDbEntity
8
1
62
256
6
ByLayer
370
18
48
1
60
0
100
AcDbLine
10
14.895036
20
-4.725468
30
0
11
11.866537
21
-1.20736
31
0
39
0
210
0
220
0
230
1
0
LINE
5
84
100
AcDbEntity
8
1
62
256
6
ByLayer
370
18
48
1
60
0
100
AcDbLine
10
4.624149
20
7.205888
30
0
11
3.679025
21
8.303808
31
0
39
0
210
0
220
0
230
1
0
LINE
5
85
100
AcDbEntity
8
1
62
256
6
ByLayer
370
18
48
1
60
0
100
AcDbLine
10
12.787009
20
-6.36843
30
0
11
9.739619
21
-2.828377
31
0
39
0
210
0
220
0
230
1
0
LINE
5
86
100
AcDbEntity
8
1
62
256
6
ByLayer
370
18
48
1
60
0
100
AcDbLine
10
2.731195
20
5.313082
30
0
11
1.699923
21
6.511078
31
0
39
0
210
0
220
0
230
1
0
LINE
5
87
100
AcDbEntity
8
1
62
256
6
ByLayer
370
18
48
1
60
0
100
AcDbLine
10
21.958213
20
5.010996
30
0
11
19.004614
21
6.818542
31
0
39
0
210
0
220
0
230
1
0
LINE
5
88
100
AcDbEntity
8
1
62
256
6
ByLayer
370
18
48
1
60
0
100
AcDbLine
10
12.0462
20
-6.945804
30
0
11
8.642456
21
-2.991785
31
0
39
0
210
0
220
0
230
1
0
LINE
5
89
100
AcDbEntity
8
1
62
256
6
ByLayer
370
18
48
1
60
0
100
AcDbLine
10
2.40667
20
4.252125
30
0
11
0.826029
21
6.088305
31
0
39
0
210
0
220
0
230
1
0
LINE
5
8A
100
AcDbEntity
8
1
62
256
6
ByLayer
370
18
48
1
60
0
100
AcDbLine
10
19.011004
20
6.83006
30
0
11
19.141375
21
6.750275
31
0
39
0
210
0
220
0
230
1
0
LINE
5
8B
100
AcDbEntity
8
1
62
256
6
ByLayer
370
18
48
1
60
0
100
AcDbLine
10
13.976723
20
14.976094
30
0
11
13.689346
21
15.040231
31
0
39
0
210
0
220
0
230
1
0
LINE
5
8C
100
AcDbEntity
8
1
62
256
6
ByLayer
370
18
48
1
60
0
100
AcDbLine
10
10.781271
20
14.087143
30
0
11
12.258234
21
14.041993
31
0
39
0
210
0
220
0
230
1
0
LINE
5
8D
100
AcDbEntity
8
1
62
256
6
ByLayer
370
18
48
1
60
0
100
AcDbLine
10
17.591662
20
17.139164
30
0
11
17.715777
21
17.008497
31
0
39
0
210
0
220
0
230
1
0
LINE
5
8E
100
AcDbEntity
8
1
62
256
6
ByLayer
370
18
48
1
60
0
100
AcDbLine
10
12.763827
20
-6.386498
30
0
11
9.711266
21
-2.840437
31
0
39
0
210
0
220
0
230
1
0
LINE
5
8F
100
AcDbEntity
8
1
62
256
6
ByLayer
370
18
48
1
60
0
100
AcDbLine
10
2.715228
20
5.286633
30
0
11
1.499765
21
6.698596
31
0
39
0
210
0
220
0
230
1
0
LINE
5
90
100
AcDbEntity
8
1
62
256
6
ByLayer
370
18
48
1
60
0
100
AcDbLine
10
10.762478
20
13.922678
30
0
11
11.970758
21
13.885741
31
0
39
0
210
0
220
0
230
1
0
LINE
5
91
100
AcDbEntity
8
1
62
256
6
ByLayer
370
18
48
1
60
0
100
AcDbLine
10
10.90334
20
11.950992
30
0
11
10.841774
21
11.891537
31
0
39
0
210
0
220
0
230
1
0
LINE
5
92
100
AcDbEntity
8
1
62
256
6
ByLayer
370
18
48
1
60
0
100
AcDbLine
10
10.90334
20
11.950992
30
0
11
10.930437
21
11.934409
31
0
39
0
210
0
220
0
230
1
0
LINE
5
93
100
AcDbEntity
8
1
62
256
6
ByLayer
370
18
48
1
60
0
100
AcDbLine
10
19.076564
20
6.949136
30
0
11
22.620962
21
4.780033
31
0
39
0
210
0
220
0
230
1
0
LINE
5
94
100
AcDbEntity
8
1
62
256
6
ByLayer
370
18
48
1
60
0
100
AcDbLine
10
21.947453
20
4.397976
30
0
11
22.117541
21
4.293885
31
0
39
0
210
0
220
0
230
1
0
LINE
5
95
100
AcDbEntity
8
1
62
256
6
ByLayer
370
18
48
1
60
0
100
AcDbLine
10
21.883332
20
0.721098
30
0
11
14.895036
21
-4.725468
31
0
39
0
210
0
220
0
230
1
0
LINE
5
96
100
AcDbEntity
8
1
62
256
6
ByLayer
370
18
48
1
60
0
100
AcDbLine
10
17.591662
20
17.139164
30
0
11
13.689346
21
15.040231
31
0
39
0
210
0
220
0
230
1
0
LINE
5
97
100
AcDbEntity
8
1
62
256
6
ByLayer
370
18
48
1
60
0
100
AcDbLine
10
13.689346
20
15.040231
30
0
11
11.953747
21
15.093288
31
0
39
0
210
0
220
0
230
1
0
LINE
5
98
100
AcDbEntity
8
1
62
256
6
ByLayer
370
18
48
1
60
0
100
AcDbLine
10
3.012433
20
15.449933
30
0
11
4.867823
21
17.305323
31
0
39
0
210
0
220
0
230
1
0
LINE
5
99
100
AcDbEntity
8
1
62
256
6
ByLayer
370
18
48
1
60
0
100
AcDbLine
10
0
20
-12.4375
30
0
11
0
21
12.4375
31
0
39
0
210
0
220
0
230
1
0
LINE
5
9A
100
AcDbEntity
8
1
62
256
6
ByLayer
370
18
48
1
60
0
100
AcDbLine
10
9.548348
20
12.610935
30
0
11
9.552253
21
12.809796
31
0
39
0
210
0
220
0
230
1
0
LINE
5
9B
100
AcDbEntity
8
1
62
256
6
ByLayer
370
18
48
1
60
0
100
AcDbLine
10
2.555159
20
-12.448649
30
0
11
0.826029
21
6.088305
31
0
39
0
210
0
220
0
230
1
0
LINE
5
9C
100
AcDbEntity
8
1
62
256
6
ByLayer
370
18
48
1
60
0
100
AcDbLine
10
21.959932
20
5.109485
30
0
11
21.958213
21
5.010996
31
0
39
0
210
0
220
0
230
1
0
LINE
5
9D
100
AcDbEntity
8
1
62
256
6
ByLayer
370
18
48
1
60
0
100
AcDbLine
10
12.787009
20
-6.36843
30
0
11
14.895036
21
-4.725468
31
0
39
0
210
0
220
0
230
1
0
LINE
5
9E
100
AcDbEntity
8
1
62
256
6
ByLayer
370
18
48
1
60
0
100
AcDbLine
10
12.763827
20
-6.386498
30
0
11
12.787009
21
-6.36843
31
0
39
0
210
0
220
0
230
1
0
LINE
5
9F
100
AcDbEntity
8
1
62
256
6
ByLayer
370
18
48
1
60
0
100
AcDbLine
10
21.959932
20
5.109485
30
0
11
19.878494
21
6.383286
31
0
39
0
210
0
220
0
230
1
0
LINE
5
A0
100
AcDbEntity
8
1
62
256
6
ByLayer
370
18
48
1
60
0
100
AcDbLine
10
0
20
-12.4375
30
0
11
2.555159
21
-12.448649
31
0
39
0
210
0
220
0
230
1
0
LINE
5
A1
100
AcDbEntity
8
1
62
256
6
ByLayer
370
18
48
1
60
0
100
AcDbLine
10
4.987151
20
-12.447514
30
0
11
2.555159
21
-12.448649
31
0
39
0
210
0
220
0
230
1
0
LINE
5
A2
100
AcDbEntity
8
1
62
256
6
ByLayer
370
18
48
1
60
0
100
AcDbLine
10
16.581655
20
18.202495
30
0
11
4.867823
21
17.305323
31
0
39
0
210
0
220
0
230
1
0
LINE
5
A3
100
AcDbEntity
8
1
62
256
6
ByLayer
370
18
48
1
60
0
100
AcDbLine
10
1.699923
20
6.511078
30
0
11
3.679025
21
8.303808
31
0
39
0
210
0
220
0
230
1
0
LINE
5
A4
100
AcDbEntity
8
1
62
256
6
ByLayer
370
18
48
1
60
0
100
AcDbLine
10
21.883332
20
0.721098
30
0
11
21.958213
21
5.010996
31
0
39
0
210
0
220
0
230
1
0
LINE
5
A5
100
AcDbEntity
8
1
62
256
6
ByLayer
370
18
48
1
60
0
100
AcDbLine
10
10.781271
20
14.087143
30
0
11
11.953747
21
15.093288
31
0
39
0
210
0
220
0
230
1
0
LINE
5
A6
100
AcDbEntity
8
1
62
256
6
ByLayer
370
18
48
1
60
0
100
AcDbLine
10
10.762478
20
13.922678
30
0
11
10.781271
21
14.087143
31
0
39
0
210
0
220
0
230
1
0
LINE
5
A7
100
AcDbEntity
8
1
62
256
6
ByLayer
370
18
48
1
60
0
100
AcDbLine
10
3.679025
20
8.303808
30
0
11
3.012433
21
15.449933
31
0
39
0
210
0
220
0
230
1
0
LINE
5
A8
100
AcDbEntity
8
1
62
256
6
ByLayer
370
18
48
1
60
0
100
AcDbLine
10
1.499765
20
6.698596
30
0
11
1.699923
21
6.511078
31
0
39
0
210
0
220
0
230
1
0
LINE
5
A9
100
AcDbEntity
8
1
62
256
6
ByLayer
370
18
48
1
60
0
100
AcDbLine
10
16.581655
20
18.202495
30
0
11
17.591662
21
17.139164
31
0
39
0
210
0
220
0
230
1
0
LINE
5
AA
100
AcDbEntity
8
1
62
256
6
ByLayer
370
18
48
1
60
0
100
AcDbLine
10
3.012433
20
15.449933
30
0
11
0
21
12.4375
31
0
39
0
210
0
220
0
230
1
0
LINE
5
AB
100
AcDbEntity
8
1
62
256
6
ByLayer
370
18
48
1
60
0
100
AcDbLine
10
12.0462
20
-6.945804
30
0
11
12.763827
21
-6.386498
31
0
39
0
210
0
220
0
230
1
0
LINE
5
AC
100
AcDbEntity
8
1
62
256
6
ByLayer
370
18
48
1
60
0
100
AcDbLine
10
4.987151
20
-12.447514
30
0
11
12.0462
21
-6.945804
31
0
39
0
210
0
220
0
230
1
0
LINE
5
AD
100
AcDbEntity
8
SK1
62
256
6
ByLayer
370
18
48
1
60
0
100
AcDbLine
10
-147.294226
20
12.4375
30
0
11
-147.294226
21
-12.4375
31
0
39
0
210
0
220
0
230
1
0
LINE
5
AF
100
AcDbEntity
8
SK1
62
256
6
ByLayer
370
18
48
1
60
0
100
AcDbLine
10
-147.294226
20
-12.4375
30
0
11
0
21
-12.4375
31
0
39
0
210
0
220
0
230
1
0
LINE
5
B0
100
AcDbEntity
8
SK1
62
256
6
ByLayer
370
18
48
1
60
0
100
AcDbLine
10
0
20
12.4375
30
0
11
0
21
-12.4375
31
0
39
0
210
0
220
0
230
1
0
LINE
5
B1
100
AcDbEntity
8
SK1
62
256
6
ByLayer
370
18
48
1
60
0
100
AcDbLine
10
0
20
12.4375
30
0
11
-147.294226
21
12.4375
31
0
39
0
210
0
220
0
230
1
0
LINE
5
B2
100
AcDbEntity
8
1
62
256
6
ByLayer
370
18
48
1
60
0
100
AcDbLine
10
22.883441
20
19.817435
30
0
11
10.92721
21
13.318498
31
0
39
0
210
0
220
0
230
1
0
LINE
5
B3
100
AcDbEntity
8
1
62
256
6
ByLayer
370
18
48
1
60
0
100
AcDbLine
10
22.117541
20
4.293885
30
0
11
22.620962
21
4.780033
31
0
39
0
210
0
220
0
230
1
0
LINE
5
B4
100
AcDbEntity
8
1
62
256
6
ByLayer
370
18
48
1
60
0
100
AcDbLine
10
23.817037
20
5.430172
30
0
11
24.055646
21
19.100068
31
0
39
0
210
0
220
0
230
1
0
LINE
5
B5
100
AcDbEntity
8
1
62
256
6
ByLayer
370
18
48
1
60
0
100
AcDbLine
10
12.063416
20
5.368346
30
0
11
11.925218
21
5.234891
31
0
39
0
210
0
220
0
230
1
0
LINE
5
B6
100
AcDbEntity
8
1
62
256
6
ByLayer
370
18
48
1
60
0
100
AcDbLine
10
11.648895
20
6.294446
30
0
11
11.791672
21
6.432324
31
0
39
0
210
0
220
0
230
1
0
LINE
5
B7
100
AcDbEntity
8
1
62
256
6
ByLayer
370
18
48
1
60
0
100
AcDbLine
10
11.811384
20
6.230107
30
0
11
11.673187
21
6.096652
31
0
39
0
210
0
220
0
230
1
0
LINE
5
B8
100
AcDbEntity
8
1
62
256
6
ByLayer
370
18
48
1
60
0
100
AcDbLine
10
11.974976
20
5.915649
30
0
11
12.117753
21
6.053526
31
0
39
0
210
0
220
0
230
1
0
LINE
5
B9
100
AcDbEntity
8
1
62
256
6
ByLayer
370
18
48
1
60
0
100
AcDbLine
10
11.922264
20
4.884629
30
0
11
12.065041
21
5.022507
31
0
39
0
210
0
220
0
230
1
0
LINE
5
BA
100
AcDbEntity
8
1
62
256
6
ByLayer
370
18
48
1
60
0
100
AcDbLine
10
10.026956
20
5.558154
30
0
11
10.169733
21
5.696032
31
0
39
0
210
0
220
0
230
1
0
LINE
5
BB
100
AcDbEntity
8
1
62
256
6
ByLayer
370
18
48
1
60
0
100
AcDbLine
10
10.967516
20
6.347422
30
0
11
11.105713
21
6.480878
31
0
39
0
210
0
220
0
230
1
0
LINE
5
BC
100
AcDbEntity
8
1
62
256
6
ByLayer
370
18
48
1
60
0
100
AcDbLine
10
10.941685
20
6.450776
30
0
11
10.803488
21
6.31732
31
0
39
0
210
0
220
0
230
1
0
LINE
5
BD
100
AcDbEntity
8
1
62
256
6
ByLayer
370
18
48
1
60
0
100
AcDbLine
10
11.782813
20
5.969303
30
0
11
11.92101
21
6.102758
31
0
39
0
210
0
220
0
230
1
0
LINE
5
BE
100
AcDbEntity
8
1
62
256
6
ByLayer
370
18
48
1
60
0
100
AcDbLine
10
10.620332
20
6.397041
30
0
11
10.763108
21
6.534919
31
0
39
0
210
0
220
0
230
1
0
LINE
5
BF
100
AcDbEntity
8
1
62
256
6
ByLayer
370
18
48
1
60
0
100
AcDbLine
10
11.870816
20
5.07744
30
0
11
12.009014
21
5.210895
31
0
39
0
210
0
220
0
230
1
0
LINE
5
C0
100
AcDbEntity
8
1
62
256
6
ByLayer
370
18
48
1
60
0
100
AcDbLine
10
10.465738
20
-1.386882
30
0
11
15.209294
21
2.686119
31
0
39
0
210
0
220
0
230
1
0
LINE
5
C1
100
AcDbEntity
8
1
62
256
6
ByLayer
370
18
48
1
60
0
100
AcDbLine
10
11.104033
20
-1.860065
30
0
11
11.994925
21
-1.095111
31
0
39
0
210
0
220
0
230
1
0
LINE
5
C2
100
AcDbEntity
8
1
62
256
6
ByLayer
370
18
48
1
60
0
100
AcDbLine
10
6.989116
20
-2.132247
30
0
11
3.009611
21
2.490615
31
0
39
0
210
0
220
0
230
1
0
LINE
5
C3
100
AcDbEntity
8
1
62
256
6
ByLayer
370
18
48
1
60
0
100
AcDbLine
10
11.994925
20
-1.095111
30
0
11
10.75345
21
-2.181397
31
0
39
0
210
0
220
0
230
1
0
LINE
5
C4
100
AcDbEntity
8
1
62
256
6
ByLayer
370
18
48
1
60
0
100
AcDbLine
10
9.554866
20
8.587959
30
0
11
9.304201
21
8.358389
31
0
39
0
210
0
220
0
230
1
0
LINE
5
C5
100
AcDbEntity
8
1
62
256
6
ByLayer
370
18
48
1
60
0
100
AcDbLine
10
8.314111
20
7.522599
30
0
11
8.069146
21
7.298249
31
0
39
0
210
0
220
0
230
1
0
LINE
5
C6
100
AcDbEntity
8
1
62
256
6
ByLayer
370
18
48
1
60
0
100
AcDbLine
10
4.75353
20
7.316983
30
0
11
3.862638
21
6.552028
31
0
39
0
210
0
220
0
230
1
0
LINE
5
C7
100
AcDbEntity
8
1
62
256
6
ByLayer
370
18
48
1
60
0
100
AcDbLine
10
8.025281
20
-1.18328
30
0
11
6.989116
21
-2.132247
31
0
39
0
210
0
220
0
230
1
0
LINE
5
C8
100
AcDbEntity
8
1
62
256
6
ByLayer
370
18
48
1
60
0
100
AcDbLine
10
4.045775
20
3.439582
30
0
11
8.025281
21
-1.18328
31
0
39
0
210
0
220
0
230
1
0
LINE
5
C9
100
AcDbEntity
8
1
62
256
6
ByLayer
370
18
48
1
60
0
100
AcDbLine
10
6.091393
20
4.08509
30
0
11
5.043017
21
3.185191
31
0
39
0
210
0
220
0
230
1
0
LINE
5
CA
100
AcDbEntity
8
1
62
256
6
ByLayer
370
18
48
1
60
0
100
AcDbLine
10
20.45251
20
9.192244
30
0
11
20.604767
21
11.49707
31
0
39
0
210
0
220
0
230
1
0
LINE
5
CB
100
AcDbEntity
8
1
62
256
6
ByLayer
370
18
48
1
60
0
100
AcDbLine
10
8.314111
20
7.522599
30
0
11
9.554866
21
8.587959
31
0
39
0
210
0
220
0
230
1
0
LINE
5
CC
100
AcDbEntity
8
1
62
256
6
ByLayer
370
18
48
1
60
0
100
AcDbLine
10
11.104033
20
-1.860065
30
0
11
10.747263
21
-2.186811
31
0
39
0
210
0
220
0
230
1
0
LINE
5
CD
100
AcDbEntity
8
1
62
256
6
ByLayer
370
18
48
1
60
0
100
AcDbLine
10
13.925798
20
3.510389
30
0
11
12.685043
21
2.44503
31
0
39
0
210
0
220
0
230
1
0
LINE
5
CE
100
AcDbEntity
8
1
62
256
6
ByLayer
370
18
48
1
60
0
100
AcDbLine
10
4.75353
20
7.316983
30
0
11
4.799181
21
7.334693
31
0
39
0
210
0
220
0
230
1
0
LINE
5
CF
100
AcDbEntity
8
1
62
256
6
ByLayer
370
18
48
1
60
0
100
AcDbLine
10
11.994925
20
-1.095111
30
0
11
12.018742
21
-1.052037
31
0
39
0
210
0
220
0
230
1
0
LINE
5
D0
100
AcDbEntity
8
1
62
256
6
ByLayer
370
18
48
1
60
0
100
AcDbLine
10
17.713866
20
11.16584
30
0
11
20.541388
21
13.554279
31
0
39
0
210
0
220
0
230
1
0
LINE
5
D1
100
AcDbEntity
8
1
62
256
6
ByLayer
370
18
48
1
60
0
100
AcDbLine
10
4.045775
20
3.439582
30
0
11
3.009611
21
2.490615
31
0
39
0
210
0
220
0
230
1
0
LINE
5
D2
100
AcDbEntity
8
1
62
256
6
ByLayer
370
18
48
1
60
0
100
AcDbLine
10
4.209936
20
5.880281
30
0
11
8.953491
21
9.953281
31
0
39
0
210
0
220
0
230
1
0
LINE
5
D3
100
AcDbEntity
8
1
62
256
6
ByLayer
370
18
48
1
60
0
100
AcDbLine
10
8.237324
20
10.286816
30
0
11
4.799181
21
7.334693
31
0
39
0
210
0
220
0
230
1
0
LINE
5
D4
100
AcDbEntity
8
1
62
256
6
ByLayer
370
18
48
1
60
0
100
AcDbLine
10
15.456885
20
1.900086
30
0
11
12.018742
21
-1.052037
31
0
39
0
210
0
220
0
230
1
0
LINE
5
D5
100
AcDbEntity
8
1
62
256
6
ByLayer
370
18
48
1
60
0
100
AcDbLine
10
18.517272
20
13.922045
30
0
11
16.212775
21
14.117407
31
0
39
0
210
0
220
0
230
1
0
LINE
5
D6
100
AcDbEntity
8
1
62
256
6
ByLayer
370
18
48
1
60
0
100
AcDbLine
10
5.043017
20
3.185191
30
0
11
7.91348
21
-0.149333
31
0
39
0
210
0
220
0
230
1
0
MTEXT
5
169
100
AcDbEntity
8
SK6
62
256
6
ByLayer
370
18
48
1
60
0
100
AcDbMText
10
-75.744226
20
-23.318075
30
0
210
0
220
0
230
1
1
\W0.7660;DTFNR 3225P 16
40
3.5
41
0
44
1.084337
50
0
71
7
72
5
7
iso_b_vert
0
DIMENSION
5
17A
100
AcDbEntity
8
2
62
256
6
ByLayer
370
13
48
1
60
0
100
AcDbDimension
2
DimnDraft3D1
10
24.055774
20
19.9125
30
0
11
41.905061
21
1.763155
31
0
70
34
71
5
72
1
41
1
210
0
220
0
230
1
3
Standard
100
AcDb2LineAngularDimension
13
24.055653
23
19.104897
33
0
14
24.0382
24
18.105049
34
0
15
22.468274
25
19.9125
35
0
16
45.059153
26
-1.446472
36
0
40
0
0
DIMENSION
5
190
100
AcDbEntity
8
SK2
62
256
6
ByLayer
370
13
48
1
60
0
100
AcDbDimension
2
DimnDraft3D2
10
-155.044226
20
12.4375
30
0
11
-155.044226
21
-5.281579
31
0
70
32
71
5
72
1
41
1
210
0
220
0
230
1
3
Standard
100
AcDbAlignedDimension
13
-149.294226
23
-12.4375
33
0
14
-149.294226
24
12.4375
34
0
50
90
100
AcDbRotatedDimension
1001
ACAD
1000
DSTYLE
1002
{
1070
    74
1070
     0
1070
   279
1070
     0
1070
   172
1070
     1
1070
   173
1070
     1
1070
   340
1005
16A
1070
    77
1070
     1
1070
    73
1070
     0
1070
   171
1070
     3
1070
   274
1070
     4
1070
   177
1070
     2
1070
   176
1070
     2
1070
   178
1070
     7
1070
    78
1070
     8
1070
    41
1041
3.175
1070
   147
1041
2.25
1070
    42
1041
2.0
1070
    44
1041
2.0
1070
   140
1041
4.5
1070
   343
1005
17B
1070
   344
1005
17B
1002
}
0
DIMENSION
5
19E
100
AcDbEntity
8
2
62
256
6
ByLayer
370
13
48
1
60
0
100
AcDbDimension
2
DimnDraft3D3
10
64.305774
20
19.9125
30
0
11
64.305774
21
-1.544079
31
0
70
32
71
5
72
1
41
1
210
0
220
0
230
1
3
Standard
100
AcDbAlignedDimension
13
2
23
-12.4375
33
0
14
26.055773
24
19.9125
34
0
50
90
100
AcDbRotatedDimension
1001
ACAD
1000
DSTYLE
1002
{
1070
    74
1070
     0
1070
   279
1070
     0
1070
   172
1070
     1
1070
   173
1070
     1
1070
   340
1005
16A
1070
    77
1070
     1
1070
    73
1070
     0
1070
   171
1070
     3
1070
   274
1070
     4
1070
   177
1070
     2
1070
   176
1070
     2
1070
   178
1070
     7
1070
    78
1070
     8
1070
    41
1041
3.175
1070
   147
1041
2.25
1070
    42
1041
2.0
1070
    44
1041
2.0
1070
   140
1041
4.5
1070
   343
1005
17B
1070
   344
1005
17B
1002
}
0
DIMENSION
5
1AC
100
AcDbEntity
8
2
62
256
6
ByLayer
370
13
48
1
60
0
100
AcDbDimension
2
DimnDraft3D4
10
24.055774
20
35.6625
30
0
11
7.071966
21
35.6625
31
0
70
32
71
5
72
1
41
1
210
0
220
0
230
1
3
Standard
100
AcDbAlignedDimension
13
0
23
14.4375
33
0
14
24.055774
24
21.9125
34
0
50
0
100
AcDbRotatedDimension
1001
ACAD
1000
DSTYLE
1002
{
1070
   279
1070
     0
1070
   172
1070
     1
1070
   173
1070
     1
1070
   340
1005
16A
1070
    77
1070
     1
1070
    73
1070
     0
1070
   171
1070
     3
1070
   274
1070
     4
1070
   177
1070
     2
1070
   176
1070
     2
1070
   178
1070
     7
1070
    78
1070
     8
1070
    41
1041
3.175
1070
   147
1041
2.25
1070
    42
1041
2.0
1070
    44
1041
2.0
1070
   140
1041
4.5
1070
   343
1005
17B
1070
   344
1005
17B
1002
}
0
DIMENSION
5
1BA
100
AcDbEntity
8
SK2
62
256
6
ByLayer
370
13
48
1
60
0
100
AcDbDimension
2
DimnDraft3D5
10
-147.294226
20
45.6625
30
0
11
-68.019884
21
45.6625
31
0
70
32
71
5
72
1
41
1
210
0
220
0
230
1
3
Standard
100
AcDbAlignedDimension
13
24.055774
23
21.9125
33
0
14
-147.294226
24
14.4375
34
0
50
0
100
AcDbRotatedDimension
1001
ACAD
1000
DSTYLE
1002
{
1070
   279
1070
     0
1070
   172
1070
     1
1070
   173
1070
     1
1070
   340
1005
16A
1070
    77
1070
     1
1070
    73
1070
     0
1070
   171
1070
     3
1070
   274
1070
     4
1070
   177
1070
     2
1070
   176
1070
     2
1070
   178
1070
     7
1070
    78
1070
     8
1070
    41
1041
3.175
1070
   147
1041
2.25
1070
    42
1041
2.0
1070
    44
1041
2.0
1070
   140
1041
4.5
1070
   343
1005
17B
1070
   344
1005
17B
1002
}
0
ENDSEC
0
SECTION
2
OBJECTS
0
DICTIONARY
5
224
330
0
100
AcDbDictionary
280
0
281
1
3
ACAD_GROUP
350
225
3
ACAD_MLINESTYLE
350
226
0
DICTIONARY
5
225
330
0
100
AcDbDictionary
280
0
281
1
0
DICTIONARY
5
226
330
0
100
AcDbDictionary
280
0
281
1
3
Standard
350
18
0
MLINESTYLE
5
18
330
226
100
AcDbMlineStyle
2
Standard
70
0
3

62
256
51
90
52
90
71
2
49
-0.5
62
256
6
ByLayer
49
0.5
62
256
6
ByLayer
0
RASTERVARIABLES
5
213
330

100
AcDbRasterVariables
90
0
70
1
71
1
72
1
0
ENDSEC
0
EOF
