0
SECTION
2
HEADER
9
$ACADVER
1
AC1015
9
$DWGCODEPAGE
3
ANSI_1252
9
$HANDSEED
5
231
9
$ANGBASE
50
0
9
$ANGDIR
70
0
9
$ATTMODE
70
1
9
$AUNITS
70
0
9
$AUPREC
70
0
9
$CECOLOR
62
256
9
$CELTSCALE
40
1
9
$CELTYPE
6
ByLayer
9
$CELWEIGHT
370
18
9
$CLAYER
8
0
9
$CMLJUST
70
0
9
$CMLSCALE
40
1
9
$CMLSTYLE
2
Standard
9
$DIMSTYLE
2
Standard
9
$TEXTSIZE
40
0.2
9
$TEXTSTYLE
7
Standard
9
$LUNITS
70
2
9
$LUPREC
70
4
9
$EXTNAMES
290
1
9
$INSUNITS
70
4
9
$LTSCALE
40
1
9
$LWDISPLAY
290
1
9
$PDMODE
70
0
9
$PDSIZE
40
0
9
$PLINEGEN
70
0
0
ENDSEC
0
SECTION
2
CLASSES
0
CLASS
1
RASTERVARIABLES
2
AcDbRasterVariables
3
ISM
90
0
280
0
281
0
0
ENDSEC
0
SECTION
2
TABLES
0
TABLE
2
VPORT
5
227
100
AcDbSymbolTable
0
VPORT
5
1
100
AcDbSymbolTableRecord
100
AcDbViewportTableRecord
2
*Active
70
0
10
0
20
0
11
1
21
1
12
-1
22
1
13
0
23
0
14
0.5
24
0.5
15
10
25
10
16
0
26
0
36
1
17
0
27
0
37
0
0
ENDTAB
0
TABLE
2
LTYPE
5
228
100
AcDbSymbolTable
0
LTYPE
5
14
100
AcDbSymbolTableRecord
100
AcDbLinetypeTableRecord
70
0
2
ByBlock
3

72
65
73
0
40
0
0
LTYPE
5
15
100
AcDbSymbolTableRecord
100
AcDbLinetypeTableRecord
70
0
2
ByLayer
3

72
65
73
0
40
0
0
LTYPE
5
16
100
AcDbSymbolTableRecord
100
AcDbLinetypeTableRecord
70
0
2
CONTINUOUS
3
Solid line
72
65
73
0
40
0
0
LTYPE
5
6A
100
AcDbSymbolTableRecord
100
AcDbLinetypeTableRecord
70
0
2
CENTER
3
____ _ ____ _ ____ _ ____
72
65
73
4
40
47.5
49
22
74
0
49
-8.5
74
0
49
8.5
74
0
49
-8.5
74
0
0
LTYPE
5
6B
100
AcDbSymbolTableRecord
100
AcDbLinetypeTableRecord
70
0
2
DASHED
3
__ __ __ __ __ __ __ __ __
72
65
73
2
40
25.72
49
12.86
74
0
49
-12.86
74
0
0
ENDTAB
0
TABLE
2
LAYER
5
229
100
AcDbSymbolTable
0
LAYER
5
10
100
AcDbSymbolTableRecord
100
AcDbLayerTableRecord
2
0
70
0
62
7
6
CONTINUOUS
290
1
370
-3
390
0
0
LAYER
5
6D
100
AcDbSymbolTableRecord
100
AcDbLayerTableRecord
2
2
70
0
62
7
6
CONTINUOUS
290
1
370
-3
390
0
0
LAYER
5
6F
100
AcDbSymbolTableRecord
100
AcDbLayerTableRecord
2
80
70
0
62
-6
6
CONTINUOUS
290
1
370
-3
390
0
0
LAYER
5
71
100
AcDbSymbolTableRecord
100
AcDbLayerTableRecord
2
81
70
0
62
-3
6
CONTINUOUS
290
1
370
-3
390
0
0
LAYER
5
73
100
AcDbSymbolTableRecord
100
AcDbLayerTableRecord
2
1
70
0
62
4
6
CONTINUOUS
290
1
370
-3
390
0
0
LAYER
5
214
100
AcDbSymbolTableRecord
100
AcDbLayerTableRecord
2
SK1
70
0
62
4
6
CONTINUOUS
290
1
370
-3
390
0
0
LAYER
5
215
100
AcDbSymbolTableRecord
100
AcDbLayerTableRecord
2
SK6
70
0
62
5
6
CONTINUOUS
290
1
370
-3
390
0
0
LAYER
5
216
100
AcDbSymbolTableRecord
100
AcDbLayerTableRecord
2
SK2
70
0
62
7
6
CONTINUOUS
290
1
370
-3
390
0
0
ENDTAB
0
TABLE
2
STYLE
5
22a
100
AcDbSymbolTable
0
STYLE
5
11
100
AcDbSymbolTableRecord
100
AcDbTextStyleTableRecord
2
Standard
3
txt
70
0
71
0
40
0
41
1
42
0
50
0
0
STYLE
5
16A
100
AcDbSymbolTableRecord
100
AcDbTextStyleTableRecord
2
iso_b_vert
3
simplex.shx
70
0
71
0
40
0
41
1
42
0
50
0
0
STYLE
5
16B
100
AcDbSymbolTableRecord
100
AcDbTextStyleTableRecord
2
DWGDirectTextStyle
3
simplex
70
0
71
0
40
0
41
1
42
0
50
0
0
ENDTAB
0
TABLE
2
DIMSTYLE
5
22b
100
AcDbSymbolTable
100
AcDbDimStyleTable
0
DIMSTYLE
105
27
100
AcDbSymbolTableRecord
100
AcDbDimStyleTableRecord
2
Standard
70
0
3
<>
41
0.18
42
0.0625
44
0.18
140
0.18
147
0.09
73
0
74
0
77
1
271
2
275
0
278
52
280
0
340
11
0
ENDTAB
0
TABLE
2
VIEW
5
22c
100
AcDbSymbolTable
0
ENDTAB
0
TABLE
2
UCS
5
22d
100
AcDbSymbolTable
0
ENDTAB
0
TABLE
2
APPID
5
22e
100
AcDbSymbolTable
0
APPID
5
12
100
AcDbSymbolTableRecord
100
AcDbRegAppTableRecord
2
ACAD
70
0
0
ENDTAB
0
TABLE
2
BLOCK_RECORD
5
22f
100
AcDbSymbolTable
0
BLOCK_RECORD
5
1F
100
AcDbSymbolTableRecord
100
AcDbBlockTableRecord
2
*Model_Space
340
0
70
0
0
BLOCK_RECORD
5
1B
100
AcDbSymbolTableRecord
100
AcDbBlockTableRecord
2
*Paper_Space
340
0
70
0
0
BLOCK_RECORD
5
23
100
AcDbSymbolTableRecord
100
AcDbBlockTableRecord
2
*Paper_Space0
340
0
70
0
0
BLOCK_RECORD
5
16D
100
AcDbSymbolTableRecord
100
AcDbBlockTableRecord
2
DimnDraft3D1
340
0
70
0
0
BLOCK_RECORD
5
17B
100
AcDbSymbolTableRecord
100
AcDbBlockTableRecord
2
_CLOSED
340
0
70
0
0
BLOCK_RECORD
5
182
100
AcDbSymbolTableRecord
100
AcDbBlockTableRecord
2
DimnDraft3D2
340
0
70
0
0
BLOCK_RECORD
5
191
100
AcDbSymbolTableRecord
100
AcDbBlockTableRecord
2
DimnDraft3D3
340
0
70
0
0
BLOCK_RECORD
5
19F
100
AcDbSymbolTableRecord
100
AcDbBlockTableRecord
2
DimnDraft3D4
340
0
70
0
0
BLOCK_RECORD
5
1AD
100
AcDbSymbolTableRecord
100
AcDbBlockTableRecord
2
DimnDraft3D5
340
0
70
0
0
ENDTAB
0
ENDSEC
0
SECTION
2
BLOCKS
0
BLOCK
5
20
100
AcDbEntity
8
0
100
AcDbBlockBegin
2
*Model_Space
70
0
10
0
20
0
30
0
3
*Model_Space
0
ENDBLK
5
21
100
AcDbEntity
8
0
100
AcDbBlockEnd
0
BLOCK
5
1C
100
AcDbEntity
8
0
100
AcDbBlockBegin
2
*Paper_Space
70
0
10
0
20
0
30
0
3
*Paper_Space
0
ENDBLK
5
1D
100
AcDbEntity
8
0
100
AcDbBlockEnd
0
BLOCK
5
24
100
AcDbEntity
8
0
100
AcDbBlockBegin
2
*Paper_Space0
70
0
10
0
20
0
30
0
3
*Paper_Space0
0
ENDBLK
5
25
100
AcDbEntity
8
0
100
AcDbBlockEnd
0
BLOCK
5
178
100
AcDbEntity
8
0
100
AcDbBlockBegin
2
DimnDraft3D1
70
0
10
0
20
0
30
0
3
DimnDraft3D1
0
MTEXT
5
16E
100
AcDbEntity
8
2
62
256
6
ByLayer
370
18
48
1
60
0
100
AcDbMText
10
42.564799
20
-6.795813
30
0
210
0
220
0
230
1
1
\W0.6369;91%%d
40
4.5
41
0
44
1.084337
50
44.4999999999991
71
7
72
5
7
iso_b_vert
0
LINE
5
16F
100
AcDbEntity
8
2
62
256
6
ByLayer
370
13
48
1
60
0
100
AcDbLine
10
23.978295
20
11.605354
30
0
11
23.487215
21
-16.528598
31
0
39
0
210
0
220
0
230
1
0
LINE
5
170
100
AcDbEntity
8
2
62
256
6
ByLayer
370
13
48
1
60
0
100
AcDbLine
10
26.030773
20
15.4125
30
0
11
55.990713
21
15.4125
31
0
39
0
210
0
220
0
230
1
0
ARC
5
171
100
AcDbEntity
8
2
62
256
6
ByLayer
370
13
48
1
60
0
100
AcDbCircle
39
0
10
24.044749
20
15.4125
30
0
40
29.9459636112851
210
0
220
0
230
1
100
AcDbArc
50
269
51
0
0
LINE
5
172
100
AcDbEntity
8
2
62
256
6
ByLayer
370
13
48
1
60
0
100
AcDbLine
10
23.52212
20
-14.528903
30
0
11
26.693216
21
-14.08226
31
0
39
0
210
0
220
0
230
1
0
LINE
5
173
100
AcDbEntity
8
2
62
256
6
ByLayer
370
13
48
1
60
0
100
AcDbLine
10
23.52212
20
-14.528903
30
0
11
26.700766
21
-14.918219
31
0
39
0
210
0
220
0
230
1
0
LINE
5
174
100
AcDbEntity
8
2
62
256
6
ByLayer
370
13
48
1
60
0
100
AcDbLine
10
26.693216
20
-14.08226
30
0
11
26.700766
21
-14.918219
31
0
39
0
210
0
220
0
230
1
0
LINE
5
175
100
AcDbEntity
8
2
62
256
6
ByLayer
370
13
48
1
60
0
100
AcDbLine
10
53.990713
20
15.4125
30
0
11
54.324495
21
12.227547
31
0
39
0
210
0
220
0
230
1
0
LINE
5
176
100
AcDbEntity
8
2
62
256
6
ByLayer
370
13
48
1
60
0
100
AcDbLine
10
53.990713
20
15.4125
30
0
11
53.488795
21
12.249679
31
0
39
0
210
0
220
0
230
1
0
LINE
5
177
100
AcDbEntity
8
2
62
256
6
ByLayer
370
13
48
1
60
0
100
AcDbLine
10
54.324495
20
12.227547
30
0
11
53.488795
21
12.249679
31
0
39
0
210
0
220
0
230
1
0
ENDBLK
5
179
100
AcDbEntity
8
0
100
AcDbBlockEnd
0
BLOCK
5
17C
100
AcDbEntity
8
0
100
AcDbBlockBegin
2
_CLOSED
70
0
10
0
20
0
30
0
3
_CLOSED
0
LINE
5
17E
100
AcDbEntity
8
0
62
256
6
ByLayer
370
-2
48
1
60
0
100
AcDbLine
10
-1
20
0.166667
30
0
11
0
21
0
31
0
39
0
210
0
220
0
230
1
0
LINE
5
17F
100
AcDbEntity
8
0
62
256
6
ByLayer
370
-2
48
1
60
0
100
AcDbLine
10
0
20
0
30
0
11
-1
21
-0.166667
31
0
39
0
210
0
220
0
230
1
0
LINE
5
180
100
AcDbEntity
8
0
62
256
6
ByLayer
370
-2
48
1
60
0
100
AcDbLine
10
-1
20
0.166667
30
0
11
-1
21
-0.166667
31
0
39
0
210
0
220
0
230
1
0
LINE
5
181
100
AcDbEntity
8
0
62
256
6
ByLayer
370
-2
48
1
60
0
100
AcDbLine
10
0
20
0
30
0
11
-1
21
0
31
0
39
0
210
0
220
0
230
1
0
ENDBLK
5
17D
100
AcDbEntity
8
0
100
AcDbBlockEnd
0
BLOCK
5
18E
100
AcDbEntity
8
0
100
AcDbBlockBegin
2
DimnDraft3D2
70
0
10
0
20
0
30
0
3
DimnDraft3D2
0
MTEXT
5
183
100
AcDbEntity
8
SK2
62
256
6
ByLayer
370
18
48
1
60
0
100
AcDbMText
10
-111.194226
20
-4.156579
30
0
210
0
220
0
230
1
1
\W0.7346;20.0
40
4.5
41
0
44
1.084337
50
90
71
7
72
5
7
iso_b_vert
0
LINE
5
185
100
AcDbEntity
8
SK2
62
256
6
ByLayer
370
13
48
1
60
0
100
AcDbLine
10
-104.319226
20
-9.9375
30
0
11
-112.069226
21
-9.9375
31
0
39
0
210
0
220
0
230
1
0
LINE
5
186
100
AcDbEntity
8
SK2
62
256
6
ByLayer
370
13
48
1
60
0
100
AcDbLine
10
-104.319226
20
9.9375
30
0
11
-112.069226
21
9.9375
31
0
39
0
210
0
220
0
230
1
0
LINE
5
187
100
AcDbEntity
8
SK2
62
256
6
ByLayer
370
13
48
1
60
0
100
AcDbLine
10
-110.069226
20
-21.1875
30
0
11
-110.069226
21
21.1875
31
0
39
0
210
0
220
0
230
1
0
LINE
5
188
100
AcDbEntity
8
SK2
62
256
6
ByLayer
370
13
48
1
60
0
100
AcDbLine
10
-110.069226
20
-9.9375
30
0
11
-109.65123
21
-13.112498
31
0
39
0
210
0
220
0
230
1
0
LINE
5
189
100
AcDbEntity
8
SK2
62
256
6
ByLayer
370
13
48
1
60
0
100
AcDbLine
10
-110.069226
20
-9.9375
30
0
11
-110.487223
21
-13.112502
31
0
39
0
210
0
220
0
230
1
0
LINE
5
18A
100
AcDbEntity
8
SK2
62
256
6
ByLayer
370
13
48
1
60
0
100
AcDbLine
10
-109.65123
20
-13.112498
30
0
11
-110.487223
21
-13.112502
31
0
39
0
210
0
220
0
230
1
0
LINE
5
18B
100
AcDbEntity
8
SK2
62
256
6
ByLayer
370
13
48
1
60
0
100
AcDbLine
10
-110.069226
20
9.9375
30
0
11
-110.487223
21
13.112498
31
0
39
0
210
0
220
0
230
1
0
LINE
5
18C
100
AcDbEntity
8
SK2
62
256
6
ByLayer
370
13
48
1
60
0
100
AcDbLine
10
-110.069226
20
9.9375
30
0
11
-109.65123
21
13.112502
31
0
39
0
210
0
220
0
230
1
0
LINE
5
18D
100
AcDbEntity
8
SK2
62
256
6
ByLayer
370
13
48
1
60
0
100
AcDbLine
10
-110.487223
20
13.112498
30
0
11
-109.65123
21
13.112502
31
0
39
0
210
0
220
0
230
1
0
ENDBLK
5
18F
100
AcDbEntity
8
0
100
AcDbBlockEnd
0
BLOCK
5
19C
100
AcDbEntity
8
0
100
AcDbBlockBegin
2
DimnDraft3D3
70
0
10
0
20
0
30
0
3
DimnDraft3D3
0
MTEXT
5
192
100
AcDbEntity
8
2
62
256
6
ByLayer
370
18
48
1
60
0
100
AcDbMText
10
63.155774
20
-1.419079
30
0
210
0
220
0
230
1
1
\W0.7346;25.0
40
4.5
41
0
44
1.084337
50
90
71
7
72
5
7
iso_b_vert
0
LINE
5
193
100
AcDbEntity
8
2
62
256
6
ByLayer
370
13
48
1
60
0
100
AcDbLine
10
2
20
-9.9375
30
0
11
66.280773
21
-9.9375
31
0
39
0
210
0
220
0
230
1
0
LINE
5
194
100
AcDbEntity
8
2
62
256
6
ByLayer
370
13
48
1
60
0
100
AcDbLine
10
26.030773
20
15.4125
30
0
11
66.280773
21
15.4125
31
0
39
0
210
0
220
0
230
1
0
LINE
5
195
100
AcDbEntity
8
2
62
256
6
ByLayer
370
13
48
1
60
0
100
AcDbLine
10
64.280774
20
-9.9375
30
0
11
64.280774
21
15.4125
31
0
39
0
210
0
220
0
230
1
0
LINE
5
196
100
AcDbEntity
8
2
62
256
6
ByLayer
370
13
48
1
60
0
100
AcDbLine
10
64.280774
20
-9.9375
30
0
11
63.862777
21
-6.762502
31
0
39
0
210
0
220
0
230
1
0
LINE
5
197
100
AcDbEntity
8
2
62
256
6
ByLayer
370
13
48
1
60
0
100
AcDbLine
10
64.280774
20
-9.9375
30
0
11
64.69877
21
-6.762498
31
0
39
0
210
0
220
0
230
1
0
LINE
5
198
100
AcDbEntity
8
2
62
256
6
ByLayer
370
13
48
1
60
0
100
AcDbLine
10
63.862777
20
-6.762502
30
0
11
64.69877
21
-6.762498
31
0
39
0
210
0
220
0
230
1
0
LINE
5
199
100
AcDbEntity
8
2
62
256
6
ByLayer
370
13
48
1
60
0
100
AcDbLine
10
64.280774
20
15.4125
30
0
11
64.69877
21
12.237502
31
0
39
0
210
0
220
0
230
1
0
LINE
5
19A
100
AcDbEntity
8
2
62
256
6
ByLayer
370
13
48
1
60
0
100
AcDbLine
10
64.280774
20
15.4125
30
0
11
63.862777
21
12.237498
31
0
39
0
210
0
220
0
230
1
0
LINE
5
19B
100
AcDbEntity
8
2
62
256
6
ByLayer
370
13
48
1
60
0
100
AcDbLine
10
64.69877
20
12.237502
30
0
11
63.862777
21
12.237498
31
0
39
0
210
0
220
0
230
1
0
ENDBLK
5
19D
100
AcDbEntity
8
0
100
AcDbBlockEnd
0
BLOCK
5
1AA
100
AcDbEntity
8
0
100
AcDbBlockBegin
2
DimnDraft3D4
70
0
10
0
20
0
30
0
3
DimnDraft3D4
0
MTEXT
5
1A0
100
AcDbEntity
8
2
62
256
6
ByLayer
370
18
48
1
60
0
100
AcDbMText
10
7.621966
20
32.2875
30
0
210
0
220
0
230
1
1
\W0.7640;24.0
40
4.5
41
0
44
1.084337
50
0
71
7
72
5
7
iso_b_vert
0
LINE
5
1A1
100
AcDbEntity
8
2
62
256
6
ByLayer
370
13
48
1
60
0
100
AcDbLine
10
0
20
11.9375
30
0
11
0
21
33.1625
31
0
39
0
210
0
220
0
230
1
0
LINE
5
1A2
100
AcDbEntity
8
2
62
256
6
ByLayer
370
13
48
1
60
0
100
AcDbLine
10
24.030774
20
17.4125
30
0
11
24.030774
21
33.1625
31
0
39
0
210
0
220
0
230
1
0
LINE
5
1A3
100
AcDbEntity
8
2
62
256
6
ByLayer
370
13
48
1
60
0
100
AcDbLine
10
0
20
31.1625
30
0
11
24.030774
21
31.1625
31
0
39
0
210
0
220
0
230
1
0
LINE
5
1A4
100
AcDbEntity
8
2
62
256
6
ByLayer
370
13
48
1
60
0
100
AcDbLine
10
0
20
31.1625
30
0
11
3.174998
21
31.580497
31
0
39
0
210
0
220
0
230
1
0
LINE
5
1A5
100
AcDbEntity
8
2
62
256
6
ByLayer
370
13
48
1
60
0
100
AcDbLine
10
0
20
31.1625
30
0
11
3.175002
21
30.744503
31
0
39
0
210
0
220
0
230
1
0
LINE
5
1A6
100
AcDbEntity
8
2
62
256
6
ByLayer
370
13
48
1
60
0
100
AcDbLine
10
3.174998
20
31.580497
30
0
11
3.175002
21
30.744503
31
0
39
0
210
0
220
0
230
1
0
LINE
5
1A7
100
AcDbEntity
8
2
62
256
6
ByLayer
370
13
48
1
60
0
100
AcDbLine
10
24.030774
20
31.1625
30
0
11
20.855775
21
30.744503
31
0
39
0
210
0
220
0
230
1
0
LINE
5
1A8
100
AcDbEntity
8
2
62
256
6
ByLayer
370
13
48
1
60
0
100
AcDbLine
10
24.030774
20
31.1625
30
0
11
20.855772
21
31.580497
31
0
39
0
210
0
220
0
230
1
0
LINE
5
1A9
100
AcDbEntity
8
2
62
256
6
ByLayer
370
13
48
1
60
0
100
AcDbLine
10
20.855775
20
30.744503
30
0
11
20.855772
21
31.580497
31
0
39
0
210
0
220
0
230
1
0
ENDBLK
5
1AB
100
AcDbEntity
8
0
100
AcDbBlockEnd
0
BLOCK
5
1B8
100
AcDbEntity
8
0
100
AcDbBlockBegin
2
DimnDraft3D5
70
0
10
0
20
0
30
0
3
DimnDraft3D5
0
MTEXT
5
1AE
100
AcDbEntity
8
SK2
62
256
6
ByLayer
370
18
48
1
60
0
100
AcDbMText
10
-44.419884
20
42.2875
30
0
210
0
220
0
230
1
1
\W0.6864;125.0
40
4.5
41
0
44
1.084337
50
0
71
7
72
5
7
iso_b_vert
0
LINE
5
1AF
100
AcDbEntity
8
SK2
62
256
6
ByLayer
370
13
48
1
60
0
100
AcDbLine
10
24.030774
20
17.4125
30
0
11
24.030774
21
43.1625
31
0
39
0
210
0
220
0
230
1
0
LINE
5
1B0
100
AcDbEntity
8
SK2
62
256
6
ByLayer
370
13
48
1
60
0
100
AcDbLine
10
-102.319226
20
11.9375
30
0
11
-102.319226
21
43.1625
31
0
39
0
210
0
220
0
230
1
0
LINE
5
1B1
100
AcDbEntity
8
SK2
62
256
6
ByLayer
370
13
48
1
60
0
100
AcDbLine
10
24.030774
20
41.1625
30
0
11
-102.319226
21
41.1625
31
0
39
0
210
0
220
0
230
1
0
LINE
5
1B2
100
AcDbEntity
8
SK2
62
256
6
ByLayer
370
13
48
1
60
0
100
AcDbLine
10
24.030774
20
41.1625
30
0
11
20.855775
21
40.744503
31
0
39
0
210
0
220
0
230
1
0
LINE
5
1B3
100
AcDbEntity
8
SK2
62
256
6
ByLayer
370
13
48
1
60
0
100
AcDbLine
10
24.030774
20
41.1625
30
0
11
20.855772
21
41.580497
31
0
39
0
210
0
220
0
230
1
0
LINE
5
1B4
100
AcDbEntity
8
SK2
62
256
6
ByLayer
370
13
48
1
60
0
100
AcDbLine
10
20.855775
20
40.744503
30
0
11
20.855772
21
41.580497
31
0
39
0
210
0
220
0
230
1
0
LINE
5
1B5
100
AcDbEntity
8
SK2
62
256
6
ByLayer
370
13
48
1
60
0
100
AcDbLine
10
-102.319226
20
41.1625
30
0
11
-99.144228
21
41.580497
31
0
39
0
210
0
220
0
230
1
0
LINE
5
1B6
100
AcDbEntity
8
SK2
62
256
6
ByLayer
370
13
48
1
60
0
100
AcDbLine
10
-102.319226
20
41.1625
30
0
11
-99.144225
21
40.744503
31
0
39
0
210
0
220
0
230
1
0
LINE
5
1B7
100
AcDbEntity
8
SK2
62
256
6
ByLayer
370
13
48
1
60
0
100
AcDbLine
10
-99.144228
20
41.580497
30
0
11
-99.144225
21
40.744503
31
0
39
0
210
0
220
0
230
1
0
ENDBLK
5
1B9
100
AcDbEntity
8
0
100
AcDbBlockEnd
0
ENDSEC
0
SECTION
2
ENTITIES
0
ELLIPSE
5
D7
100
AcDbEntity
8
1
62
256
6
ByLayer
370
18
48
1
60
0
100
AcDbEllipse
10
10.093442
20
0.78359
30
0
11
-0.201450927433099
21
0.208608542098218
31
0
210
0
220
0
230
1
40
0.989133
41
-0.450579810687735
42
-0.35324733876713
0
ELLIPSE
5
D8
100
AcDbEntity
8
1
62
256
6
ByLayer
370
18
48
1
60
0
100
AcDbEllipse
10
11.258138
20
-0.218316
30
0
11
0.218817386694581
21
-0.226592037106678
31
0
210
0
220
0
230
1
40
0.989133
41
3.14159170001398
42
-2.80665901506474
0
ELLIPSE
5
D9
100
AcDbEntity
8
1
62
256
6
ByLayer
370
18
48
1
60
0
100
AcDbEllipse
10
9.902583
20
1.356388
30
0
11
0.218817386694581
21
-0.226592037106678
31
0
210
0
220
0
230
1
40
0.989133
41
-0.450579810687854
42
-9.45601460357727E-06
0
ELLIPSE
5
DA
100
AcDbEntity
8
1
62
256
6
ByLayer
370
18
48
1
60
0
100
AcDbEllipse
10
10.993503
20
0.919813
30
0
11
0.625192533413089
21
-0.647405820304795
31
0
210
0
220
0
230
1
40
0.989133
41
3.11265975917456
42
-1.48898808349858
0
ELLIPSE
5
DB
100
AcDbEntity
8
1
62
256
6
ByLayer
370
18
48
1
60
0
100
AcDbEllipse
10
10.993503
20
0.919813
30
0
11
0.625192533413089
21
-0.647405820304795
31
0
210
0
220
0
230
1
40
0.989133
41
0.0289900441172142
42
3.11265975917456
0
ELLIPSE
5
DC
100
AcDbEntity
8
1
62
256
6
ByLayer
370
18
48
1
60
0
100
AcDbEllipse
10
11.030519
20
0.955559
30
0
11
0.625192533413089
21
-0.647405820304795
31
0
210
0
220
0
230
1
40
0.989133
41
2.65366281700369
42
-3.0567545740641
0
ELLIPSE
5
DD
100
AcDbEntity
8
1
62
256
6
ByLayer
370
18
48
1
60
0
100
AcDbEllipse
10
11.030519
20
0.955559
30
0
11
0.625192533413089
21
-0.647405820304795
31
0
210
0
220
0
230
1
40
0.989133
41
-0.185659289691006
42
0.372283664423402
0
ELLIPSE
5
DE
100
AcDbEntity
8
1
62
256
6
ByLayer
370
18
48
1
60
0
100
AcDbEllipse
10
11.030519
20
0.955559
30
0
11
0.625192533413089
21
-0.647405820304795
31
0
210
0
220
0
230
1
40
0.989133
41
-1.30843382961172
42
-0.701432101627971
0
ELLIPSE
5
DF
100
AcDbEntity
8
1
62
256
6
ByLayer
370
18
48
1
60
0
100
AcDbEllipse
10
11.030519
20
0.955559
30
0
11
0.625192533413089
21
-0.647405820304795
31
0
210
0
220
0
230
1
40
0.989133
41
-2.58232493897928
42
-1.96825392676875
0
ELLIPSE
5
E0
100
AcDbEntity
8
1
62
256
6
ByLayer
370
18
48
1
60
0
100
AcDbEllipse
10
11.656802
20
0.228027
30
0
11
-0.201450927433099
21
0.208608542098218
31
0
210
0
220
0
230
1
40
0.989133
41
-2.78835450998346
42
-1.75946146386813
0
ELLIPSE
5
E1
100
AcDbEntity
8
1
62
256
6
ByLayer
370
18
48
1
60
0
100
AcDbEllipse
10
10.951199
20
0.87896
30
0
11
2.22290678546876
21
-2.30188736108372
31
0
210
0
220
0
230
1
40
0.989133
41
3.14152277429462
42
-0.773405829057347
0
ELLIPSE
5
E2
100
AcDbEntity
8
1
62
256
6
ByLayer
370
18
48
1
60
0
100
AcDbEllipse
10
10.951199
20
0.87896
30
0
11
2.22290678546876
21
-2.30188736108372
31
0
210
0
220
0
230
1
40
0.989133
41
-0.773405829057334
42
-2.45529455226701E-16
0
ELLIPSE
5
E3
100
AcDbEntity
8
1
62
256
6
ByLayer
370
18
48
1
60
0
100
AcDbEllipse
10
10.404237
20
1.683092
30
0
11
-0.201450927433099
21
0.208608542098218
31
0
210
0
220
0
230
1
40
0.989133
41
-1.4977773618844
42
-0.353237548425432
0
ELLIPSE
5
E4
100
AcDbEntity
8
1
62
256
6
ByLayer
370
18
48
1
60
0
100
AcDbEllipse
10
12.158455
20
0.554731
30
0
11
0.218817386694581
21
-0.226592037106678
31
0
210
0
220
0
230
1
40
0.989133
41
3.14158245417148
42
-2.9458166178866
0
ELLIPSE
5
E5
100
AcDbEntity
8
1
62
256
6
ByLayer
370
18
48
1
60
0
100
AcDbEllipse
10
10.8029
20
2.129435
30
0
11
0.218817386694581
21
-0.226592037106678
31
0
210
0
220
0
230
1
40
0.989133
41
-0.311422207865944
42
2.40451397440212E-07
0
ELLIPSE
5
E6
100
AcDbEntity
8
1
62
256
6
ByLayer
370
18
48
1
60
0
100
AcDbEllipse
10
11.967597
20
1.127529
30
0
11
-0.201450927433099
21
0.208608542098218
31
0
210
0
220
0
230
1
40
0.989133
41
-2.78831636700286
42
-0.712263912671448
0
ELLIPSE
5
E7
100
AcDbEntity
8
1
62
256
6
ByLayer
370
18
48
1
60
0
100
AcDbEllipse
10
11.341314
20
1.855061
30
0
11
-0.201450927433099
21
0.208608542098218
31
0
210
0
220
0
230
1
40
0.989133
41
-2.544974913081
42
-0.352780322784035
0
ELLIPSE
5
E8
100
AcDbEntity
8
1
62
256
6
ByLayer
370
18
48
1
60
0
100
AcDbEllipse
10
10.935686
20
7.002214
30
0
11
-0.827077622327754
21
0.856463949778298
31
0
210
0
220
0
230
1
40
0.989133
41
0.142125932998718
42
0.769593548975635
0
ELLIPSE
5
E9
100
AcDbEntity
8
1
62
256
6
ByLayer
370
18
48
1
60
0
100
AcDbEllipse
10
21.482209
20
0.547944
30
0
11
0.827077622327774
21
-0.856463949778263
31
0
210
0
220
0
230
1
40
0.989133
41
-0.399602483994867
42
-3.07753883593481E-05
0
ELLIPSE
5
EA
100
AcDbEntity
8
1
62
256
6
ByLayer
370
18
48
1
60
0
100
AcDbEllipse
10
4.109259
20
1.858629
30
0
11
2.07068345614488
21
-2.17077636444842
31
0
210
0
220
0
230
1
40
0.986421
41
-0.051756667307204
42
-0.0200260445400266
0
ELLIPSE
5
EB
100
AcDbEntity
8
1
62
256
6
ByLayer
370
18
48
1
60
0
100
AcDbEllipse
10
11.464667
20
1.319604
30
0
11
-2.31226319269512
21
2.4240336069674
31
0
210
0
220
0
230
1
40
0.986421
41
-3.07406703684437
42
-0.0517566673072022
0
ELLIPSE
5
EC
100
AcDbEntity
8
1
62
256
6
ByLayer
370
18
48
1
60
0
100
AcDbEllipse
10
10.707491
20
7.103113
30
0
11
-1.7354334638562
21
1.79709395938983
31
0
210
0
220
0
230
1
40
0.989133
41
-0.793043033483979
42
-0.418898835881281
0
ELLIPSE
5
ED
100
AcDbEntity
8
1
62
256
6
ByLayer
370
18
48
1
60
0
100
AcDbEllipse
10
10.691626
20
7.087793
30
0
11
-1.63123470828735
21
1.68919298933903
31
0
210
0
220
0
230
1
40
0.989133
41
-0.793043033483983
42
-0.351084803212919
0
ELLIPSE
5
EE
100
AcDbEntity
8
1
62
256
6
ByLayer
370
18
48
1
60
0
100
AcDbEllipse
10
10.781568
20
7.637393
30
0
11
0.551558746144436
21
-0.571155801468897
31
0
210
0
220
0
230
1
40
0.989133
41
-3.14159128008828
42
-1.54127688361947
0
ELLIPSE
5
EF
100
AcDbEntity
8
1
62
256
6
ByLayer
370
18
48
1
60
0
100
AcDbEllipse
10
22.49919
20
0.466434
30
0
11
0.551558746144436
21
-0.571155801468897
31
0
210
0
220
0
230
1
40
0.989133
41
-1.31446014751722
42
-3.10045454242743E-05
0
ELLIPSE
5
F0
100
AcDbEntity
8
1
62
256
6
ByLayer
370
18
48
1
60
0
100
AcDbEllipse
10
19.176273
20
7.899533
30
0
11
1.32332419572437
21
-1.37034231964515
31
0
210
0
220
0
230
1
40
0.989133
41
0.0397561131940591
42
2.98519558895536
0
ELLIPSE
5
F1
100
AcDbEntity
8
1
62
256
6
ByLayer
370
18
48
1
60
0
100
AcDbEllipse
10
19.176273
20
7.899533
30
0
11
1.32332419572437
21
-1.37034231964515
31
0
210
0
220
0
230
1
40
0.989133
41
-0.773405616262348
42
-0.755950144754701
0
ELLIPSE
5
F2
100
AcDbEntity
8
1
62
256
6
ByLayer
370
18
48
1
60
0
100
AcDbEllipse
10
11.878586
20
8.038936
30
0
11
1.64563042348718
21
-1.70410018881703
31
0
210
0
220
0
230
1
40
0.989133
41
-2.36383936027887
42
-1.80893096967493
0
ELLIPSE
5
F3
100
AcDbEntity
8
1
62
256
6
ByLayer
370
18
48
1
60
0
100
AcDbEllipse
10
11.882491
20
8.237797
30
0
11
1.64563042348718
21
-1.70410018881703
31
0
210
0
220
0
230
1
40
0.989133
41
2.34854962010581
42
-2.36383936027888
0
ELLIPSE
5
F4
100
AcDbEntity
8
1
62
256
6
ByLayer
370
18
48
1
60
0
100
AcDbEllipse
10
1.601661
20
0.838229
30
0
11
-0.580899836842554
21
1.53871757686441
31
0
210
0
220
0
230
1
40
0.367444
41
-0.641738812129412
42
0.929057514665515
0
ELLIPSE
5
F5
100
AcDbEntity
8
1
62
256
6
ByLayer
370
18
48
1
60
0
100
AcDbEllipse
10
19.475461
20
3.480119
30
0
11
-2.03909450996208
21
1.49948699854781
31
0
210
0
220
0
230
1
40
0.482826
41
1.74524543087422
42
2.08757591584554
0
ELLIPSE
5
F6
100
AcDbEntity
8
1
62
256
6
ByLayer
370
18
48
1
60
0
100
AcDbEllipse
10
23.241219
20
14.622477
30
0
11
-0.551558746144417
21
0.571155801468915
31
0
210
0
220
0
230
1
40
0.989133
41
-2.36165769871387
42
-0.267262596320656
0
ELLIPSE
5
F7
100
AcDbEntity
8
1
62
256
6
ByLayer
370
18
48
1
60
0
100
AcDbEllipse
10
23.00261
20
0.952581
30
0
11
-0.551558746144417
21
0.571155801468915
31
0
210
0
220
0
230
1
40
0.989133
41
1.82713250607255
42
-2.36165769871388
0
ELLIPSE
5
F8
100
AcDbEntity
8
1
62
256
6
ByLayer
370
18
48
1
60
0
100
AcDbEllipse
10
11.284989
20
8.12354
30
0
11
-0.551558746144417
21
0.571155801468915
31
0
210
0
220
0
230
1
40
0.989133
41
-0.267262596320697
42
1.82713250607252
0
ELLIPSE
5
F9
100
AcDbEntity
8
1
62
256
6
ByLayer
370
18
48
1
60
0
100
AcDbEllipse
10
11.400915
20
-0.080438
30
0
11
0.218817386694581
21
-0.226592037106678
31
0
210
0
220
0
230
1
40
0.989133
41
1.64381529170529
42
2.11701555947057
0
ELLIPSE
5
FA
100
AcDbEntity
8
1
62
256
6
ByLayer
370
18
48
1
60
0
100
AcDbEllipse
10
11.173296
20
1.093437
30
0
11
-1.31985090387203
21
1.3667456206435
31
0
210
0
220
0
230
1
40
0.989133
41
0
42
6.28318530717959
0
ELLIPSE
5
FB
100
AcDbEntity
8
1
62
256
6
ByLayer
370
18
48
1
60
0
100
AcDbEllipse
10
11.799579
20
0.365905
30
0
11
-0.201450927433099
21
0.208608542098218
31
0
210
0
220
0
230
1
40
0.989133
41
1.64381529170545
42
-1.75946146386804
0
ELLIPSE
5
FC
100
AcDbEntity
8
1
62
256
6
ByLayer
370
18
48
1
60
0
100
AcDbEllipse
10
11.173296
20
1.093437
30
0
11
0.642558992674563
21
-0.665389315313262
31
0
210
0
220
0
230
1
40
0.989133
41
0.319230658728759
42
0.612320720305115
0
ELLIPSE
5
FD
100
AcDbEntity
8
1
62
256
6
ByLayer
370
18
48
1
60
0
100
AcDbEllipse
10
10.236219
20
0.921468
30
0
11
-0.201450927433099
21
0.208608542098218
31
0
210
0
220
0
230
1
40
0.989133
41
-0.450579810687825
42
2.42932874091831
0
ELLIPSE
5
FE
100
AcDbEntity
8
1
62
256
6
ByLayer
370
18
48
1
60
0
100
AcDbEllipse
10
11.400915
20
-0.080438
30
0
11
0.218817386694581
21
-0.226592037106678
31
0
210
0
220
0
230
1
40
0.989133
41
3.00332602434961
42
-2.80665901506476
0
ELLIPSE
5
FF
100
AcDbEntity
8
1
62
256
6
ByLayer
370
18
48
1
60
0
100
AcDbEllipse
10
11.930836
20
1.728606
30
0
11
0.218817386694581
21
-0.226592037106678
31
0
210
0
220
0
230
1
40
0.989133
41
-2.54497491308101
42
-1.89861906669
0
ELLIPSE
5
100
100
AcDbEntity
8
1
62
256
6
ByLayer
370
18
48
1
60
0
100
AcDbEllipse
10
12.301232
20
0.692609
30
0
11
0.218817386694581
21
-0.226592037106678
31
0
210
0
220
0
230
1
40
0.989133
41
-2.23266173163335
42
-1.75946146386806
0
ELLIPSE
5
101
100
AcDbEntity
8
1
62
256
6
ByLayer
370
18
48
1
60
0
100
AcDbEllipse
10
10.04536
20
1.494266
30
0
11
0.218817386694581
21
-0.226592037106678
31
0
210
0
220
0
230
1
40
0.989133
41
-0.450579810687814
42
0.0226204570774392
0
ELLIPSE
5
102
100
AcDbEntity
8
1
62
256
6
ByLayer
370
18
48
1
60
0
100
AcDbEllipse
10
11.173296
20
1.093437
30
0
11
0.642558992674563
21
-0.665389315313262
31
0
210
0
220
0
230
1
40
0.989133
41
2.41362576112197
42
2.70671582269835
0
ELLIPSE
5
103
100
AcDbEntity
8
1
62
256
6
ByLayer
370
18
48
1
60
0
100
AcDbEllipse
10
11.030519
20
0.955559
30
0
11
0.625192533413089
21
-0.647405820304795
31
0
210
0
220
0
230
1
40
0.989133
41
0.559267714610498
42
1.41948121561998
0
ELLIPSE
5
104
100
AcDbEntity
8
1
62
256
6
ByLayer
370
18
48
1
60
0
100
AcDbEllipse
10
10.945677
20
2.267313
30
0
11
0.218817386694581
21
-0.226592037106678
31
0
210
0
220
0
230
1
40
0.989133
41
-1.49777736188436
42
-1.02457709411912
0
ELLIPSE
5
105
100
AcDbEntity
8
1
62
256
6
ByLayer
370
18
48
1
60
0
100
AcDbEllipse
10
10.8029
20
2.129435
30
0
11
0.218817386694581
21
-0.226592037106678
31
0
210
0
220
0
230
1
40
0.989133
41
-1.49777736188436
42
-0.851421515493384
0
ELLIPSE
5
106
100
AcDbEntity
8
1
62
256
6
ByLayer
370
18
48
1
60
0
100
AcDbEllipse
10
11.030519
20
0.955559
30
0
11
0.625192533413089
21
-0.647405820304795
31
0
210
0
220
0
230
1
40
0.989133
41
1.60646526580708
42
2.46667876681658
0
ELLIPSE
5
107
100
AcDbEntity
8
1
62
256
6
ByLayer
370
18
48
1
60
0
100
AcDbEllipse
10
11.173296
20
1.093437
30
0
11
0.642558992674563
21
-0.665389315313262
31
0
210
0
220
0
230
1
40
0.989133
41
1.36642820992535
42
1.6595182715017
0
ELLIPSE
5
108
100
AcDbEntity
8
1
62
256
6
ByLayer
370
18
48
1
60
0
100
AcDbEllipse
10
12.301232
20
0.692609
30
0
11
0.218817386694581
21
-0.226592037106678
31
0
210
0
220
0
230
1
40
0.989133
41
2.691012842902
42
-3.1189721965124
0
ELLIPSE
5
109
100
AcDbEntity
8
1
62
256
6
ByLayer
370
18
48
1
60
0
100
AcDbEllipse
10
11.930836
20
1.728606
30
0
11
0.218817386694581
21
-0.226592037106678
31
0
210
0
220
0
230
1
40
0.989133
41
-1.3586197590625
42
-0.712263912671466
0
ELLIPSE
5
10A
100
AcDbEntity
8
1
62
256
6
ByLayer
370
18
48
1
60
0
100
AcDbEllipse
10
12.073613
20
1.866484
30
0
11
0.218817386694581
21
-0.226592037106678
31
0
210
0
220
0
230
1
40
0.989133
41
-1.18546418043672
42
-0.712263912671431
0
ELLIPSE
5
10B
100
AcDbEntity
8
1
62
256
6
ByLayer
370
18
48
1
60
0
100
AcDbEllipse
10
11.168717
20
1.089015
30
0
11
0.625192533413089
21
-0.647405820304795
31
0
210
0
220
0
230
1
40
0.989133
41
2.46667876681153
42
2.6536628170115
0
ELLIPSE
5
10C
100
AcDbEntity
8
1
62
256
6
ByLayer
370
18
48
1
60
0
100
AcDbEllipse
10
11.173296
20
1.093437
30
0
11
0.642558992674563
21
-0.665389315313262
31
0
210
0
220
0
230
1
40
0.989133
41
-1.77516444366441
42
-1.48207438208807
0
ELLIPSE
5
10D
100
AcDbEntity
8
1
62
256
6
ByLayer
370
18
48
1
60
0
100
AcDbEllipse
10
11.168717
20
1.089015
30
0
11
0.625192533413089
21
-0.647405820304795
31
0
210
0
220
0
230
1
40
0.989133
41
0.372283664423248
42
0.559267714620227
0
ELLIPSE
5
10E
100
AcDbEntity
8
1
62
256
6
ByLayer
370
18
48
1
60
0
100
AcDbEllipse
10
11.173296
20
1.093437
30
0
11
0.642558992674563
21
-0.665389315313262
31
0
210
0
220
0
230
1
40
0.989133
41
-2.82236199486103
42
-2.52927193328467
0
ELLIPSE
5
10F
100
AcDbEntity
8
1
62
256
6
ByLayer
370
18
48
1
60
0
100
AcDbEllipse
10
11.168717
20
1.089015
30
0
11
0.625192533413089
21
-0.647405820304795
31
0
210
0
220
0
230
1
40
0.989133
41
-0.674913886773192
42
-0.487929836586095
0
ELLIPSE
5
110
100
AcDbEntity
8
1
62
256
6
ByLayer
370
18
48
1
60
0
100
AcDbEllipse
10
10.272979
20
0.32039
30
0
11
0.218817386694581
21
-0.226592037106678
31
0
210
0
220
0
230
1
40
0.989133
41
1.95612847315308
42
2.42932874091833
0
ELLIPSE
5
111
100
AcDbEntity
8
1
62
256
6
ByLayer
370
18
48
1
60
0
100
AcDbEllipse
10
11.168717
20
1.089015
30
0
11
0.625192533413089
21
-0.647405820304795
31
0
210
0
220
0
230
1
40
0.989133
41
-2.76930898916656
42
-2.58232493896955
0
ELLIPSE
5
112
100
AcDbEntity
8
1
62
256
6
ByLayer
370
18
48
1
60
0
100
AcDbEllipse
10
10.04536
20
1.494266
30
0
11
0.218817386694581
21
-0.226592037106678
31
0
210
0
220
0
230
1
40
0.989133
41
0.908930921956509
42
1.38213118972174
0
ELLIPSE
5
113
100
AcDbEntity
8
1
62
256
6
ByLayer
370
18
48
1
60
0
100
AcDbEllipse
10
11.168717
20
1.089015
30
0
11
0.625192533413089
21
-0.647405820304795
31
0
210
0
220
0
230
1
40
0.989133
41
-1.72211143796977
42
-1.53512738778271
0
ELLIPSE
5
114
100
AcDbEntity
8
1
62
256
6
ByLayer
370
18
48
1
60
0
100
AcDbEllipse
10
10.547013
20
1.82097
30
0
11
-0.201450927433099
21
0.208608542098218
31
0
210
0
220
0
230
1
40
0.989133
41
-1.4977773618844
42
1.38213118972176
0
ELLIPSE
5
115
100
AcDbEntity
8
1
62
256
6
ByLayer
370
18
48
1
60
0
100
AcDbEllipse
10
11.168717
20
1.089015
30
0
11
0.625192533413089
21
-0.647405820304795
31
0
210
0
220
0
230
1
40
0.989133
41
1.41948121562001
42
1.6064652658071
0
ELLIPSE
5
116
100
AcDbEntity
8
1
62
256
6
ByLayer
370
18
48
1
60
0
100
AcDbEllipse
10
10.272979
20
0.32039
30
0
11
0.218817386694581
21
-0.226592037106678
31
0
210
0
220
0
230
1
40
0.989133
41
0.59661774050875
42
1.06981800827403
0
ELLIPSE
5
117
100
AcDbEntity
8
1
62
256
6
ByLayer
370
18
48
1
60
0
100
AcDbEllipse
10
12.158455
20
0.554731
30
0
11
0.218817386694581
21
-0.226592037106678
31
0
210
0
220
0
230
1
40
0.989133
41
-2.4058173102591
42
-1.75946146386806
0
ELLIPSE
5
118
100
AcDbEntity
8
1
62
256
6
ByLayer
370
18
48
1
60
0
100
AcDbEllipse
10
11.484091
20
1.992939
30
0
11
-0.201450927433099
21
0.208608542098218
31
0
210
0
220
0
230
1
40
0.989133
41
-2.54497491308098
42
0.334933638525096
0
ELLIPSE
5
119
100
AcDbEntity
8
1
62
256
6
ByLayer
370
18
48
1
60
0
100
AcDbEllipse
10
11.126869
20
1.048604
30
0
11
-2.22290678546868
21
2.30188736108379
31
0
210
0
220
0
230
1
40
0.989133
41
0
42
6.28318530717959
0
ELLIPSE
5
11A
100
AcDbEntity
8
1
62
256
6
ByLayer
370
18
48
1
60
0
100
AcDbEllipse
10
10.862502
20
0.193935
30
0
11
-0.201450927433099
21
0.208608542098218
31
0
210
0
220
0
230
1
40
0.989133
41
0.596617740508758
42
-2.80665901506464
0
ELLIPSE
5
11B
100
AcDbEntity
8
1
62
256
6
ByLayer
370
18
48
1
60
0
100
AcDbEllipse
10
12.073613
20
1.866484
30
0
11
0.218817386694581
21
-0.226592037106678
31
0
210
0
220
0
230
1
40
0.989133
41
-2.54497491308108
42
-2.07177464531578
0
ELLIPSE
5
11C
100
AcDbEntity
8
1
62
256
6
ByLayer
370
18
48
1
60
0
100
AcDbEllipse
10
11.173296
20
1.093437
30
0
11
0.642558992674563
21
-0.665389315313262
31
0
210
0
220
0
230
1
40
0.989133
41
-0.72796689246786
42
-0.434876830891503
0
ELLIPSE
5
11D
100
AcDbEntity
8
1
62
256
6
ByLayer
370
18
48
1
60
0
100
AcDbEllipse
10
10.945677
20
2.267313
30
0
11
0.218817386694581
21
-0.226592037106678
31
0
210
0
220
0
230
1
40
0.989133
41
-0.13826662924008
42
0.334933638525145
0
ELLIPSE
5
11E
100
AcDbEntity
8
1
62
256
6
ByLayer
370
18
48
1
60
0
100
AcDbEllipse
10
12.110374
20
1.265407
30
0
11
-0.201450927433099
21
0.208608542098218
31
0
210
0
220
0
230
1
40
0.989133
41
2.69101284290193
42
-0.712263912671445
0
ELLIPSE
5
11F
100
AcDbEntity
8
1
62
256
6
ByLayer
370
18
48
1
60
0
100
AcDbEllipse
10
10.378063
20
-2.540972
30
0
11
3.41043112438022
21
2.93580645579007
31
0
210
0
220
0
230
1
40
0.008497
41
1.94288547246087
42
2.38176204128975
0
ELLIPSE
5
120
100
AcDbEntity
8
1
62
256
6
ByLayer
370
18
48
1
60
0
100
AcDbEllipse
10
9.266536
20
-4.650952
30
0
11
1.67995673361756
21
-0.64633224673771
31
0
210
0
220
0
230
1
40
0.78494
41
-1.97474263832177
42
-0.544512831872968
0
ELLIPSE
5
121
100
AcDbEntity
8
1
62
256
6
ByLayer
370
18
48
1
60
0
100
AcDbEllipse
10
11.216886
20
-3.515406
30
0
11
-3.32032342260286
21
-3.04034394628447
31
0
210
0
220
0
230
1
40
0.206199
41
-0.612498109235334
42
-0.550849932890954
0
ELLIPSE
5
122
100
AcDbEntity
8
1
62
256
6
ByLayer
370
18
48
1
60
0
100
AcDbEllipse
10
6.668776
20
1.767986
30
0
11
-3.49978669202353
21
-2.83188993730167
31
0
210
0
220
0
230
1
40
0.189222
41
0.550288855995708
42
0.611937036227213
0
ELLIPSE
5
123
100
AcDbEntity
8
1
62
256
6
ByLayer
370
18
48
1
60
0
100
AcDbEllipse
10
7.570817
20
-9.350842
30
0
11
4.54724149917363
21
3.91440860772009
31
0
210
0
220
0
230
1
40
0.008497
41
-0.812430626025456
42
-0.810541504948407
0
ELLIPSE
5
124
100
AcDbEntity
8
1
62
256
6
ByLayer
370
18
48
1
60
0
100
AcDbEllipse
10
19.420657
20
8.128703
30
0
11
-0.562190561113772
21
1.60118247839717
31
0
210
0
220
0
230
1
40
0.828245
41
-1.54643966924503
42
-1.2653559842924
0
ELLIPSE
5
125
100
AcDbEntity
8
1
62
256
6
ByLayer
370
18
48
1
60
0
100
AcDbEllipse
10
5.238704
20
0.028049
30
0
11
0.422962807838329
21
-1.74960065820333
31
0
210
0
220
0
230
1
40
0.789807
41
-2.62149065462167
42
-1.19126084817288
0
ELLIPSE
5
126
100
AcDbEntity
8
1
62
256
6
ByLayer
370
18
48
1
60
0
100
AcDbEllipse
10
10.931936
20
-3.106474
30
0
11
-0.909968921771332
21
-3.61172931813146
31
0
210
0
220
0
230
1
40
0.460545
41
0.286624782361761
42
0.578248645888111
0
ELLIPSE
5
127
100
AcDbEntity
8
1
62
256
6
ByLayer
370
18
48
1
60
0
100
AcDbEllipse
10
6.952431
20
1.516388
30
0
11
-3.63699153752268
21
-0.482988758531291
31
0
210
0
220
0
230
1
40
0.450788
41
-0.605251230446427
42
-0.313627366909046
0
ELLIPSE
5
128
100
AcDbEntity
8
1
62
256
6
ByLayer
370
18
48
1
60
0
100
AcDbEllipse
10
5.615008
20
3.120217
30
0
11
-2.142036818838
21
-1.64958908558127
31
0
210
0
220
0
230
1
40
0.320461
41
-0.117834440469065
42
0.623656443264128
0
ELLIPSE
5
129
100
AcDbEntity
8
1
62
256
6
ByLayer
370
18
48
1
60
0
100
AcDbEllipse
10
7.5076
20
0.793552
30
0
11
3.41043112438022
21
2.93580645579007
31
0
210
0
220
0
230
1
40
0.008497
41
1.94288547246076
42
2.38176204128939
0
ELLIPSE
5
12A
100
AcDbEntity
8
1
62
256
6
ByLayer
370
18
48
1
60
0
100
AcDbEllipse
10
19.420657
20
8.128703
30
0
11
-1.53131921285134
21
0.704584370737413
31
0
210
0
220
0
230
1
40
0.826259
41
-1.94014771520702
42
-1.6590640302961
0
ELLIPSE
5
12B
100
AcDbEntity
8
1
62
256
6
ByLayer
370
18
48
1
60
0
100
AcDbEllipse
10
12.391089
20
-4.751336
30
0
11
-1.94860221449746
21
-1.87420939808477
31
0
210
0
220
0
230
1
40
0.337398
41
-0.62481235627684
42
0.116678527452873
0
ELLIPSE
5
12C
100
AcDbEntity
8
1
62
256
6
ByLayer
370
18
48
1
60
0
100
AcDbEllipse
10
8.854402
20
-5.009174
30
0
11
-1.94130821484065
21
1.57552893485342
31
0
210
0
220
0
230
1
40
0.996407
41
1.39188219253432
42
2.50567658864557
0
ELLIPSE
5
12D
100
AcDbEntity
8
1
62
256
6
ByLayer
370
18
48
1
60
0
100
AcDbEllipse
10
4.874897
20
-0.386312
30
0
11
-1.94130821502598
21
1.57552893462565
31
0
210
0
220
0
230
1
40
0.996407
41
0.278087796305202
42
1.39188219241637
0
POINT
5
6C
100
AcDbEntity
8
2
62
256
6
ByLayer
370
18
48
1
60
0
100
AcDbPoint
10
24.030774
20
15.4125
30
0
39
0
210
0
220
0
230
1
50
360
0
POINT
5
6E
100
AcDbEntity
8
80
62
256
6
ByLayer
370
18
48
1
60
0
100
AcDbPoint
10
0
20
0
30
0
39
0
210
0
220
0
230
1
50
360
0
POINT
5
70
100
AcDbEntity
8
81
62
256
6
ByLayer
370
18
48
1
60
0
100
AcDbPoint
10
24.030774
20
15.4125
30
0
39
0
210
0
220
0
230
1
50
360
0
SPLINE
5
12E
100
AcDbEntity
8
1
62
256
6
ByLayer
370
18
48
1
60
0
100
AcDbSpline
70
4
71
3
72
10
73
6
40
0
40
0
40
0
40
0
40
0.69220680180239
40
0.69220680180239
40
1
40
1
40
1
40
1
41
1
10
3.40298121263726
20
1.65567023709735
30
0
41
1
10
3.19758689180168
20
1.46809445935659
30
0
41
1
10
2.98874675500923
20
1.24453583255149
30
0
41
1
10
2.72341019019609
20
0.861140926464685
30
0
41
1
10
2.64599692254058
20
0.733374271217173
30
0
41
1
10
2.57721353119143
20
0.597680197511039
30
0
0
SPLINE
5
12F
100
AcDbEntity
8
1
62
256
6
ByLayer
370
18
48
1
60
0
100
AcDbSpline
70
4
71
3
72
10
73
6
40
0
40
0
40
0
40
0
40
0.123732606265413
40
0.123732606265413
40
1
40
1
40
1
40
1
41
1
10
11.9840135216855
20
0.710895377181032
30
0
41
1
10
11.9840231399503
20
0.708602384786246
30
0
41
1
10
11.9840680152454
20
0.706339078949554
30
0
41
1
10
11.9846908146119
20
0.68844557665949
30
0
41
1
10
11.9868341652724
20
0.674178396426868
30
0
41
1
10
11.9899451829976
20
0.661132127905631
30
0
0
SPLINE
5
130
100
AcDbEntity
8
1
62
256
6
ByLayer
370
18
48
1
60
0
100
AcDbSpline
70
4
71
3
72
8
73
4
40
0
40
0
40
0
40
0
40
1
40
1
40
1
40
1
41
1
10
11.7719316064882
20
1.78547083126003
30
0
41
1
10
11.7746997534343
20
1.76777303106206
30
0
41
1
10
11.7792059529172
20
1.74917081190381
30
0
41
1
10
11.7863844231314
20
1.73010733623121
30
0
0
SPLINE
5
131
100
AcDbEntity
8
1
62
256
6
ByLayer
370
18
48
1
60
0
100
AcDbSpline
70
4
71
3
72
10
73
6
40
0
40
0
40
0
40
0
40
0.516155291935604
40
0.516155291935604
40
1
40
1
40
1
40
1
41
1
10
12.0774011656295
20
0.914247234041454
30
0
41
1
10
12.070510021073
20
0.907320831804242
30
0
41
1
10
12.0636653259911
20
0.899936945733799
30
0
41
1
10
12.0506451658647
20
0.88463235815999
30
0
41
1
10
12.0444282656684
20
0.876741850381563
30
0
41
1
10
12.0384157223664
20
0.868346227153921
30
0
0
SPLINE
5
132
100
AcDbEntity
8
1
62
256
6
ByLayer
370
18
48
1
60
0
100
AcDbSpline
70
4
71
3
72
8
73
4
40
0
40
0
40
0
40
0
40
1
40
1
40
1
40
1
41
1
10
10.4414228260373
20
0.575271252732989
30
0
41
1
10
10.4263367830342
20
0.587544980349293
30
0
41
1
10
10.4119485853668
20
0.59766213338736
30
0
41
1
10
10.3984280471051
20
0.60612751423443
30
0
0
SPLINE
5
133
100
AcDbEntity
8
1
62
256
6
ByLayer
370
18
48
1
60
0
100
AcDbSpline
70
4
71
3
72
10
73
6
40
0
40
0
40
0
40
0
40
0.51615529193562
40
0.51615529193562
40
1
40
1
40
1
40
1
41
1
10
10.2691911884675
20
1.2726273001316
30
0
41
1
10
10.2743218241317
20
1.27785359869353
30
0
41
1
10
10.2794739749807
20
1.28360301379749
30
0
41
1
10
10.2894281338744
20
1.29594679839732
30
0
41
1
10
10.2942521933611
20
1.30249225553735
30
0
41
1
10
10.2990174946431
20
1.30968343114694
30
0
0
SPLINE
5
134
100
AcDbEntity
8
1
62
256
6
ByLayer
370
18
48
1
60
0
100
AcDbSpline
70
4
71
3
72
10
73
6
40
0
40
0
40
0
40
0
40
0.629893813379411
40
0.629893813379411
40
1
40
1
40
1
40
1
41
1
10
10.867826617889
20
1.96466086429552
30
0
41
1
10
10.8769073623656
20
1.96090634416504
30
0
41
1
10
10.8866672834206
20
1.95757040095398
30
0
41
1
10
10.9034109923851
20
1.953265183849
30
0
41
1
10
10.9098999682383
20
1.95188393518711
30
0
41
1
10
10.9166853092617
20
1.95077593823137
30
0
0
SPLINE
5
135
100
AcDbEntity
8
1
62
256
6
ByLayer
370
18
48
1
60
0
100
AcDbSpline
70
4
71
3
72
8
73
4
40
0
40
0
40
0
40
0
40
1
40
1
40
1
40
1
41
1
10
10.5746607476088
20
0.401403702913029
30
0
41
1
10
10.5684887779412
20
0.415814469717475
30
0
41
1
10
10.5608000538228
20
0.431343360559623
30
0
41
1
10
10.5510487938806
20
0.447922322071889
30
0
0
SPLINE
5
136
100
AcDbEntity
8
1
62
256
6
ByLayer
370
18
48
1
60
0
100
AcDbSpline
70
4
71
3
72
10
73
6
40
0
40
0
40
0
40
0
40
0.123732606265405
40
0.123732606265405
40
1
40
1
40
1
40
1
41
1
10
10.3534196953263
20
1.46713428112207
30
0
41
1
10
10.3537314933221
20
1.46973766159167
30
0
41
1
10
10.3540176469596
20
1.47232063835273
30
0
41
1
10
10.356115494536
20
1.49284143885575
30
0
41
1
10
10.3567761881477
20
1.50981645316611
30
0
41
1
10
10.3566471710993
20
1.52574240626745
30
0
0
SPLINE
5
137
100
AcDbEntity
8
1
62
256
6
ByLayer
370
18
48
1
60
0
100
AcDbSpline
70
4
71
3
72
10
73
6
40
0
40
0
40
0
40
0
40
0.315026012182486
40
0.315026012182486
40
1
40
1
40
1
40
1
41
1
10
11.2567197392117
20
0.197151800763407
30
0
41
1
10
11.2515604678562
20
0.194833316855551
30
0
41
1
10
11.246668346816
20
0.192453028552876
30
0
41
1
10
11.2319887017688
20
0.184797036090714
30
0
41
1
10
11.2230746747215
20
0.17935213623278
30
0
41
1
10
11.2150770530542
20
0.173822375053533
30
0
0
SPLINE
5
138
100
AcDbEntity
8
1
62
256
6
ByLayer
370
18
48
1
60
0
100
AcDbSpline
70
4
71
3
72
10
73
6
40
0
40
0
40
0
40
0
40
0.315026012182598
40
0.315026012182598
40
1
40
1
40
1
40
1
41
1
10
11.0807134777988
20
1.98087785753839
30
0
41
1
10
11.0866873153013
20
1.98398295883072
30
0
41
1
10
11.0924560642366
20
1.98720979685137
30
0
41
1
10
11.1100539077053
20
1.99768386077184
30
0
41
1
10
11.1211852616231
20
2.00527000829874
30
0
41
1
10
11.1315153010427
20
2.01305215911955
30
0
0
SPLINE
5
139
100
AcDbEntity
8
1
62
256
6
ByLayer
370
18
48
1
60
0
100
AcDbSpline
70
4
71
3
72
10
73
6
40
0
40
0
40
0
40
0
40
0.629893813379294
40
0.629893813379294
40
1
40
1
40
1
40
1
41
1
10
11.4787657362048
20
0.222213669874435
30
0
41
1
10
11.4675369932973
20
0.223893892031924
30
0
41
1
10
11.455727937029
20
0.225251008369554
30
0
41
1
10
11.4360158975201
20
0.226689741987855
30
0
41
1
10
11.4284874762471
20
0.227067209875742
30
0
41
1
10
11.4207479077481
20
0.227253720069768
30
0
0
SPLINE
5
13A
100
AcDbEntity
8
1
62
256
6
ByLayer
370
18
48
1
60
0
100
AcDbSpline
70
4
71
3
72
8
73
4
40
0
40
0
40
0
40
0
40
1
40
1
40
1
40
1
41
1
10
11.8960103909745
20
1.60275840557014
30
0
41
1
10
11.9136692237058
20
1.59296919211414
30
0
41
1
10
11.9312399460087
20
1.58592536739218
30
0
41
1
10
11.9481643069919
20
1.58074701993863
30
0
0
SPLINE
5
13B
100
AcDbEntity
8
1
62
256
6
ByLayer
370
18
48
1
60
0
100
AcDbSpline
70
4
71
2
72
8
73
5
40
0
40
0
40
0
40
0.581603760044147
40
0.87240564006622
40
1
40
1
40
1
41
1.02990374504916
10
8.9284914881345
20
5.45328112745992
30
0
41
1.02669755169729
10
10.6121948442788
20
6.00669190731557
30
0
41
1.02039724512338
10
13.3183542680241
20
6.50771353741091
30
0
41
1.01761724169577
10
14.6793189610702
20
6.62670359537601
30
0
41
1.01686274329252
10
15.0482772234022
20
6.70295580087116
30
0
0
SPLINE
5
13C
100
AcDbEntity
8
1
62
256
6
ByLayer
370
18
48
1
60
0
100
AcDbSpline
70
4
71
3
72
12
73
8
40
0
40
0
40
0
40
0
40
0.501637567130152
40
0.501637567130152
40
0.886957471304437
40
0.886957471304437
40
1
40
1
40
1
40
1
41
1
10
9.21628039848389
20
-3.49352353563839
30
0
41
1
10
9.37149530951331
20
-3.35912681662333
30
0
41
1
10
9.54569202245085
20
-3.23052954071255
30
0
41
1
10
9.87629291422917
20
-3.03806938996726
30
0
41
1
10
10.0308387216591
20
-2.96460841123934
30
0
41
1
10
10.2308538116866
20
-2.89332824082462
30
0
41
1
10
10.2768458349979
20
-2.87851239959119
30
0
41
1
10
10.3225564060262
20
-2.86537388004601
30
0
0
SPLINE
5
13D
100
AcDbEntity
8
1
62
256
6
ByLayer
370
18
48
1
60
0
100
AcDbSpline
70
4
71
3
72
16
73
12
40
0
40
0
40
0
40
0
40
0.283825424659831
40
0.283825424659831
40
0.572792249827489
40
0.572792249827489
40
0.572792249827489
40
0.894188232602854
40
0.894188232602854
40
0.894188232602854
40
1
40
1
40
1
40
1
41
1
10
10.1370203467739
20
4.50557562312804
30
0
41
1
10
10.4506079159419
20
4.67364586271941
30
0
41
1
10
10.797304363812
20
4.79551723826302
30
0
41
1
10
11.506105995752
20
4.93528628664902
30
0
41
1
10
11.8773880842407
20
4.95378432446392
30
0
41
1
10
12.238479847965
20
4.91623575843008
30
0
41
1
10
12.6377478345843
20
4.87471739144723
30
0
41
1
10
13.0392269996598
20
4.76129733091162
30
0
41
1
10
13.3961781132018
20
4.57315619883482
30
0
41
1
10
13.5158785675352
20
4.5100647049747
30
0
41
1
10
13.6315590732982
20
4.43826429864816
30
0
41
1
10
13.7407244368658
20
4.35880852696525
30
0
0
SPLINE
5
13E
100
AcDbEntity
8
1
62
256
6
ByLayer
370
18
48
1
60
0
100
AcDbSpline
70
4
71
3
72
10
73
6
40
0
40
0
40
0
40
0
40
0.715855354518048
40
0.715855354518048
40
1
40
1
40
1
40
1
41
1
10
10.7222630990647
20
-6.68681096429094
30
0
41
1
10
10.4923438438329
20
-6.88797728023536
30
0
41
1
10
10.2163790302587
20
-7.09106392100702
30
0
41
1
10
9.76448534692111
20
-7.3182476760218
30
0
41
1
10
9.62749897544404
20
-7.37681018906565
30
0
41
1
10
9.48387118239481
20
-7.42555994921176
30
0
0
SPLINE
5
13F
100
AcDbEntity
8
1
62
256
6
ByLayer
370
18
48
1
60
0
100
AcDbSpline
70
4
71
2
72
6
73
3
40
0
40
0
40
0
40
1
40
1
40
1
41
1.01212826498425
10
20.1910830194123
20
3.99033192377311
30
0
41
1.01163342726426
10
20.3172934336342
20
4.34264743618162
30
0
41
1.01103575694871
10
20.4265831859808
20
4.69871321825302
30
0
0
SPLINE
5
140
100
AcDbEntity
8
1
62
256
6
ByLayer
370
18
48
1
60
0
100
AcDbSpline
70
4
71
3
72
8
73
4
40
0
40
0
40
0
40
0
40
1
40
1
40
1
40
1
41
1
10
6.24445790224468
20
-0.246802635785286
30
0
41
1
10
5.38047605618493
20
-0.473703031151899
30
0
41
1
10
4.61604742592084
20
-0.707151467693137
30
0
41
1
10
4.11189673839436
20
-0.930445125315373
30
0
0
SPLINE
5
141
100
AcDbEntity
8
1
62
256
6
ByLayer
370
18
48
1
60
0
100
AcDbSpline
70
4
71
2
72
6
73
3
40
0
40
0
40
0
40
1
40
1
40
1
41
1.02990374504916
10
15.1842935744607
20
-1.81388122280078
30
0
41
1.02990374504916
10
15.3080894088475
20
-2.20689754625907
30
0
41
1.02990374504916
10
15.4318852432342
20
-2.59991386971736
30
0
0
SPLINE
5
142
100
AcDbEntity
8
1
62
256
6
ByLayer
370
18
48
1
60
0
100
AcDbSpline
70
4
71
2
72
6
73
3
40
0
40
0
40
0
40
1
40
1
40
1
41
0.932817050425109
10
14.4046569428617
20
-0.451999379550566
30
0
41
0.929591664905397
10
15.0425153256746
20
-1.36377588314749
30
0
41
1.02990374504916
10
15.1842935744607
20
-1.81388122280078
30
0
0
SPLINE
5
143
100
AcDbEntity
8
1
62
256
6
ByLayer
370
18
48
1
60
0
100
AcDbSpline
70
4
71
3
72
8
73
4
40
0
40
0
40
0
40
0
40
1
40
1
40
1
40
1
41
1
10
7.31097439740807
20
1.38722210725643
30
0
41
1
10
7.43627863974626
20
2.00132043928139
30
0
41
1
10
7.77864650030824
20
2.58429430903064
30
0
41
1
10
8.28911148598894
20
3.02259930309157
30
0
0
SPLINE
5
144
100
AcDbEntity
8
1
62
256
6
ByLayer
370
18
48
1
60
0
100
AcDbSpline
70
4
71
3
72
8
73
4
40
0
40
0
40
0
40
0
40
1
40
1
40
1
40
1
41
1
10
20.1913186825486
20
3.99098982025453
30
0
41
1
10
20.1500090193229
20
3.94772389207662
30
0
41
1
10
20.1081692103245
20
3.90499478868063
30
0
41
1
10
20.0657918471174
20
3.86283651569266
30
0
0
SPLINE
5
145
100
AcDbEntity
8
1
62
256
6
ByLayer
370
18
48
1
60
0
100
AcDbSpline
70
4
71
3
72
10
73
6
40
0
40
0
40
0
40
0
40
0.679966690484302
40
0.679966690484302
40
1
40
1
40
1
40
1
41
1
10
7.31097439740807
20
1.38722210725643
30
0
41
1
10
7.28553350725088
20
1.26253991039528
30
0
41
1
10
7.24929527062176
20
1.13729252902473
30
0
41
1
10
7.18117176271687
20
0.956748222906953
30
0
41
1
10
7.15702719784861
20
0.89923673099085
30
0
41
1
10
7.13073057634915
20
0.842466645906569
30
0
0
SPLINE
5
146
100
AcDbEntity
8
1
62
256
6
ByLayer
370
18
48
1
60
0
100
AcDbSpline
70
4
71
3
72
8
73
4
40
0
40
0
40
0
40
0
40
1
40
1
40
1
40
1
41
1
10
6.34581770614881
20
-0.159000141562245
30
0
41
1
10
6.31175978224672
20
-0.188490048160446
30
0
41
1
10
6.27795758817678
20
-0.217771096591491
30
0
41
1
10
6.24445790224428
20
-0.246802635785627
30
0
0
SPLINE
5
147
100
AcDbEntity
8
1
62
256
6
ByLayer
370
18
48
1
60
0
100
AcDbSpline
70
4
71
3
72
15
73
11
40
0
40
0
40
0
40
0
40
0.22504324078798
40
0.22504324078798
40
0.52048282722711
40
0.52048282722711
40
0.820975208236872
40
0.820975208236872
40
0.820975208236872
40
1
40
1
40
1
40
1
41
1
10
14.7944337409115
20
3.13474860997974
30
0
41
1
10
14.9251524105919
20
2.88340661088088
30
0
41
1
10
15.018022484923
20
2.60693279084143
30
0
41
1
10
15.1393946142563
20
1.96260915190325
30
0
41
1
10
15.1426727783916
20
1.58219335039271
30
0
41
1
10
15.0361348108854
20
0.841575650514869
30
0
41
1
10
14.9228369556631
20
0.470464793054816
30
0
41
1
10
14.757998586205
20
0.129746054104288
30
0
41
1
10
14.6589873439641
20
-0.0749088797510638
30
0
41
1
10
14.5401578012365
20
-0.271202643353433
30
0
41
1
10
14.4046569134952
20
-0.451999337572971
30
0
0
SPLINE
5
148
100
AcDbEntity
8
1
62
256
6
ByLayer
370
18
48
1
60
0
100
AcDbSpline
70
4
71
3
72
24
73
20
40
0
40
0
40
0
40
0
40
0.142613444608225
40
0.142613444608225
40
0.190795218269493
40
0.190795218269493
40
0.226951176162324
40
0.226951176162324
40
0.263437466712859
40
0.263437466712859
40
0.296119365572354
40
0.296119365572354
40
0.352324850832282
40
0.352324850832282
40
0.4552946485881
40
0.4552946485881
40
0.662705158043619
40
0.662705158043619
40
1
40
1
40
1
40
1
41
1
10
15.0482772234023
20
6.70295580087119
30
0
41
1
10
14.9805579138081
20
6.65426176198264
30
0
41
1
10
14.9156746990901
20
6.60206545882247
30
0
41
1
10
14.8672548838874
20
6.52031578777607
30
0
41
1
10
14.8585982666383
20
6.49811759649731
30
0
41
1
10
14.8561539934648
20
6.45784570708278
30
0
41
1
10
14.8593724472094
20
6.43977143076719
30
0
41
1
10
14.8766999140211
20
6.40457420899051
30
0
41
1
10
14.8912472794825
20
6.38703105924083
30
0
41
1
10
14.9268493869143
20
6.35715333258494
30
0
41
1
10
14.9473449684252
20
6.34410202933034
30
0
41
1
10
15.0074961207141
20
6.31279689933743
30
0
41
1
10
15.0512065866285
20
6.29678922256366
30
0
41
1
10
15.1771473657277
20
6.26008484753328
30
0
41
1
10
15.2640958977076
20
6.24518291139549
30
0
41
1
10
15.5212585461442
20
6.21550658567364
30
0
41
1
10
15.694111082276
20
6.21509054784224
30
0
41
1
10
16.1271765125329
20
6.24069046995788
30
0
41
1
10
16.3830804254964
20
6.28470845771747
30
0
41
1
10
16.6205123244097
20
6.34374249053909
30
0
0
SPLINE
5
149
100
AcDbEntity
8
1
62
256
6
ByLayer
370
18
48
1
60
0
100
AcDbSpline
70
4
71
3
72
8
73
4
40
0
40
0
40
0
40
0
40
1
40
1
40
1
40
1
41
1
10
9.11492059457976
20
-3.58132602986146
30
0
41
1
10
9.1484202805122
20
-3.55229449066732
30
0
41
1
10
9.18222247458181
20
-3.52301344223662
30
0
41
1
10
9.21628039848389
20
-3.49352353563839
30
0
0
SPLINE
5
14A
100
AcDbEntity
8
1
62
256
6
ByLayer
370
18
48
1
60
0
100
AcDbSpline
70
4
71
3
72
11
73
7
40
0
40
0
40
0
40
0
40
0.559926195718573
40
0.559926195718573
40
0.559926195718573
40
1
40
1
40
1
40
1
41
1
10
15.3111702464401
20
9.38612619291925
30
0
41
1
10
15.0563115929846
20
9.20213863089398
30
0
41
1
10
14.744917806792
20
9.02027039797554
30
0
41
1
10
14.4043581613035
20
8.86278651302129
30
0
41
1
10
14.1347639546969
20
8.73811894427087
30
0
41
1
10
13.8427818439399
20
8.62534824260683
30
0
41
1
10
13.5442886811563
20
8.52683491055978
30
0
0
SPLINE
5
14B
100
AcDbEntity
8
1
62
256
6
ByLayer
370
18
48
1
60
0
100
AcDbSpline
70
4
71
3
72
10
73
6
40
0
40
0
40
0
40
0
40
0.207845795367695
40
0.207845795367695
40
1
40
1
40
1
40
1
41
1
10
10.3225564060262
20
-2.86537388004601
30
0
41
1
10
10.3618344595491
20
-2.85408424917296
30
0
41
1
10
10.4012852482942
20
-2.84375171514421
30
0
41
1
10
10.5901605637206
20
-2.79907635885377
30
0
41
1
10
10.7417076750941
20
-2.77768554294045
30
0
41
1
10
10.8903201454737
20
-2.77078773703897
30
0
0
SPLINE
5
14C
100
AcDbEntity
8
1
62
256
6
ByLayer
370
18
48
1
60
0
100
AcDbSpline
70
4
71
3
72
8
73
4
40
0
40
0
40
0
40
0
40
1
40
1
40
1
40
1
41
1
10
10.1370203301644
20
4.50557561406498
30
0
41
1
10
9.91908307825207
20
4.38665761633283
30
0
41
1
10
9.71621597037228
20
4.24796644892604
30
0
41
1
10
9.52986571876119
20
4.08795891027629
30
0
0
SPLINE
5
14D
100
AcDbEntity
8
1
62
256
6
ByLayer
370
18
48
1
60
0
100
AcDbSpline
70
4
71
3
72
12
73
8
40
0
40
0
40
0
40
0
40
0.391502209781615
40
0.391502209781615
40
0.886018843801029
40
0.886018843801029
40
1
40
1
40
1
40
1
41
1
10
8.13972798203474
20
-5.60944602129433
30
0
41
1
10
8.25144640610421
20
-5.42472563338225
30
0
41
1
10
8.37281822876309
20
-5.19748317283478
30
0
41
1
10
8.65734196768756
20
-4.62193822306546
30
0
41
1
10
8.82634254911056
20
-4.25092734548016
30
0
41
1
10
9.03554517186234
20
-3.76770537600743
30
0
41
1
10
9.07520310425775
20
-3.67506328460459
30
0
41
1
10
9.11492059458055
20
-3.58132602986188
30
0
0
SPLINE
5
14E
100
AcDbEntity
8
1
62
256
6
ByLayer
370
18
48
1
60
0
100
AcDbSpline
70
4
71
2
72
8
73
5
40
0
40
0
40
0
40
0.58160376007072
40
0.872405640106081
40
1
40
1
40
1
41
1.02990374504916
10
15.1842935744607
20
-1.81388122280078
30
0
41
1.02669755169729
10
15.9793035432799
20
-0.228104162798344
30
0
41
1.02039724512338
10
16.8760517688755
20
2.37485176018576
30
0
41
1.01761724169608
10
17.1958972813768
20
3.70327619656891
30
0
41
1.01686274329306
10
17.3267727385559
20
4.05610147333938
30
0
0
SPLINE
5
14F
100
AcDbEntity
8
1
62
256
6
ByLayer
370
18
48
1
60
0
100
AcDbSpline
70
4
71
3
72
10
73
6
40
0
40
0
40
0
40
0
40
0.106616270583441
40
0.106616270583441
40
1
40
1
40
1
40
1
41
1
10
17.6888659105205
20
6.66583995944885
30
0
41
1
10
17.6703124024612
20
6.63229604735625
30
0
41
1
10
17.6518916279451
20
6.59852815278489
30
0
41
1
10
17.480578734716
20
6.28010361203152
30
0
41
1
10
17.3368228670371
20
5.9796817067444
30
0
41
1
10
17.2036405583714
20
5.66634133737887
30
0
0
SPLINE
5
150
100
AcDbEntity
8
1
62
256
6
ByLayer
370
18
48
1
60
0
100
AcDbSpline
70
4
71
3
72
14
73
10
40
0
40
0
40
0
40
0
40
0.26293248248934
40
0.26293248248934
40
0.526305718382461
40
0.526305718382461
40
0.786105451116569
40
0.786105451116569
40
1
40
1
40
1
40
1
41
1
10
20.5797666717786
20
6.99706996145599
30
0
41
1
10
20.6423258363584
20
7.10474974076052
30
0
41
1
10
20.6955759572755
20
7.23201078905797
30
0
41
1
10
20.7727527691824
20
7.50791153763439
30
0
41
1
10
20.7975807341828
20
7.66012618308679
30
0
41
1
10
20.816963532012
20
7.96473194893096
30
0
41
1
10
20.8123310357374
20
8.12063612130578
30
0
41
1
10
20.7822854548245
20
8.39469598228044
30
0
41
1
10
20.760630025833
20
8.51656021726649
30
0
41
1
10
20.7327430881523
20
8.63319191349976
30
0
0
SPLINE
5
151
100
AcDbEntity
8
1
62
256
6
ByLayer
370
18
48
1
60
0
100
AcDbSpline
70
4
71
3
72
8
73
4
40
0
40
0
40
0
40
0
40
1
40
1
40
1
40
1
41
1
10
12.6600433129537
20
-2.05497041061534
30
0
41
1
10
12.1429428248371
20
-2.49897290389239
30
0
41
1
10
11.5231826973173
20
-2.74141360017299
30
0
41
1
10
10.8903201454737
20
-2.77078773703897
30
0
0
SPLINE
5
152
100
AcDbEntity
8
1
62
256
6
ByLayer
370
18
48
1
60
0
100
AcDbSpline
70
4
71
3
72
12
73
8
40
0
40
0
40
0
40
0
40
0.369659083875783
40
0.369659083875783
40
0.72770450158611
40
0.72770450158611
40
1
40
1
40
1
40
1
41
1
10
4.18493575737619
20
1.38028057948839
30
0
41
1
10
4.41304175932061
20
1.39089324650158
30
0
41
1
10
4.71508021012392
20
1.36576100046761
30
0
41
1
10
5.39318382465109
20
1.26241090148628
30
0
41
1
10
5.77466473419514
20
1.18482291998035
30
0
41
1
10
6.48200771533629
20
1.0171658887032
30
0
41
1
10
6.80395955941066
20
0.933433546607517
30
0
41
1
10
7.13073057634909
20
0.842466645906399
30
0
0
SPLINE
5
153
100
AcDbEntity
8
1
62
256
6
ByLayer
370
18
48
1
60
0
100
AcDbSpline
70
4
71
3
72
8
73
4
40
0
40
0
40
0
40
0
40
1
40
1
40
1
40
1
41
1
10
15.3111702464401
20
9.38612619291925
30
0
41
1
10
15.3596875983746
20
9.42115184018417
30
0
41
1
10
15.4086891643253
20
9.45556136284171
30
0
41
1
10
15.4581422731386
20
9.48936731445318
30
0
0
SPLINE
5
154
100
AcDbEntity
8
1
62
256
6
ByLayer
370
18
48
1
60
0
100
AcDbSpline
70
4
71
3
72
12
73
8
40
0
40
0
40
0
40
0
40
0.30757327017341
40
0.30757327017341
40
0.648852820657661
40
0.648852820657661
40
1
40
1
40
1
40
1
41
1
10
13.7407244368658
20
4.35880852696525
30
0
41
1
10
13.8755429369222
20
4.26065496570394
30
0
41
1
10
14.0038838803447
20
4.1524067935936
30
0
41
1
10
14.2564820734069
20
3.90670907135473
30
0
41
1
10
14.3796200856358
20
3.76651591633225
30
0
41
1
10
14.6047055788172
20
3.46558983152568
30
0
41
1
10
14.7067474151089
20
3.30329765526383
30
0
41
1
10
14.7944337409115
20
3.13474860997974
30
0
0
SPLINE
5
155
100
AcDbEntity
8
1
62
256
6
ByLayer
370
18
48
1
60
0
100
AcDbSpline
70
4
71
3
72
8
73
4
40
0
40
0
40
0
40
0
40
1
40
1
40
1
40
1
41
1
10
4.02077540933061
20
-1.06041831494841
30
0
41
1
10
4.00151429584565
20
-1.03804330422872
30
0
41
1
10
3.98323627789369
20
-1.01527749151333
30
0
41
1
10
3.9658679117689
20
-0.992148057659676
30
0
0
SPLINE
5
156
100
AcDbEntity
8
1
62
256
6
ByLayer
370
18
48
1
60
0
100
AcDbSpline
70
4
71
2
72
8
73
5
40
0
40
0
40
0
40
0.145991510278041
40
0.563470207586081
40
1
40
1
40
1
41
1.02393576174182
10
14.7944337405661
20
3.13474860962592
30
0
41
1.02323174907608
10
14.9794417437074
20
3.32420624085798
30
0
41
1.02039724512338
10
15.685229673474
20
4.05502411560734
30
0
41
1.01644464721285
10
16.6661681261406
20
5.16505804022807
30
0
41
1.01495409538129
10
17.2036405584234
20
5.66634133742732
30
0
0
SPLINE
5
157
100
AcDbEntity
8
1
62
256
6
ByLayer
370
18
48
1
60
0
100
AcDbSpline
70
4
71
3
72
8
73
4
40
0
40
0
40
0
40
0
40
1
40
1
40
1
40
1
41
1
10
17.3267727385559
20
4.05610147333954
30
0
41
1
10
18.3428213787096
20
4.53789514636063
30
0
41
1
10
19.4504545059121
20
4.03339666504397
30
0
41
1
10
20.4283086456253
20
4.70433843518791
30
0
0
SPLINE
5
158
100
AcDbEntity
8
1
62
256
6
ByLayer
370
18
48
1
60
0
100
AcDbSpline
70
4
71
3
72
8
73
4
40
0
40
0
40
0
40
0
40
1
40
1
40
1
40
1
41
1
10
8.00028050552243
20
-5.6832802930995
30
0
41
1
10
8.01954161900738
20
-5.70565530381919
30
0
41
1
10
8.03931703421841
20
-5.72709492998507
30
0
41
1
10
8.05957044402885
20
-5.74766949281377
30
0
0
SPLINE
5
159
100
AcDbEntity
8
1
62
256
6
ByLayer
370
18
48
1
60
0
100
AcDbSpline
70
4
71
3
72
10
73
6
40
0
40
0
40
0
40
0
40
0.560518156563273
40
0.560518156563273
40
1
40
1
40
1
40
1
41
1
10
18.9441137912602
20
2.25403324633962
30
0
41
1
10
19.124327987088
20
2.60860398974572
30
0
41
1
10
19.3273541528011
20
2.94973986775091
30
0
41
1
10
19.7107672378695
20
3.47896558483092
30
0
41
1
10
19.8900730795414
20
3.68802621104061
30
0
41
1
10
20.0657918471174
20
3.86283651569264
30
0
0
SPLINE
5
15A
100
AcDbEntity
8
1
62
256
6
ByLayer
370
18
48
1
60
0
100
AcDbSpline
70
4
71
3
72
16
73
12
40
0
40
0
40
0
40
0
40
0.151798394921706
40
0.151798394921706
40
0.30235540283364
40
0.30235540283364
40
0.469907609657964
40
0.469907609657964
40
0.750934341340611
40
0.750934341340611
40
1
40
1
40
1
40
1
41
1
10
3.9658679117689
20
-0.992148057659676
30
0
41
1
10
3.85505152155241
20
-0.844573994043486
30
0
41
1
10
3.75062739612673
20
-0.684986183286867
30
0
41
1
10
3.57705091904961
20
-0.368961749471168
30
0
41
1
10
3.50484488296928
20
-0.208363455883557
30
0
41
1
10
3.38665227853914
20
0.113987290310547
30
0
41
1
10
3.34285647607288
20
0.277245113585224
30
0
41
1
10
3.26648761567327
20
0.672005042158929
30
0
41
1
10
3.25642412489958
20
0.88072992584145
30
0
41
1
10
3.29411412696044
20
1.23720434888327
30
0
41
1
10
3.33652442954025
20
1.39628321837918
30
0
41
1
10
3.42567829319808
20
1.56276640786547
30
0
0
SPLINE
5
15B
100
AcDbEntity
8
1
62
256
6
ByLayer
370
18
48
1
60
0
100
AcDbSpline
70
4
71
3
72
8
73
4
40
0
40
0
40
0
40
0
40
1
40
1
40
1
40
1
41
1
10
10.3225564060262
20
-2.86537388004601
30
0
41
1
10
10.4789277224777
20
-4.11479917100513
30
0
41
1
10
10.5506177573358
20
-5.25500768663588
30
0
41
1
10
10.4407378437024
20
-5.88688177077236
30
0
0
SPLINE
5
15C
100
AcDbEntity
8
1
62
256
6
ByLayer
370
18
48
1
60
0
100
AcDbSpline
70
4
71
3
72
16
73
12
40
0
40
0
40
0
40
0
40
0.346164403850465
40
0.346164403850465
40
0.57405813868187
40
0.57405813868187
40
0.756733946461148
40
0.756733946461148
40
0.941193093213316
40
0.941193093213316
40
1
40
1
40
1
40
1
41
1
10
10.5293501814011
20
-6.68933878698974
30
0
41
1
10
10.2788689228423
20
-6.77303827814441
30
0
41
1
10
10.0564508989897
20
-6.77316996137236
30
0
41
1
10
9.63997969859042
20
-6.69990894673444
30
0
41
1
10
9.45622514142713
20
-6.64808061058565
30
0
41
1
10
9.09232921055707
20
-6.4992227536533
30
0
41
1
10
8.91596458917854
20
-6.41086259618146
30
0
41
1
10
8.56351410521631
20
-6.1891142145447
30
0
41
1
10
8.38228134817024
20
-6.05107471569818
30
0
41
1
10
8.16298081156339
20
-5.85021544050636
30
0
41
1
10
8.11035947332903
20
-5.79926387045825
30
0
41
1
10
8.05957044402879
20
-5.74766949281377
30
0
0
SPLINE
5
15D
100
AcDbEntity
8
1
62
256
6
ByLayer
370
18
48
1
60
0
100
AcDbSpline
70
4
71
2
72
6
73
3
40
0
40
0
40
0
40
1
40
1
40
1
41
1.01103575695168
10
16.1940399692032
20
9.61552137066383
30
0
41
1.01163342726563
10
15.8251604959149
20
9.56101254757905
30
0
41
1.01212826498448
10
15.4574556418061
20
9.48923329317034
30
0
0
SPLINE
5
15E
100
AcDbEntity
8
1
62
256
6
ByLayer
370
18
48
1
60
0
100
AcDbSpline
70
4
71
3
72
10
73
6
40
0
40
0
40
0
40
0
40
0.759976532001894
40
0.759976532001894
40
1
40
1
40
1
40
1
41
1
10
16.6205123244097
20
6.34374249053909
30
0
41
1
10
16.9028247775655
20
6.41402191535923
30
0
41
1
10
17.1771045319551
20
6.49309190940082
30
0
41
1
10
17.5248160169763
20
6.60810393580999
30
0
41
1
10
17.6073492791931
20
6.63656226619514
30
0
41
1
10
17.6888659105205
20
6.6658399594489
30
0
0
SPLINE
5
15F
100
AcDbEntity
8
1
62
256
6
ByLayer
370
18
48
1
60
0
100
AcDbSpline
70
4
71
3
72
8
73
4
40
0
40
0
40
0
40
0
40
1
40
1
40
1
40
1
41
1
10
16.1998674507638
20
9.6163814015315
30
0
41
1
10
15.3787293095834
20
8.7707546597473
30
0
41
1
10
15.6922262143645
20
7.61759209000181
30
0
41
1
10
15.0482772234023
20
6.70295580087119
30
0
0
SPLINE
5
160
100
AcDbEntity
8
1
62
256
6
ByLayer
370
18
48
1
60
0
100
AcDbSpline
70
4
71
1
72
4
73
2
40
0
40
0
40
1
40
1
41
1
10
8.92849148813451
20
5.45328112745992
30
0
41
1
10
8.21232440615739
20
5.78681575769519
30
0
0
SPLINE
5
161
100
AcDbEntity
8
1
62
256
6
ByLayer
370
18
48
1
60
0
100
AcDbSpline
70
4
71
3
72
8
73
4
40
0
40
0
40
0
40
0
40
1
40
1
40
1
40
1
41
1
10
14.4046569134952
20
-0.451999337572971
30
0
41
1
10
14.2572180638481
20
-0.646437698268045
30
0
41
1
10
14.0872280948687
20
-0.829534318212325
30
0
41
1
10
13.900797545726
20
-0.989610803430622
30
0
0
SPLINE
5
162
100
AcDbEntity
8
1
62
256
6
ByLayer
370
18
48
1
60
0
100
AcDbSpline
70
4
71
3
72
12
73
8
40
0
40
0
40
0
40
0
40
0.415356444741147
40
0.415356444741147
40
0.825259843212194
40
0.825259843212194
40
1
40
1
40
1
40
1
41
1
10
7.13073057634915
20
0.842466645906569
30
0
41
1
10
7.0586426816688
20
0.686840725875953
30
0
41
1
10
6.96317633546511
20
0.52944540411508
30
0
41
1
10
6.75044468532604
20
0.242981875524293
30
0
41
1
10
6.63104109455884
20
0.1094528703984
30
0
41
1
10
6.45455201466342
20
-0.0622153304226458
30
0
41
1
10
6.40046082043961
20
-0.111686032184849
30
0
41
1
10
6.34581770614881
20
-0.159000141562245
30
0
0
SPLINE
5
163
100
AcDbEntity
8
1
62
256
6
ByLayer
370
18
48
1
60
0
100
AcDbSpline
70
4
71
3
72
8
73
4
40
0
40
0
40
0
40
0
40
1
40
1
40
1
40
1
41
1
10
8.21232440615739
20
5.78681575769519
30
0
41
1
10
9.8393453233756
20
6.98035488018257
30
0
41
1
10
11.6254348988899
20
7.89354509567985
30
0
41
1
10
13.5442886811563
20
8.52683491055978
30
0
0
SPLINE
5
164
100
AcDbEntity
8
1
62
256
6
ByLayer
370
18
48
1
60
0
100
AcDbSpline
70
4
71
3
72
25
73
21
40
0
40
0
40
0
40
0
40
0.442411593548775
40
0.442411593548775
40
0.442411593548775
40
0.583396916265375
40
0.583396916265375
40
0.651602530488654
40
0.651602530488654
40
0.706341521306446
40
0.706341521306446
40
0.742475286987735
40
0.742475286987735
40
0.778972968742933
40
0.778972968742933
40
0.811539464980179
40
0.811539464980179
40
0.868309796146654
40
0.868309796146654
40
1
40
1
40
1
40
1
41
1
10
17.2036405583714
20
5.66634133737887
30
0
41
1
10
17.079722106391
20
5.37455662454354
30
0
41
1
10
16.9741297481095
20
5.04421171516756
30
0
41
1
10
16.9254793342908
20
4.69018487029055
30
0
41
1
10
16.9096860424689
20
4.57525780523483
30
0
41
1
10
16.8997871544935
20
4.45618390539525
30
0
41
1
10
16.9021602380438
20
4.2800388321165
30
0
41
1
10
16.9057158217217
20
4.22193510046361
30
0
41
1
10
16.9202736267864
20
4.12099805107616
30
0
41
1
10
16.9298384373169
20
4.0765438626118
30
0
41
1
10
16.9531394515313
20
4.01094052038115
30
0
41
1
10
16.9646370710319
20
3.98658408373524
30
0
41
1
10
16.991666581214
20
3.94668560149674
30
0
41
1
10
17.0076429661084
20
3.93085285282672
30
0
41
1
10
17.039457142445
20
3.91172130555475
30
0
41
1
10
17.0554429167338
20
3.90692873986473
30
0
41
1
10
17.0987853177626
20
3.90325179251079
30
0
41
1
10
17.126555603402
20
3.91079512845087
30
0
41
1
10
17.21439071463
20
3.95079786821509
30
0
41
1
10
17.2718327035233
20
4.00166581447547
30
0
41
1
10
17.3267727385559
20
4.05610147333954
30
0
0
SPLINE
5
165
100
AcDbEntity
8
1
62
256
6
ByLayer
370
18
48
1
60
0
100
AcDbSpline
70
4
71
3
72
8
73
4
40
0
40
0
40
0
40
0
40
1
40
1
40
1
40
1
41
1
10
18.9441137912602
20
2.25403324633962
30
0
41
1
10
18.0348490016146
20
0.465058238368613
30
0
41
1
10
16.8524652151389
20
-1.17737891025999
30
0
41
1
10
15.4318852432343
20
-2.59991386971737
30
0
0
SPLINE
5
166
100
AcDbEntity
8
1
62
256
6
ByLayer
370
18
48
1
60
0
100
AcDbSpline
70
4
71
3
72
14
73
10
40
0
40
0
40
0
40
0
40
0.304391776008987
40
0.304391776008987
40
0.577373879687167
40
0.577373879687167
40
0.851610378463917
40
0.851610378463917
40
1
40
1
40
1
40
1
41
1
10
20.1355498537601
20
9.32693192140246
30
0
41
1
10
19.979032356757
20
9.38971356878079
30
0
41
1
10
19.8091860483578
20
9.44214972843096
30
0
41
1
10
19.47895942926
20
9.50968312987646
30
0
41
1
10
19.3155991525716
20
9.52842210329973
30
0
41
1
10
19.0010474750015
20
9.53217779611973
30
0
41
1
10
18.8457258016014
20
9.51693555443677
30
0
41
1
10
18.6310259254568
20
9.46917643906539
30
0
41
1
10
18.558942023016
20
9.44755109117278
30
0
41
1
10
18.4922719681937
20
9.42204484188292
30
0
0
SPLINE
5
167
100
AcDbEntity
8
1
62
256
6
ByLayer
370
18
48
1
60
0
100
AcDbSpline
70
4
71
2
72
8
73
5
40
0
40
0
40
0
40
0.145991510275421
40
0.563470207592128
40
1
40
1
40
1
41
1.02393576174177
10
13.7407244364322
20
4.35880852665645
30
0
41
1.02323174907605
10
13.956548835366
20
4.51246775053967
30
0
41
1.02039724512338
10
14.788326226071
20
5.09692775551315
30
0
41
1.01644464721292
10
16.0397009561
20
5.89280462950758
30
0
41
1.01495409538139
10
16.6205123244258
20
6.34374249055159
30
0
0
SPLINE
5
168
100
AcDbEntity
8
1
62
256
6
ByLayer
370
18
48
1
60
0
100
AcDbSpline
70
4
71
2
72
6
73
3
40
0
40
0
40
0
40
1
40
1
40
1
41
1.02990374504916
10
8.9284914881345
20
5.45328112745992
30
0
41
0.929591662588769
10
9.33858976737787
20
5.26228941425533
30
0
41
0.932817050574084
10
10.1370203467654
20
4.50557562313607
30
0
0
LINE
5
72
100
AcDbEntity
8
1
62
256
6
ByLayer
370
18
48
1
60
0
100
AcDbLine
10
10.121401
20
1.129796
30
0
11
10.264178
21
1.267674
31
0
39
0
210
0
220
0
230
1
0
LINE
5
74
100
AcDbEntity
8
1
62
256
6
ByLayer
370
18
48
1
60
0
100
AcDbLine
10
3.778926
20
1.999982
30
0
11
3.400274
21
1.653195
31
0
39
0
210
0
220
0
230
1
0
LINE
5
75
100
AcDbEntity
8
1
62
256
6
ByLayer
370
18
48
1
60
0
100
AcDbLine
10
10.73343
20
8.694696
30
0
11
10.23001
21
8.208548
31
0
39
0
210
0
220
0
230
1
0
LINE
5
76
100
AcDbEntity
8
1
62
256
6
ByLayer
370
18
48
1
60
0
100
AcDbLine
10
23.050748
20
-0.104722
30
0
11
23.554169
21
0.381425
31
0
39
0
210
0
220
0
230
1
0
LINE
5
77
100
AcDbEntity
8
1
62
256
6
ByLayer
370
18
48
1
60
0
100
AcDbLine
10
6.136646
20
-0.352617
30
0
11
6.425752
21
-0.08784
31
0
39
0
210
0
220
0
230
1
0
LINE
5
78
100
AcDbEntity
8
1
62
256
6
ByLayer
370
18
48
1
60
0
100
AcDbLine
10
11.182098
20
0.146154
30
0
11
11.039321
21
0.008276
31
0
39
0
210
0
220
0
230
1
0
LINE
5
79
100
AcDbEntity
8
1
62
256
6
ByLayer
370
18
48
1
60
0
100
AcDbLine
10
13.174106
20
-1.422927
30
0
11
13.349776
21
-1.253284
31
0
39
0
210
0
220
0
230
1
0
LINE
5
7A
100
AcDbEntity
8
1
62
256
6
ByLayer
370
18
48
1
60
0
100
AcDbLine
10
8.903963
20
3.350491
30
0
11
8.728292
21
3.180848
31
0
39
0
210
0
220
0
230
1
0
LINE
5
7B
100
AcDbEntity
8
1
62
256
6
ByLayer
370
18
48
1
60
0
100
AcDbLine
10
12.082415
20
0.919201
30
0
11
11.939638
21
0.781323
31
0
39
0
210
0
220
0
230
1
0
LINE
5
7C
100
AcDbEntity
8
1
62
256
6
ByLayer
370
18
48
1
60
0
100
AcDbLine
10
11.021718
20
1.902843
30
0
11
11.164495
21
2.040721
31
0
39
0
210
0
220
0
230
1
0
LINE
5
7D
100
AcDbEntity
8
1
62
256
6
ByLayer
370
18
48
1
60
0
100
AcDbLine
10
22.309287
20
-0.30852
30
0
11
22.317834
21
-0.300266
31
0
39
0
210
0
220
0
230
1
0
LINE
5
7E
100
AcDbEntity
8
80
62
256
6
ByLayer
370
18
48
1
60
0
100
AcDbLine
10
0
20
0
30
0
11
-5
21
0
31
0
39
0
210
0
220
0
230
1
0
LINE
5
7F
100
AcDbEntity
8
81
62
256
6
ByLayer
370
18
48
1
60
0
100
AcDbLine
10
24.030774
20
15.4125
30
0
11
34.030774
21
15.4125
31
0
39
0
210
0
220
0
230
1
0
LINE
5
80
100
AcDbEntity
8
1
62
256
6
ByLayer
370
18
48
1
60
0
100
AcDbLine
10
10.984933
20
-0.06858
30
0
11
11.120584
21
0.062417
31
0
39
0
210
0
220
0
230
1
0
LINE
5
81
100
AcDbEntity
8
1
62
256
6
ByLayer
370
18
48
1
60
0
100
AcDbLine
10
13.174106
20
-1.422927
30
0
11
13.17417
21
-1.422865
31
0
39
0
210
0
220
0
230
1
0
LINE
5
82
100
AcDbEntity
8
1
62
256
6
ByLayer
370
18
48
1
60
0
100
AcDbLine
10
10.87834
20
7.450992
30
0
11
10.905437
21
7.434409
31
0
39
0
210
0
220
0
230
1
0
LINE
5
83
100
AcDbEntity
8
1
62
256
6
ByLayer
370
18
48
1
60
0
100
AcDbLine
10
19.051564
20
2.449136
30
0
11
22.595962
21
0.280033
31
0
39
0
210
0
220
0
230
1
0
LINE
5
84
100
AcDbEntity
8
1
62
256
6
ByLayer
370
18
48
1
60
0
100
AcDbLine
10
8.16603
20
2.902871
30
0
11
9.279201
21
3.858389
31
0
39
0
210
0
220
0
230
1
0
LINE
5
85
100
AcDbEntity
8
1
62
256
6
ByLayer
370
18
48
1
60
0
100
AcDbLine
10
12.975031
20
-7.024103
30
0
11
11.84151
21
-5.707327
31
0
39
0
210
0
220
0
230
1
0
LINE
5
86
100
AcDbEntity
8
1
62
256
6
ByLayer
370
18
48
1
60
0
100
AcDbLine
10
4.599233
20
2.70579
30
0
11
3.654025
21
3.803808
31
0
39
0
210
0
220
0
230
1
0
LINE
5
87
100
AcDbEntity
8
1
62
256
6
ByLayer
370
18
48
1
60
0
100
AcDbLine
10
10.295375
20
-8.003021
30
0
11
9.714706
21
-7.328478
31
0
39
0
210
0
220
0
230
1
0
LINE
5
88
100
AcDbEntity
8
1
62
256
6
ByLayer
370
18
48
1
60
0
100
AcDbLine
10
2.706145
20
0.813141
30
0
11
1.674923
21
2.011078
31
0
39
0
210
0
220
0
230
1
0
LINE
5
89
100
AcDbEntity
8
1
62
256
6
ByLayer
370
18
48
1
60
0
100
AcDbLine
10
21.933213
20
0.510996
30
0
11
18.979614
21
2.318542
31
0
39
0
210
0
220
0
230
1
0
LINE
5
8A
100
AcDbEntity
8
1
62
256
6
ByLayer
370
18
48
1
60
0
100
AcDbLine
10
18.986004
20
2.33006
30
0
11
19.116375
21
2.250275
31
0
39
0
210
0
220
0
230
1
0
LINE
5
8B
100
AcDbEntity
8
1
62
256
6
ByLayer
370
18
48
1
60
0
100
AcDbLine
10
13.951723
20
10.476094
30
0
11
13.664346
21
10.540231
31
0
39
0
210
0
220
0
230
1
0
LINE
5
8C
100
AcDbEntity
8
1
62
256
6
ByLayer
370
18
48
1
60
0
100
AcDbLine
10
10.756271
20
9.587143
30
0
11
12.233234
21
9.541993
31
0
39
0
210
0
220
0
230
1
0
LINE
5
8D
100
AcDbEntity
8
1
62
256
6
ByLayer
370
18
48
1
60
0
100
AcDbLine
10
17.566662
20
12.639164
30
0
11
17.690777
21
12.508497
31
0
39
0
210
0
220
0
230
1
0
LINE
5
8E
100
AcDbEntity
8
1
62
256
6
ByLayer
370
18
48
1
60
0
100
AcDbLine
10
9.353682
20
-8.347035
30
0
11
8.617486
21
-7.49182
31
0
39
0
210
0
220
0
230
1
0
LINE
5
8F
100
AcDbEntity
8
1
62
256
6
ByLayer
370
18
48
1
60
0
100
AcDbLine
10
2.381666
20
-0.24787
30
0
11
0.801029
21
1.588305
31
0
39
0
210
0
220
0
230
1
0
LINE
5
90
100
AcDbEntity
8
1
62
256
6
ByLayer
370
18
48
1
60
0
100
AcDbLine
10
10.265906
20
-8.013787
30
0
11
9.68624
21
-7.340408
31
0
39
0
210
0
220
0
230
1
0
LINE
5
91
100
AcDbEntity
8
1
62
256
6
ByLayer
370
18
48
1
60
0
100
AcDbLine
10
2.690278
20
0.786575
30
0
11
1.474765
21
2.198596
31
0
39
0
210
0
220
0
230
1
0
LINE
5
92
100
AcDbEntity
8
1
62
256
6
ByLayer
370
18
48
1
60
0
100
AcDbLine
10
10.737478
20
9.422678
30
0
11
11.945758
21
9.385741
31
0
39
0
210
0
220
0
230
1
0
LINE
5
93
100
AcDbEntity
8
1
62
256
6
ByLayer
370
18
48
1
60
0
100
AcDbLine
10
10.87834
20
7.450992
30
0
11
10.816774
21
7.391537
31
0
39
0
210
0
220
0
230
1
0
LINE
5
94
100
AcDbEntity
8
1
62
256
6
ByLayer
370
18
48
1
60
0
100
AcDbLine
10
21.922453
20
-0.102024
30
0
11
22.092541
21
-0.206115
31
0
39
0
210
0
220
0
230
1
0
LINE
5
95
100
AcDbEntity
8
1
62
256
6
ByLayer
370
18
48
1
60
0
100
AcDbLine
10
10.295375
20
-8.003021
30
0
11
12.975031
21
-7.024103
31
0
39
0
210
0
220
0
230
1
0
LINE
5
96
100
AcDbEntity
8
1
62
256
6
ByLayer
370
18
48
1
60
0
100
AcDbLine
10
21.934932
20
0.609485
30
0
11
21.933213
21
0.510996
31
0
39
0
210
0
220
0
230
1
0
LINE
5
97
100
AcDbEntity
8
1
62
256
6
ByLayer
370
18
48
1
60
0
100
AcDbLine
10
21.858332
20
-3.778902
30
0
11
21.933213
21
0.510996
31
0
39
0
210
0
220
0
230
1
0
LINE
5
98
100
AcDbEntity
8
1
62
256
6
ByLayer
370
18
48
1
60
0
100
AcDbLine
10
10.756271
20
9.587143
30
0
11
11.928747
21
10.593288
31
0
39
0
210
0
220
0
230
1
0
LINE
5
99
100
AcDbEntity
8
1
62
256
6
ByLayer
370
18
48
1
60
0
100
AcDbLine
10
21.858332
20
-3.778902
30
0
11
12.975031
21
-7.024103
31
0
39
0
210
0
220
0
230
1
0
LINE
5
9A
100
AcDbEntity
8
1
62
256
6
ByLayer
370
18
48
1
60
0
100
AcDbLine
10
9.353682
20
-8.347035
30
0
11
10.265906
21
-8.013787
31
0
39
0
210
0
220
0
230
1
0
LINE
5
9B
100
AcDbEntity
8
1
62
256
6
ByLayer
370
18
48
1
60
0
100
AcDbLine
10
16.556655
20
13.702495
30
0
11
2.828751
21
12.651063
31
0
39
0
210
0
220
0
230
1
0
LINE
5
9C
100
AcDbEntity
8
1
62
256
6
ByLayer
370
18
48
1
60
0
100
AcDbLine
10
10.265906
20
-8.013787
30
0
11
10.295375
21
-8.003021
31
0
39
0
210
0
220
0
230
1
0
LINE
5
9D
100
AcDbEntity
8
1
62
256
6
ByLayer
370
18
48
1
60
0
100
AcDbLine
10
2.828751
20
12.651063
30
0
11
2.704009
21
12.641509
31
0
39
0
210
0
220
0
230
1
0
LINE
5
9E
100
AcDbEntity
8
1
62
256
6
ByLayer
370
18
48
1
60
0
100
AcDbLine
10
1.876921
20
-9.94569
30
0
11
0.801029
21
1.588305
31
0
39
0
210
0
220
0
230
1
0
LINE
5
9F
100
AcDbEntity
8
1
62
256
6
ByLayer
370
18
48
1
60
0
100
AcDbLine
10
13.664346
20
10.540231
30
0
11
11.928747
21
10.593288
31
0
39
0
210
0
220
0
230
1
0
LINE
5
A0
100
AcDbEntity
8
1
62
256
6
ByLayer
370
18
48
1
60
0
100
AcDbLine
10
16.556655
20
13.702495
30
0
11
17.566662
21
12.639164
31
0
39
0
210
0
220
0
230
1
0
LINE
5
A1
100
AcDbEntity
8
1
62
256
6
ByLayer
370
18
48
1
60
0
100
AcDbLine
10
17.566662
20
12.639164
30
0
11
13.664346
21
10.540231
31
0
39
0
210
0
220
0
230
1
0
LINE
5
A2
100
AcDbEntity
8
1
62
256
6
ByLayer
370
18
48
1
60
0
100
AcDbLine
10
0
20
-9.9375
30
0
11
1.876921
21
-9.94569
31
0
39
0
210
0
220
0
230
1
0
LINE
5
A3
100
AcDbEntity
8
1
62
256
6
ByLayer
370
18
48
1
60
0
100
AcDbLine
10
2.704009
20
12.641509
30
0
11
0
21
9.9375
31
0
39
0
210
0
220
0
230
1
0
LINE
5
A4
100
AcDbEntity
8
1
62
256
6
ByLayer
370
18
48
1
60
0
100
AcDbLine
10
10.737478
20
9.422678
30
0
11
10.756271
21
9.587143
31
0
39
0
210
0
220
0
230
1
0
LINE
5
A5
100
AcDbEntity
8
1
62
256
6
ByLayer
370
18
48
1
60
0
100
AcDbLine
10
21.934932
20
0.609485
30
0
11
19.853494
21
1.883286
31
0
39
0
210
0
220
0
230
1
0
LINE
5
A6
100
AcDbEntity
8
1
62
256
6
ByLayer
370
18
48
1
60
0
100
AcDbLine
10
3.654025
20
3.803808
30
0
11
2.828751
21
12.651063
31
0
39
0
210
0
220
0
230
1
0
LINE
5
A7
100
AcDbEntity
8
1
62
256
6
ByLayer
370
18
48
1
60
0
100
AcDbLine
10
4.981549
20
-9.944241
30
0
11
9.353682
21
-8.347035
31
0
39
0
210
0
220
0
230
1
0
LINE
5
A8
100
AcDbEntity
8
1
62
256
6
ByLayer
370
18
48
1
60
0
100
AcDbLine
10
1.674923
20
2.011078
30
0
11
3.654025
21
3.803808
31
0
39
0
210
0
220
0
230
1
0
LINE
5
A9
100
AcDbEntity
8
1
62
256
6
ByLayer
370
18
48
1
60
0
100
AcDbLine
10
9.523348
20
8.110935
30
0
11
9.527253
21
8.309796
31
0
39
0
210
0
220
0
230
1
0
LINE
5
AA
100
AcDbEntity
8
1
62
256
6
ByLayer
370
18
48
1
60
0
100
AcDbLine
10
0
20
-9.9375
30
0
11
0
21
9.9375
31
0
39
0
210
0
220
0
230
1
0
LINE
5
AB
100
AcDbEntity
8
1
62
256
6
ByLayer
370
18
48
1
60
0
100
AcDbLine
10
1.474765
20
2.198596
30
0
11
1.674923
21
2.011078
31
0
39
0
210
0
220
0
230
1
0
LINE
5
AC
100
AcDbEntity
8
1
62
256
6
ByLayer
370
18
48
1
60
0
100
AcDbLine
10
4.981549
20
-9.944241
30
0
11
1.876921
21
-9.94569
31
0
39
0
210
0
220
0
230
1
0
LINE
5
AD
100
AcDbEntity
8
SK1
62
256
6
ByLayer
370
18
48
1
60
0
100
AcDbLine
10
-102.319226
20
9.9375
30
0
11
-102.319226
21
-9.9375
31
0
39
0
210
0
220
0
230
1
0
LINE
5
AF
100
AcDbEntity
8
SK1
62
256
6
ByLayer
370
18
48
1
60
0
100
AcDbLine
10
-102.319226
20
-9.9375
30
0
11
0
21
-9.9375
31
0
39
0
210
0
220
0
230
1
0
LINE
5
B0
100
AcDbEntity
8
SK1
62
256
6
ByLayer
370
18
48
1
60
0
100
AcDbLine
10
0
20
9.9375
30
0
11
0
21
-9.9375
31
0
39
0
210
0
220
0
230
1
0
LINE
5
B1
100
AcDbEntity
8
SK1
62
256
6
ByLayer
370
18
48
1
60
0
100
AcDbLine
10
0
20
9.9375
30
0
11
-102.319226
21
9.9375
31
0
39
0
210
0
220
0
230
1
0
LINE
5
B2
100
AcDbEntity
8
1
62
256
6
ByLayer
370
18
48
1
60
0
100
AcDbLine
10
23.792037
20
0.930172
30
0
11
24.030646
21
14.600068
31
0
39
0
210
0
220
0
230
1
0
LINE
5
B3
100
AcDbEntity
8
1
62
256
6
ByLayer
370
18
48
1
60
0
100
AcDbLine
10
22.858441
20
15.317435
30
0
11
10.90221
21
8.818498
31
0
39
0
210
0
220
0
230
1
0
LINE
5
B4
100
AcDbEntity
8
1
62
256
6
ByLayer
370
18
48
1
60
0
100
AcDbLine
10
22.092541
20
-0.206115
30
0
11
22.595962
21
0.280033
31
0
39
0
210
0
220
0
230
1
0
LINE
5
B5
100
AcDbEntity
8
1
62
256
6
ByLayer
370
18
48
1
60
0
100
AcDbLine
10
12.038416
20
0.868346
30
0
11
11.900218
21
0.734891
31
0
39
0
210
0
220
0
230
1
0
LINE
5
B6
100
AcDbEntity
8
1
62
256
6
ByLayer
370
18
48
1
60
0
100
AcDbLine
10
11.786384
20
1.730107
30
0
11
11.648187
21
1.596652
31
0
39
0
210
0
220
0
230
1
0
LINE
5
B7
100
AcDbEntity
8
1
62
256
6
ByLayer
370
18
48
1
60
0
100
AcDbLine
10
11.845816
20
0.57744
30
0
11
11.984014
21
0.710895
31
0
39
0
210
0
220
0
230
1
0
LINE
5
B8
100
AcDbEntity
8
1
62
256
6
ByLayer
370
18
48
1
60
0
100
AcDbLine
10
10.001956
20
1.058154
30
0
11
10.144733
21
1.196032
31
0
39
0
210
0
220
0
230
1
0
LINE
5
B9
100
AcDbEntity
8
1
62
256
6
ByLayer
370
18
48
1
60
0
100
AcDbLine
10
10.942516
20
1.847422
30
0
11
11.080713
21
1.980878
31
0
39
0
210
0
220
0
230
1
0
LINE
5
BA
100
AcDbEntity
8
1
62
256
6
ByLayer
370
18
48
1
60
0
100
AcDbLine
10
11.897264
20
0.384629
30
0
11
12.040041
21
0.522507
31
0
39
0
210
0
220
0
230
1
0
LINE
5
BB
100
AcDbEntity
8
1
62
256
6
ByLayer
370
18
48
1
60
0
100
AcDbLine
10
11.623895
20
1.794446
30
0
11
11.766672
21
1.932324
31
0
39
0
210
0
220
0
230
1
0
LINE
5
BC
100
AcDbEntity
8
1
62
256
6
ByLayer
370
18
48
1
60
0
100
AcDbLine
10
10.595332
20
1.897041
30
0
11
10.738108
21
2.034919
31
0
39
0
210
0
220
0
230
1
0
LINE
5
BD
100
AcDbEntity
8
1
62
256
6
ByLayer
370
18
48
1
60
0
100
AcDbLine
10
11.949976
20
1.415649
30
0
11
12.092753
21
1.553526
31
0
39
0
210
0
220
0
230
1
0
LINE
5
BE
100
AcDbEntity
8
1
62
256
6
ByLayer
370
18
48
1
60
0
100
AcDbLine
10
10.916685
20
1.950776
30
0
11
10.778488
21
1.81732
31
0
39
0
210
0
220
0
230
1
0
LINE
5
BF
100
AcDbEntity
8
1
62
256
6
ByLayer
370
18
48
1
60
0
100
AcDbLine
10
11.757813
20
1.469303
30
0
11
11.89601
21
1.602758
31
0
39
0
210
0
220
0
230
1
0
LINE
5
C0
100
AcDbEntity
8
1
62
256
6
ByLayer
370
18
48
1
60
0
100
AcDbLine
10
10.440738
20
-5.886882
30
0
11
15.184294
21
-1.813881
31
0
39
0
210
0
220
0
230
1
0
LINE
5
C1
100
AcDbEntity
8
1
62
256
6
ByLayer
370
18
48
1
60
0
100
AcDbLine
10
11.969925
20
-5.595111
30
0
11
10.72845
21
-6.681397
31
0
39
0
210
0
220
0
230
1
0
LINE
5
C2
100
AcDbEntity
8
1
62
256
6
ByLayer
370
18
48
1
60
0
100
AcDbLine
10
4.020775
20
-1.060418
30
0
11
2.984611
21
-2.009385
31
0
39
0
210
0
220
0
230
1
0
LINE
5
C3
100
AcDbEntity
8
1
62
256
6
ByLayer
370
18
48
1
60
0
100
AcDbLine
10
9.529866
20
4.087959
30
0
11
9.279201
21
3.858389
31
0
39
0
210
0
220
0
230
1
0
LINE
5
C4
100
AcDbEntity
8
1
62
256
6
ByLayer
370
18
48
1
60
0
100
AcDbLine
10
20.42751
20
4.692244
30
0
11
20.579767
21
6.99707
31
0
39
0
210
0
220
0
230
1
0
LINE
5
C5
100
AcDbEntity
8
1
62
256
6
ByLayer
370
18
48
1
60
0
100
AcDbLine
10
8.000281
20
-5.68328
30
0
11
6.964116
21
-6.632247
31
0
39
0
210
0
220
0
230
1
0
LINE
5
C6
100
AcDbEntity
8
1
62
256
6
ByLayer
370
18
48
1
60
0
100
AcDbLine
10
18.492272
20
9.422045
30
0
11
16.187775
21
9.617407
31
0
39
0
210
0
220
0
230
1
0
LINE
5
C7
100
AcDbEntity
8
1
62
256
6
ByLayer
370
18
48
1
60
0
100
AcDbLine
10
15.431885
20
-2.599914
30
0
11
11.993742
21
-5.552037
31
0
39
0
210
0
220
0
230
1
0
LINE
5
C8
100
AcDbEntity
8
1
62
256
6
ByLayer
370
18
48
1
60
0
100
AcDbLine
10
6.964116
20
-6.632247
30
0
11
2.984611
21
-2.009385
31
0
39
0
210
0
220
0
230
1
0
LINE
5
C9
100
AcDbEntity
8
1
62
256
6
ByLayer
370
18
48
1
60
0
100
AcDbLine
10
8.212324
20
5.786816
30
0
11
4.774181
21
2.834693
31
0
39
0
210
0
220
0
230
1
0
LINE
5
CA
100
AcDbEntity
8
1
62
256
6
ByLayer
370
18
48
1
60
0
100
AcDbLine
10
4.184936
20
1.380281
30
0
11
8.928491
21
5.453281
31
0
39
0
210
0
220
0
230
1
0
LINE
5
CB
100
AcDbEntity
8
1
62
256
6
ByLayer
370
18
48
1
60
0
100
AcDbLine
10
8.289111
20
3.022599
30
0
11
9.529866
21
4.087959
31
0
39
0
210
0
220
0
230
1
0
LINE
5
CC
100
AcDbEntity
8
1
62
256
6
ByLayer
370
18
48
1
60
0
100
AcDbLine
10
5.018017
20
-1.314809
30
0
11
7.88848
21
-4.649333
31
0
39
0
210
0
220
0
230
1
0
LINE
5
CD
100
AcDbEntity
8
1
62
256
6
ByLayer
370
18
48
1
60
0
100
AcDbLine
10
11.079033
20
-6.360065
30
0
11
10.722263
21
-6.686811
31
0
39
0
210
0
220
0
230
1
0
LINE
5
CE
100
AcDbEntity
8
1
62
256
6
ByLayer
370
18
48
1
60
0
100
AcDbLine
10
13.900798
20
-0.989611
30
0
11
12.660043
21
-2.05497
31
0
39
0
210
0
220
0
230
1
0
LINE
5
CF
100
AcDbEntity
8
1
62
256
6
ByLayer
370
18
48
1
60
0
100
AcDbLine
10
4.020775
20
-1.060418
30
0
11
8.000281
21
-5.68328
31
0
39
0
210
0
220
0
230
1
0
LINE
5
D0
100
AcDbEntity
8
1
62
256
6
ByLayer
370
18
48
1
60
0
100
AcDbLine
10
8.289111
20
3.022599
30
0
11
8.044146
21
2.798249
31
0
39
0
210
0
220
0
230
1
0
LINE
5
D1
100
AcDbEntity
8
1
62
256
6
ByLayer
370
18
48
1
60
0
100
AcDbLine
10
4.72853
20
2.816983
30
0
11
3.837638
21
2.052028
31
0
39
0
210
0
220
0
230
1
0
LINE
5
D2
100
AcDbEntity
8
1
62
256
6
ByLayer
370
18
48
1
60
0
100
AcDbLine
10
4.72853
20
2.816983
30
0
11
4.774181
21
2.834693
31
0
39
0
210
0
220
0
230
1
0
LINE
5
D3
100
AcDbEntity
8
1
62
256
6
ByLayer
370
18
48
1
60
0
100
AcDbLine
10
11.969925
20
-5.595111
30
0
11
11.993742
21
-5.552037
31
0
39
0
210
0
220
0
230
1
0
LINE
5
D4
100
AcDbEntity
8
1
62
256
6
ByLayer
370
18
48
1
60
0
100
AcDbLine
10
11.079033
20
-6.360065
30
0
11
11.969925
21
-5.595111
31
0
39
0
210
0
220
0
230
1
0
LINE
5
D5
100
AcDbEntity
8
1
62
256
6
ByLayer
370
18
48
1
60
0
100
AcDbLine
10
6.066393
20
-0.41491
30
0
11
5.018017
21
-1.314809
31
0
39
0
210
0
220
0
230
1
0
LINE
5
D6
100
AcDbEntity
8
1
62
256
6
ByLayer
370
18
48
1
60
0
100
AcDbLine
10
17.688866
20
6.66584
30
0
11
20.516388
21
9.054279
31
0
39
0
210
0
220
0
230
1
0
MTEXT
5
169
100
AcDbEntity
8
SK6
62
256
6
ByLayer
370
18
48
1
60
0
100
AcDbMText
10
-53.269226
20
-20.816595
30
0
210
0
220
0
230
1
1
\W0.7660;DTFNR 2020K 16
40
3.5
41
0
44
1.084337
50
0
71
7
72
5
7
iso_b_vert
0
DIMENSION
5
17A
100
AcDbEntity
8
2
62
256
6
ByLayer
370
13
48
1
60
0
100
AcDbDimension
2
DimnDraft3D1
10
24.030774
20
15.4125
30
0
11
41.880061
21
-2.736845
31
0
70
34
71
5
72
1
41
1
210
0
220
0
230
1
3
Standard
100
AcDb2LineAngularDimension
13
24.030653
23
14.604897
33
0
14
24.0132
24
13.605049
34
0
15
22.443274
25
15.4125
35
0
16
45.034153
26
-5.946472
36
0
40
0
0
DIMENSION
5
190
100
AcDbEntity
8
SK2
62
256
6
ByLayer
370
13
48
1
60
0
100
AcDbDimension
2
DimnDraft3D2
10
-110.069226
20
9.9375
30
0
11
-110.069226
21
-5.281579
31
0
70
32
71
5
72
1
41
1
210
0
220
0
230
1
3
Standard
100
AcDbAlignedDimension
13
-104.319226
23
-9.9375
33
0
14
-104.319226
24
9.9375
34
0
50
90
100
AcDbRotatedDimension
1001
ACAD
1000
DSTYLE
1002
{
1070
    74
1070
     0
1070
   279
1070
     0
1070
   172
1070
     1
1070
   173
1070
     1
1070
   340
1005
16A
1070
    77
1070
     1
1070
    73
1070
     0
1070
   171
1070
     3
1070
   274
1070
     4
1070
   177
1070
     2
1070
   176
1070
     2
1070
   178
1070
     7
1070
    78
1070
     8
1070
    41
1041
3.175
1070
   147
1041
2.25
1070
    42
1041
2.0
1070
    44
1041
2.0
1070
   140
1041
4.5
1070
   343
1005
17B
1070
   344
1005
17B
1002
}
0
DIMENSION
5
19E
100
AcDbEntity
8
2
62
256
6
ByLayer
370
13
48
1
60
0
100
AcDbDimension
2
DimnDraft3D3
10
64.280774
20
15.4125
30
0
11
64.280774
21
-2.544079
31
0
70
32
71
5
72
1
41
1
210
0
220
0
230
1
3
Standard
100
AcDbAlignedDimension
13
2
23
-9.9375
33
0
14
26.030773
24
15.4125
34
0
50
90
100
AcDbRotatedDimension
1001
ACAD
1000
DSTYLE
1002
{
1070
    74
1070
     0
1070
   279
1070
     0
1070
   172
1070
     1
1070
   173
1070
     1
1070
   340
1005
16A
1070
    77
1070
     1
1070
    73
1070
     0
1070
   171
1070
     3
1070
   274
1070
     4
1070
   177
1070
     2
1070
   176
1070
     2
1070
   178
1070
     7
1070
    78
1070
     8
1070
    41
1041
3.175
1070
   147
1041
2.25
1070
    42
1041
2.0
1070
    44
1041
2.0
1070
   140
1041
4.5
1070
   343
1005
17B
1070
   344
1005
17B
1002
}
0
DIMENSION
5
1AC
100
AcDbEntity
8
2
62
256
6
ByLayer
370
13
48
1
60
0
100
AcDbDimension
2
DimnDraft3D4
10
24.030774
20
31.1625
30
0
11
6.496966
21
31.1625
31
0
70
32
71
5
72
1
41
1
210
0
220
0
230
1
3
Standard
100
AcDbAlignedDimension
13
0
23
11.9375
33
0
14
24.030774
24
17.4125
34
0
50
0
100
AcDbRotatedDimension
1001
ACAD
1000
DSTYLE
1002
{
1070
   279
1070
     0
1070
   172
1070
     1
1070
   173
1070
     1
1070
   340
1005
16A
1070
    77
1070
     1
1070
    73
1070
     0
1070
   171
1070
     3
1070
   274
1070
     4
1070
   177
1070
     2
1070
   176
1070
     2
1070
   178
1070
     7
1070
    78
1070
     8
1070
    41
1041
3.175
1070
   147
1041
2.25
1070
    42
1041
2.0
1070
    44
1041
2.0
1070
   140
1041
4.5
1070
   343
1005
17B
1070
   344
1005
17B
1002
}
0
DIMENSION
5
1BA
100
AcDbEntity
8
SK2
62
256
6
ByLayer
370
13
48
1
60
0
100
AcDbDimension
2
DimnDraft3D5
10
-102.319226
20
41.1625
30
0
11
-45.544884
21
41.1625
31
0
70
32
71
5
72
1
41
1
210
0
220
0
230
1
3
Standard
100
AcDbAlignedDimension
13
24.030774
23
17.4125
33
0
14
-102.319226
24
11.9375
34
0
50
0
100
AcDbRotatedDimension
1001
ACAD
1000
DSTYLE
1002
{
1070
   279
1070
     0
1070
   172
1070
     1
1070
   173
1070
     1
1070
   340
1005
16A
1070
    77
1070
     1
1070
    73
1070
     0
1070
   171
1070
     3
1070
   274
1070
     4
1070
   177
1070
     2
1070
   176
1070
     2
1070
   178
1070
     7
1070
    78
1070
     8
1070
    41
1041
3.175
1070
   147
1041
2.25
1070
    42
1041
2.0
1070
    44
1041
2.0
1070
   140
1041
4.5
1070
   343
1005
17B
1070
   344
1005
17B
1002
}
0
ENDSEC
0
SECTION
2
OBJECTS
0
DICTIONARY
5
224
330
0
100
AcDbDictionary
280
0
281
1
3
ACAD_GROUP
350
225
3
ACAD_MLINESTYLE
350
226
0
DICTIONARY
5
225
330
0
100
AcDbDictionary
280
0
281
1
0
DICTIONARY
5
226
330
0
100
AcDbDictionary
280
0
281
1
3
Standard
350
18
0
MLINESTYLE
5
18
330
226
100
AcDbMlineStyle
2
Standard
70
0
3

62
256
51
90
52
90
71
2
49
-0.5
62
256
6
ByLayer
49
0.5
62
256
6
ByLayer
0
RASTERVARIABLES
5
213
330

100
AcDbRasterVariables
90
0
70
1
71
1
72
1
0
ENDSEC
0
EOF
