0
SECTION
2
HEADER
9
$ACADVER
1
AC1015
9
$DWGCODEPAGE
3
ANSI_1252
9
$HANDSEED
5
251
9
$ANGBASE
50
0
9
$ANGDIR
70
0
9
$ATTMODE
70
1
9
$AUNITS
70
0
9
$AUPREC
70
0
9
$CECOLOR
62
256
9
$CELTSCALE
40
1
9
$CELTYPE
6
ByLayer
9
$CELWEIGHT
370
18
9
$CLAYER
8
0
9
$CMLJUST
70
0
9
$CMLSCALE
40
1
9
$CMLSTYLE
2
Standard
9
$DIMSTYLE
2
Standard
9
$TEXTSIZE
40
0.2
9
$TEXTSTYLE
7
Standard
9
$LUNITS
70
2
9
$LUPREC
70
4
9
$EXTNAMES
290
1
9
$INSUNITS
70
4
9
$LTSCALE
40
1
9
$LWDISPLAY
290
1
9
$PDMODE
70
0
9
$PDSIZE
40
0
9
$PLINEGEN
70
0
0
ENDSEC
0
SECTION
2
CLASSES
0
CLASS
1
RASTERVARIABLES
2
AcDbRasterVariables
3
ISM
90
0
280
0
281
0
0
ENDSEC
0
SECTION
2
TABLES
0
TABLE
2
VPORT
5
247
100
AcDbSymbolTable
0
VPORT
5
1
100
AcDbSymbolTableRecord
100
AcDbViewportTableRecord
2
*Active
70
0
10
0
20
0
11
1
21
1
12
-1
22
1
13
0
23
0
14
0.5
24
0.5
15
10
25
10
16
0
26
0
36
1
17
0
27
0
37
0
0
ENDTAB
0
TABLE
2
LTYPE
5
248
100
AcDbSymbolTable
0
LTYPE
5
14
100
AcDbSymbolTableRecord
100
AcDbLinetypeTableRecord
70
0
2
ByBlock
3

72
65
73
0
40
0
0
LTYPE
5
15
100
AcDbSymbolTableRecord
100
AcDbLinetypeTableRecord
70
0
2
ByLayer
3

72
65
73
0
40
0
0
LTYPE
5
16
100
AcDbSymbolTableRecord
100
AcDbLinetypeTableRecord
70
0
2
CONTINUOUS
3
Solid line
72
65
73
0
40
0
0
LTYPE
5
6A
100
AcDbSymbolTableRecord
100
AcDbLinetypeTableRecord
70
0
2
CENTER
3
____ _ ____ _ ____ _ ____
72
65
73
4
40
47.5
49
22
74
0
49
-8.5
74
0
49
8.5
74
0
49
-8.5
74
0
0
LTYPE
5
6B
100
AcDbSymbolTableRecord
100
AcDbLinetypeTableRecord
70
0
2
DASHED
3
__ __ __ __ __ __ __ __ __
72
65
73
2
40
25.72
49
12.86
74
0
49
-12.86
74
0
0
ENDTAB
0
TABLE
2
LAYER
5
249
100
AcDbSymbolTable
0
LAYER
5
10
100
AcDbSymbolTableRecord
100
AcDbLayerTableRecord
2
0
70
0
62
7
6
CONTINUOUS
290
1
370
-3
390
0
0
LAYER
5
6D
100
AcDbSymbolTableRecord
100
AcDbLayerTableRecord
2
2
70
0
62
7
6
CONTINUOUS
290
1
370
-3
390
0
0
LAYER
5
6F
100
AcDbSymbolTableRecord
100
AcDbLayerTableRecord
2
80
70
0
62
-6
6
CONTINUOUS
290
1
370
-3
390
0
0
LAYER
5
71
100
AcDbSymbolTableRecord
100
AcDbLayerTableRecord
2
81
70
0
62
-3
6
CONTINUOUS
290
1
370
-3
390
0
0
LAYER
5
73
100
AcDbSymbolTableRecord
100
AcDbLayerTableRecord
2
1
70
0
62
4
6
CONTINUOUS
290
1
370
-3
390
0
0
LAYER
5
234
100
AcDbSymbolTableRecord
100
AcDbLayerTableRecord
2
SK1
70
0
62
4
6
CONTINUOUS
290
1
370
-3
390
0
0
LAYER
5
235
100
AcDbSymbolTableRecord
100
AcDbLayerTableRecord
2
SK6
70
0
62
5
6
CONTINUOUS
290
1
370
-3
390
0
0
LAYER
5
236
100
AcDbSymbolTableRecord
100
AcDbLayerTableRecord
2
SK2
70
0
62
7
6
CONTINUOUS
290
1
370
-3
390
0
0
ENDTAB
0
TABLE
2
STYLE
5
24a
100
AcDbSymbolTable
0
STYLE
5
11
100
AcDbSymbolTableRecord
100
AcDbTextStyleTableRecord
2
Standard
3
txt
70
0
71
0
40
0
41
1
42
0
50
0
0
STYLE
5
16E
100
AcDbSymbolTableRecord
100
AcDbTextStyleTableRecord
2
iso_b_vert
3
simplex.shx
70
0
71
0
40
0
41
1
42
0
50
0
0
STYLE
5
16F
100
AcDbSymbolTableRecord
100
AcDbTextStyleTableRecord
2
DWGDirectTextStyle
3
simplex
70
0
71
0
40
0
41
1
42
0
50
0
0
ENDTAB
0
TABLE
2
DIMSTYLE
5
24b
100
AcDbSymbolTable
100
AcDbDimStyleTable
0
DIMSTYLE
105
27
100
AcDbSymbolTableRecord
100
AcDbDimStyleTableRecord
2
Standard
70
0
3
<>
41
0.18
42
0.0625
44
0.18
140
0.18
147
0.09
73
0
74
0
77
1
271
2
275
0
278
52
280
0
340
11
0
ENDTAB
0
TABLE
2
VIEW
5
24c
100
AcDbSymbolTable
0
ENDTAB
0
TABLE
2
UCS
5
24d
100
AcDbSymbolTable
0
ENDTAB
0
TABLE
2
APPID
5
24e
100
AcDbSymbolTable
0
APPID
5
12
100
AcDbSymbolTableRecord
100
AcDbRegAppTableRecord
2
ACAD
70
0
0
ENDTAB
0
TABLE
2
BLOCK_RECORD
5
24f
100
AcDbSymbolTable
0
BLOCK_RECORD
5
1F
100
AcDbSymbolTableRecord
100
AcDbBlockTableRecord
2
*Model_Space
340
0
70
0
0
BLOCK_RECORD
5
1B
100
AcDbSymbolTableRecord
100
AcDbBlockTableRecord
2
*Paper_Space
340
0
70
0
0
BLOCK_RECORD
5
23
100
AcDbSymbolTableRecord
100
AcDbBlockTableRecord
2
*Paper_Space0
340
0
70
0
0
BLOCK_RECORD
5
171
100
AcDbSymbolTableRecord
100
AcDbBlockTableRecord
2
DimnDraft3D1
340
0
70
0
0
BLOCK_RECORD
5
17F
100
AcDbSymbolTableRecord
100
AcDbBlockTableRecord
2
_CLOSED
340
0
70
0
0
BLOCK_RECORD
5
186
100
AcDbSymbolTableRecord
100
AcDbBlockTableRecord
2
DimnDraft3D2
340
0
70
0
0
BLOCK_RECORD
5
195
100
AcDbSymbolTableRecord
100
AcDbBlockTableRecord
2
DimnDraft3D3
340
0
70
0
0
BLOCK_RECORD
5
1A3
100
AcDbSymbolTableRecord
100
AcDbBlockTableRecord
2
DimnDraft3D4
340
0
70
0
0
BLOCK_RECORD
5
1B1
100
AcDbSymbolTableRecord
100
AcDbBlockTableRecord
2
DimnDraft3D5
340
0
70
0
0
BLOCK_RECORD
5
1BF
100
AcDbSymbolTableRecord
100
AcDbBlockTableRecord
2
DimnDraft3D6
340
0
70
0
0
BLOCK_RECORD
5
1CD
100
AcDbSymbolTableRecord
100
AcDbBlockTableRecord
2
DimnDraft3D7
340
0
70
0
0
ENDTAB
0
ENDSEC
0
SECTION
2
BLOCKS
0
BLOCK
5
20
100
AcDbEntity
8
0
100
AcDbBlockBegin
2
*Model_Space
70
0
10
0
20
0
30
0
3
*Model_Space
0
ENDBLK
5
21
100
AcDbEntity
8
0
100
AcDbBlockEnd
0
BLOCK
5
1C
100
AcDbEntity
8
0
100
AcDbBlockBegin
2
*Paper_Space
70
0
10
0
20
0
30
0
3
*Paper_Space
0
ENDBLK
5
1D
100
AcDbEntity
8
0
100
AcDbBlockEnd
0
BLOCK
5
24
100
AcDbEntity
8
0
100
AcDbBlockBegin
2
*Paper_Space0
70
0
10
0
20
0
30
0
3
*Paper_Space0
0
ENDBLK
5
25
100
AcDbEntity
8
0
100
AcDbBlockEnd
0
BLOCK
5
17C
100
AcDbEntity
8
0
100
AcDbBlockBegin
2
DimnDraft3D1
70
0
10
0
20
0
30
0
3
DimnDraft3D1
0
MTEXT
5
172
100
AcDbEntity
8
2
62
256
6
ByLayer
370
18
48
1
60
0
100
AcDbMText
10
99.197904
20
-5.148598
30
0
210
0
220
0
230
1
1
\W0.7346;37.5
40
4.5
41
0
44
1.084337
50
90
71
7
72
5
7
iso_b_vert
0
LINE
5
173
100
AcDbEntity
8
2
62
256
6
ByLayer
370
13
48
1
60
0
100
AcDbLine
10
52.206942
20
17.940962
30
0
11
102.322904
21
17.940962
31
0
39
0
210
0
220
0
230
1
0
LINE
5
174
100
AcDbEntity
8
2
62
256
6
ByLayer
370
13
48
1
60
0
100
AcDbLine
10
2
20
-19.925
30
0
11
102.322904
21
-19.925
31
0
39
0
210
0
220
0
230
1
0
LINE
5
175
100
AcDbEntity
8
2
62
256
6
ByLayer
370
13
48
1
60
0
100
AcDbLine
10
100.322904
20
17.940962
30
0
11
100.322904
21
-19.925
31
0
39
0
210
0
220
0
230
1
0
LINE
5
176
100
AcDbEntity
8
2
62
256
6
ByLayer
370
13
48
1
60
0
100
AcDbLine
10
100.322904
20
17.940962
30
0
11
100.7409
21
14.765963
31
0
39
0
210
0
220
0
230
1
0
LINE
5
177
100
AcDbEntity
8
2
62
256
6
ByLayer
370
13
48
1
60
0
100
AcDbLine
10
100.322904
20
17.940962
30
0
11
99.904907
21
14.76596
31
0
39
0
210
0
220
0
230
1
0
LINE
5
178
100
AcDbEntity
8
2
62
256
6
ByLayer
370
13
48
1
60
0
100
AcDbLine
10
100.7409
20
14.765963
30
0
11
99.904907
21
14.76596
31
0
39
0
210
0
220
0
230
1
0
LINE
5
179
100
AcDbEntity
8
2
62
256
6
ByLayer
370
13
48
1
60
0
100
AcDbLine
10
100.322904
20
-19.925
30
0
11
99.904907
21
-16.750002
31
0
39
0
210
0
220
0
230
1
0
LINE
5
17A
100
AcDbEntity
8
2
62
256
6
ByLayer
370
13
48
1
60
0
100
AcDbLine
10
100.322904
20
-19.925
30
0
11
100.7409
21
-16.749998
31
0
39
0
210
0
220
0
230
1
0
LINE
5
17B
100
AcDbEntity
8
2
62
256
6
ByLayer
370
13
48
1
60
0
100
AcDbLine
10
99.904907
20
-16.750002
30
0
11
100.7409
21
-16.749998
31
0
39
0
210
0
220
0
230
1
0
ENDBLK
5
17D
100
AcDbEntity
8
0
100
AcDbBlockEnd
0
BLOCK
5
180
100
AcDbEntity
8
0
100
AcDbBlockBegin
2
_CLOSED
70
0
10
0
20
0
30
0
3
_CLOSED
0
LINE
5
182
100
AcDbEntity
8
0
62
256
6
ByLayer
370
-2
48
1
60
0
100
AcDbLine
10
-1
20
0.166667
30
0
11
0
21
0
31
0
39
0
210
0
220
0
230
1
0
LINE
5
183
100
AcDbEntity
8
0
62
256
6
ByLayer
370
-2
48
1
60
0
100
AcDbLine
10
0
20
0
30
0
11
-1
21
-0.166667
31
0
39
0
210
0
220
0
230
1
0
LINE
5
184
100
AcDbEntity
8
0
62
256
6
ByLayer
370
-2
48
1
60
0
100
AcDbLine
10
-1
20
0.166667
30
0
11
-1
21
-0.166667
31
0
39
0
210
0
220
0
230
1
0
LINE
5
185
100
AcDbEntity
8
0
62
256
6
ByLayer
370
-2
48
1
60
0
100
AcDbLine
10
0
20
0
30
0
11
-1
21
0
31
0
39
0
210
0
220
0
230
1
0
ENDBLK
5
181
100
AcDbEntity
8
0
100
AcDbBlockEnd
0
BLOCK
5
192
100
AcDbEntity
8
0
100
AcDbBlockBegin
2
DimnDraft3D2
70
0
10
0
20
0
30
0
3
DimnDraft3D2
0
MTEXT
5
187
100
AcDbEntity
8
SK2
62
256
6
ByLayer
370
18
48
1
60
0
100
AcDbMText
10
-222.502096
20
-4.393421
30
0
210
0
220
0
230
1
1
\W0.7640;40.0
40
4.5
41
0
44
1.084337
50
90
71
7
72
5
7
iso_b_vert
0
LINE
5
189
100
AcDbEntity
8
SK2
62
256
6
ByLayer
370
13
48
1
60
0
100
AcDbLine
10
-215.627096
20
-19.925
30
0
11
-223.377096
21
-19.925
31
0
39
0
210
0
220
0
230
1
0
LINE
5
18A
100
AcDbEntity
8
SK2
62
256
6
ByLayer
370
13
48
1
60
0
100
AcDbLine
10
-215.627096
20
19.925
30
0
11
-223.377096
21
19.925
31
0
39
0
210
0
220
0
230
1
0
LINE
5
18B
100
AcDbEntity
8
SK2
62
256
6
ByLayer
370
13
48
1
60
0
100
AcDbLine
10
-221.377096
20
-19.925
30
0
11
-221.377096
21
19.925
31
0
39
0
210
0
220
0
230
1
0
LINE
5
18C
100
AcDbEntity
8
SK2
62
256
6
ByLayer
370
13
48
1
60
0
100
AcDbLine
10
-221.377096
20
-19.925
30
0
11
-221.795093
21
-16.750002
31
0
39
0
210
0
220
0
230
1
0
LINE
5
18D
100
AcDbEntity
8
SK2
62
256
6
ByLayer
370
13
48
1
60
0
100
AcDbLine
10
-221.377096
20
-19.925
30
0
11
-220.9591
21
-16.749998
31
0
39
0
210
0
220
0
230
1
0
LINE
5
18E
100
AcDbEntity
8
SK2
62
256
6
ByLayer
370
13
48
1
60
0
100
AcDbLine
10
-221.795093
20
-16.750002
30
0
11
-220.9591
21
-16.749998
31
0
39
0
210
0
220
0
230
1
0
LINE
5
18F
100
AcDbEntity
8
SK2
62
256
6
ByLayer
370
13
48
1
60
0
100
AcDbLine
10
-221.377096
20
19.925
30
0
11
-220.9591
21
16.750002
31
0
39
0
210
0
220
0
230
1
0
LINE
5
190
100
AcDbEntity
8
SK2
62
256
6
ByLayer
370
13
48
1
60
0
100
AcDbLine
10
-221.377096
20
19.925
30
0
11
-221.795093
21
16.749998
31
0
39
0
210
0
220
0
230
1
0
LINE
5
191
100
AcDbEntity
8
SK2
62
256
6
ByLayer
370
13
48
1
60
0
100
AcDbLine
10
-220.9591
20
16.750002
30
0
11
-221.795093
21
16.749998
31
0
39
0
210
0
220
0
230
1
0
ENDBLK
5
193
100
AcDbEntity
8
0
100
AcDbBlockEnd
0
BLOCK
5
1A0
100
AcDbEntity
8
0
100
AcDbBlockBegin
2
DimnDraft3D3
70
0
10
0
20
0
30
0
3
DimnDraft3D3
0
MTEXT
5
196
100
AcDbEntity
8
2
62
256
6
ByLayer
370
18
48
1
60
0
100
AcDbMText
10
109.197904
20
1.093421
30
0
210
0
220
0
230
1
1
\W0.7346;50.0
40
4.5
41
0
44
1.084337
50
90
71
7
72
5
7
iso_b_vert
0
LINE
5
197
100
AcDbEntity
8
2
62
256
6
ByLayer
370
13
48
1
60
0
100
AcDbLine
10
2
20
-19.925
30
0
11
112.322904
21
-19.925
31
0
39
0
210
0
220
0
230
1
0
LINE
5
198
100
AcDbEntity
8
2
62
256
6
ByLayer
370
13
48
1
60
0
100
AcDbLine
10
39.722904
20
30.425
30
0
11
112.322904
21
30.425
31
0
39
0
210
0
220
0
230
1
0
LINE
5
199
100
AcDbEntity
8
2
62
256
6
ByLayer
370
13
48
1
60
0
100
AcDbLine
10
110.322904
20
-19.925
30
0
11
110.322904
21
30.425
31
0
39
0
210
0
220
0
230
1
0
LINE
5
19A
100
AcDbEntity
8
2
62
256
6
ByLayer
370
13
48
1
60
0
100
AcDbLine
10
110.322904
20
-19.925
30
0
11
109.904907
21
-16.750002
31
0
39
0
210
0
220
0
230
1
0
LINE
5
19B
100
AcDbEntity
8
2
62
256
6
ByLayer
370
13
48
1
60
0
100
AcDbLine
10
110.322904
20
-19.925
30
0
11
110.7409
21
-16.749998
31
0
39
0
210
0
220
0
230
1
0
LINE
5
19C
100
AcDbEntity
8
2
62
256
6
ByLayer
370
13
48
1
60
0
100
AcDbLine
10
109.904907
20
-16.750002
30
0
11
110.7409
21
-16.749998
31
0
39
0
210
0
220
0
230
1
0
LINE
5
19D
100
AcDbEntity
8
2
62
256
6
ByLayer
370
13
48
1
60
0
100
AcDbLine
10
110.322904
20
30.425
30
0
11
110.7409
21
27.250002
31
0
39
0
210
0
220
0
230
1
0
LINE
5
19E
100
AcDbEntity
8
2
62
256
6
ByLayer
370
13
48
1
60
0
100
AcDbLine
10
110.322904
20
30.425
30
0
11
109.904907
21
27.249998
31
0
39
0
210
0
220
0
230
1
0
LINE
5
19F
100
AcDbEntity
8
2
62
256
6
ByLayer
370
13
48
1
60
0
100
AcDbLine
10
110.7409
20
27.250002
30
0
11
109.904907
21
27.249998
31
0
39
0
210
0
220
0
230
1
0
ENDBLK
5
1A1
100
AcDbEntity
8
0
100
AcDbBlockEnd
0
BLOCK
5
1AE
100
AcDbEntity
8
0
100
AcDbBlockBegin
2
DimnDraft3D4
70
0
10
0
20
0
30
0
3
DimnDraft3D4
0
MTEXT
5
1A4
100
AcDbEntity
8
2
62
256
6
ByLayer
370
18
48
1
60
0
100
AcDbMText
10
14.704873
20
34.815962
30
0
210
0
220
0
230
1
1
\W0.7346;37.7
40
4.5
41
0
44
1.084337
50
0
71
7
72
5
7
iso_b_vert
0
LINE
5
1A5
100
AcDbEntity
8
2
62
256
6
ByLayer
370
13
48
1
60
0
100
AcDbLine
10
0
20
21.925
30
0
11
0
21
35.690962
31
0
39
0
210
0
220
0
230
1
0
LINE
5
1A6
100
AcDbEntity
8
2
62
256
6
ByLayer
370
13
48
1
60
0
100
AcDbLine
10
37.722904
20
32.425
30
0
11
37.722904
21
35.690962
31
0
39
0
210
0
220
0
230
1
0
LINE
5
1A7
100
AcDbEntity
8
2
62
256
6
ByLayer
370
13
48
1
60
0
100
AcDbLine
10
0
20
33.690962
30
0
11
37.722904
21
33.690962
31
0
39
0
210
0
220
0
230
1
0
LINE
5
1A8
100
AcDbEntity
8
2
62
256
6
ByLayer
370
13
48
1
60
0
100
AcDbLine
10
0
20
33.690962
30
0
11
3.174998
21
34.108959
31
0
39
0
210
0
220
0
230
1
0
LINE
5
1A9
100
AcDbEntity
8
2
62
256
6
ByLayer
370
13
48
1
60
0
100
AcDbLine
10
0
20
33.690962
30
0
11
3.175002
21
33.272965
31
0
39
0
210
0
220
0
230
1
0
LINE
5
1AA
100
AcDbEntity
8
2
62
256
6
ByLayer
370
13
48
1
60
0
100
AcDbLine
10
3.174998
20
34.108959
30
0
11
3.175002
21
33.272965
31
0
39
0
210
0
220
0
230
1
0
LINE
5
1AB
100
AcDbEntity
8
2
62
256
6
ByLayer
370
13
48
1
60
0
100
AcDbLine
10
37.722904
20
33.690962
30
0
11
34.547905
21
33.272965
31
0
39
0
210
0
220
0
230
1
0
LINE
5
1AC
100
AcDbEntity
8
2
62
256
6
ByLayer
370
13
48
1
60
0
100
AcDbLine
10
37.722904
20
33.690962
30
0
11
34.547902
21
34.108959
31
0
39
0
210
0
220
0
230
1
0
LINE
5
1AD
100
AcDbEntity
8
2
62
256
6
ByLayer
370
13
48
1
60
0
100
AcDbLine
10
34.547905
20
33.272965
30
0
11
34.547902
21
34.108959
31
0
39
0
210
0
220
0
230
1
0
ENDBLK
5
1AF
100
AcDbEntity
8
0
100
AcDbBlockEnd
0
BLOCK
5
1BC
100
AcDbEntity
8
0
100
AcDbBlockBegin
2
DimnDraft3D5
70
0
10
0
20
0
30
0
3
DimnDraft3D5
0
MTEXT
5
1B2
100
AcDbEntity
8
SK2
62
256
6
ByLayer
370
18
48
1
60
0
100
AcDbMText
10
-93.790254
20
44.815962
30
0
210
0
220
0
230
1
1
\W0.7468;250.0
40
4.5
41
0
44
1.084337
50
0
71
7
72
5
7
iso_b_vert
0
LINE
5
1B3
100
AcDbEntity
8
SK2
62
256
6
ByLayer
370
13
48
1
60
0
100
AcDbLine
10
-213.627096
20
21.925
30
0
11
-213.627096
21
45.690962
31
0
39
0
210
0
220
0
230
1
0
LINE
5
1B4
100
AcDbEntity
8
SK2
62
256
6
ByLayer
370
13
48
1
60
0
100
AcDbLine
10
37.722904
20
32.425
30
0
11
37.722904
21
45.690962
31
0
39
0
210
0
220
0
230
1
0
LINE
5
1B5
100
AcDbEntity
8
SK2
62
256
6
ByLayer
370
13
48
1
60
0
100
AcDbLine
10
-213.627096
20
43.690962
30
0
11
37.722904
21
43.690962
31
0
39
0
210
0
220
0
230
1
0
LINE
5
1B6
100
AcDbEntity
8
SK2
62
256
6
ByLayer
370
13
48
1
60
0
100
AcDbLine
10
-213.627096
20
43.690962
30
0
11
-210.452098
21
44.108959
31
0
39
0
210
0
220
0
230
1
0
LINE
5
1B7
100
AcDbEntity
8
SK2
62
256
6
ByLayer
370
13
48
1
60
0
100
AcDbLine
10
-213.627096
20
43.690962
30
0
11
-210.452095
21
43.272965
31
0
39
0
210
0
220
0
230
1
0
LINE
5
1B8
100
AcDbEntity
8
SK2
62
256
6
ByLayer
370
13
48
1
60
0
100
AcDbLine
10
-210.452098
20
44.108959
30
0
11
-210.452095
21
43.272965
31
0
39
0
210
0
220
0
230
1
0
LINE
5
1B9
100
AcDbEntity
8
SK2
62
256
6
ByLayer
370
13
48
1
60
0
100
AcDbLine
10
37.722904
20
43.690962
30
0
11
34.547905
21
43.272965
31
0
39
0
210
0
220
0
230
1
0
LINE
5
1BA
100
AcDbEntity
8
SK2
62
256
6
ByLayer
370
13
48
1
60
0
100
AcDbLine
10
37.722904
20
43.690962
30
0
11
34.547902
21
44.108959
31
0
39
0
210
0
220
0
230
1
0
LINE
5
1BB
100
AcDbEntity
8
SK2
62
256
6
ByLayer
370
13
48
1
60
0
100
AcDbLine
10
34.547905
20
43.272965
30
0
11
34.547902
21
44.108959
31
0
39
0
210
0
220
0
230
1
0
ENDBLK
5
1BD
100
AcDbEntity
8
0
100
AcDbBlockEnd
0
BLOCK
5
1CA
100
AcDbEntity
8
0
100
AcDbBlockBegin
2
DimnDraft3D6
70
0
10
0
20
0
30
0
3
DimnDraft3D6
0
MTEXT
5
1C0
100
AcDbEntity
8
SK2
62
256
6
ByLayer
370
18
48
1
60
0
100
AcDbMText
10
-87.548235
20
54.815962
30
0
210
0
220
0
230
1
1
\W0.7468;262.5
40
4.5
41
0
44
1.084337
50
0
71
7
72
5
7
iso_b_vert
0
LINE
5
1C1
100
AcDbEntity
8
SK2
62
256
6
ByLayer
370
13
48
1
60
0
100
AcDbLine
10
50.206942
20
19.940962
30
0
11
50.206942
21
55.690962
31
0
39
0
210
0
220
0
230
1
0
LINE
5
1C2
100
AcDbEntity
8
SK2
62
256
6
ByLayer
370
13
48
1
60
0
100
AcDbLine
10
-213.627096
20
21.925
30
0
11
-213.627096
21
55.690962
31
0
39
0
210
0
220
0
230
1
0
LINE
5
1C3
100
AcDbEntity
8
SK2
62
256
6
ByLayer
370
13
48
1
60
0
100
AcDbLine
10
50.206942
20
53.690962
30
0
11
-213.627096
21
53.690962
31
0
39
0
210
0
220
0
230
1
0
LINE
5
1C4
100
AcDbEntity
8
SK2
62
256
6
ByLayer
370
13
48
1
60
0
100
AcDbLine
10
50.206942
20
53.690962
30
0
11
47.031943
21
53.272965
31
0
39
0
210
0
220
0
230
1
0
LINE
5
1C5
100
AcDbEntity
8
SK2
62
256
6
ByLayer
370
13
48
1
60
0
100
AcDbLine
10
50.206942
20
53.690962
30
0
11
47.03194
21
54.108959
31
0
39
0
210
0
220
0
230
1
0
LINE
5
1C6
100
AcDbEntity
8
SK2
62
256
6
ByLayer
370
13
48
1
60
0
100
AcDbLine
10
47.031943
20
53.272965
30
0
11
47.03194
21
54.108959
31
0
39
0
210
0
220
0
230
1
0
LINE
5
1C7
100
AcDbEntity
8
SK2
62
256
6
ByLayer
370
13
48
1
60
0
100
AcDbLine
10
-213.627096
20
53.690962
30
0
11
-210.452098
21
54.108959
31
0
39
0
210
0
220
0
230
1
0
LINE
5
1C8
100
AcDbEntity
8
SK2
62
256
6
ByLayer
370
13
48
1
60
0
100
AcDbLine
10
-213.627096
20
53.690962
30
0
11
-210.452095
21
53.272965
31
0
39
0
210
0
220
0
230
1
0
LINE
5
1C9
100
AcDbEntity
8
SK2
62
256
6
ByLayer
370
13
48
1
60
0
100
AcDbLine
10
-210.452098
20
54.108959
30
0
11
-210.452095
21
53.272965
31
0
39
0
210
0
220
0
230
1
0
ENDBLK
5
1CB
100
AcDbEntity
8
0
100
AcDbBlockEnd
0
BLOCK
5
1D8
100
AcDbEntity
8
0
100
AcDbBlockBegin
2
DimnDraft3D7
70
0
10
0
20
0
30
0
3
DimnDraft3D7
0
MTEXT
5
1CE
100
AcDbEntity
8
2
62
256
6
ByLayer
370
18
48
1
60
0
100
AcDbMText
10
69.075718
20
-35.859114
30
0
210
0
220
0
230
1
1
\W0.7785;45%%d
40
4.5
41
0
44
1.084337
50
22.5000000000001
71
7
72
5
7
iso_b_vert
0
LINE
5
1CF
100
AcDbEntity
8
2
62
256
6
ByLayer
370
13
48
1
60
0
100
AcDbLine
10
50.206942
20
14.750337
30
0
11
50.206942
21
-42.109595
31
0
39
0
210
0
220
0
230
1
0
LINE
5
1D0
100
AcDbEntity
8
2
62
256
6
ByLayer
370
13
48
1
60
0
100
AcDbLine
10
51.621155
20
16.526748
30
0
11
92.669098
21
-24.521194
31
0
39
0
210
0
220
0
230
1
0
ARC
5
1D1
100
AcDbEntity
8
2
62
256
6
ByLayer
370
13
48
1
60
0
100
AcDbCircle
39
0
10
50.206942
20
17.940962
30
0
40
58.0505568200358
210
0
220
0
230
1
100
AcDbArc
50
270
51
315
0
LINE
5
1D2
100
AcDbEntity
8
2
62
256
6
ByLayer
370
13
48
1
60
0
100
AcDbLine
10
50.206942
20
-40.109595
30
0
11
53.37593
21
-39.648236
31
0
39
0
210
0
220
0
230
1
0
LINE
5
1D3
100
AcDbEntity
8
2
62
256
6
ByLayer
370
13
48
1
60
0
100
AcDbLine
10
50.206942
20
-40.109595
30
0
11
53.387361
21
-40.484152
31
0
39
0
210
0
220
0
230
1
0
LINE
5
1D4
100
AcDbEntity
8
2
62
256
6
ByLayer
370
13
48
1
60
0
100
AcDbLine
10
53.37593
20
-39.648236
30
0
11
53.387361
21
-40.484152
31
0
39
0
210
0
220
0
230
1
0
LINE
5
1D5
100
AcDbEntity
8
2
62
256
6
ByLayer
370
13
48
1
60
0
100
AcDbLine
10
91.254884
20
-23.106981
30
0
11
89.270842
21
-25.620726
31
0
39
0
210
0
220
0
230
1
0
LINE
5
1D6
100
AcDbEntity
8
2
62
256
6
ByLayer
370
13
48
1
60
0
100
AcDbLine
10
91.254884
20
-23.106981
30
0
11
88.687839
21
-25.021566
31
0
39
0
210
0
220
0
230
1
0
LINE
5
1D7
100
AcDbEntity
8
2
62
256
6
ByLayer
370
13
48
1
60
0
100
AcDbLine
10
89.270842
20
-25.620726
30
0
11
88.687839
21
-25.021566
31
0
39
0
210
0
220
0
230
1
0
ENDBLK
5
1D9
100
AcDbEntity
8
0
100
AcDbBlockEnd
0
ENDSEC
0
SECTION
2
ENTITIES
0
ELLIPSE
5
D5
100
AcDbEntity
8
1
62
256
6
ByLayer
370
18
48
1
60
0
100
AcDbEllipse
10
32.875915
20
10.924065
30
0
11
2.50624146068984
21
-2.50624146068984
31
0
210
0
220
0
230
-1
40
0.50533
41
1.28339897031842
42
1.5707963267949
0
ELLIPSE
5
D6
100
AcDbEntity
8
1
62
256
6
ByLayer
370
18
48
1
60
0
100
AcDbEllipse
10
11.577937
20
-19.940986
30
0
11
0.803406090798105
21
-3.0375771452532E-05
31
0
210
0
220
0
230
-1
40
0.004364
41
-1.6784469021081
42
-0.368349845232028
0
ELLIPSE
5
D7
100
AcDbEntity
8
1
62
256
6
ByLayer
370
18
48
1
60
0
100
AcDbEllipse
10
36.730137
20
5.157311
30
0
11
0.84216417639319
21
-0.842164176393166
31
0
210
0
220
0
230
1
40
0.990268
41
-1.145846767809
42
-2.4098260145489E-14
0
ELLIPSE
5
D8
100
AcDbEntity
8
1
62
256
6
ByLayer
370
18
48
1
60
0
100
AcDbEllipse
10
37.355042
20
5.782216
30
0
11
-0.84216417639319
21
0.842164176393166
31
0
210
0
220
0
230
1
40
0.990268
41
1.5707963267949
42
-3.14159265358977
0
ELLIPSE
5
D9
100
AcDbEntity
8
1
62
256
6
ByLayer
370
18
48
1
60
0
100
AcDbEllipse
10
49.026396
20
17.453571
30
0
11
-0.84216417639319
21
0.842164176393166
31
0
210
0
220
0
230
1
40
0.990268
41
3.14159265358977
42
-1.57079632679487
0
ELLIPSE
5
DA
100
AcDbEntity
8
1
62
256
6
ByLayer
370
18
48
1
60
0
100
AcDbEllipse
10
37.240341
20
29.239627
30
0
11
-0.84216417639319
21
0.842164176393166
31
0
210
0
220
0
230
1
40
0.990268
41
-1.57079632679492
42
-2.4098260145489E-14
0
ELLIPSE
5
DB
100
AcDbEntity
8
1
62
256
6
ByLayer
370
18
48
1
60
0
100
AcDbEllipse
10
37.297691
20
17.510921
30
0
11
2.80721392131063
21
-2.80721392131055
31
0
210
0
220
0
230
1
40
0.990268
41
-0.574164026681803
42
0
0
ELLIPSE
5
DC
100
AcDbEntity
8
1
62
256
6
ByLayer
370
18
48
1
60
0
100
AcDbEllipse
10
37.297691
20
17.510921
30
0
11
2.80721392131063
21
-2.80721392131055
31
0
210
0
220
0
230
1
40
0.990268
41
0
42
0.790287998694711
0
ELLIPSE
5
DD
100
AcDbEntity
8
1
62
256
6
ByLayer
370
18
48
1
60
0
100
AcDbEllipse
10
37.297691
20
17.510921
30
0
11
2.80721392131063
21
-2.80721392131055
31
0
210
0
220
0
230
1
40
0.990268
41
0.790287797412387
42
2.3142357084324
0
ELLIPSE
5
DE
100
AcDbEntity
8
1
62
256
6
ByLayer
370
18
48
1
60
0
100
AcDbEllipse
10
36.672786
20
16.886016
30
0
11
2.80721392131063
21
-2.80721392131055
31
0
210
0
220
0
230
1
40
0.990268
41
0.112549429311084
42
0.485417262826002
0
ELLIPSE
5
DF
100
AcDbEntity
8
1
62
256
6
ByLayer
370
18
48
1
60
0
100
AcDbEllipse
10
36.672786
20
16.886016
30
0
11
2.80721392131063
21
-2.80721392131055
31
0
210
0
220
0
230
1
40
0.990268
41
0.790287797412389
42
2.37086352375358
0
ELLIPSE
5
E0
100
AcDbEntity
8
1
62
256
6
ByLayer
370
18
48
1
60
0
100
AcDbEllipse
10
36.392317
20
16.605547
30
0
11
-2.82842712473497
21
2.82842712473489
31
0
210
0
220
0
230
1
40
0.990268
41
-2.95580488015312
42
-2.67993378395611
0
ELLIPSE
5
E1
100
AcDbEntity
8
1
62
256
6
ByLayer
370
18
48
1
60
0
100
AcDbEllipse
10
15.020294
20
9.779039
30
0
11
6.44213462588281
21
0.909689580467062
31
0
210
0
220
0
230
-1
40
0.447011
41
-2.53175375264574
42
-2.4625236836282
0
ELLIPSE
5
E2
100
AcDbEntity
8
1
62
256
6
ByLayer
370
18
48
1
60
0
100
AcDbEllipse
10
6.70445
20
5.678736
30
0
11
6.97034682705625
21
0.643634298765098
31
0
210
0
220
0
230
1
40
0.089459
41
-0.816460859477581
42
-0.770472553435585
0
ELLIPSE
5
E3
100
AcDbEntity
8
1
62
256
6
ByLayer
370
18
48
1
60
0
100
AcDbEllipse
10
14.729535
20
12.927864
30
0
11
6.47246491083795
21
0.597660420281876
31
0
210
0
220
0
230
1
40
0.089459
41
1.97732322077546
42
2.35884790360714
0
ELLIPSE
5
E4
100
AcDbEntity
8
1
62
256
6
ByLayer
370
18
48
1
60
0
100
AcDbEllipse
10
37.782988
20
17.868953
30
0
11
2.66461981368722
21
-2.42254414566524
31
0
210
0
220
0
230
-1
40
0.834029
41
-1.16715560066289
42
-0.87841393506399
0
ELLIPSE
5
E5
100
AcDbEntity
8
1
62
256
6
ByLayer
370
18
48
1
60
0
100
AcDbEllipse
10
19.268106
20
16.652807
30
0
11
-3.3644217510616
21
3.89912378374727
31
0
210
0
220
0
230
1
40
0.988257
41
2.89049836845186
42
-0.625434656542342
0
ELLIPSE
5
E6
100
AcDbEntity
8
1
62
256
6
ByLayer
370
18
48
1
60
0
100
AcDbEllipse
10
13.889301
20
22.027318
30
0
11
6.49691440241085
21
0.328471764171087
31
0
210
0
220
0
230
-1
40
0.268495
41
2.47291946329575
42
2.54214952976823
0
ELLIPSE
5
E7
100
AcDbEntity
8
1
62
256
6
ByLayer
370
18
48
1
60
0
100
AcDbEllipse
10
10.939064
20
21.972969
30
0
11
1.95985733071548
21
-2.27133424295959
31
0
210
0
220
0
230
1
40
0.988257
41
-0.625434656542349
42
-0.250976749617699
0
ELLIPSE
5
E8
100
AcDbEntity
8
1
62
256
6
ByLayer
370
18
48
1
60
0
100
AcDbEllipse
10
15.273794
20
8.112374
30
0
11
4.43824816044594
21
0.807023836700649
31
0
210
0
220
0
230
-1
40
0.604162
41
2.61245225276222
42
-2.43095828658009
0
ELLIPSE
5
E9
100
AcDbEntity
8
1
62
256
6
ByLayer
370
18
48
1
60
0
100
AcDbEllipse
10
11.338281
20
10.916486
30
0
11
1.42342638502322
21
-1.40494032841959
31
0
210
0
220
0
230
1
40
0.683681
41
-2.15512970120724
42
-0.829017262146906
0
ELLIPSE
5
EA
100
AcDbEntity
8
1
62
256
6
ByLayer
370
18
48
1
60
0
100
AcDbEllipse
10
13.446325
20
10.243765
30
0
11
2.69354300585333
21
3.81745808896088
31
0
210
0
220
0
230
-1
40
0.656673
41
2.63901791796906
42
2.81832412146951
0
ELLIPSE
5
EB
100
AcDbEntity
8
1
62
256
6
ByLayer
370
18
48
1
60
0
100
AcDbEllipse
10
9.81606
20
20.897488
30
0
11
3.19892913272901
21
-1.45835999669176
31
0
210
0
220
0
230
-1
40
0.988829
41
2.62660291116648
42
-2.46622625550159
0
ELLIPSE
5
EC
100
AcDbEntity
8
1
62
256
6
ByLayer
370
18
48
1
60
0
100
AcDbEllipse
10
13.818166
20
23.876346
30
0
11
4.50724462922356
21
0.108172905368548
31
0
210
0
220
0
230
-1
40
0.426587
41
2.4550049126135
42
-2.58840562672873
0
ELLIPSE
5
ED
100
AcDbEntity
8
1
62
256
6
ByLayer
370
18
48
1
60
0
100
AcDbEllipse
10
10.432589
20
20.724833
30
0
11
-0.880532867981934
21
-1.79573435351767
31
0
210
0
220
0
230
1
40
0.756502
41
-2.52254507527054
42
-1.19643263621018
0
ELLIPSE
5
EE
100
AcDbEntity
8
1
62
256
6
ByLayer
370
18
48
1
60
0
100
AcDbEllipse
10
37.782988
20
17.868953
30
0
11
0.125059562215682
21
-3.85184125563518
31
0
210
0
220
0
230
-1
40
0.85294
41
-1.50155975878951
42
-1.21281809326159
0
ELLIPSE
5
EF
100
AcDbEntity
8
1
62
256
6
ByLayer
370
18
48
1
60
0
100
AcDbEllipse
10
10.915009
20
8.996231
30
0
11
3.19892913265996
21
-1.45835999684724
31
0
210
0
220
0
230
-1
40
0.988829
41
1.43624677060745
42
2.62660291111918
0
ELLIPSE
5
F0
100
AcDbEntity
8
1
62
256
6
ByLayer
370
18
48
1
60
0
100
AcDbEllipse
10
16.943827
20
16.464445
30
0
11
3.36442175106158
21
-3.89912378374729
31
0
210
0
220
0
230
1
40
0.988257
41
2.51615799704745
42
2.88315904529341
0
ELLIPSE
5
F1
100
AcDbEntity
8
1
62
256
6
ByLayer
370
18
48
1
60
0
100
AcDbEllipse
10
12.347376
20
22.145021
30
0
11
3.81417697881097
21
-1.58290825288455
31
0
210
0
220
0
230
-1
40
0.592827
41
-2.46566456363867
42
-2.28635836019109
0
ELLIPSE
5
F2
100
AcDbEntity
8
1
62
256
6
ByLayer
370
18
48
1
60
0
100
AcDbEllipse
10
14.180061
20
18.878492
30
0
11
6.47246491083795
21
0.597660420281876
31
0
210
0
220
0
230
1
40
0.089459
41
1.97732322077545
42
2.35884790360713
0
ELLIPSE
5
F3
100
AcDbEntity
8
1
62
256
6
ByLayer
370
18
48
1
60
0
100
AcDbEllipse
10
18.513536
20
16.862093
30
0
11
0.989949493661179
21
-0.989949493661153
31
0
210
0
220
0
230
1
40
0.990268
41
1.30466224242035
42
1.48786456077055
0
ELLIPSE
5
F4
100
AcDbEntity
8
1
62
256
6
ByLayer
370
18
48
1
60
0
100
AcDbEllipse
10
16.992602
20
15.802216
30
0
11
0.353553390593279
21
-0.353553390593269
31
0
210
0
220
0
230
1
40
0.990268
41
1.77528721317798
42
2.28924886520466
0
ELLIPSE
5
F5
100
AcDbEntity
8
1
62
256
6
ByLayer
370
18
48
1
60
0
100
AcDbEllipse
10
18.517797
20
16.866355
30
0
11
1.00762716319084
21
-1.00762716319082
31
0
210
0
220
0
230
1
40
0.990268
41
0.218868946141064
42
0.479262754656704
0
ELLIPSE
5
F6
100
AcDbEntity
8
1
62
256
6
ByLayer
370
18
48
1
60
0
100
AcDbEllipse
10
17.667135
20
18.076931
30
0
11
-0.318198051533951
21
0.318198051533942
31
0
210
0
220
0
230
1
40
0.990268
41
-1.591117164407
42
1.24205131400807
0
ELLIPSE
5
F7
100
AcDbEntity
8
1
62
256
6
ByLayer
370
18
48
1
60
0
100
AcDbEllipse
10
18.517797
20
16.866355
30
0
11
1.00762716319084
21
-1.00762716319082
31
0
210
0
220
0
230
1
40
0.990268
41
-0.828328605055527
42
-0.567934796539881
0
ELLIPSE
5
F8
100
AcDbEntity
8
1
62
256
6
ByLayer
370
18
48
1
60
0
100
AcDbEllipse
10
18.144121
20
18.526617
30
0
11
0.353553390593279
21
-0.353553390593269
31
0
210
0
220
0
230
1
40
0.990268
41
-0.439120651739915
42
-4.64060093215983E-06
0
ELLIPSE
5
F9
100
AcDbEntity
8
1
62
256
6
ByLayer
370
18
48
1
60
0
100
AcDbEllipse
10
18.487992
20
14.80261
30
0
11
0.353553390593279
21
-0.353553390593269
31
0
210
0
220
0
230
1
40
0.990268
41
3.14158800008494
42
-3.10093379159867
0
ELLIPSE
5
FA
100
AcDbEntity
8
1
62
256
6
ByLayer
370
18
48
1
60
0
100
AcDbEllipse
10
18.316056
20
16.664614
30
0
11
0.989949493661179
21
-0.989949493661153
31
0
210
0
220
0
230
1
40
0.990268
41
0.440667009574005
42
1.30466224242037
0
ELLIPSE
5
FB
100
AcDbEntity
8
1
62
256
6
ByLayer
370
18
48
1
60
0
100
AcDbEllipse
10
20.013187
20
15.866749
30
0
11
0.353553390593279
21
-0.353553390593269
31
0
210
0
220
0
230
1
40
0.990268
41
-2.53351575413311
42
-1.8995413395817
0
ELLIPSE
5
FC
100
AcDbEntity
8
1
62
256
6
ByLayer
370
18
48
1
60
0
100
AcDbEllipse
10
18.222566
20
16.571124
30
0
11
3.53553390593279
21
-3.53553390593269
31
0
210
0
220
0
230
1
40
0.990268
41
-3.1415217040775
42
-2.72653444555341E-05
0
ELLIPSE
5
FD
100
AcDbEntity
8
1
62
256
6
ByLayer
370
18
48
1
60
0
100
AcDbEllipse
10
16.618925
20
17.462478
30
0
11
0.353553390593279
21
-0.353553390593269
31
0
210
0
220
0
230
1
40
0.990268
41
-0.543919613210296
42
-8.30718768973046E-06
0
ELLIPSE
5
FE
100
AcDbEntity
8
1
62
256
6
ByLayer
370
18
48
1
60
0
100
AcDbEllipse
10
18.384516
20
16.733073
30
0
11
-3.53553390593278
21
3.53553390593269
31
0
210
0
220
0
230
1
40
0.990268
41
0
42
6.28318530717959
0
ELLIPSE
5
FF
100
AcDbEntity
8
1
62
256
6
ByLayer
370
18
48
1
60
0
100
AcDbEllipse
10
16.992602
20
15.802216
30
0
11
0.353553390593279
21
-0.353553390593269
31
0
210
0
220
0
230
1
40
0.990268
41
0.503277937986323
42
1.01723959001299
0
ELLIPSE
5
100
100
AcDbEntity
8
1
62
256
6
ByLayer
370
18
48
1
60
0
100
AcDbEllipse
10
20.042993
20
17.930494
30
0
11
0.353553390593279
21
-0.353553390593269
31
0
210
0
220
0
230
1
40
0.990268
41
-1.36630544041173
42
-0.85234378838506
0
ELLIPSE
5
101
100
AcDbEntity
8
1
62
256
6
ByLayer
370
18
48
1
60
0
100
AcDbEllipse
10
18.513536
20
16.862093
30
0
11
0.989949493661179
21
-0.989949493661153
31
0
210
0
220
0
230
1
40
0.990268
41
-1.83693041117008
42
-1.6537280928192
0
ELLIPSE
5
102
100
AcDbEntity
8
1
62
256
6
ByLayer
370
18
48
1
60
0
100
AcDbEllipse
10
18.345862
20
18.728358
30
0
11
0.353553390593279
21
-0.353553390593269
31
0
210
0
220
0
230
1
40
0.990268
41
-0.31910788921528
42
0.194853762811377
0
ELLIPSE
5
103
100
AcDbEntity
8
1
62
256
6
ByLayer
370
18
48
1
60
0
100
AcDbEllipse
10
16.820666
20
17.664219
30
0
11
0.353553390593279
21
-0.353553390593269
31
0
210
0
220
0
230
1
40
0.990268
41
-0.543919613210316
42
-0.0299579611836362
0
ELLIPSE
5
104
100
AcDbEntity
8
1
62
256
6
ByLayer
370
18
48
1
60
0
100
AcDbEllipse
10
18.144121
20
18.526617
30
0
11
0.353553390593279
21
-0.353553390593269
31
0
210
0
220
0
230
1
40
0.990268
41
-1.59111716440696
42
-0.957142749855442
0
ELLIPSE
5
105
100
AcDbEntity
8
1
62
256
6
ByLayer
370
18
48
1
60
0
100
AcDbEllipse
10
19.841252
20
17.728753
30
0
11
0.353553390593279
21
-0.353553390593269
31
0
210
0
220
0
230
1
40
0.990268
41
-2.63831471560354
42
-2.00434030105199
0
ELLIPSE
5
106
100
AcDbEntity
8
1
62
256
6
ByLayer
370
18
48
1
60
0
100
AcDbEllipse
10
18.513536
20
16.862093
30
0
11
0.989949493661179
21
-0.989949493661153
31
0
210
0
220
0
230
1
40
0.990268
41
-2.88412796236601
42
-2.70092564401581
0
ELLIPSE
5
107
100
AcDbEntity
8
1
62
256
6
ByLayer
370
18
48
1
60
0
100
AcDbEllipse
10
18.261931
20
16.610488
30
0
11
0.989949493661179
21
-0.989949493661153
31
0
210
0
220
0
230
1
40
0.990268
41
0.0275599182157768
42
0.790287556961956
0
ELLIPSE
5
108
100
AcDbEntity
8
1
62
256
6
ByLayer
370
18
48
1
60
0
100
AcDbEllipse
10
18.261931
20
16.610488
30
0
11
0.989949493661179
21
-0.989949493661153
31
0
210
0
220
0
230
1
40
0.990268
41
0.790287556961956
42
3.10789140197053
0
ELLIPSE
5
109
100
AcDbEntity
8
1
62
256
6
ByLayer
370
18
48
1
60
0
100
AcDbEllipse
10
17.901893
20
15.534589
30
0
11
-0.318198051533951
21
0.318198051533942
31
0
210
0
220
0
230
1
40
0.990268
41
0.503277937986341
42
-2.9467388907783
0
ELLIPSE
5
10A
100
AcDbEntity
8
1
62
256
6
ByLayer
370
18
48
1
60
0
100
AcDbEllipse
10
18.517797
20
16.866355
30
0
11
1.00762716319084
21
-1.00762716319082
31
0
210
0
220
0
230
1
40
0.990268
41
2.31326404853424
42
2.57365785704989
0
ELLIPSE
5
10B
100
AcDbEntity
8
1
62
256
6
ByLayer
370
18
48
1
60
0
100
AcDbEllipse
10
18.517797
20
16.866355
30
0
11
-1.76776695296639
21
1.76776695296635
31
0
210
0
220
0
230
1
40
0.990268
41
0
42
6.28318530717959
0
ELLIPSE
5
10C
100
AcDbEntity
8
1
62
256
6
ByLayer
370
18
48
1
60
0
100
AcDbEllipse
10
20.013187
20
15.866749
30
0
11
0.353553390593279
21
-0.353553390593269
31
0
210
0
220
0
230
1
40
0.990268
41
3.14158333400511
42
-3.05153785224864
0
ELLIPSE
5
10D
100
AcDbEntity
8
1
62
256
6
ByLayer
370
18
48
1
60
0
100
AcDbEllipse
10
18.517797
20
16.866355
30
0
11
1.00762716319084
21
-1.00762716319082
31
0
210
0
220
0
230
1
40
0.990268
41
-1.87552615625211
42
-1.6151323477365
0
ELLIPSE
5
10E
100
AcDbEntity
8
1
62
256
6
ByLayer
370
18
48
1
60
0
100
AcDbEllipse
10
20.214928
20
16.06849
30
0
11
0.353553390593279
21
-0.353553390593269
31
0
210
0
220
0
230
1
40
0.990268
41
-2.41350299160836
42
-1.89954133958172
0
ELLIPSE
5
10F
100
AcDbEntity
8
1
62
256
6
ByLayer
370
18
48
1
60
0
100
AcDbEllipse
10
18.513536
20
16.862093
30
0
11
0.989949493661179
21
-0.989949493661153
31
0
210
0
220
0
230
1
40
0.990268
41
-0.789732859973248
42
-0.606530541622598
0
ELLIPSE
5
110
100
AcDbEntity
8
1
62
256
6
ByLayer
370
18
48
1
60
0
100
AcDbEllipse
10
16.84949
20
16.543425
30
0
11
-0.318198051533951
21
0.318198051533942
31
0
210
0
220
0
230
1
40
0.990268
41
-0.543919613210411
42
-0.325854365137388
0
ELLIPSE
5
111
100
AcDbEntity
8
1
62
256
6
ByLayer
370
18
48
1
60
0
100
AcDbEllipse
10
16.820666
20
17.664219
30
0
11
0.353553390593279
21
-0.353553390593269
31
0
210
0
220
0
230
1
40
0.990268
41
0.728089661981393
42
1.24205131400813
0
ELLIPSE
5
112
100
AcDbEntity
8
1
62
256
6
ByLayer
370
18
48
1
60
0
100
AcDbEllipse
10
17.051231
20
16.745166
30
0
11
-0.318198051533951
21
0.318198051533942
31
0
210
0
220
0
230
1
40
0.990268
41
-0.543919613210358
42
2.28924886520466
0
ELLIPSE
5
113
100
AcDbEntity
8
1
62
256
6
ByLayer
370
18
48
1
60
0
100
AcDbEllipse
10
18.316056
20
16.664614
30
0
11
0.989949493661179
21
-0.989949493661153
31
0
210
0
220
0
230
1
40
0.990268
41
-2.70092564401581
42
-2.09016212308342
0
ELLIPSE
5
114
100
AcDbEntity
8
1
62
256
6
ByLayer
370
18
48
1
60
0
100
AcDbEllipse
10
18.517797
20
16.866355
30
0
11
1.00762716319084
21
-1.00762716319082
31
0
210
0
220
0
230
1
40
0.990268
41
-2.92272370744871
42
-2.6623298989331
0
ELLIPSE
5
115
100
AcDbEntity
8
1
62
256
6
ByLayer
370
18
48
1
60
0
100
AcDbEllipse
10
20.214928
20
16.06849
30
0
11
0.353553390593279
21
-0.353553390593269
31
0
210
0
220
0
230
1
40
0.990268
41
2.59767304037937
42
3.11163469240615
0
ELLIPSE
5
116
100
AcDbEntity
8
1
62
256
6
ByLayer
370
18
48
1
60
0
100
AcDbEllipse
10
18.345862
20
18.728358
30
0
11
0.353553390593279
21
-0.353553390593269
31
0
210
0
220
0
230
1
40
0.990268
41
-1.59111716440696
42
-1.07715551238034
0
ELLIPSE
5
117
100
AcDbEntity
8
1
62
256
6
ByLayer
370
18
48
1
60
0
100
AcDbEllipse
10
19.133702
20
18.19812
30
0
11
-0.318198051533951
21
0.318198051533942
31
0
210
0
220
0
230
1
40
0.990268
41
-2.63831471560349
42
0.194853762811438
0
ELLIPSE
5
118
100
AcDbEntity
8
1
62
256
6
ByLayer
370
18
48
1
60
0
100
AcDbEllipse
10
18.689733
20
15.004351
30
0
11
0.353553390593279
21
-0.353553390593269
31
0
210
0
220
0
230
1
40
0.990268
41
2.82248476437455
42
-2.9467388907783
0
ELLIPSE
5
119
100
AcDbEntity
8
1
62
256
6
ByLayer
370
18
48
1
60
0
100
AcDbEllipse
10
19.166718
20
15.454037
30
0
11
-0.318198051533951
21
0.318198051533942
31
0
210
0
220
0
230
1
40
0.990268
41
-2.81576256984677
42
-1.89954133958166
0
ELLIPSE
5
11A
100
AcDbEntity
8
1
62
256
6
ByLayer
370
18
48
1
60
0
100
AcDbEllipse
10
18.689733
20
15.004351
30
0
11
0.353553390593279
21
-0.353553390593269
31
0
210
0
220
0
230
1
40
0.990268
41
1.55047548918284
42
2.06443714120941
0
ELLIPSE
5
11B
100
AcDbEntity
8
1
62
256
6
ByLayer
370
18
48
1
60
0
100
AcDbEllipse
10
18.316056
20
16.664614
30
0
11
0.989949493661179
21
-0.989949493661153
31
0
210
0
220
0
230
1
40
0.990268
41
-1.45587324176699
42
-0.83638892744466
0
ELLIPSE
5
11C
100
AcDbEntity
8
1
62
256
6
ByLayer
370
18
48
1
60
0
100
AcDbEllipse
10
19.841252
20
17.728753
30
0
11
0.353553390593279
21
-0.353553390593269
31
0
210
0
220
0
230
1
40
0.990268
41
-1.48631820293655
42
-0.85234378838506
0
ELLIPSE
5
11D
100
AcDbEntity
8
1
62
256
6
ByLayer
370
18
48
1
60
0
100
AcDbEllipse
10
17.465394
20
17.87519
30
0
11
-0.318198051533951
21
0.318198051533942
31
0
210
0
220
0
230
1
40
0.990268
41
-1.59111716440688
42
-0.325841511063225
0
ELLIPSE
5
11E
100
AcDbEntity
8
1
62
256
6
ByLayer
370
18
48
1
60
0
100
AcDbEllipse
10
19.782622
20
16.785802
30
0
11
-0.318198051533951
21
0.318198051533942
31
0
210
0
220
0
230
1
40
0.990268
41
-2.81572899735429
42
-0.852343788385047
0
ELLIPSE
5
11F
100
AcDbEntity
8
1
62
256
6
ByLayer
370
18
48
1
60
0
100
AcDbEllipse
10
18.931961
20
17.996379
30
0
11
-0.318198051533951
21
0.318198051533942
31
0
210
0
220
0
230
1
40
0.990268
41
-2.63831471560355
42
-0.280322619946437
0
ELLIPSE
5
120
100
AcDbEntity
8
1
62
256
6
ByLayer
370
18
48
1
60
0
100
AcDbEllipse
10
18.513536
20
16.862093
30
0
11
0.989949493661179
21
-0.989949493661153
31
0
210
0
220
0
230
1
40
0.990268
41
0.257464691223741
42
0.440667009573997
0
ELLIPSE
5
121
100
AcDbEntity
8
1
62
256
6
ByLayer
370
18
48
1
60
0
100
AcDbEllipse
10
18.513536
20
16.862093
30
0
11
0.989949493661179
21
-0.989949493661153
31
0
210
0
220
0
230
1
40
0.990268
41
2.35185979361652
42
2.53506211196758
0
ELLIPSE
5
122
100
AcDbEntity
8
1
62
256
6
ByLayer
370
18
48
1
60
0
100
AcDbEllipse
10
18.517797
20
16.866355
30
0
11
1.00762716319084
21
-1.00762716319082
31
0
210
0
220
0
230
1
40
0.990268
41
1.26606649733764
42
1.52646030585328
0
ELLIPSE
5
123
100
AcDbEntity
8
1
62
256
6
ByLayer
370
18
48
1
60
0
100
AcDbEllipse
10
19.368459
20
15.655778
30
0
11
-0.318198051533951
21
0.318198051533942
31
0
210
0
220
0
230
1
40
0.990268
41
1.55047548918285
42
-1.89954133958166
0
ELLIPSE
5
124
100
AcDbEntity
8
1
62
256
6
ByLayer
370
18
48
1
60
0
100
AcDbEllipse
10
20.042993
20
17.930494
30
0
11
0.353553390593279
21
-0.353553390593269
31
0
210
0
220
0
230
1
40
0.990268
41
-2.63831471560349
42
-2.12435306357674
0
ELLIPSE
5
125
100
AcDbEntity
8
1
62
256
6
ByLayer
370
18
48
1
60
0
100
AcDbEllipse
10
19.984363
20
16.987543
30
0
11
-0.318198051533951
21
0.318198051533942
31
0
210
0
220
0
230
1
40
0.990268
41
2.59767304037958
42
-0.852343788385132
0
ELLIPSE
5
126
100
AcDbEntity
8
1
62
256
6
ByLayer
370
18
48
1
60
0
100
AcDbEllipse
10
18.316056
20
16.664614
30
0
11
0.989949493661179
21
-0.989949493661153
31
0
210
0
220
0
230
1
40
0.990268
41
1.48786456077059
42
2.35185979361693
0
ELLIPSE
5
127
100
AcDbEntity
8
1
62
256
6
ByLayer
370
18
48
1
60
0
100
AcDbEllipse
10
18.316056
20
16.664614
30
0
11
0.989949493661179
21
-0.989949493661153
31
0
210
0
220
0
230
1
40
0.990268
41
2.53506211196719
42
3.14158687108401
0
ELLIPSE
5
128
100
AcDbEntity
8
1
62
256
6
ByLayer
370
18
48
1
60
0
100
AcDbEllipse
10
18.316056
20
16.664614
30
0
11
0.989949493661179
21
-0.989949493661153
31
0
210
0
220
0
230
1
40
0.990268
41
-0.312204999338679
42
0.257464691223765
0
ELLIPSE
5
129
100
AcDbEntity
8
1
62
256
6
ByLayer
370
18
48
1
60
0
100
AcDbEllipse
10
36.208714
20
16.671944
30
0
11
-2.52790674274194
21
2.52790674274187
31
0
210
0
220
0
230
1
40
0.990268
41
2.37086353827012
42
2.94214243295581
0
ELLIPSE
5
12A
100
AcDbEntity
8
1
62
256
6
ByLayer
370
18
48
1
60
0
100
AcDbEllipse
10
36.208714
20
16.671944
30
0
11
-2.52790674274194
21
2.52790674274187
31
0
210
0
220
0
230
1
40
0.990268
41
2.94214271531561
42
-3.14155142972912
0
ELLIPSE
5
12B
100
AcDbEntity
8
1
62
256
6
ByLayer
370
18
48
1
60
0
100
AcDbEllipse
10
36.133692
20
16.596923
30
0
11
-2.52790674274194
21
2.52790674274188
31
0
210
0
220
0
230
1
40
0.990268
41
2.37086353827012
42
2.95117471253891
0
ELLIPSE
5
12C
100
AcDbEntity
8
1
62
256
6
ByLayer
370
18
48
1
60
0
100
AcDbEllipse
10
36.133692
20
16.596923
30
0
11
-2.52790674274194
21
2.52790674274188
31
0
210
0
220
0
230
1
40
0.990268
41
2.9511747125389
42
-3.14155142972912
0
ELLIPSE
5
12D
100
AcDbEntity
8
1
62
256
6
ByLayer
370
18
48
1
60
0
100
AcDbEllipse
10
36.131484
20
6.241927
30
0
11
-1.68379802270037
21
1.68379802270032
31
0
210
0
220
0
230
1
40
0.990268
41
2.35469747586357
42
2.65972628355669
0
POINT
5
6C
100
AcDbEntity
8
2
62
256
6
ByLayer
370
18
48
1
60
0
100
AcDbPoint
10
37.722904
20
30.425
30
0
39
0
210
0
220
0
230
1
50
360
0
POINT
5
6E
100
AcDbEntity
8
80
62
256
6
ByLayer
370
18
48
1
60
0
100
AcDbPoint
10
0
20
0
30
0
39
0
210
0
220
0
230
1
50
360
0
POINT
5
70
100
AcDbEntity
8
81
62
256
6
ByLayer
370
18
48
1
60
0
100
AcDbPoint
10
37.722904
20
30.425
30
0
39
0
210
0
220
0
230
1
50
360
0
SPLINE
5
12E
100
AcDbEntity
8
1
62
256
6
ByLayer
370
18
48
1
60
0
100
AcDbSpline
70
4
71
3
72
14
73
10
40
0
40
0
40
0
40
0
40
0.185244445916101
40
0.185244445916101
40
0.469711312964403
40
0.469711312964403
40
0.755916846591526
40
0.755916846591526
40
1
40
1
40
1
40
1
41
1
10
40.6876688723986
20
18.9612258677771
30
-5E-16
41
1
10
40.5681178202523
20
19.1387572132164
30
-7E-16
41
1
10
40.4347401223748
20
19.3154643298519
30
-8E-16
41
1
10
40.0659112911565
20
19.7484777335324
30
-1.2E-15
41
1
10
39.8083621496705
20
20.0022718747303
30
-1.5E-15
41
1
10
39.256132329172
20
20.4474324088387
30
-2.2E-15
41
1
10
38.9532998562012
20
20.6442183887762
30
-2.5E-15
41
1
10
38.3965420539606
20
20.9239478027024
30
-3.2E-15
41
1
10
38.1358446321157
20
21.022734778624
30
-3.5E-15
41
1
10
37.8880245885074
20
21.0881442598059
30
3.3E-15
0
SPLINE
5
12F
100
AcDbEntity
8
1
62
256
6
ByLayer
370
18
48
1
60
0
100
AcDbSpline
70
4
71
2
72
9
73
6
40
0
40
0
40
0
40
0.215578737053018
40
0.501173956564871
40
0.786769176076723
40
1
40
1
40
1
41
1.01987110935352
10
24.6331027050307
20
18.4738270366265
30
2E-15
41
1.01898440041071
10
25.7625317869805
20
18.4739264990315
30
3.3E-15
41
1.01588036664668
10
29.5920170813758
20
18.4134759638304
30
7E-16
41
1.01357557431911
10
32.0415853881671
20
18.3484215302872
30
-3.5E-15
41
1.01293324595055
10
34.1436045929339
20
18.2558274224675
30
-1.1E-15
41
1.01178747612661
10
35.050035145007
20
18.2573776439547
30
0
0
SPLINE
5
130
100
AcDbEntity
8
1
62
256
6
ByLayer
370
18
48
1
60
0
100
AcDbSpline
70
4
71
2
72
10
73
7
40
0
40
0
40
0
40
0.327809911387052
40
0.546349852311753
40
0.764889793236455
40
0.983429734161156
40
1
40
1
40
1
41
1.02275914691308
10
19.1169999321464
20
23.297369021822
30
2.6E-15
41
1.0218723728006
10
21.2943448073589
20
23.0943483969324
30
-1.9E-15
41
1.01941804929199
10
24.63674994619
20
22.1577192244701
30
2E-15
41
1.01588036664668
10
29.245156195307
20
20.6210151821672
30
3E-16
41
1.01357557431911
10
31.8225343658
20
19.7880789290886
30
3.3E-15
41
1.01317993487846
10
33.1752096088999
20
19.3907007412685
30
-2.2E-15
41
1.01314306577263
10
33.2704167444901
20
19.3642451640997
30
-2.1E-15
0
SPLINE
5
131
100
AcDbEntity
8
1
62
256
6
ByLayer
370
18
48
1
60
0
100
AcDbSpline
70
4
71
3
72
12
73
8
40
0
40
0
40
0
40
0
40
0.470394739545279
40
0.470394739545279
40
0.888179192190579
40
0.888179192190579
40
1
40
1
40
1
40
1
41
1
10
12.7949288100438
20
13.2465792116144
30
2.3E-15
41
1
10
12.9712457879538
20
13.2350912240188
30
2.5E-15
41
1
10
13.1541255917786
20
13.2071171403929
30
2.8E-15
41
1
10
13.4904659770669
20
13.1161929931982
30
3.2E-15
41
1
10
13.6483225432121
20
13.0561865655479
30
3.3E-15
41
1
10
13.8314417086926
20
12.9615643031128
30
-3.5E-15
41
1
10
13.8696934844881
20
12.9402695190122
30
-3.5E-15
41
1
10
13.9068475475063
20
12.9180318252341
30
-3.5E-15
0
SPLINE
5
132
100
AcDbEntity
8
1
62
256
6
ByLayer
370
18
48
1
60
0
100
AcDbSpline
70
4
71
3
72
10
73
6
40
0
40
0
40
0
40
0
40
0.49306431356314
40
0.49306431356314
40
1
40
1
40
1
40
1
41
1
10
32.2784101189461
20
23.8107007714078
30
-3.3E-15
41
1
10
31.9627963485877
20
23.77444076421
30
3.5E-15
41
1
10
31.6028736982582
20
23.7862442556882
30
3.1E-15
41
1
10
30.8556364656721
20
23.890242994963
30
2.2E-15
41
1
10
30.4576384558064
20
23.9846929275196
30
1.7E-15
41
1
10
30.0696359077874
20
24.1030287999442
30
1.3E-15
0
SPLINE
5
133
100
AcDbEntity
8
1
62
256
6
ByLayer
370
18
48
1
60
0
100
AcDbSpline
70
4
71
3
72
10
73
6
40
0
40
0
40
0
40
0
40
0.495114567541137
40
0.495114567541137
40
1
40
1
40
1
40
1
41
1
10
31.3691023591771
20
10.030236418168
30
2.8E-15
41
1
10
31.7213804998478
20
10.2063401455148
30
3.2E-15
41
1
10
32.0878481490328
20
10.3531368699362
30
-3.5E-15
41
1
10
32.8085741575527
20
10.546460616082
30
-2.6E-15
41
1
10
33.1726289667045
20
10.5920126949938
30
-2.2E-15
41
1
10
33.500822078677
20
10.57238307887
30
-1.8E-15
0
SPLINE
5
134
100
AcDbEntity
8
1
62
256
6
ByLayer
370
18
48
1
60
0
100
AcDbSpline
70
4
71
3
72
8
73
4
40
0
40
0
40
0
40
0
40
1
40
1
40
1
40
1
41
1
10
13.5902722562203
20
20.1625681493484
30
3.3E-15
41
1
10
14.3542194290237
20
21.0471781118812
30
-2.9E-15
41
1
10
15.4785949889616
20
21.6023537907799
30
-1.6E-15
41
1
10
16.7461841695745
20
21.7071000787543
30
-1E-16
0
SPLINE
5
135
100
AcDbEntity
8
1
62
256
6
ByLayer
370
18
48
1
60
0
100
AcDbSpline
70
4
71
3
72
12
73
8
40
0
40
0
40
0
40
0
40
0.5
40
0.5
40
0.75
40
0.75
40
1
40
1
40
1
40
1
41
1
10
8.39909872884505
20
21.6325246213421
30
-2.8E-15
41
1
10
8.16544532888116
20
22.3757890079237
30
-3.1E-15
41
1
10
8.16799317942764
20
22.9679521803082
30
-3.1E-15
41
1
10
8.44250882107491
20
23.7402635642614
30
-2.8E-15
41
1
10
8.58683382180806
20
23.9869932411
30
-2.6E-15
41
1
10
9.09650820786663
20
24.454929000267
30
-2E-15
41
1
10
9.47904888018707
20
24.6754536193166
30
-1.5E-15
41
1
10
9.95891197158301
20
24.7945123477563
30
-1E-15
0
SPLINE
5
136
100
AcDbEntity
8
1
62
256
6
ByLayer
370
18
48
1
60
0
100
AcDbSpline
70
4
71
3
72
8
73
4
40
0
40
0
40
0
40
0
40
1
40
1
40
1
40
1
41
1
10
37.0374445612188
20
17.8655752474299
30
2.3E-15
41
1
10
36.4151394654667
20
17.7602407399651
30
1.6E-15
41
1
10
35.7745276456051
20
17.5977592802399
30
8E-16
41
1
10
35.1303574871043
20
17.3875131902495
30
1E-16
0
SPLINE
5
137
100
AcDbEntity
8
1
62
256
6
ByLayer
370
18
48
1
60
0
100
AcDbSpline
70
4
71
3
72
20
73
16
40
0
40
0
40
0
40
0
40
0.180139434362059
40
0.180139434362059
40
0.338734027847005
40
0.338734027847005
40
0.497328642471142
40
0.497328642471142
40
0.655923259311463
40
0.655923259311463
40
0.814517859427949
40
0.814517859427949
40
0.975792228009337
40
0.975792228009337
40
1
40
1
40
1
40
1
41
1
10
41.039220970907
20
18.033085188926
30
-1E-16
41
1
10
41.0418123159151
20
18.0136336251732
30
-1E-16
41
1
10
41.044262128037
20
17.9941689794596
30
-1E-16
41
1
10
41.0486005808146
20
17.9575554981925
30
-1E-16
41
1
10
41.050521522975
20
17.9404060206248
30
-1E-16
41
1
10
41.054141164101
20
17.9061054086172
30
-1E-16
41
1
10
41.0558400476742
20
17.8889525241347
30
-1E-16
41
1
10
41.0590148326566
20
17.8546521147912
30
-1E-16
41
1
10
41.0604908961591
20
17.8375028386313
30
-1E-16
41
1
10
41.0632195230438
20
17.8032166510297
30
-1E-16
41
1
10
41.064472225711
20
17.7860779901947
30
-1E-16
41
1
10
41.0667731096608
20
17.7515306026464
30
-1E-16
41
1
10
41.0678175985611
20
17.7341203864855
30
-1E-16
41
1
10
41.0688857493733
20
17.7141124396563
30
-1E-16
41
1
10
41.0690225547199
20
17.7115013462363
30
-1E-16
41
1
10
41.0691567533151
20
17.7088905549222
30
-1E-16
0
SPLINE
5
138
100
AcDbEntity
8
1
62
256
6
ByLayer
370
18
48
1
60
0
100
AcDbSpline
70
4
71
3
72
10
73
6
40
0
40
0
40
0
40
0
40
0.5
40
0.5
40
1
40
1
40
1
40
1
41
1
10
36.3254922461649
20
22.387390637039
30
1.5E-15
41
1
10
36.0143344943223
20
21.7181353354223
30
1.1E-15
41
1
10
35.5355297059998
20
21.1784634942682
30
6E-16
41
1
10
34.5392350570813
20
20.1391181160049
30
-6E-16
41
1
10
33.9755575963194
20
19.6804163303882
30
-1.3E-15
41
1
10
33.2704167444896
20
19.3642451640999
30
-2.1E-15
0
SPLINE
5
139
100
AcDbEntity
8
1
62
256
6
ByLayer
370
18
48
1
60
0
100
AcDbSpline
70
4
71
3
72
8
73
4
40
0
40
0
40
0
40
0
40
1
40
1
40
1
40
1
41
1
10
9.75189758677533
20
10.8798111813509
30
-1.2E-15
41
1
10
10.5712337314995
20
11.4975996696725
30
-3E-16
41
1
10
11.648139587003
20
12.3445430405933
30
1E-15
41
1
10
12.7949288100438
20
13.2465792116144
30
2.3E-15
0
SPLINE
5
13A
100
AcDbEntity
8
1
62
256
6
ByLayer
370
18
48
1
60
0
100
AcDbSpline
70
4
71
3
72
8
73
4
40
0
40
0
40
0
40
0
40
1
40
1
40
1
40
1
41
1
10
12.7949288100438
20
13.2465792116144
30
2.3E-15
41
1
10
12.5658439510275
20
13.2615053069337
30
2.1E-15
41
1
10
12.3393306997513
20
13.2520259210169
30
1.8E-15
41
1
10
12.1210739308378
20
13.2233647381503
30
1.6E-15
0
SPLINE
5
13B
100
AcDbEntity
8
1
62
256
6
ByLayer
370
18
48
1
60
0
100
AcDbSpline
70
4
71
2
72
7
73
4
40
0
40
0
40
0
40
0.490194509713988
40
1
40
1
40
1
41
1.00836087185432
10
36.324591205793
20
22.3878455749543
30
1.5E-15
41
1.00969049691587
10
35.5071154474834
20
22.8005763017114
30
5E-16
41
1.01217718029716
10
33.7893896762511
20
23.5556436163979
30
-1.5E-15
41
1.01277102943384
10
32.9163708469013
20
23.882859618035
30
-2.5E-15
0
SPLINE
5
13C
100
AcDbEntity
8
1
62
256
6
ByLayer
370
18
48
1
60
0
100
AcDbSpline
70
4
71
3
72
10
73
6
40
0
40
0
40
0
40
0
40
0.5
40
0.5
40
1
40
1
40
1
40
1
41
1
10
33.5741729849157
20
16.0746654243602
30
-1.7E-15
41
1
10
34.3414645651199
20
15.7118588035037
30
-8E-16
41
1
10
34.9982214349321
20
15.1793355875102
30
-1E-16
41
1
10
36.2011420193355
20
13.9733332424174
30
1.3E-15
41
1
10
36.787292316353
20
13.3469809325373
30
2E-15
41
1
10
37.2323178732908
20
12.5667686886904
30
2.5E-15
0
SPLINE
5
13D
100
AcDbEntity
8
1
62
256
6
ByLayer
370
18
48
1
60
0
100
AcDbSpline
70
4
71
3
72
8
73
4
40
0
40
0
40
0
40
0
40
1
40
1
40
1
40
1
41
1
10
10.3614529257403
20
22.5738609151478
30
-5E-16
41
1
10
11.1343293371355
20
22.0321879019602
30
4E-16
41
1
10
12.1776202891424
20
21.02308243626
30
1.6E-15
41
1
10
13.266728583976
20
19.8503087330092
30
2.9E-15
0
SPLINE
5
13E
100
AcDbEntity
8
1
62
256
6
ByLayer
370
18
48
1
60
0
100
AcDbSpline
70
4
71
3
72
8
73
4
40
0
40
0
40
0
40
0
40
1
40
1
40
1
40
1
41
1
10
40.3161047800678
20
17.8804300042893
30
-9E-16
41
1
10
40.564290345876
20
17.9215996364992
30
-7E-16
41
1
10
40.8053062448926
20
17.9725626273222
30
-4E-16
41
1
10
41.039220970907
20
18.033085188926
30
-1E-16
0
SPLINE
5
13F
100
AcDbEntity
8
1
62
256
6
ByLayer
370
18
48
1
60
0
100
AcDbSpline
70
4
71
3
72
14
73
10
40
0
40
0
40
0
40
0
40
0.272255003219809
40
0.272255003219809
40
0.54534176369649
40
0.54534176369649
40
0.80734128994427
40
0.80734128994427
40
1
40
1
40
1
40
1
41
1
10
38.5330603873652
20
14.1026196497381
30
-3E-15
41
1
10
38.793704233463
20
14.1904148042915
30
-2.7E-15
41
1
10
39.0624503708028
20
14.3271544664212
30
-2.4E-15
41
1
10
39.5723009440105
20
14.6869992679011
30
-1.8E-15
41
1
10
39.8199557460429
20
14.9153412754322
30
-1.5E-15
41
1
10
40.2490884340538
20
15.415826955447
30
-1E-15
41
1
10
40.4382230265347
20
15.6914512861293
30
-8E-16
41
1
10
40.7141023273409
20
16.1850130478604
30
-5E-16
41
1
10
40.8166074944955
20
16.4017074724502
30
-4E-16
41
1
10
40.9039247620372
20
16.619246024469
30
-3E-16
0
SPLINE
5
140
100
AcDbEntity
8
1
62
256
6
ByLayer
370
18
48
1
60
0
100
AcDbSpline
70
4
71
3
72
8
73
4
40
0
40
0
40
0
40
0
40
1
40
1
40
1
40
1
41
1
10
12.234251930174
20
19.31852459753
30
1.7E-15
41
1
10
10.947331331551
20
19.9289561228638
30
2E-16
41
1
10
9.74668905090607
20
20.4320768144245
30
-1.2E-15
41
1
10
8.84620546817695
20
20.6881576247811
30
-2.3E-15
0
SPLINE
5
141
100
AcDbEntity
8
1
62
256
6
ByLayer
370
18
48
1
60
0
100
AcDbSpline
70
4
71
2
72
6
73
3
40
0
40
0
40
0
40
1
40
1
40
1
41
0.952673021881286
10
20.3910070510032
20
11.7293369383047
30
-3E-15
41
0.965735189103084
10
20.4041556425411
20
10.6669855616238
30
-3E-15
41
1.02275914691308
10
20.34732737696
20
9.97332924076785
30
-3E-15
0
SPLINE
5
142
100
AcDbEntity
8
1
62
256
6
ByLayer
370
18
48
1
60
0
100
AcDbSpline
70
4
71
2
72
7
73
4
40
0
40
0
40
0
40
0.50980549197301
40
1
40
1
40
1
41
1.01277102944297
10
34.1489167124981
20
10.5347949328715
30
-1.1E-15
41
1.0121771803069
10
34.9487416072872
20
11.0002451327998
30
-1E-16
41
1.00969049691473
10
36.5020639166
20
12.0256130739484
30
1.7E-15
41
1.00836087185184
10
37.2315138596101
20
12.5661728546199
30
2.5E-15
0
SPLINE
5
143
100
AcDbEntity
8
1
62
256
6
ByLayer
370
18
48
1
60
0
100
AcDbSpline
70
4
71
2
72
6
73
3
40
0
40
0
40
0
40
1
40
1
40
1
41
1.02275914691308
10
20.34732737696
20
9.97332924076785
30
-3E-15
41
1.02275914691308
10
20.2139191313506
20
8.34492351916088
30
-3.2E-15
41
1.02275914691308
10
20.0805108857412
20
6.71651779755397
30
-3.3E-15
0
SPLINE
5
144
100
AcDbEntity
8
1
62
256
6
ByLayer
370
18
48
1
60
0
100
AcDbSpline
70
4
71
3
72
8
73
4
40
0
40
0
40
0
40
0
40
1
40
1
40
1
40
1
41
1
10
20.3910070510001
20
11.72933693855
30
-3E-15
41
1
10
20.2687499813903
20
11.7097968739947
30
-3.1E-15
41
1
10
20.1460035317709
20
11.6948507840817
30
-3.3E-15
41
1
10
20.0227536616697
20
11.6846661228493
30
-3.4E-15
0
SPLINE
5
145
100
AcDbEntity
8
1
62
256
6
ByLayer
370
18
48
1
60
0
100
AcDbSpline
70
4
71
3
72
14
73
10
40
0
40
0
40
0
40
0
40
0.125000000000009
40
0.125000000000009
40
0.250000000000017
40
0.250000000000017
40
0.500000000000012
40
0.500000000000012
40
1
40
1
40
1
40
1
41
1
10
33.2704167444899
20
19.3642451640999
30
-2.1E-15
41
1
10
33.1938531969346
20
19.3489598135436
30
-2.2E-15
41
1
10
33.1134348659783
20
19.3267832299487
30
-2.3E-15
41
1
10
33.0870391115237
20
19.1829787226686
30
-2.3E-15
41
1
10
33.1857639095051
20
19.0736292482801
30
-2.2E-15
41
1
10
33.4677425880789
20
18.8509439245333
30
-1.9E-15
41
1
10
33.6746346075799
20
18.7493114970413
30
-1.6E-15
41
1
10
34.2756680919284
20
18.4775464008933
30
-9E-16
41
1
10
34.6650171366572
20
18.3560627947701
30
-5E-16
41
1
10
35.0500351428108
20
18.2573776439509
30
0
0
SPLINE
5
146
100
AcDbEntity
8
1
62
256
6
ByLayer
370
18
48
1
60
0
100
AcDbSpline
70
4
71
1
72
4
73
2
40
0
40
0
40
1
40
1
41
1
10
19.1169999321464
20
23.297369021822
30
2.6E-15
41
1
10
18.3446756724063
20
25.5150397140768
30
1.7E-15
0
SPLINE
5
147
100
AcDbEntity
8
1
62
256
6
ByLayer
370
18
48
1
60
0
100
AcDbSpline
70
4
71
3
72
10
73
6
40
0
40
0
40
0
40
0
40
0.5
40
0.5
40
1
40
1
40
1
40
1
41
1
10
19.4501767900131
20
21.9182178559466
30
3E-15
41
1
10
20.5712380943953
20
21.9276976638892
30
-2.8E-15
41
1
10
21.6852939941796
20
21.5957841798465
30
-1.5E-15
41
1
10
23.5344140852071
20
20.4165290963255
30
7E-16
41
1
10
24.2852246704868
20
19.5494171636276
30
1.6E-15
41
1
10
24.6331027050307
20
18.4738270366265
30
2E-15
0
SPLINE
5
148
100
AcDbEntity
8
1
62
256
6
ByLayer
370
18
48
1
60
0
100
AcDbSpline
70
4
71
3
72
26
73
22
40
0
40
0
40
0
40
0
40
0.305559650062868
40
0.305559650062868
40
0.592938506760116
40
0.592938506760116
40
0.736855759596443
40
0.736855759596443
40
0.794364492021023
40
0.794364492021023
40
0.820930548617588
40
0.820930548617588
40
0.847991021749035
40
0.847991021749035
40
0.8711229633399
40
0.8711229633399
40
0.898335682818882
40
0.898335682818882
40
0.945305435562317
40
0.945305435562317
40
1
40
1
40
1
40
1
41
1
10
35.1303574871043
20
17.3875131902495
30
1E-16
41
1
10
34.9075243936495
20
17.31467371352
30
-2E-16
41
1
10
34.6829466286289
20
17.229479111231
30
-4E-16
41
1
10
34.248510517851
20
17.029461973675
30
-9E-16
41
1
10
34.036269206992
20
16.917260266252
30
-1.2E-15
41
1
10
33.7286445781895
20
16.7029671700388
30
-1.6E-15
41
1
10
33.6256627043626
20
16.623119696976
30
-1.7E-15
41
1
10
33.4963816140945
20
16.4877734622679
30
-1.8E-15
41
1
10
33.4604808327725
20
16.4454501330565
30
-1.9E-15
41
1
10
33.417234770075
20
16.377816093344
30
-1.9E-15
41
1
10
33.4047885675042
20
16.3551963857018
30
-1.9E-15
41
1
10
33.3854701187404
20
16.3089944248252
30
-2E-15
41
1
10
33.3785867287176
20
16.2847069924814
30
-2E-15
41
1
10
33.3743875229669
20
16.2428493159954
30
-2E-15
41
1
10
33.3758106976991
20
16.2243293420011
30
-2E-15
41
1
10
33.3851136697069
20
16.1892590747606
30
-2E-15
41
1
10
33.3940682025446
20
16.1729903838897
30
-1.9E-15
41
1
10
33.4237879600629
20
16.1361411332211
30
-1.9E-15
41
1
10
33.4486106536564
20
16.1196818996816
30
-1.9E-15
41
1
10
33.5058348498195
20
16.0921134433049
30
-1.8E-15
41
1
10
33.5395391506871
20
16.0821249930743
30
-1.8E-15
41
1
10
33.5741729849157
20
16.0746654243602
30
-1.7E-15
0
SPLINE
5
149
100
AcDbEntity
8
1
62
256
6
ByLayer
370
18
48
1
60
0
100
AcDbSpline
70
4
71
3
72
12
73
8
40
0
40
0
40
0
40
0
40
0.477525441753641
40
0.477525441753641
40
0.843795690072565
40
0.843795690072565
40
1
40
1
40
1
40
1
41
1
10
9.49804786956491
20
9.73126847198901
30
-1.5E-15
41
1
10
9.51021092287607
20
9.86455623349212
30
-1.5E-15
41
1
10
9.5192638482921
20
10.0074255306403
30
-1.5E-15
41
1
10
9.52509679723454
20
10.2745874530174
30
-1.5E-15
41
1
10
9.5242266020328
20
10.3976787466993
30
-1.5E-15
41
1
10
9.5151954136914
20
10.5753061059364
30
-1.5E-15
41
1
10
9.51143914192738
20
10.6293506264957
30
-1.5E-15
41
1
10
9.50651845504086
20
10.6826400398975
30
-1.5E-15
0
SPLINE
5
14A
100
AcDbEntity
8
1
62
256
6
ByLayer
370
18
48
1
60
0
100
AcDbSpline
70
4
71
3
72
10
73
6
40
0
40
0
40
0
40
0
40
0.13755983675288
40
0.13755983675288
40
1
40
1
40
1
40
1
41
1
10
13.9068475475063
20
12.9180318252341
30
-3.5E-15
41
1
10
13.9255549095219
20
12.9068349720745
30
-3.4E-15
41
1
10
13.9441048959919
20
12.8954121737684
30
-3.4E-15
41
1
10
14.0767255527631
20
12.8114188653571
30
-3.3E-15
41
1
10
14.1848811597474
20
12.7302390795626
30
-3.1E-15
41
1
10
14.284700240847
20
12.6421424844198
30
-3E-15
0
SPLINE
5
14B
100
AcDbEntity
8
1
62
256
6
ByLayer
370
18
48
1
60
0
100
AcDbSpline
70
4
71
3
72
8
73
4
40
0
40
0
40
0
40
0
40
1
40
1
40
1
40
1
41
1
10
13.5902722562203
20
20.1625681493484
30
3.3E-15
41
1
10
13.4941661777091
20
20.0512824511515
30
3.2E-15
41
1
10
13.3853299002698
20
19.9460091907692
30
3E-15
41
1
10
13.2667285839761
20
19.8503087330093
30
2.9E-15
0
SPLINE
5
14C
100
AcDbEntity
8
1
62
256
6
ByLayer
370
18
48
1
60
0
100
AcDbSpline
70
4
71
3
72
8
73
4
40
0
40
0
40
0
40
0
40
1
40
1
40
1
40
1
41
1
10
41.0691567533149
20
17.7088905549222
30
-1E-16
41
1
10
40.8232975476935
20
17.7774268472104
30
-4E-16
41
1
10
40.5723179919272
20
17.8346898177717
30
-6E-16
41
1
10
40.3161047800677
20
17.8804300042895
30
-9E-16
0
SPLINE
5
14D
100
AcDbEntity
8
1
62
256
6
ByLayer
370
18
48
1
60
0
100
AcDbSpline
70
4
71
2
72
9
73
6
40
0
40
0
40
0
40
0.215578737060678
40
0.501173956569644
40
0.786769176078611
40
1
40
1
40
1
41
1.01987110935361
10
24.8484428145898
20
16.1417647890659
30
2.3E-15
41
1.01898440041077
10
25.9639931199016
20
16.2921668178975
30
-3.5E-15
41
1.01588036664668
10
29.7407322741041
20
16.8029395565382
30
9E-16
41
1.01357557431911
10
32.1575116210401
20
17.0929787256517
30
-3.4E-15
41
1.01293324595055
10
34.2282202744263
20
17.339467545227
30
-1E-15
41
1.0117874761266
10
35.1303574892902
20
17.3875131903658
30
1E-16
0
SPLINE
5
14E
100
AcDbEntity
8
1
62
256
6
ByLayer
370
18
48
1
60
0
100
AcDbSpline
70
4
71
3
72
12
73
8
40
0
40
0
40
0
40
0
40
0.295831841262307
40
0.295831841262307
40
0.591663914161888
40
0.591663914161888
40
1
40
1
40
1
40
1
41
1
10
24.6331027050307
20
18.4738270366265
30
2E-15
41
1
10
24.7050419656035
20
18.2513764896964
30
2.1E-15
41
1
10
24.7625177226095
20
18.0238027022535
30
2.2E-15
41
1
10
24.8470947679285
20
17.5647256158522
30
2.2E-15
41
1
10
24.8743894387372
20
17.3321697365995
30
2.3E-15
41
1
10
24.9027650684461
20
16.7797266839329
30
2.3E-15
41
1
10
24.8900759102315
20
16.4576094619584
30
2.3E-15
41
1
10
24.8484428145897
20
16.1417647890659
30
2.3E-15
0
SPLINE
5
14F
100
AcDbEntity
8
1
62
256
6
ByLayer
370
18
48
1
60
0
100
AcDbSpline
70
4
71
3
72
8
73
4
40
0
40
0
40
0
40
0
40
1
40
1
40
1
40
1
41
1
10
32.2784101189461
20
23.8107007714078
30
-3.3E-15
41
1
10
32.4908371710065
20
23.835105937342
30
-3E-15
41
1
10
32.7032916118122
20
23.8593313414395
30
-2.8E-15
41
1
10
32.9158188189996
20
23.883066517837
30
-2.5E-15
0
SPLINE
5
150
100
AcDbEntity
8
1
62
256
6
ByLayer
370
18
48
1
60
0
100
AcDbSpline
70
4
71
3
72
12
73
8
40
0
40
0
40
0
40
0
40
0.465693311738361
40
0.465693311738361
40
0.925991506701036
40
0.925991506701036
40
1
40
1
40
1
40
1
41
1
10
13.2667285839761
20
19.8503087330093
30
2.9E-15
41
1
10
13.1327996554318
20
19.7422402884968
30
2.7E-15
41
1
10
12.9759475542371
20
19.6407225978096
30
2.6E-15
41
1
10
12.653047889578
20
19.4717196047465
30
2.2E-15
41
1
10
12.4829407451556
20
19.4011151374313
30
2E-15
41
1
10
12.2885206889131
20
19.3357558517279
30
1.7E-15
41
1
10
12.2613657003143
20
19.3269708341568
30
1.7E-15
41
1
10
12.2342519301738
20
19.31852459753
30
1.7E-15
0
SPLINE
5
151
100
AcDbEntity
8
1
62
256
6
ByLayer
370
18
48
1
60
0
100
AcDbSpline
70
4
71
3
72
8
73
4
40
0
40
0
40
0
40
0
40
1
40
1
40
1
40
1
41
1
10
13.9068475475063
20
12.9180318252341
30
-3.5E-15
41
1
10
13.0578661569961
20
11.4981297013837
30
2.7E-15
41
1
10
12.2297791394421
20
10.160139327667
30
1.7E-15
41
1
10
11.5917803705539
20
9.24982113409351
30
9E-16
0
SPLINE
5
152
100
AcDbEntity
8
1
62
256
6
ByLayer
370
18
48
1
60
0
100
AcDbSpline
70
4
71
3
72
12
73
8
40
0
40
0
40
0
40
0
40
0.357928014296225
40
0.357928014296225
40
0.886263242629132
40
0.886263242629132
40
1
40
1
40
1
40
1
41
1
10
8.57488150266289
20
20.7719604621238
30
-2.6E-15
41
1
10
8.56371343689904
20
20.8929069249067
30
-2.6E-15
41
1
10
8.54632354079678
20
21.0117809148055
30
-2.6E-15
41
1
10
8.49694933530913
20
21.2798763135439
30
-2.7E-15
41
1
10
8.46112613649143
20
21.4236132829401
30
-2.7E-15
41
1
10
8.41564095483335
20
21.5790006942463
30
-2.8E-15
41
1
10
8.40741282004842
20
21.6060770374472
30
-2.8E-15
41
1
10
8.39909872884522
20
21.6325246213432
30
-2.8E-15
0
SPLINE
5
153
100
AcDbEntity
8
1
62
256
6
ByLayer
370
18
48
1
60
0
100
AcDbSpline
70
4
71
3
72
12
73
8
40
0
40
0
40
0
40
0
40
0.249999999999999
40
0.249999999999999
40
0.499999999999998
40
0.499999999999998
40
1
40
1
40
1
40
1
41
1
10
11.6886371913071
20
6.06215964356363
30
1E-15
41
1
10
11.1918535349727
20
6.13353945146883
30
5E-16
41
1
10
10.770152809192
20
6.33867354679518
30
0
41
1
10
10.1700472792916
20
6.84821698569263
30
-7E-16
41
1
10
9.97638086331
20
7.14332746163194
30
-1E-15
41
1
10
9.54173717000708
20
8.09106999838252
30
-1.5E-15
41
1
10
9.41619636571204
20
8.83430588824609
30
-1.6E-15
41
1
10
9.49804786956491
20
9.73126847198898
30
-1.5E-15
0
SPLINE
5
154
100
AcDbEntity
8
1
62
256
6
ByLayer
370
18
48
1
60
0
100
AcDbSpline
70
4
71
3
72
8
73
4
40
0
40
0
40
0
40
0
40
1
40
1
40
1
40
1
41
1
10
12.234251930174
20
19.31852459753
30
1.7E-15
41
1
10
12.0129120798101
20
19.2495748077576
30
1.4E-15
41
1
10
11.7898561293913
20
19.2026539956934
30
1.2E-15
41
1
10
11.5715993604779
20
19.1739928128268
30
9E-16
0
SPLINE
5
155
100
AcDbEntity
8
1
62
256
6
ByLayer
370
18
48
1
60
0
100
AcDbSpline
70
4
71
3
72
8
73
4
40
0
40
0
40
0
40
0
40
1
40
1
40
1
40
1
41
1
10
11.5197344819196
20
5.66509607793466
30
8E-16
41
1
10
11.0396970698626
20
5.57975222054503
30
3E-16
41
1
10
10.4952469859006
20
5.55126704301537
30
-4E-16
41
1
10
9.91509149627592
20
5.66599782985193
30
-1E-15
0
SPLINE
5
156
100
AcDbEntity
8
1
62
256
6
ByLayer
370
18
48
1
60
0
100
AcDbSpline
70
4
71
2
72
6
73
3
40
0
40
0
40
0
40
1
40
1
40
1
41
1.02275914691308
10
19.1169999321464
20
23.297369021822
30
2.6E-15
41
0.965735189096477
10
19.2814944427823
20
22.8250354771049
30
2.8E-15
41
0.952673021878259
10
19.4501767900138
20
21.918217855943
30
3E-15
0
SPLINE
5
157
100
AcDbEntity
8
1
62
256
6
ByLayer
370
18
48
1
60
0
100
AcDbSpline
70
4
71
3
72
10
73
6
40
0
40
0
40
0
40
0
40
0.5
40
0.5
40
1
40
1
40
1
40
1
41
1
10
18.3446756724063
20
25.5150397140768
30
1.7E-15
41
1
10
20.3201541936256
20
25.6216691576326
30
-3.1E-15
41
1
10
22.2907367496972
20
25.5871660394267
30
-7E-16
41
1
10
26.2149393108874
20
25.029192214897
30
-3.3E-15
41
1
10
28.1704457098659
20
24.6822578027402
30
-1E-15
41
1
10
30.0696359077874
20
24.1030287999443
30
1.3E-15
0
SPLINE
5
158
100
AcDbEntity
8
1
62
256
6
ByLayer
370
18
48
1
60
0
100
AcDbSpline
70
4
71
3
72
8
73
4
40
0
40
0
40
0
40
0
40
1
40
1
40
1
40
1
41
1
10
17.6894488486923
20
11.4918552172262
30
1E-15
41
1
10
16.4227864027631
20
11.3871855092823
30
-5E-16
41
1
10
15.1985493715316
20
11.8356133519062
30
-1.9E-15
41
1
10
14.2847002408469
20
12.6421424844198
30
-3E-15
0
SPLINE
5
159
100
AcDbEntity
8
1
62
256
6
ByLayer
370
18
48
1
60
0
100
AcDbSpline
70
4
71
3
72
8
73
4
40
0
40
0
40
0
40
0
40
1
40
1
40
1
40
1
41
1
10
35.0500351428108
20
18.2573776439509
30
0
41
1
10
35.729433509234
20
18.0834975300497
30
8E-16
41
1
10
36.3974010227569
20
17.9502328767265
30
1.6E-15
41
1
10
37.0374445612188
20
17.8655752474299
30
2.3E-15
0
SPLINE
5
15A
100
AcDbEntity
8
1
62
256
6
ByLayer
370
18
48
1
60
0
100
AcDbSpline
70
4
71
3
72
10
73
6
40
0
40
0
40
0
40
0
40
0.5
40
0.5
40
1
40
1
40
1
40
1
41
1
10
24.8484428145897
20
16.1417647890659
30
2.3E-15
41
1
10
24.7021872628026
20
15.0324478601896
30
2.1E-15
41
1
10
24.1248336182811
20
14.0048456619906
30
1.4E-15
41
1
10
22.5299751789353
20
12.4496094281144
30
-5E-16
41
1
10
21.4973024209286
20
11.8997143497204
30
-1.7E-15
41
1
10
20.3910070510001
20
11.72933693855
30
-3E-15
0
SPLINE
5
15B
100
AcDbEntity
8
1
62
256
6
ByLayer
370
18
48
1
60
0
100
AcDbSpline
70
4
71
2
72
10
73
7
40
0
40
0
40
0
40
0.327809911400261
40
0.546349852333769
40
0.764889793267276
40
0.983429734200784
40
1
40
1
40
1
41
1.02275914691308
10
20.34732737696
20
9.97332924076785
30
-3E-15
41
1.0218723728006
10
22.4510831449894
20
10.567254340499
30
-6E-16
41
1.01941804929199
10
25.5664474667461
20
12.089402215511
30
3.1E-15
41
1.01588036664668
10
29.825029655866
20
14.3411771752145
30
1E-15
41
1.01357557431911
10
32.2183819174469
20
15.5011807183877
30
-3.3E-15
41
1.01317993487853
10
33.4847311341219
20
16.0386848743359
30
-1.8E-15
41
1.01314306577281
10
33.574172984916
20
16.0746654243604
30
-1.7E-15
0
SPLINE
5
15C
100
AcDbEntity
8
1
62
256
6
ByLayer
370
18
48
1
60
0
100
AcDbSpline
70
4
71
3
72
8
73
4
40
0
40
0
40
0
40
0
40
1
40
1
40
1
40
1
41
1
10
34.1484109778665
20
10.5345006317722
30
-1.1E-15
41
1
10
33.9325619015162
20
10.5467402010011
30
-1.3E-15
41
1
10
33.7166949214081
20
10.5594714701867
30
-1.6E-15
41
1
10
33.5008220786771
20
10.57238307887
30
-1.8E-15
0
SPLINE
5
15D
100
AcDbEntity
8
1
62
256
6
ByLayer
370
18
48
1
60
0
100
AcDbSpline
70
4
71
3
72
10
73
6
40
0
40
0
40
0
40
0
40
0.5
40
0.5
40
1
40
1
40
1
40
1
41
1
10
31.3691023591771
20
10.030236418168
30
2.8E-15
41
1
10
29.6049737146952
20
9.14834908555892
30
7E-16
41
1
10
27.7411384290961
20
8.48539704374454
30
-1.5E-15
41
1
10
23.9805166326929
20
7.29288507678493
30
1.2E-15
41
1
10
22.0461514419139
20
6.93557529255818
30
-1E-15
41
1
10
20.0805108857411
20
6.71651779755396
30
-3.3E-15
0
SPLINE
5
15E
100
AcDbEntity
8
1
62
256
6
ByLayer
370
18
48
1
60
0
100
AcDbSpline
70
4
71
3
72
8
73
4
40
0
40
0
40
0
40
0
40
1
40
1
40
1
40
1
41
1
10
19.4501767874021
20
21.9182178559031
30
3E-15
41
1
10
19.3263060663269
20
21.9161531130669
30
2.9E-15
41
1
10
19.2027388517871
20
21.9100956455382
30
2.7E-15
41
1
10
19.0794889825518
20
21.8999109843774
30
2.6E-15
0
SPLINE
5
15F
100
AcDbEntity
8
1
62
256
6
ByLayer
370
18
48
1
60
0
100
AcDbSpline
70
4
71
3
72
10
73
6
40
0
40
0
40
0
40
0
40
0.201157530231502
40
0.201157530231502
40
1
40
1
40
1
40
1
41
1
10
19.5592971564542
20
17.8185354830605
30
3.2E-15
41
1
10
19.5598693409373
20
17.814527642602
30
3.2E-15
41
1
10
19.5604984708356
20
17.8104928470233
30
3.2E-15
41
1
10
19.5639138392722
20
17.7903854713466
30
3.2E-15
41
1
10
19.567595952243
20
17.7738625015129
30
3.2E-15
41
1
10
19.5724862004434
20
17.7570352470268
30
3.2E-15
0
SPLINE
5
160
100
AcDbEntity
8
1
62
256
6
ByLayer
370
18
48
1
60
0
100
AcDbSpline
70
4
71
3
72
10
73
6
40
0
40
0
40
0
40
0
40
0.230438518716554
40
0.230438518716554
40
1
40
1
40
1
40
1
41
1
10
18.5143091186425
20
15.4689482432789
30
1.9E-15
41
1
10
18.5100219624696
20
15.4676040252885
30
1.9E-15
41
1
10
18.5058335946309
20
15.4662262145438
30
1.9E-15
41
1
10
18.4881099619732
20
15.4601320838762
30
1.9E-15
41
1
10
18.4755205385646
20
15.4551132382621
30
1.9E-15
41
1
10
18.4638652569795
20
15.4498927144884
30
1.9E-15
0
SPLINE
5
161
100
AcDbEntity
8
1
62
256
6
ByLayer
370
18
48
1
60
0
100
AcDbSpline
70
4
71
3
72
10
73
6
40
0
40
0
40
0
40
0
40
0.230438518716494
40
0.230438518716494
40
1
40
1
40
1
40
1
41
1
10
18.5127625965137
20
18.2552383033549
30
1.9E-15
41
1
10
18.517622883435
20
18.2571556520937
30
1.9E-15
41
1
10
18.5224072469343
20
18.259129458499
30
1.9E-15
41
1
10
18.5427985239471
20
18.2678912335216
30
2E-15
41
1
10
18.557663413165
20
18.275185544945
30
2E-15
41
1
10
18.5717290352576
20
18.2828164092262
30
2E-15
0
SPLINE
5
162
100
AcDbEntity
8
1
62
256
6
ByLayer
370
18
48
1
60
0
100
AcDbSpline
70
4
71
3
72
10
73
6
40
0
40
0
40
0
40
0
40
0.355593196477969
40
0.355593196477969
40
1
40
1
40
1
40
1
41
1
10
19.8720204500336
20
16.4323719136766
30
3.5E-15
41
1
10
19.8666150111708
20
16.4272512071187
30
3.5E-15
41
1
10
19.861220014537
20
16.4219552597344
30
3.5E-15
41
1
10
19.8461553647543
20
16.4065796987461
30
3.5E-15
41
1
10
19.8365104121248
20
16.3960500034935
30
3.5E-15
41
1
10
19.8270593704839
20
16.3848627834636
30
3.5E-15
0
SPLINE
5
163
100
AcDbEntity
8
1
62
256
6
ByLayer
370
18
48
1
60
0
100
AcDbSpline
70
4
71
3
72
10
73
6
40
0
40
0
40
0
40
0
40
0.35559319647788
40
0.35559319647788
40
1
40
1
40
1
40
1
41
1
10
17.1635738422025
20
17.3003372100371
30
4E-16
41
1
10
17.1678622189663
20
17.3043408544961
30
4E-16
41
1
10
17.1721703162827
20
17.3085499025627
30
4E-16
41
1
10
17.1842918741878
20
17.3209823716735
30
4E-16
41
1
10
17.1921596938274
20
17.3297349339362
30
4E-16
41
1
10
17.2000123446726
20
17.3393237631705
30
4E-16
0
SPLINE
5
164
100
AcDbEntity
8
1
62
256
6
ByLayer
370
18
48
1
60
0
100
AcDbSpline
70
4
71
3
72
10
73
6
40
0
40
0
40
0
40
0
40
0.537616842495234
40
0.537616842495234
40
1
40
1
40
1
40
1
41
1
10
17.3065990934799
20
17.5697953533347
30
5E-16
41
1
10
17.3092135022912
20
17.5816218546197
30
5E-16
41
1
10
17.3114469954318
20
17.5932306632593
30
5E-16
41
1
10
17.3149831144348
20
17.6143244829981
30
5E-16
41
1
10
17.316376056422
20
17.6239021617623
30
5E-16
41
1
10
17.3175557093222
20
17.6332908479841
30
5E-16
0
SPLINE
5
165
100
AcDbEntity
8
1
62
256
6
ByLayer
370
18
48
1
60
0
100
AcDbSpline
70
4
71
3
72
10
73
6
40
0
40
0
40
0
40
0
40
0.27605405649176
40
0.27605405649176
40
1
40
1
40
1
40
1
41
1
10
17.3073723545446
20
16.1766503232972
30
5E-16
41
1
10
17.3032285217201
20
16.1807878338097
30
5E-16
41
1
10
17.2991087555732
20
16.184801095346
30
5E-16
41
1
10
17.2843530314423
20
16.1988444790026
30
5E-16
41
1
10
17.2738682123905
20
16.2081959382129
30
5E-16
41
1
10
17.2636238201897
20
16.2168290006136
30
5E-16
0
SPLINE
5
166
100
AcDbEntity
8
1
62
256
6
ByLayer
370
18
48
1
60
0
100
AcDbSpline
70
4
71
3
72
10
73
6
40
0
40
0
40
0
40
0
40
0.769561481283301
40
0.769561481283301
40
1
40
1
40
1
40
1
41
1
10
18.8305204396989
20
15.4801909924666
30
2.3E-15
41
1
10
18.8154718940704
20
15.4832048653647
30
2.3E-15
41
1
10
18.7996865310046
20
15.485878981629
30
2.3E-15
41
1
10
18.7782224916658
20
15.488734868204
30
2.2E-15
41
1
10
18.7731989337487
20
15.4893514583239
30
2.2E-15
41
1
10
18.7681090276192
20
15.489920809754
30
2.2E-15
0
SPLINE
5
167
100
AcDbEntity
8
1
62
256
6
ByLayer
370
18
48
1
60
0
100
AcDbSpline
70
4
71
3
72
10
73
6
40
0
40
0
40
0
40
0
40
0.53761684249493
40
0.53761684249493
40
1
40
1
40
1
40
1
41
1
10
19.7204726216766
20
16.1543911932994
30
3.3E-15
41
1
10
19.7191933008552
20
16.1438997800044
30
3.3E-15
41
1
10
19.7184195549997
20
16.1337507186498
30
3.3E-15
41
1
10
19.7177622205624
20
16.1155356834766
30
3.3E-15
41
1
10
19.7177685703564
20
16.1073572964937
30
3.3E-15
41
1
10
19.7180385829162
20
16.0994182757318
30
3.3E-15
0
SPLINE
5
168
100
AcDbEntity
8
1
62
256
6
ByLayer
370
18
48
1
60
0
100
AcDbSpline
70
4
71
3
72
10
73
6
40
0
40
0
40
0
40
0
40
0.276054056492457
40
0.276054056492457
40
1
40
1
40
1
40
1
41
1
10
19.7196993606115
20
17.5475362233365
30
3.3E-15
41
1
10
19.7245313078357
20
17.5440868272236
30
3.4E-15
41
1
10
19.7293721835094
20
17.540794675214
30
3.4E-15
41
1
10
19.7468299699828
20
17.5294533539001
30
3.4E-15
41
1
10
19.7594605194742
20
17.5222476251293
30
3.4E-15
41
1
10
19.7719704720487
20
17.5158801231022
30
3.4E-15
0
SPLINE
5
169
100
AcDbEntity
8
1
62
256
6
ByLayer
370
18
48
1
60
0
100
AcDbSpline
70
4
71
3
72
10
73
6
40
0
40
0
40
0
40
0
40
0.201157530231692
40
0.201157530231692
40
1
40
1
40
1
40
1
41
1
10
17.4762971357834
20
15.9141736406546
30
7E-16
41
1
10
17.4750922486442
20
15.917548778457
30
7E-16
41
1
10
17.4738401906496
20
15.9209606459394
30
7E-16
41
1
10
17.4673952732924
20
15.9380384726955
30
7E-16
41
1
10
17.4614571981047
20
15.9523054803123
30
7E-16
41
1
10
17.4545855147132
20
15.9671512996072
30
7E-16
0
SPLINE
5
16A
100
AcDbEntity
8
1
62
256
6
ByLayer
370
18
48
1
60
0
100
AcDbSpline
70
4
71
3
72
10
73
6
40
0
40
0
40
0
40
0
40
0.769561481283279
40
0.769561481283279
40
1
40
1
40
1
40
1
41
1
10
18.2050738525381
20
18.252518131248
30
1.6E-15
41
1
10
18.2177120576592
20
18.2470939178424
30
1.6E-15
41
1
10
18.2312219549156
20
18.2421443357688
30
1.6E-15
41
1
10
18.2500183498994
20
18.2366208048388
30
1.6E-15
41
1
10
18.2544459121559
20
18.2354082190582
30
1.6E-15
41
1
10
18.2589626875371
20
18.2342657368798
30
1.6E-15
0
SPLINE
5
16B
100
AcDbEntity
8
1
62
256
6
ByLayer
370
18
48
1
60
0
100
AcDbSpline
70
4
71
3
72
12
73
8
40
0
40
0
40
0
40
0
40
0.160357295565974
40
0.160357295565974
40
0.602408348668762
40
0.602408348668762
40
1
40
1
40
1
40
1
41
1
10
35.5589793930848
20
17.8797532690734
30
6E-16
41
1
10
35.5757955297146
20
17.8966915635665
30
6E-16
41
1
10
35.5908772980345
20
17.9139827983611
30
6E-16
41
1
10
35.6413378459918
20
17.9778010896693
30
7E-16
41
1
10
35.6680659532956
20
18.0243993689629
30
7E-16
41
1
10
35.707572332618
20
18.1099658590054
30
8E-16
41
1
10
35.7215435424098
20
18.1498435631991
30
8E-16
41
1
10
35.7319579395107
20
18.188968697276
30
8E-16
0
SPLINE
5
16C
100
AcDbEntity
8
1
62
256
6
ByLayer
370
18
48
1
60
0
100
AcDbSpline
70
4
71
3
72
10
73
6
40
0
40
0
40
0
40
0
40
0.60100467536172
40
0.60100467536172
40
1
40
1
40
1
40
1
41
1
10
35.7319579395107
20
18.188968697276
30
8E-16
41
1
10
35.7470945468793
20
18.2458343791808
30
8E-16
41
1
10
35.7706291465398
20
18.3041438615193
30
8E-16
41
1
10
35.8287229627176
20
18.399073190166
30
9E-16
41
1
10
35.8573707534048
20
18.436912184154
30
9E-16
41
1
10
35.8926564881044
20
18.4722822623262
30
1E-15
0
LINE
5
72
100
AcDbEntity
8
1
62
256
6
ByLayer
370
18
48
1
60
0
100
AcDbLine
10
38.661599
20
14.069016
30
0
11
38.736621
21
14.144038
31
0
39
0
210
0
220
0
230
1
0
LINE
5
74
100
AcDbEntity
8
1
62
256
6
ByLayer
370
18
48
1
60
0
100
AcDbLine
10
16.972479
20
17.108925
30
0
11
17.173036
21
17.309482
31
0
39
0
210
0
220
0
230
1
0
LINE
5
75
100
AcDbEntity
8
1
62
256
6
ByLayer
370
18
48
1
60
0
100
AcDbLine
10
19.861168
20
16.421836
30
0
11
19.659634
21
16.220302
31
0
39
0
210
0
220
0
230
1
0
LINE
5
76
100
AcDbEntity
8
1
62
256
6
ByLayer
370
18
48
1
60
0
100
AcDbLine
10
18.497674
20
18.173064
30
0
11
18.699415
21
18.374805
31
0
39
0
210
0
220
0
230
1
0
LINE
5
77
100
AcDbEntity
8
1
62
256
6
ByLayer
370
18
48
1
60
0
100
AcDbLine
10
9.382605
20
24.58584
30
0
11
8.234786
21
24.020149
31
0
39
0
210
0
220
0
230
1
0
LINE
5
78
100
AcDbEntity
8
1
62
256
6
ByLayer
370
18
48
1
60
0
100
AcDbLine
10
18.336179
20
15.357904
30
0
11
18.134438
21
15.156163
31
0
39
0
210
0
220
0
230
1
0
LINE
5
79
100
AcDbEntity
8
1
62
256
6
ByLayer
370
18
48
1
60
0
100
AcDbLine
10
21.7581
20
13.03559
30
0
11
21.92005
21
13.197539
31
0
39
0
210
0
220
0
230
1
0
LINE
5
7A
100
AcDbEntity
8
1
62
256
6
ByLayer
370
18
48
1
60
0
100
AcDbLine
10
14.848982
20
20.268607
30
0
11
14.689237
21
20.108862
31
0
39
0
210
0
220
0
230
1
0
LINE
5
7B
100
AcDbEntity
8
1
62
256
6
ByLayer
370
18
48
1
60
0
100
AcDbLine
10
12.279419
20
19.291466
30
0
11
12.743711
21
19.520287
31
0
39
0
210
0
220
0
230
1
0
LINE
5
7C
100
AcDbEntity
8
80
62
256
6
ByLayer
370
18
48
1
60
0
100
AcDbLine
10
0
20
0
30
0
11
-5
21
0
31
0
39
0
210
0
220
0
230
1
0
LINE
5
7D
100
AcDbEntity
8
81
62
256
6
ByLayer
370
18
48
1
60
0
100
AcDbLine
10
37.722904
20
30.425
30
0
11
47.722904
21
30.425
31
0
39
0
210
0
220
0
230
1
0
LINE
5
7E
100
AcDbEntity
8
1
62
256
6
ByLayer
370
18
48
1
60
0
100
AcDbLine
10
12.392137
20
-19.875068
30
0
11
10.035651
21
5.644894
31
0
39
0
210
0
220
0
230
1
0
LINE
5
7F
100
AcDbEntity
8
1
62
256
6
ByLayer
370
18
48
1
60
0
100
AcDbLine
10
8.334375
20
24.069154
30
0
11
8.197119
21
25.555589
31
0
39
0
210
0
220
0
230
1
0
LINE
5
80
100
AcDbEntity
8
1
62
256
6
ByLayer
370
18
48
1
60
0
100
AcDbLine
10
1.402217
20
-19.941874
30
0
11
0.5
21
14.842488
31
0
39
0
210
0
220
0
230
1
0
LINE
5
81
100
AcDbEntity
8
1
62
256
6
ByLayer
370
18
48
1
60
0
100
AcDbLine
10
14.250086
20
-18.017118
30
0
11
25.249801
21
-7.017404
31
0
39
0
210
0
220
0
230
1
0
LINE
5
82
100
AcDbEntity
8
1
62
256
6
ByLayer
370
18
48
1
60
0
100
AcDbLine
10
7.298097
20
25.476934
30
0
11
8.175792
21
25.553723
31
0
39
0
210
0
220
0
230
1
0
LINE
5
83
100
AcDbEntity
8
1
62
256
6
ByLayer
370
18
48
1
60
0
100
AcDbLine
10
30.34423
20
24.029455
30
0
11
30.52788
21
24.211495
31
0
39
0
210
0
220
0
230
1
0
LINE
5
84
100
AcDbEntity
8
1
62
256
6
ByLayer
370
18
48
1
60
0
100
AcDbLine
10
0.037207
20
19.962207
30
0
11
0
21
19.925
31
0
39
0
210
0
220
0
230
1
0
LINE
5
85
100
AcDbEntity
8
1
62
256
6
ByLayer
370
18
48
1
60
0
100
AcDbLine
10
25.249801
20
-7.017404
30
0
11
14.650029
21
3.582368
31
0
39
0
210
0
220
0
230
1
0
LINE
5
86
100
AcDbEntity
8
1
62
256
6
ByLayer
370
18
48
1
60
0
100
AcDbLine
10
11.491617
20
-19.937497
30
0
11
9.093382
21
6.034591
31
0
39
0
210
0
220
0
230
1
0
LINE
5
87
100
AcDbEntity
8
1
62
256
6
ByLayer
370
18
48
1
60
0
100
AcDbLine
10
7.47927
20
23.514889
30
0
11
7.298097
21
25.476934
31
0
39
0
210
0
220
0
230
1
0
LINE
5
88
100
AcDbEntity
8
1
62
256
6
ByLayer
370
18
48
1
60
0
100
AcDbLine
10
34.14184
20
27.825458
30
0
11
33.885921
21
27.803068
31
0
39
0
210
0
220
0
230
1
0
LINE
5
89
100
AcDbEntity
8
1
62
256
6
ByLayer
370
18
48
1
60
0
100
AcDbLine
10
0
20
-19.925
30
0
11
0
21
19.925
31
0
39
0
210
0
220
0
230
1
0
LINE
5
8A
100
AcDbEntity
8
1
62
256
6
ByLayer
370
18
48
1
60
0
100
AcDbLine
10
12.372455
20
-19.89475
30
0
11
12.327453
21
-19.939752
31
0
39
0
210
0
220
0
230
1
0
LINE
5
8B
100
AcDbEntity
8
1
62
256
6
ByLayer
370
18
48
1
60
0
100
AcDbLine
10
8.175792
20
25.553723
30
0
11
8.197119
21
25.555589
31
0
39
0
210
0
220
0
230
1
0
LINE
5
8C
100
AcDbEntity
8
1
62
256
6
ByLayer
370
18
48
1
60
0
100
AcDbLine
10
25.249801
20
-7.017404
30
0
11
36.752513
21
4.485309
31
0
39
0
210
0
220
0
230
1
0
LINE
5
8D
100
AcDbEntity
8
1
62
256
6
ByLayer
370
18
48
1
60
0
100
AcDbLine
10
14.650029
20
3.582368
30
0
11
14.250086
21
-18.017118
31
0
39
0
210
0
220
0
230
1
0
LINE
5
8E
100
AcDbEntity
8
1
62
256
6
ByLayer
370
18
48
1
60
0
100
AcDbLine
10
12.392137
20
-19.875068
30
0
11
12.372455
21
-19.89475
31
0
39
0
210
0
220
0
230
1
0
LINE
5
8F
100
AcDbEntity
8
1
62
256
6
ByLayer
370
18
48
1
60
0
100
AcDbLine
10
0.5
20
-19.927182
30
0
11
1.402217
21
-19.941874
31
0
39
0
210
0
220
0
230
1
0
LINE
5
90
100
AcDbEntity
8
1
62
256
6
ByLayer
370
18
48
1
60
0
100
AcDbLine
10
0.037207
20
19.962207
30
0
11
0.5
21
14.842488
31
0
39
0
210
0
220
0
230
1
0
LINE
5
91
100
AcDbEntity
8
1
62
256
6
ByLayer
370
18
48
1
60
0
100
AcDbLine
10
0.5
20
-19.927182
30
0
11
0
21
-19.925
31
0
39
0
210
0
220
0
230
1
0
LINE
5
92
100
AcDbEntity
8
1
62
256
6
ByLayer
370
18
48
1
60
0
100
AcDbLine
10
33.885921
20
27.803068
30
0
11
30.135433
21
24.085486
31
0
39
0
210
0
220
0
230
1
0
LINE
5
93
100
AcDbEntity
8
1
62
256
6
ByLayer
370
18
48
1
60
0
100
AcDbLine
10
14.250086
20
-18.017118
30
0
11
12.392137
21
-19.875068
31
0
39
0
210
0
220
0
230
1
0
LINE
5
94
100
AcDbEntity
8
1
62
256
6
ByLayer
370
18
48
1
60
0
100
AcDbLine
10
31.278863
20
9.988158
30
0
11
31.609435
21
9.657586
31
0
39
0
210
0
220
0
230
1
0
LINE
5
95
100
AcDbEntity
8
1
62
256
6
ByLayer
370
18
48
1
60
0
100
AcDbLine
10
0.5
20
20.425
30
0
11
1.722967
21
24.989174
31
0
39
0
210
0
220
0
230
1
0
LINE
5
96
100
AcDbEntity
8
1
62
256
6
ByLayer
370
18
48
1
60
0
100
AcDbLine
10
36.819058
20
4.551853
30
0
11
32.371793
21
8.999118
31
0
39
0
210
0
220
0
230
1
0
LINE
5
97
100
AcDbEntity
8
1
62
256
6
ByLayer
370
18
48
1
60
0
100
AcDbLine
10
1.722967
20
24.989174
30
0
11
7.298097
21
25.476934
31
0
39
0
210
0
220
0
230
1
0
LINE
5
98
100
AcDbEntity
8
1
62
256
6
ByLayer
370
18
48
1
60
0
100
AcDbLine
10
8.197119
20
25.555589
30
0
11
12.585593
21
25.93953
31
0
39
0
210
0
220
0
230
1
0
LINE
5
99
100
AcDbEntity
8
1
62
256
6
ByLayer
370
18
48
1
60
0
100
AcDbLine
10
33.885921
20
27.803068
30
0
11
12.585593
21
25.93953
31
0
39
0
210
0
220
0
230
1
0
LINE
5
9A
100
AcDbEntity
8
1
62
256
6
ByLayer
370
18
48
1
60
0
100
AcDbLine
10
0.5
20
20.425
30
0
11
0.037207
21
19.962207
31
0
39
0
210
0
220
0
230
1
0
LINE
5
9B
100
AcDbEntity
8
1
62
256
6
ByLayer
370
18
48
1
60
0
100
AcDbLine
10
12.666389
20
25.064535
30
0
11
12.585593
21
25.93953
31
0
39
0
210
0
220
0
230
1
0
LINE
5
9C
100
AcDbEntity
8
1
62
256
6
ByLayer
370
18
48
1
60
0
100
AcDbLine
10
0.5
20
14.842488
30
0
11
0.5
21
-19.927182
31
0
39
0
210
0
220
0
230
1
0
LINE
5
9D
100
AcDbEntity
8
1
62
256
6
ByLayer
370
18
48
1
60
0
100
AcDbLine
10
12.372455
20
-19.89475
30
0
11
10.013799
21
5.648712
31
0
39
0
210
0
220
0
230
1
0
LINE
5
9E
100
AcDbEntity
8
1
62
256
6
ByLayer
370
18
48
1
60
0
100
AcDbLine
10
8.313823
20
24.058894
30
0
11
8.175792
21
25.553723
31
0
39
0
210
0
220
0
230
1
0
LINE
5
9F
100
AcDbEntity
8
1
62
256
6
ByLayer
370
18
48
1
60
0
100
AcDbLine
10
11.491617
20
-19.937497
30
0
11
1.402217
21
-19.941874
31
0
39
0
210
0
220
0
230
1
0
LINE
5
A0
100
AcDbEntity
8
1
62
256
6
ByLayer
370
18
48
1
60
0
100
AcDbLine
10
14.650029
20
3.582368
30
0
11
14.408154
21
6.201794
31
0
39
0
210
0
220
0
230
1
0
LINE
5
A1
100
AcDbEntity
8
1
62
256
6
ByLayer
370
18
48
1
60
0
100
AcDbLine
10
36.819058
20
4.551853
30
0
11
36.752513
21
4.485309
31
0
39
0
210
0
220
0
230
1
0
LINE
5
A2
100
AcDbEntity
8
1
62
256
6
ByLayer
370
18
48
1
60
0
100
AcDbLine
10
36.752513
20
4.485309
30
0
11
31.258993
21
9.978829
31
0
39
0
210
0
220
0
230
1
0
LINE
5
A3
100
AcDbEntity
8
SK1
62
256
6
ByLayer
370
18
48
1
60
0
100
AcDbLine
10
-213.627096
20
19.925
30
0
11
-213.627096
21
-19.925
31
0
39
0
210
0
220
0
230
1
0
LINE
5
A5
100
AcDbEntity
8
SK1
62
256
6
ByLayer
370
18
48
1
60
0
100
AcDbLine
10
-213.627096
20
-19.925
30
0
11
0
21
-19.925
31
0
39
0
210
0
220
0
230
1
0
LINE
5
A6
100
AcDbEntity
8
SK1
62
256
6
ByLayer
370
18
48
1
60
0
100
AcDbLine
10
0
20
19.925
30
0
11
0
21
-19.925
31
0
39
0
210
0
220
0
230
1
0
LINE
5
A7
100
AcDbEntity
8
SK1
62
256
6
ByLayer
370
18
48
1
60
0
100
AcDbLine
10
0
20
19.925
30
0
11
-213.627096
21
19.925
31
0
39
0
210
0
220
0
230
1
0
LINE
5
A8
100
AcDbEntity
8
1
62
256
6
ByLayer
370
18
48
1
60
0
100
AcDbLine
10
49.860365
20
18.287539
30
0
11
38.074309
21
30.073595
31
0
39
0
210
0
220
0
230
1
0
LINE
5
A9
100
AcDbEntity
8
1
62
256
6
ByLayer
370
18
48
1
60
0
100
AcDbLine
10
38.197206
20
4.940052
30
0
11
49.868561
21
16.611407
31
0
39
0
210
0
220
0
230
1
0
LINE
5
AA
100
AcDbEntity
8
1
62
256
6
ByLayer
370
18
48
1
60
0
100
AcDbLine
10
31.417343
20
10.051978
30
0
11
36.521073
21
4.948248
31
0
39
0
210
0
220
0
230
1
0
LINE
5
AB
100
AcDbEntity
8
1
62
256
6
ByLayer
370
18
48
1
60
0
100
AcDbLine
10
36.398176
20
30.081791
30
0
11
30.345485
21
24.029099
31
0
39
0
210
0
220
0
230
1
0
LINE
5
AC
100
AcDbEntity
8
1
62
256
6
ByLayer
370
18
48
1
60
0
100
AcDbLine
10
36.471862
20
4.899036
30
0
11
36.521073
21
4.948248
31
0
39
0
210
0
220
0
230
1
0
LINE
5
AD
100
AcDbEntity
8
1
62
256
6
ByLayer
370
18
48
1
60
0
100
AcDbLine
10
38.197206
20
4.940052
30
0
11
37.572301
21
4.315147
31
0
39
0
210
0
220
0
230
1
0
LINE
5
AE
100
AcDbEntity
8
1
62
256
6
ByLayer
370
18
48
1
60
0
100
AcDbLine
10
37.888025
20
21.088144
30
0
11
36.323897
21
22.388717
31
0
39
0
210
0
220
0
230
1
0
LINE
5
AF
100
AcDbEntity
8
1
62
256
6
ByLayer
370
18
48
1
60
0
100
AcDbLine
10
12.856358
20
25.080326
30
0
11
10.553343
21
24.890018
31
0
39
0
210
0
220
0
230
1
0
LINE
5
B0
100
AcDbEntity
8
1
62
256
6
ByLayer
370
18
48
1
60
0
100
AcDbLine
10
8.399099
20
21.632525
30
0
11
6.321783
21
20.608741
31
0
39
0
210
0
220
0
230
1
0
LINE
5
B1
100
AcDbEntity
8
1
62
256
6
ByLayer
370
18
48
1
60
0
100
AcDbLine
10
19.079489
20
21.899911
30
0
11
18.796474
21
21.76043
31
0
39
0
210
0
220
0
230
1
0
LINE
5
B2
100
AcDbEntity
8
1
62
256
6
ByLayer
370
18
48
1
60
0
100
AcDbLine
10
8.574882
20
20.77196
30
0
11
9.506518
21
10.68264
31
0
39
0
210
0
220
0
230
1
0
LINE
5
B3
100
AcDbEntity
8
1
62
256
6
ByLayer
370
18
48
1
60
0
100
AcDbLine
10
20.022754
20
11.684666
30
0
11
17.689449
21
11.491855
31
0
39
0
210
0
220
0
230
1
0
LINE
5
B4
100
AcDbEntity
8
1
62
256
6
ByLayer
370
18
48
1
60
0
100
AcDbLine
10
16.746184
20
21.7071
30
0
11
16.472195
21
21.572067
31
0
39
0
210
0
220
0
230
1
0
LINE
5
B5
100
AcDbEntity
8
1
62
256
6
ByLayer
370
18
48
1
60
0
100
AcDbLine
10
12.293346
20
6.046363
30
0
11
11.519734
21
5.665096
31
0
39
0
210
0
220
0
230
1
0
LINE
5
B6
100
AcDbEntity
8
1
62
256
6
ByLayer
370
18
48
1
60
0
100
AcDbLine
10
11.571599
20
19.173993
30
0
11
11.213801
21
18.997655
31
0
39
0
210
0
220
0
230
1
0
LINE
5
B7
100
AcDbEntity
8
1
62
256
6
ByLayer
370
18
48
1
60
0
100
AcDbLine
10
10.361453
20
22.573861
30
0
11
19.117
21
23.297369
31
0
39
0
210
0
220
0
230
1
0
LINE
5
B8
100
AcDbEntity
8
1
62
256
6
ByLayer
370
18
48
1
60
0
100
AcDbLine
10
11.59178
20
9.249821
30
0
11
20.347327
21
9.973329
31
0
39
0
210
0
220
0
230
1
0
LINE
5
B9
100
AcDbEntity
8
1
62
256
6
ByLayer
370
18
48
1
60
0
100
AcDbLine
10
37.037445
20
17.865575
30
0
11
40.316105
21
17.88043
31
0
39
0
210
0
220
0
230
1
0
LINE
5
BA
100
AcDbEntity
8
1
62
256
6
ByLayer
370
18
48
1
60
0
100
AcDbLine
10
14.59636
20
6.236671
30
0
11
14.632259
21
6.266306
31
0
39
0
210
0
220
0
230
1
0
LINE
5
BB
100
AcDbEntity
8
1
62
256
6
ByLayer
370
18
48
1
60
0
100
AcDbLine
10
11.213801
20
18.997655
30
0
11
9.553503
21
18.863103
31
0
39
0
210
0
220
0
230
1
0
LINE
5
BC
100
AcDbEntity
8
1
62
256
6
ByLayer
370
18
48
1
60
0
100
AcDbLine
10
12.856358
20
25.080326
30
0
11
12.896423
21
25.064827
31
0
39
0
210
0
220
0
230
1
0
LINE
5
BD
100
AcDbEntity
8
1
62
256
6
ByLayer
370
18
48
1
60
0
100
AcDbLine
10
16.746184
20
21.7071
30
0
11
19.079489
21
21.899911
31
0
39
0
210
0
220
0
230
1
0
LINE
5
BE
100
AcDbEntity
8
1
62
256
6
ByLayer
370
18
48
1
60
0
100
AcDbLine
10
16.472195
20
21.572067
30
0
11
17.794383
21
21.679219
31
0
39
0
210
0
220
0
230
1
0
LINE
5
BF
100
AcDbEntity
8
1
62
256
6
ByLayer
370
18
48
1
60
0
100
AcDbLine
10
18.074821
20
21.701946
30
0
11
18.796474
21
21.76043
31
0
39
0
210
0
220
0
230
1
0
LINE
5
C0
100
AcDbEntity
8
1
62
256
6
ByLayer
370
18
48
1
60
0
100
AcDbLine
10
7.420732
20
8.707484
30
0
11
6.321783
21
20.608741
31
0
39
0
210
0
220
0
230
1
0
LINE
5
C1
100
AcDbEntity
8
1
62
256
6
ByLayer
370
18
48
1
60
0
100
AcDbLine
10
37.23099
20
12.565201
30
0
11
38.53306
21
14.10262
31
0
39
0
210
0
220
0
230
1
0
LINE
5
C2
100
AcDbEntity
8
1
62
256
6
ByLayer
370
18
48
1
60
0
100
AcDbLine
10
20.080511
20
6.716518
30
0
11
14.632259
21
6.266306
31
0
39
0
210
0
220
0
230
1
0
LINE
5
C3
100
AcDbEntity
8
1
62
256
6
ByLayer
370
18
48
1
60
0
100
AcDbLine
10
9.498048
20
9.731268
30
0
11
7.420732
21
8.707484
31
0
39
0
210
0
220
0
230
1
0
LINE
5
C4
100
AcDbEntity
8
1
62
256
6
ByLayer
370
18
48
1
60
0
100
AcDbLine
10
18.344676
20
25.51504
30
0
11
12.896423
21
25.064827
31
0
39
0
210
0
220
0
230
1
0
LINE
5
C5
100
AcDbEntity
8
1
62
256
6
ByLayer
370
18
48
1
60
0
100
AcDbLine
10
9.553503
20
18.863103
30
0
11
10.102978
21
12.912475
31
0
39
0
210
0
220
0
230
1
0
LINE
5
C6
100
AcDbEntity
8
1
62
256
6
ByLayer
370
18
48
1
60
0
100
AcDbLine
10
12.293346
20
6.046363
30
0
11
14.59636
21
6.236671
31
0
39
0
210
0
220
0
230
1
0
LINE
5
C7
100
AcDbEntity
8
1
62
256
6
ByLayer
370
18
48
1
60
0
100
AcDbLine
10
14.59636
20
6.236671
30
0
11
11.746345
21
5.706304
31
0
39
0
210
0
220
0
230
1
0
LINE
5
C8
100
AcDbEntity
8
1
62
256
6
ByLayer
370
18
48
1
60
0
100
AcDbLine
10
18.153058
20
15.161402
30
0
11
18.27508
21
15.283424
31
0
39
0
210
0
220
0
230
1
0
LINE
5
C9
100
AcDbEntity
8
1
62
256
6
ByLayer
370
18
48
1
60
0
100
AcDbLine
10
19.522993
20
15.956911
30
0
11
19.720473
21
16.154391
31
0
39
0
210
0
220
0
230
1
0
LINE
5
CA
100
AcDbEntity
8
1
62
256
6
ByLayer
370
18
48
1
60
0
100
AcDbLine
10
18.258963
20
18.234266
30
0
11
18.061483
21
18.036786
31
0
39
0
210
0
220
0
230
1
0
LINE
5
CB
100
AcDbEntity
8
1
62
256
6
ByLayer
370
18
48
1
60
0
100
AcDbLine
10
19.827059
20
16.384863
30
0
11
19.62958
21
16.187383
31
0
39
0
210
0
220
0
230
1
0
LINE
5
CC
100
AcDbEntity
8
1
62
256
6
ByLayer
370
18
48
1
60
0
100
AcDbLine
10
19.52222
20
17.350057
30
0
11
19.719699
21
17.547536
31
0
39
0
210
0
220
0
230
1
0
LINE
5
CD
100
AcDbEntity
8
1
62
256
6
ByLayer
370
18
48
1
60
0
100
AcDbLine
10
17.786896
20
18.183761
30
0
11
17.988637
21
18.385502
31
0
39
0
210
0
220
0
230
1
0
LINE
5
CE
100
AcDbEntity
8
1
62
256
6
ByLayer
370
18
48
1
60
0
100
AcDbLine
10
19.362678
20
17.869608
30
0
11
19.564419
21
18.071349
31
0
39
0
210
0
220
0
230
1
0
LINE
5
CF
100
AcDbEntity
8
1
62
256
6
ByLayer
370
18
48
1
60
0
100
AcDbLine
10
16.740275
20
16.978766
30
0
11
16.942016
21
17.180507
31
0
39
0
210
0
220
0
230
1
0
LINE
5
D0
100
AcDbEntity
8
1
62
256
6
ByLayer
370
18
48
1
60
0
100
AcDbLine
10
19.572486
20
17.757035
30
0
11
19.375006
21
17.559556
31
0
39
0
210
0
220
0
230
1
0
LINE
5
D1
100
AcDbEntity
8
1
62
256
6
ByLayer
370
18
48
1
60
0
100
AcDbLine
10
19.567677
20
15.649532
30
0
11
19.769418
21
15.851273
31
0
39
0
210
0
220
0
230
1
0
LINE
5
D2
100
AcDbEntity
8
1
62
256
6
ByLayer
370
18
48
1
60
0
100
AcDbLine
10
18.315283
20
18.057759
30
0
11
18.512763
21
18.255238
31
0
39
0
210
0
220
0
230
1
0
LINE
5
D3
100
AcDbEntity
8
1
62
256
6
ByLayer
370
18
48
1
60
0
100
AcDbLine
10
19.810394
20
17.232463
30
0
11
20.012135
21
17.434204
31
0
39
0
210
0
220
0
230
1
0
LINE
5
D4
100
AcDbEntity
8
2
62
256
6
ByLayer
370
18
48
1
60
1
100
AcDbLine
10
37.722904
20
30.425
30
0
11
37.723611
21
30.424293
31
0
39
0
210
0
220
0
230
1
0
MTEXT
5
16D
100
AcDbEntity
8
SK6
62
256
6
ByLayer
370
18
48
1
60
0
100
AcDbMText
10
-100.832741
20
-30.808437
30
0
210
0
220
0
230
1
1
\W0.7784;DSSNR 4040S 19
40
3.5
41
0
44
1.084337
50
0
71
7
72
5
7
iso_b_vert
0
DIMENSION
5
17E
100
AcDbEntity
8
2
62
256
6
ByLayer
370
13
48
1
60
0
100
AcDbDimension
2
DimnDraft3D1
10
100.322904
20
-19.925
30
0
11
100.322904
21
-6.273598
31
0
70
32
71
5
72
1
41
1
210
0
220
0
230
1
3
Standard
100
AcDbAlignedDimension
13
52.206942
23
17.940962
33
0
14
2
24
-19.925
34
0
50
90
100
AcDbRotatedDimension
1001
ACAD
1000
DSTYLE
1002
{
1070
    74
1070
     0
1070
   279
1070
     0
1070
   172
1070
     1
1070
   173
1070
     1
1070
   340
1005
16E
1070
    77
1070
     1
1070
    73
1070
     0
1070
   171
1070
     3
1070
   274
1070
     4
1070
   177
1070
     2
1070
   176
1070
     2
1070
   178
1070
     7
1070
    78
1070
     8
1070
    41
1041
3.175
1070
   147
1041
2.25
1070
    42
1041
2.0
1070
    44
1041
2.0
1070
   140
1041
4.5
1070
   343
1005
17F
1070
   344
1005
17F
1002
}
0
DIMENSION
5
194
100
AcDbEntity
8
SK2
62
256
6
ByLayer
370
13
48
1
60
0
100
AcDbDimension
2
DimnDraft3D2
10
-221.377096
20
19.925
30
0
11
-221.377096
21
-5.518421
31
0
70
32
71
5
72
1
41
1
210
0
220
0
230
1
3
Standard
100
AcDbAlignedDimension
13
-215.627096
23
-19.925
33
0
14
-215.627096
24
19.925
34
0
50
90
100
AcDbRotatedDimension
1001
ACAD
1000
DSTYLE
1002
{
1070
    74
1070
     0
1070
   279
1070
     0
1070
   172
1070
     1
1070
   173
1070
     1
1070
   340
1005
16E
1070
    77
1070
     1
1070
    73
1070
     0
1070
   171
1070
     3
1070
   274
1070
     4
1070
   177
1070
     2
1070
   176
1070
     2
1070
   178
1070
     7
1070
    78
1070
     8
1070
    41
1041
3.175
1070
   147
1041
2.25
1070
    42
1041
2.0
1070
    44
1041
2.0
1070
   140
1041
4.5
1070
   343
1005
17F
1070
   344
1005
17F
1002
}
0
DIMENSION
5
1A2
100
AcDbEntity
8
2
62
256
6
ByLayer
370
13
48
1
60
0
100
AcDbDimension
2
DimnDraft3D3
10
110.322904
20
30.425
30
0
11
110.322904
21
-0.031579
31
0
70
32
71
5
72
1
41
1
210
0
220
0
230
1
3
Standard
100
AcDbAlignedDimension
13
2
23
-19.925
33
0
14
39.722904
24
30.425
34
0
50
90
100
AcDbRotatedDimension
1001
ACAD
1000
DSTYLE
1002
{
1070
    74
1070
     0
1070
   279
1070
     0
1070
   172
1070
     1
1070
   173
1070
     1
1070
   340
1005
16E
1070
    77
1070
     1
1070
    73
1070
     0
1070
   171
1070
     3
1070
   274
1070
     4
1070
   177
1070
     2
1070
   176
1070
     2
1070
   178
1070
     7
1070
    78
1070
     8
1070
    41
1041
3.175
1070
   147
1041
2.25
1070
    42
1041
2.0
1070
    44
1041
2.0
1070
   140
1041
4.5
1070
   343
1005
17F
1070
   344
1005
17F
1002
}
0
DIMENSION
5
1B0
100
AcDbEntity
8
2
62
256
6
ByLayer
370
13
48
1
60
0
100
AcDbDimension
2
DimnDraft3D4
10
37.722904
20
33.690962
30
0
11
13.579873
21
33.690962
31
0
70
32
71
5
72
1
41
1
210
0
220
0
230
1
3
Standard
100
AcDbAlignedDimension
13
0
23
21.925
33
0
14
37.722904
24
32.425
34
0
50
0
100
AcDbRotatedDimension
1001
ACAD
1000
DSTYLE
1002
{
1070
   279
1070
     0
1070
   172
1070
     1
1070
   173
1070
     1
1070
   340
1005
16E
1070
    77
1070
     1
1070
    73
1070
     0
1070
   171
1070
     3
1070
   274
1070
     4
1070
   177
1070
     2
1070
   176
1070
     2
1070
   178
1070
     7
1070
    78
1070
     8
1070
    41
1041
3.175
1070
   147
1041
2.25
1070
    42
1041
2.0
1070
    44
1041
2.0
1070
   140
1041
4.5
1070
   343
1005
17F
1070
   344
1005
17F
1002
}
0
DIMENSION
5
1BE
100
AcDbEntity
8
SK2
62
256
6
ByLayer
370
13
48
1
60
0
100
AcDbDimension
2
DimnDraft3D5
10
37.722904
20
43.690962
30
0
11
-94.915254
21
43.690962
31
0
70
32
71
5
72
1
41
1
210
0
220
0
230
1
3
Standard
100
AcDbAlignedDimension
13
-213.627096
23
21.925
33
0
14
37.722904
24
32.425
34
0
50
0
100
AcDbRotatedDimension
1001
ACAD
1000
DSTYLE
1002
{
1070
   279
1070
     0
1070
   172
1070
     1
1070
   173
1070
     1
1070
   340
1005
16E
1070
    77
1070
     1
1070
    73
1070
     0
1070
   171
1070
     3
1070
   274
1070
     4
1070
   177
1070
     2
1070
   176
1070
     2
1070
   178
1070
     7
1070
    78
1070
     8
1070
    41
1041
3.175
1070
   147
1041
2.25
1070
    42
1041
2.0
1070
    44
1041
2.0
1070
   140
1041
4.5
1070
   343
1005
17F
1070
   344
1005
17F
1002
}
0
DIMENSION
5
1CC
100
AcDbEntity
8
SK2
62
256
6
ByLayer
370
13
48
1
60
0
100
AcDbDimension
2
DimnDraft3D6
10
-213.627096
20
53.690962
30
0
11
-88.673235
21
53.690962
31
0
70
32
71
5
72
1
41
1
210
0
220
0
230
1
3
Standard
100
AcDbAlignedDimension
13
50.206942
23
19.940962
33
0
14
-213.627096
24
21.925
34
0
50
0
100
AcDbRotatedDimension
1001
ACAD
1000
DSTYLE
1002
{
1070
   279
1070
     0
1070
   172
1070
     1
1070
   173
1070
     1
1070
   340
1005
16E
1070
    77
1070
     1
1070
    73
1070
     0
1070
   171
1070
     3
1070
   274
1070
     4
1070
   177
1070
     2
1070
   176
1070
     2
1070
   178
1070
     7
1070
    78
1070
     8
1070
    41
1041
3.175
1070
   147
1041
2.25
1070
    42
1041
2.0
1070
    44
1041
2.0
1070
   140
1041
4.5
1070
   343
1005
17F
1070
   344
1005
17F
1002
}
0
DIMENSION
5
1DA
100
AcDbEntity
8
2
62
256
6
ByLayer
370
13
48
1
60
0
100
AcDbDimension
2
DimnDraft3D7
10
50.206942
20
17.940962
30
0
11
70.699853
21
-31.533302
31
0
70
34
71
5
72
1
41
1
210
0
220
0
230
1
3
Standard
100
AcDb2LineAngularDimension
13
50.206942
23
17.940962
33
0
14
50.206942
24
16.750337
34
0
15
37.722904
25
30.425
35
0
16
72.421928
26
-35.690759
36
0
40
0
0
ENDSEC
0
SECTION
2
OBJECTS
0
DICTIONARY
5
244
330
0
100
AcDbDictionary
280
0
281
1
3
ACAD_GROUP
350
245
3
ACAD_MLINESTYLE
350
246
0
DICTIONARY
5
245
330
0
100
AcDbDictionary
280
0
281
1
0
DICTIONARY
5
246
330
0
100
AcDbDictionary
280
0
281
1
3
Standard
350
18
0
MLINESTYLE
5
18
330
246
100
AcDbMlineStyle
2
Standard
70
0
3

62
256
51
90
52
90
71
2
49
-0.5
62
256
6
ByLayer
49
0.5
62
256
6
ByLayer
0
RASTERVARIABLES
5
233
330

100
AcDbRasterVariables
90
0
70
1
71
1
72
1
0
ENDSEC
0
EOF
