0
SECTION
2
HEADER
9
$ACADVER
1
AC1015
9
$DWGCODEPAGE
3
ANSI_1252
9
$HANDSEED
5
250
9
$ANGBASE
50
0
9
$ANGDIR
70
0
9
$ATTMODE
70
1
9
$AUNITS
70
0
9
$AUPREC
70
0
9
$CECOLOR
62
256
9
$CELTSCALE
40
1
9
$CELTYPE
6
ByLayer
9
$CELWEIGHT
370
18
9
$CLAYER
8
0
9
$CMLJUST
70
0
9
$CMLSCALE
40
1
9
$CMLSTYLE
2
Standard
9
$DIMSTYLE
2
Standard
9
$TEXTSIZE
40
0.2
9
$TEXTSTYLE
7
Standard
9
$LUNITS
70
2
9
$LUPREC
70
4
9
$EXTNAMES
290
1
9
$INSUNITS
70
4
9
$LTSCALE
40
1
9
$LWDISPLAY
290
1
9
$PDMODE
70
0
9
$PDSIZE
40
0
9
$PLINEGEN
70
0
0
ENDSEC
0
SECTION
2
CLASSES
0
CLASS
1
RASTERVARIABLES
2
AcDbRasterVariables
3
ISM
90
0
280
0
281
0
0
ENDSEC
0
SECTION
2
TABLES
0
TABLE
2
VPORT
5
246
100
AcDbSymbolTable
0
VPORT
5
1
100
AcDbSymbolTableRecord
100
AcDbViewportTableRecord
2
*Active
70
0
10
0
20
0
11
1
21
1
12
-1
22
1
13
0
23
0
14
0.5
24
0.5
15
10
25
10
16
0
26
0
36
1
17
0
27
0
37
0
0
ENDTAB
0
TABLE
2
LTYPE
5
247
100
AcDbSymbolTable
0
LTYPE
5
14
100
AcDbSymbolTableRecord
100
AcDbLinetypeTableRecord
70
0
2
ByBlock
3

72
65
73
0
40
0
0
LTYPE
5
15
100
AcDbSymbolTableRecord
100
AcDbLinetypeTableRecord
70
0
2
ByLayer
3

72
65
73
0
40
0
0
LTYPE
5
16
100
AcDbSymbolTableRecord
100
AcDbLinetypeTableRecord
70
0
2
CONTINUOUS
3
Solid line
72
65
73
0
40
0
0
LTYPE
5
6A
100
AcDbSymbolTableRecord
100
AcDbLinetypeTableRecord
70
0
2
CENTER
3
____ _ ____ _ ____ _ ____
72
65
73
4
40
47.5
49
22
74
0
49
-8.5
74
0
49
8.5
74
0
49
-8.5
74
0
0
LTYPE
5
6B
100
AcDbSymbolTableRecord
100
AcDbLinetypeTableRecord
70
0
2
DASHED
3
__ __ __ __ __ __ __ __ __
72
65
73
2
40
25.72
49
12.86
74
0
49
-12.86
74
0
0
ENDTAB
0
TABLE
2
LAYER
5
248
100
AcDbSymbolTable
0
LAYER
5
10
100
AcDbSymbolTableRecord
100
AcDbLayerTableRecord
2
0
70
0
62
7
6
CONTINUOUS
290
1
370
-3
390
0
0
LAYER
5
6D
100
AcDbSymbolTableRecord
100
AcDbLayerTableRecord
2
2
70
0
62
7
6
CONTINUOUS
290
1
370
-3
390
0
0
LAYER
5
6F
100
AcDbSymbolTableRecord
100
AcDbLayerTableRecord
2
80
70
0
62
-6
6
CONTINUOUS
290
1
370
-3
390
0
0
LAYER
5
71
100
AcDbSymbolTableRecord
100
AcDbLayerTableRecord
2
81
70
0
62
-3
6
CONTINUOUS
290
1
370
-3
390
0
0
LAYER
5
73
100
AcDbSymbolTableRecord
100
AcDbLayerTableRecord
2
1
70
0
62
4
6
CONTINUOUS
290
1
370
-3
390
0
0
LAYER
5
233
100
AcDbSymbolTableRecord
100
AcDbLayerTableRecord
2
SK1
70
0
62
4
6
CONTINUOUS
290
1
370
-3
390
0
0
LAYER
5
234
100
AcDbSymbolTableRecord
100
AcDbLayerTableRecord
2
SK6
70
0
62
5
6
CONTINUOUS
290
1
370
-3
390
0
0
LAYER
5
235
100
AcDbSymbolTableRecord
100
AcDbLayerTableRecord
2
SK2
70
0
62
7
6
CONTINUOUS
290
1
370
-3
390
0
0
ENDTAB
0
TABLE
2
STYLE
5
249
100
AcDbSymbolTable
0
STYLE
5
11
100
AcDbSymbolTableRecord
100
AcDbTextStyleTableRecord
2
Standard
3
txt
70
0
71
0
40
0
41
1
42
0
50
0
0
STYLE
5
16D
100
AcDbSymbolTableRecord
100
AcDbTextStyleTableRecord
2
iso_b_vert
3
simplex.shx
70
0
71
0
40
0
41
1
42
0
50
0
0
STYLE
5
16E
100
AcDbSymbolTableRecord
100
AcDbTextStyleTableRecord
2
DWGDirectTextStyle
3
simplex
70
0
71
0
40
0
41
1
42
0
50
0
0
ENDTAB
0
TABLE
2
DIMSTYLE
5
24a
100
AcDbSymbolTable
100
AcDbDimStyleTable
0
DIMSTYLE
105
27
100
AcDbSymbolTableRecord
100
AcDbDimStyleTableRecord
2
Standard
70
0
3
<>
41
0.18
42
0.0625
44
0.18
140
0.18
147
0.09
73
0
74
0
77
1
271
2
275
0
278
52
280
0
340
11
0
ENDTAB
0
TABLE
2
VIEW
5
24b
100
AcDbSymbolTable
0
ENDTAB
0
TABLE
2
UCS
5
24c
100
AcDbSymbolTable
0
ENDTAB
0
TABLE
2
APPID
5
24d
100
AcDbSymbolTable
0
APPID
5
12
100
AcDbSymbolTableRecord
100
AcDbRegAppTableRecord
2
ACAD
70
0
0
ENDTAB
0
TABLE
2
BLOCK_RECORD
5
24e
100
AcDbSymbolTable
0
BLOCK_RECORD
5
1F
100
AcDbSymbolTableRecord
100
AcDbBlockTableRecord
2
*Model_Space
340
0
70
0
0
BLOCK_RECORD
5
1B
100
AcDbSymbolTableRecord
100
AcDbBlockTableRecord
2
*Paper_Space
340
0
70
0
0
BLOCK_RECORD
5
23
100
AcDbSymbolTableRecord
100
AcDbBlockTableRecord
2
*Paper_Space0
340
0
70
0
0
BLOCK_RECORD
5
170
100
AcDbSymbolTableRecord
100
AcDbBlockTableRecord
2
DimnDraft3D1
340
0
70
0
0
BLOCK_RECORD
5
17E
100
AcDbSymbolTableRecord
100
AcDbBlockTableRecord
2
_CLOSED
340
0
70
0
0
BLOCK_RECORD
5
185
100
AcDbSymbolTableRecord
100
AcDbBlockTableRecord
2
DimnDraft3D2
340
0
70
0
0
BLOCK_RECORD
5
194
100
AcDbSymbolTableRecord
100
AcDbBlockTableRecord
2
DimnDraft3D3
340
0
70
0
0
BLOCK_RECORD
5
1A2
100
AcDbSymbolTableRecord
100
AcDbBlockTableRecord
2
DimnDraft3D4
340
0
70
0
0
BLOCK_RECORD
5
1B0
100
AcDbSymbolTableRecord
100
AcDbBlockTableRecord
2
DimnDraft3D5
340
0
70
0
0
BLOCK_RECORD
5
1BE
100
AcDbSymbolTableRecord
100
AcDbBlockTableRecord
2
DimnDraft3D6
340
0
70
0
0
BLOCK_RECORD
5
1CC
100
AcDbSymbolTableRecord
100
AcDbBlockTableRecord
2
DimnDraft3D7
340
0
70
0
0
ENDTAB
0
ENDSEC
0
SECTION
2
BLOCKS
0
BLOCK
5
20
100
AcDbEntity
8
0
100
AcDbBlockBegin
2
*Model_Space
70
0
10
0
20
0
30
0
3
*Model_Space
0
ENDBLK
5
21
100
AcDbEntity
8
0
100
AcDbBlockEnd
0
BLOCK
5
1C
100
AcDbEntity
8
0
100
AcDbBlockBegin
2
*Paper_Space
70
0
10
0
20
0
30
0
3
*Paper_Space
0
ENDBLK
5
1D
100
AcDbEntity
8
0
100
AcDbBlockEnd
0
BLOCK
5
24
100
AcDbEntity
8
0
100
AcDbBlockBegin
2
*Paper_Space0
70
0
10
0
20
0
30
0
3
*Paper_Space0
0
ENDBLK
5
25
100
AcDbEntity
8
0
100
AcDbBlockEnd
0
BLOCK
5
17B
100
AcDbEntity
8
0
100
AcDbBlockBegin
2
DimnDraft3D1
70
0
10
0
20
0
30
0
3
DimnDraft3D1
0
MTEXT
5
171
100
AcDbEntity
8
2
62
256
6
ByLayer
370
18
48
1
60
0
100
AcDbMText
10
87.41987
20
-6.148598
30
0
210
0
220
0
230
1
1
\W0.7346;27.5
40
4.5
41
0
44
1.084337
50
90
71
7
72
5
7
iso_b_vert
0
LINE
5
172
100
AcDbEntity
8
2
62
256
6
ByLayer
370
13
48
1
60
0
100
AcDbLine
10
50.428908
20
11.940962
30
0
11
90.54487
21
11.940962
31
0
39
0
210
0
220
0
230
1
0
LINE
5
173
100
AcDbEntity
8
2
62
256
6
ByLayer
370
13
48
1
60
0
100
AcDbLine
10
2
20
-15.925
30
0
11
90.54487
21
-15.925
31
0
39
0
210
0
220
0
230
1
0
LINE
5
174
100
AcDbEntity
8
2
62
256
6
ByLayer
370
13
48
1
60
0
100
AcDbLine
10
88.54487
20
11.940962
30
0
11
88.54487
21
-15.925
31
0
39
0
210
0
220
0
230
1
0
LINE
5
175
100
AcDbEntity
8
2
62
256
6
ByLayer
370
13
48
1
60
0
100
AcDbLine
10
88.54487
20
11.940962
30
0
11
88.962866
21
8.765963
31
0
39
0
210
0
220
0
230
1
0
LINE
5
176
100
AcDbEntity
8
2
62
256
6
ByLayer
370
13
48
1
60
0
100
AcDbLine
10
88.54487
20
11.940962
30
0
11
88.126873
21
8.76596
31
0
39
0
210
0
220
0
230
1
0
LINE
5
177
100
AcDbEntity
8
2
62
256
6
ByLayer
370
13
48
1
60
0
100
AcDbLine
10
88.962866
20
8.765963
30
0
11
88.126873
21
8.76596
31
0
39
0
210
0
220
0
230
1
0
LINE
5
178
100
AcDbEntity
8
2
62
256
6
ByLayer
370
13
48
1
60
0
100
AcDbLine
10
88.54487
20
-15.925
30
0
11
88.126873
21
-12.750002
31
0
39
0
210
0
220
0
230
1
0
LINE
5
179
100
AcDbEntity
8
2
62
256
6
ByLayer
370
13
48
1
60
0
100
AcDbLine
10
88.54487
20
-15.925
30
0
11
88.962866
21
-12.749998
31
0
39
0
210
0
220
0
230
1
0
LINE
5
17A
100
AcDbEntity
8
2
62
256
6
ByLayer
370
13
48
1
60
0
100
AcDbLine
10
88.126873
20
-12.750002
30
0
11
88.962866
21
-12.749998
31
0
39
0
210
0
220
0
230
1
0
ENDBLK
5
17C
100
AcDbEntity
8
0
100
AcDbBlockEnd
0
BLOCK
5
17F
100
AcDbEntity
8
0
100
AcDbBlockBegin
2
_CLOSED
70
0
10
0
20
0
30
0
3
_CLOSED
0
LINE
5
181
100
AcDbEntity
8
0
62
256
6
ByLayer
370
-2
48
1
60
0
100
AcDbLine
10
-1
20
0.166667
30
0
11
0
21
0
31
0
39
0
210
0
220
0
230
1
0
LINE
5
182
100
AcDbEntity
8
0
62
256
6
ByLayer
370
-2
48
1
60
0
100
AcDbLine
10
0
20
0
30
0
11
-1
21
-0.166667
31
0
39
0
210
0
220
0
230
1
0
LINE
5
183
100
AcDbEntity
8
0
62
256
6
ByLayer
370
-2
48
1
60
0
100
AcDbLine
10
-1
20
0.166667
30
0
11
-1
21
-0.166667
31
0
39
0
210
0
220
0
230
1
0
LINE
5
184
100
AcDbEntity
8
0
62
256
6
ByLayer
370
-2
48
1
60
0
100
AcDbLine
10
0
20
0
30
0
11
-1
21
0
31
0
39
0
210
0
220
0
230
1
0
ENDBLK
5
180
100
AcDbEntity
8
0
100
AcDbBlockEnd
0
BLOCK
5
191
100
AcDbEntity
8
0
100
AcDbBlockBegin
2
DimnDraft3D2
70
0
10
0
20
0
30
0
3
DimnDraft3D2
0
MTEXT
5
186
100
AcDbEntity
8
SK2
62
256
6
ByLayer
370
18
48
1
60
0
100
AcDbMText
10
-144.28013
20
-4.156579
30
0
210
0
220
0
230
1
1
\W0.7346;32.0
40
4.5
41
0
44
1.084337
50
90
71
7
72
5
7
iso_b_vert
0
LINE
5
188
100
AcDbEntity
8
SK2
62
256
6
ByLayer
370
13
48
1
60
0
100
AcDbLine
10
-137.40513
20
-15.925
30
0
11
-145.15513
21
-15.925
31
0
39
0
210
0
220
0
230
1
0
LINE
5
189
100
AcDbEntity
8
SK2
62
256
6
ByLayer
370
13
48
1
60
0
100
AcDbLine
10
-137.40513
20
15.925
30
0
11
-145.15513
21
15.925
31
0
39
0
210
0
220
0
230
1
0
LINE
5
18A
100
AcDbEntity
8
SK2
62
256
6
ByLayer
370
13
48
1
60
0
100
AcDbLine
10
-143.15513
20
-15.925
30
0
11
-143.15513
21
15.925
31
0
39
0
210
0
220
0
230
1
0
LINE
5
18B
100
AcDbEntity
8
SK2
62
256
6
ByLayer
370
13
48
1
60
0
100
AcDbLine
10
-143.15513
20
-15.925
30
0
11
-143.573127
21
-12.750002
31
0
39
0
210
0
220
0
230
1
0
LINE
5
18C
100
AcDbEntity
8
SK2
62
256
6
ByLayer
370
13
48
1
60
0
100
AcDbLine
10
-143.15513
20
-15.925
30
0
11
-142.737134
21
-12.749998
31
0
39
0
210
0
220
0
230
1
0
LINE
5
18D
100
AcDbEntity
8
SK2
62
256
6
ByLayer
370
13
48
1
60
0
100
AcDbLine
10
-143.573127
20
-12.750002
30
0
11
-142.737134
21
-12.749998
31
0
39
0
210
0
220
0
230
1
0
LINE
5
18E
100
AcDbEntity
8
SK2
62
256
6
ByLayer
370
13
48
1
60
0
100
AcDbLine
10
-143.15513
20
15.925
30
0
11
-142.737134
21
12.750002
31
0
39
0
210
0
220
0
230
1
0
LINE
5
18F
100
AcDbEntity
8
SK2
62
256
6
ByLayer
370
13
48
1
60
0
100
AcDbLine
10
-143.15513
20
15.925
30
0
11
-143.573127
21
12.749998
31
0
39
0
210
0
220
0
230
1
0
LINE
5
190
100
AcDbEntity
8
SK2
62
256
6
ByLayer
370
13
48
1
60
0
100
AcDbLine
10
-142.737134
20
12.750002
30
0
11
-143.573127
21
12.749998
31
0
39
0
210
0
220
0
230
1
0
ENDBLK
5
192
100
AcDbEntity
8
0
100
AcDbBlockEnd
0
BLOCK
5
19F
100
AcDbEntity
8
0
100
AcDbBlockBegin
2
DimnDraft3D3
70
0
10
0
20
0
30
0
3
DimnDraft3D3
0
MTEXT
5
195
100
AcDbEntity
8
2
62
256
6
ByLayer
370
18
48
1
60
0
100
AcDbMText
10
97.41987
20
-0.143421
30
0
210
0
220
0
230
1
1
\W0.7640;40.0
40
4.5
41
0
44
1.084337
50
90
71
7
72
5
7
iso_b_vert
0
LINE
5
196
100
AcDbEntity
8
2
62
256
6
ByLayer
370
13
48
1
60
0
100
AcDbLine
10
2
20
-15.925
30
0
11
100.54487
21
-15.925
31
0
39
0
210
0
220
0
230
1
0
LINE
5
197
100
AcDbEntity
8
2
62
256
6
ByLayer
370
13
48
1
60
0
100
AcDbLine
10
37.94487
20
24.425
30
0
11
100.54487
21
24.425
31
0
39
0
210
0
220
0
230
1
0
LINE
5
198
100
AcDbEntity
8
2
62
256
6
ByLayer
370
13
48
1
60
0
100
AcDbLine
10
98.54487
20
-15.925
30
0
11
98.54487
21
24.425
31
0
39
0
210
0
220
0
230
1
0
LINE
5
199
100
AcDbEntity
8
2
62
256
6
ByLayer
370
13
48
1
60
0
100
AcDbLine
10
98.54487
20
-15.925
30
0
11
98.126873
21
-12.750002
31
0
39
0
210
0
220
0
230
1
0
LINE
5
19A
100
AcDbEntity
8
2
62
256
6
ByLayer
370
13
48
1
60
0
100
AcDbLine
10
98.54487
20
-15.925
30
0
11
98.962866
21
-12.749998
31
0
39
0
210
0
220
0
230
1
0
LINE
5
19B
100
AcDbEntity
8
2
62
256
6
ByLayer
370
13
48
1
60
0
100
AcDbLine
10
98.126873
20
-12.750002
30
0
11
98.962866
21
-12.749998
31
0
39
0
210
0
220
0
230
1
0
LINE
5
19C
100
AcDbEntity
8
2
62
256
6
ByLayer
370
13
48
1
60
0
100
AcDbLine
10
98.54487
20
24.425
30
0
11
98.962866
21
21.250002
31
0
39
0
210
0
220
0
230
1
0
LINE
5
19D
100
AcDbEntity
8
2
62
256
6
ByLayer
370
13
48
1
60
0
100
AcDbLine
10
98.54487
20
24.425
30
0
11
98.126873
21
21.249998
31
0
39
0
210
0
220
0
230
1
0
LINE
5
19E
100
AcDbEntity
8
2
62
256
6
ByLayer
370
13
48
1
60
0
100
AcDbLine
10
98.962866
20
21.250002
30
0
11
98.126873
21
21.249998
31
0
39
0
210
0
220
0
230
1
0
ENDBLK
5
1A0
100
AcDbEntity
8
0
100
AcDbBlockEnd
0
BLOCK
5
1AD
100
AcDbEntity
8
0
100
AcDbBlockBegin
2
DimnDraft3D4
70
0
10
0
20
0
30
0
3
DimnDraft3D4
0
MTEXT
5
1A3
100
AcDbEntity
8
2
62
256
6
ByLayer
370
18
48
1
60
0
100
AcDbMText
10
13.815856
20
28.815962
30
0
210
0
220
0
230
1
1
\W0.7457;35.9
40
4.5
41
0
44
1.084337
50
0
71
7
72
5
7
iso_b_vert
0
LINE
5
1A4
100
AcDbEntity
8
2
62
256
6
ByLayer
370
13
48
1
60
0
100
AcDbLine
10
0
20
17.925
30
0
11
0
21
29.690962
31
0
39
0
210
0
220
0
230
1
0
LINE
5
1A5
100
AcDbEntity
8
2
62
256
6
ByLayer
370
13
48
1
60
0
100
AcDbLine
10
35.94487
20
26.425
30
0
11
35.94487
21
29.690962
31
0
39
0
210
0
220
0
230
1
0
LINE
5
1A6
100
AcDbEntity
8
2
62
256
6
ByLayer
370
13
48
1
60
0
100
AcDbLine
10
0
20
27.690962
30
0
11
35.94487
21
27.690962
31
0
39
0
210
0
220
0
230
1
0
LINE
5
1A7
100
AcDbEntity
8
2
62
256
6
ByLayer
370
13
48
1
60
0
100
AcDbLine
10
0
20
27.690962
30
0
11
3.174998
21
28.108959
31
0
39
0
210
0
220
0
230
1
0
LINE
5
1A8
100
AcDbEntity
8
2
62
256
6
ByLayer
370
13
48
1
60
0
100
AcDbLine
10
0
20
27.690962
30
0
11
3.175002
21
27.272965
31
0
39
0
210
0
220
0
230
1
0
LINE
5
1A9
100
AcDbEntity
8
2
62
256
6
ByLayer
370
13
48
1
60
0
100
AcDbLine
10
3.174998
20
28.108959
30
0
11
3.175002
21
27.272965
31
0
39
0
210
0
220
0
230
1
0
LINE
5
1AA
100
AcDbEntity
8
2
62
256
6
ByLayer
370
13
48
1
60
0
100
AcDbLine
10
35.94487
20
27.690962
30
0
11
32.769871
21
27.272965
31
0
39
0
210
0
220
0
230
1
0
LINE
5
1AB
100
AcDbEntity
8
2
62
256
6
ByLayer
370
13
48
1
60
0
100
AcDbLine
10
35.94487
20
27.690962
30
0
11
32.769868
21
28.108959
31
0
39
0
210
0
220
0
230
1
0
LINE
5
1AC
100
AcDbEntity
8
2
62
256
6
ByLayer
370
13
48
1
60
0
100
AcDbLine
10
32.769871
20
27.272965
30
0
11
32.769868
21
28.108959
31
0
39
0
210
0
220
0
230
1
0
ENDBLK
5
1AE
100
AcDbEntity
8
0
100
AcDbBlockEnd
0
BLOCK
5
1BB
100
AcDbEntity
8
0
100
AcDbBlockBegin
2
DimnDraft3D5
70
0
10
0
20
0
30
0
3
DimnDraft3D5
0
MTEXT
5
1B1
100
AcDbEntity
8
SK2
62
256
6
ByLayer
370
18
48
1
60
0
100
AcDbMText
10
-55.005788
20
38.815962
30
0
210
0
220
0
230
1
1
\W0.6864;170.0
40
4.5
41
0
44
1.084337
50
0
71
7
72
5
7
iso_b_vert
0
LINE
5
1B2
100
AcDbEntity
8
SK2
62
256
6
ByLayer
370
13
48
1
60
0
100
AcDbLine
10
-135.40513
20
17.925
30
0
11
-135.40513
21
39.690962
31
0
39
0
210
0
220
0
230
1
0
LINE
5
1B3
100
AcDbEntity
8
SK2
62
256
6
ByLayer
370
13
48
1
60
0
100
AcDbLine
10
35.94487
20
26.425
30
0
11
35.94487
21
39.690962
31
0
39
0
210
0
220
0
230
1
0
LINE
5
1B4
100
AcDbEntity
8
SK2
62
256
6
ByLayer
370
13
48
1
60
0
100
AcDbLine
10
-135.40513
20
37.690962
30
0
11
35.94487
21
37.690962
31
0
39
0
210
0
220
0
230
1
0
LINE
5
1B5
100
AcDbEntity
8
SK2
62
256
6
ByLayer
370
13
48
1
60
0
100
AcDbLine
10
-135.40513
20
37.690962
30
0
11
-132.230132
21
38.108959
31
0
39
0
210
0
220
0
230
1
0
LINE
5
1B6
100
AcDbEntity
8
SK2
62
256
6
ByLayer
370
13
48
1
60
0
100
AcDbLine
10
-135.40513
20
37.690962
30
0
11
-132.230129
21
37.272965
31
0
39
0
210
0
220
0
230
1
0
LINE
5
1B7
100
AcDbEntity
8
SK2
62
256
6
ByLayer
370
13
48
1
60
0
100
AcDbLine
10
-132.230132
20
38.108959
30
0
11
-132.230129
21
37.272965
31
0
39
0
210
0
220
0
230
1
0
LINE
5
1B8
100
AcDbEntity
8
SK2
62
256
6
ByLayer
370
13
48
1
60
0
100
AcDbLine
10
35.94487
20
37.690962
30
0
11
32.769871
21
37.272965
31
0
39
0
210
0
220
0
230
1
0
LINE
5
1B9
100
AcDbEntity
8
SK2
62
256
6
ByLayer
370
13
48
1
60
0
100
AcDbLine
10
35.94487
20
37.690962
30
0
11
32.769868
21
38.108959
31
0
39
0
210
0
220
0
230
1
0
LINE
5
1BA
100
AcDbEntity
8
SK2
62
256
6
ByLayer
370
13
48
1
60
0
100
AcDbLine
10
32.769871
20
37.272965
30
0
11
32.769868
21
38.108959
31
0
39
0
210
0
220
0
230
1
0
ENDBLK
5
1BC
100
AcDbEntity
8
0
100
AcDbBlockEnd
0
BLOCK
5
1C9
100
AcDbEntity
8
0
100
AcDbBlockBegin
2
DimnDraft3D6
70
0
10
0
20
0
30
0
3
DimnDraft3D6
0
MTEXT
5
1BF
100
AcDbEntity
8
SK2
62
256
6
ByLayer
370
18
48
1
60
0
100
AcDbMText
10
-48.763769
20
48.815962
30
0
210
0
220
0
230
1
1
\W0.6864;182.5
40
4.5
41
0
44
1.084337
50
0
71
7
72
5
7
iso_b_vert
0
LINE
5
1C0
100
AcDbEntity
8
SK2
62
256
6
ByLayer
370
13
48
1
60
0
100
AcDbLine
10
48.428908
20
13.940962
30
0
11
48.428908
21
49.690962
31
0
39
0
210
0
220
0
230
1
0
LINE
5
1C1
100
AcDbEntity
8
SK2
62
256
6
ByLayer
370
13
48
1
60
0
100
AcDbLine
10
-135.40513
20
17.925
30
0
11
-135.40513
21
49.690962
31
0
39
0
210
0
220
0
230
1
0
LINE
5
1C2
100
AcDbEntity
8
SK2
62
256
6
ByLayer
370
13
48
1
60
0
100
AcDbLine
10
48.428908
20
47.690962
30
0
11
-135.40513
21
47.690962
31
0
39
0
210
0
220
0
230
1
0
LINE
5
1C3
100
AcDbEntity
8
SK2
62
256
6
ByLayer
370
13
48
1
60
0
100
AcDbLine
10
48.428908
20
47.690962
30
0
11
45.253909
21
47.272965
31
0
39
0
210
0
220
0
230
1
0
LINE
5
1C4
100
AcDbEntity
8
SK2
62
256
6
ByLayer
370
13
48
1
60
0
100
AcDbLine
10
48.428908
20
47.690962
30
0
11
45.253906
21
48.108959
31
0
39
0
210
0
220
0
230
1
0
LINE
5
1C5
100
AcDbEntity
8
SK2
62
256
6
ByLayer
370
13
48
1
60
0
100
AcDbLine
10
45.253909
20
47.272965
30
0
11
45.253906
21
48.108959
31
0
39
0
210
0
220
0
230
1
0
LINE
5
1C6
100
AcDbEntity
8
SK2
62
256
6
ByLayer
370
13
48
1
60
0
100
AcDbLine
10
-135.40513
20
47.690962
30
0
11
-132.230132
21
48.108959
31
0
39
0
210
0
220
0
230
1
0
LINE
5
1C7
100
AcDbEntity
8
SK2
62
256
6
ByLayer
370
13
48
1
60
0
100
AcDbLine
10
-135.40513
20
47.690962
30
0
11
-132.230129
21
47.272965
31
0
39
0
210
0
220
0
230
1
0
LINE
5
1C8
100
AcDbEntity
8
SK2
62
256
6
ByLayer
370
13
48
1
60
0
100
AcDbLine
10
-132.230132
20
48.108959
30
0
11
-132.230129
21
47.272965
31
0
39
0
210
0
220
0
230
1
0
ENDBLK
5
1CA
100
AcDbEntity
8
0
100
AcDbBlockEnd
0
BLOCK
5
1D7
100
AcDbEntity
8
0
100
AcDbBlockBegin
2
DimnDraft3D7
70
0
10
0
20
0
30
0
3
DimnDraft3D7
0
MTEXT
5
1CD
100
AcDbEntity
8
2
62
256
6
ByLayer
370
18
48
1
60
0
100
AcDbMText
10
61.885723
20
-28.793484
30
0
210
0
220
0
230
1
1
\W0.7785;45%%d
40
4.5
41
0
44
1.084337
50
22.4999999999999
71
7
72
5
7
iso_b_vert
0
LINE
5
1CE
100
AcDbEntity
8
2
62
256
6
ByLayer
370
13
48
1
60
0
100
AcDbLine
10
48.428908
20
8.750337
30
0
11
48.428908
21
-33.967459
31
0
39
0
210
0
220
0
230
1
0
LINE
5
1CF
100
AcDbEntity
8
2
62
256
6
ByLayer
370
13
48
1
60
0
100
AcDbLine
10
49.843121
20
10.526748
30
0
11
80.891064
21
-20.521194
31
0
39
0
210
0
220
0
230
1
0
ARC
5
1D0
100
AcDbEntity
8
2
62
256
6
ByLayer
370
13
48
1
60
0
100
AcDbCircle
39
0
10
48.428908
20
11.940962
30
0
40
43.9084211963048
210
0
220
0
230
1
100
AcDbArc
50
270
51
315
0
LINE
5
1D1
100
AcDbEntity
8
2
62
256
6
ByLayer
370
13
48
1
60
0
100
AcDbLine
10
48.428908
20
-31.967459
30
0
11
51.595835
21
-31.492163
31
0
39
0
210
0
220
0
230
1
0
LINE
5
1D2
100
AcDbEntity
8
2
62
256
6
ByLayer
370
13
48
1
60
0
100
AcDbLine
10
48.428908
20
-31.967459
30
0
11
51.610944
21
-32.32802
31
0
39
0
210
0
220
0
230
1
0
LINE
5
1D3
100
AcDbEntity
8
2
62
256
6
ByLayer
370
13
48
1
60
0
100
AcDbLine
10
51.595835
20
-31.492163
30
0
11
51.610944
21
-32.32802
31
0
39
0
210
0
220
0
230
1
0
LINE
5
1D4
100
AcDbEntity
8
2
62
256
6
ByLayer
370
13
48
1
60
0
100
AcDbLine
10
79.47685
20
-19.106981
30
0
11
77.481768
21
-21.611972
31
0
39
0
210
0
220
0
230
1
0
LINE
5
1D5
100
AcDbEntity
8
2
62
256
6
ByLayer
370
13
48
1
60
0
100
AcDbLine
10
79.47685
20
-19.106981
30
0
11
76.901407
21
-21.010254
31
0
39
0
210
0
220
0
230
1
0
LINE
5
1D6
100
AcDbEntity
8
2
62
256
6
ByLayer
370
13
48
1
60
0
100
AcDbLine
10
77.481768
20
-21.611972
30
0
11
76.901407
21
-21.010254
31
0
39
0
210
0
220
0
230
1
0
ENDBLK
5
1D8
100
AcDbEntity
8
0
100
AcDbBlockEnd
0
ENDSEC
0
SECTION
2
ENTITIES
0
ELLIPSE
5
D4
100
AcDbEntity
8
1
62
256
6
ByLayer
370
18
48
1
60
0
100
AcDbEllipse
10
31.097881
20
4.924065
30
0
11
2.50624146100135
21
-2.50624146100135
31
0
210
0
220
0
230
-1
40
0.50533
41
1.28339897035441
42
1.5707963267949
0
ELLIPSE
5
D5
100
AcDbEntity
8
1
62
256
6
ByLayer
370
18
48
1
60
0
100
AcDbEllipse
10
8.87615
20
-15.937048
30
0
11
0.803406090798404
21
-3.0375771451473E-05
31
0
210
0
220
0
230
-1
40
0.004364
41
-1.67844690210761
42
-0.107650575313003
0
ELLIPSE
5
D6
100
AcDbEntity
8
1
62
256
6
ByLayer
370
18
48
1
60
0
100
AcDbEllipse
10
34.952103
20
-0.842689
30
0
11
0.842164176393189
21
-0.842164176393167
31
0
210
0
220
0
230
1
40
0.990268
41
-1.145846767809
42
-2.44747954602623E-14
0
ELLIPSE
5
D7
100
AcDbEntity
8
1
62
256
6
ByLayer
370
18
48
1
60
0
100
AcDbEllipse
10
35.577008
20
-0.217784
30
0
11
-0.842164176393189
21
0.842164176393167
31
0
210
0
220
0
230
1
40
0.990268
41
1.57079632679487
42
3.14159265358979
0
ELLIPSE
5
D8
100
AcDbEntity
8
1
62
256
6
ByLayer
370
18
48
1
60
0
100
AcDbEllipse
10
47.248362
20
11.453571
30
0
11
-0.842164176393189
21
0.842164176393167
31
0
210
0
220
0
230
1
40
0.990268
41
3.14159265358979
42
-1.57079632679492
0
ELLIPSE
5
D9
100
AcDbEntity
8
1
62
256
6
ByLayer
370
18
48
1
60
0
100
AcDbEllipse
10
35.462307
20
23.239627
30
0
11
-0.842164176393189
21
0.842164176393167
31
0
210
0
220
0
230
1
40
0.990268
41
-1.57079632679491
42
-2.4098260145489E-14
0
ELLIPSE
5
DA
100
AcDbEntity
8
1
62
256
6
ByLayer
370
18
48
1
60
0
100
AcDbEllipse
10
35.519657
20
11.510921
30
0
11
2.80721392131063
21
-2.80721392131056
31
0
210
0
220
0
230
1
40
0.990268
41
-0.574164026681796
42
-1.35552713318376E-15
0
ELLIPSE
5
DB
100
AcDbEntity
8
1
62
256
6
ByLayer
370
18
48
1
60
0
100
AcDbEllipse
10
35.519657
20
11.510921
30
0
11
2.80721392131063
21
-2.80721392131056
31
0
210
0
220
0
230
1
40
0.990268
41
0
42
0.790287998694713
0
ELLIPSE
5
DC
100
AcDbEntity
8
1
62
256
6
ByLayer
370
18
48
1
60
0
100
AcDbEllipse
10
35.519657
20
11.510921
30
0
11
2.80721392131063
21
-2.80721392131056
31
0
210
0
220
0
230
1
40
0.990268
41
0.790287797412391
42
2.3142357084324
0
ELLIPSE
5
DD
100
AcDbEntity
8
1
62
256
6
ByLayer
370
18
48
1
60
0
100
AcDbEllipse
10
34.894752
20
10.886016
30
0
11
2.80721392131063
21
-2.80721392131056
31
0
210
0
220
0
230
1
40
0.990268
41
0.112549429311087
42
0.485417262826005
0
ELLIPSE
5
DE
100
AcDbEntity
8
1
62
256
6
ByLayer
370
18
48
1
60
0
100
AcDbEllipse
10
34.894752
20
10.886016
30
0
11
2.80721392131063
21
-2.80721392131056
31
0
210
0
220
0
230
1
40
0.990268
41
0.790287797412391
42
2.37086352375358
0
ELLIPSE
5
DF
100
AcDbEntity
8
1
62
256
6
ByLayer
370
18
48
1
60
0
100
AcDbEllipse
10
34.614283
20
10.605547
30
0
11
-2.82842712473852
21
2.82842712473844
31
0
210
0
220
0
230
1
40
0.990268
41
-2.95580488014939
42
-2.67993378395273
0
ELLIPSE
5
E0
100
AcDbEntity
8
1
62
256
6
ByLayer
370
18
48
1
60
0
100
AcDbEllipse
10
4.926416
20
-0.321264
30
0
11
6.97034682705625
21
0.643634298765098
31
0
210
0
220
0
230
1
40
0.089459
41
-0.816460859477576
42
-0.770472553435575
0
ELLIPSE
5
E1
100
AcDbEntity
8
1
62
256
6
ByLayer
370
18
48
1
60
0
100
AcDbEllipse
10
13.242261
20
3.779039
30
0
11
6.44213537967919
21
0.909689446071153
31
0
210
0
220
0
230
-1
40
0.447011
41
-2.53175379942846
42
-2.46252373513705
0
ELLIPSE
5
E2
100
AcDbEntity
8
1
62
256
6
ByLayer
370
18
48
1
60
0
100
AcDbEllipse
10
36.004954
20
11.868953
30
0
11
0.125059563364796
21
-3.85184125649309
31
0
210
0
220
0
230
-1
40
0.85294
41
-1.50155975846286
42
-1.21281809299951
0
ELLIPSE
5
E3
100
AcDbEntity
8
1
62
256
6
ByLayer
370
18
48
1
60
0
100
AcDbEllipse
10
13.49576
20
2.112374
30
0
11
4.43824816045183
21
0.807023836701258
31
0
210
0
220
0
230
-1
40
0.604162
41
2.6124522527625
42
-2.43095828658063
0
ELLIPSE
5
E4
100
AcDbEntity
8
1
62
256
6
ByLayer
370
18
48
1
60
0
100
AcDbEllipse
10
9.560247
20
4.916486
30
0
11
1.42342638502322
21
-1.40494032841959
31
0
210
0
220
0
230
1
40
0.683681
41
-2.15512970120723
42
-0.829017262146926
0
ELLIPSE
5
E5
100
AcDbEntity
8
1
62
256
6
ByLayer
370
18
48
1
60
0
100
AcDbEllipse
10
12.951501
20
6.927864
30
0
11
6.47246491083795
21
0.597660420281877
31
0
210
0
220
0
230
1
40
0.089459
41
1.97732322077546
42
2.35884790360713
0
ELLIPSE
5
E6
100
AcDbEntity
8
1
62
256
6
ByLayer
370
18
48
1
60
0
100
AcDbEllipse
10
8.038026
20
14.897488
30
0
11
3.19892913271714
21
-1.45835999673934
31
0
210
0
220
0
230
-1
40
0.988829
41
2.62660291115361
42
-2.46622625551605
0
ELLIPSE
5
E7
100
AcDbEntity
8
1
62
256
6
ByLayer
370
18
48
1
60
0
100
AcDbEllipse
10
10.569342
20
16.145021
30
0
11
3.8141769787876
21
-1.58290825284702
31
0
210
0
220
0
230
-1
40
0.592827
41
-2.46566456363356
42
-2.28635836018478
0
ELLIPSE
5
E8
100
AcDbEntity
8
1
62
256
6
ByLayer
370
18
48
1
60
0
100
AcDbEllipse
10
11.668291
20
4.243765
30
0
11
2.69354300705162
21
3.81745809573578
31
0
210
0
220
0
230
-1
40
0.656673
41
2.63901791871177
42
2.81832412208185
0
ELLIPSE
5
E9
100
AcDbEntity
8
1
62
256
6
ByLayer
370
18
48
1
60
0
100
AcDbEllipse
10
9.16103
20
15.972969
30
0
11
1.95985733071548
21
-2.27133424295959
31
0
210
0
220
0
230
1
40
0.988257
41
-0.625434656542326
42
-0.250976749617678
0
ELLIPSE
5
EA
100
AcDbEntity
8
1
62
256
6
ByLayer
370
18
48
1
60
0
100
AcDbEllipse
10
17.490072
20
10.652807
30
0
11
-3.3644217510616
21
3.89912378374727
31
0
210
0
220
0
230
1
40
0.988257
41
2.89049836845186
42
-0.625434656542339
0
ELLIPSE
5
EB
100
AcDbEntity
8
1
62
256
6
ByLayer
370
18
48
1
60
0
100
AcDbEllipse
10
36.004954
20
11.868953
30
0
11
2.66461981806824
21
-2.42254414404075
31
0
210
0
220
0
230
-1
40
0.834029
41
-1.16715559942614
42
-0.878413933963904
0
ELLIPSE
5
EC
100
AcDbEntity
8
1
62
256
6
ByLayer
370
18
48
1
60
0
100
AcDbEllipse
10
9.136975
20
2.996231
30
0
11
3.19892913270841
21
-1.45835999674803
31
0
210
0
220
0
230
-1
40
0.988829
41
1.43624677063933
42
2.62660291115017
0
ELLIPSE
5
ED
100
AcDbEntity
8
1
62
256
6
ByLayer
370
18
48
1
60
0
100
AcDbEllipse
10
12.111268
20
16.027318
30
0
11
6.49691487768469
21
0.328471868813202
31
0
210
0
220
0
230
-1
40
0.268495
41
2.47291948951151
42
2.54214955288435
0
ELLIPSE
5
EE
100
AcDbEntity
8
1
62
256
6
ByLayer
370
18
48
1
60
0
100
AcDbEllipse
10
12.040132
20
17.876346
30
0
11
4.50724462922691
21
0.108172905368941
31
0
210
0
220
0
230
-1
40
0.426587
41
2.45500491261379
42
-2.58840562672891
0
ELLIPSE
5
EF
100
AcDbEntity
8
1
62
256
6
ByLayer
370
18
48
1
60
0
100
AcDbEllipse
10
8.654555
20
14.724833
30
0
11
-0.880532867981934
21
-1.79573435351767
31
0
210
0
220
0
230
1
40
0.756502
41
-2.52254507527052
42
-1.19643263621018
0
ELLIPSE
5
F0
100
AcDbEntity
8
1
62
256
6
ByLayer
370
18
48
1
60
0
100
AcDbEllipse
10
15.165793
20
10.464445
30
0
11
3.36442175106158
21
-3.89912378374729
31
0
210
0
220
0
230
1
40
0.988257
41
2.51615799704745
42
2.88315904529342
0
ELLIPSE
5
F1
100
AcDbEntity
8
1
62
256
6
ByLayer
370
18
48
1
60
0
100
AcDbEllipse
10
12.402027
20
12.878492
30
0
11
6.47246491083795
21
0.597660420281877
31
0
210
0
220
0
230
1
40
0.089459
41
1.97732322077546
42
2.35884790360713
0
ELLIPSE
5
F2
100
AcDbEntity
8
1
62
256
6
ByLayer
370
18
48
1
60
0
100
AcDbEllipse
10
16.735502
20
10.862093
30
0
11
0.989949493661179
21
-0.989949493661153
31
0
210
0
220
0
230
1
40
0.990268
41
1.30466224242034
42
1.48786456077057
0
ELLIPSE
5
F3
100
AcDbEntity
8
1
62
256
6
ByLayer
370
18
48
1
60
0
100
AcDbEllipse
10
15.042632
20
11.664219
30
0
11
0.353553390593278
21
-0.353553390593269
31
0
210
0
220
0
230
1
40
0.990268
41
0.728089661981335
42
1.24205131400809
0
ELLIPSE
5
F4
100
AcDbEntity
8
1
62
256
6
ByLayer
370
18
48
1
60
0
100
AcDbEllipse
10
18.235153
20
9.866749
30
0
11
0.353553390593278
21
-0.353553390593269
31
0
210
0
220
0
230
1
40
0.990268
41
-2.53351575413309
42
-1.89954133958166
0
ELLIPSE
5
F5
100
AcDbEntity
8
1
62
256
6
ByLayer
370
18
48
1
60
0
100
AcDbEllipse
10
16.538022
20
10.664614
30
0
11
0.989949493661179
21
-0.989949493661153
31
0
210
0
220
0
230
1
40
0.990268
41
-0.312204999338687
42
0.257464691223756
0
ELLIPSE
5
F6
100
AcDbEntity
8
1
62
256
6
ByLayer
370
18
48
1
60
0
100
AcDbEllipse
10
15.071456
20
10.543425
30
0
11
-0.318198051533951
21
0.318198051533942
31
0
210
0
220
0
230
1
40
0.990268
41
-0.543919613210384
42
-0.325854365137364
0
ELLIPSE
5
F7
100
AcDbEntity
8
1
62
256
6
ByLayer
370
18
48
1
60
0
100
AcDbEllipse
10
18.063218
20
11.728753
30
0
11
0.353553390593278
21
-0.353553390593269
31
0
210
0
220
0
230
1
40
0.990268
41
-1.4863182029366
42
-0.852343788385128
0
ELLIPSE
5
F8
100
AcDbEntity
8
1
62
256
6
ByLayer
370
18
48
1
60
0
100
AcDbEllipse
10
16.739763
20
10.866355
30
0
11
-1.76776695296639
21
1.76776695296635
31
0
210
0
220
0
230
1
40
0.990268
41
0
42
6.28318530717959
0
ELLIPSE
5
F9
100
AcDbEntity
8
1
62
256
6
ByLayer
370
18
48
1
60
0
100
AcDbEllipse
10
15.889101
20
12.076931
30
0
11
-0.318198051533951
21
0.318198051533942
31
0
210
0
220
0
230
1
40
0.990268
41
-1.59111716440703
42
1.24205131400808
0
ELLIPSE
5
FA
100
AcDbEntity
8
1
62
256
6
ByLayer
370
18
48
1
60
0
100
AcDbEllipse
10
16.483897
20
10.610488
30
0
11
0.989949493661179
21
-0.989949493661153
31
0
210
0
220
0
230
1
40
0.990268
41
0.0275599182157768
42
0.790287556961956
0
ELLIPSE
5
FB
100
AcDbEntity
8
1
62
256
6
ByLayer
370
18
48
1
60
0
100
AcDbEllipse
10
16.483897
20
10.610488
30
0
11
0.989949493661179
21
-0.989949493661153
31
0
210
0
220
0
230
1
40
0.990268
41
0.790287556961956
42
3.10789140197053
0
ELLIPSE
5
FC
100
AcDbEntity
8
1
62
256
6
ByLayer
370
18
48
1
60
0
100
AcDbEllipse
10
16.366087
20
12.526617
30
0
11
0.353553390593278
21
-0.353553390593269
31
0
210
0
220
0
230
1
40
0.990268
41
-0.439120651739938
42
-4.64060095727326E-06
0
ELLIPSE
5
FD
100
AcDbEntity
8
1
62
256
6
ByLayer
370
18
48
1
60
0
100
AcDbEllipse
10
16.739763
20
10.866355
30
0
11
1.00762716319084
21
-1.00762716319082
31
0
210
0
220
0
230
1
40
0.990268
41
-1.87552615625214
42
-1.61513234773651
0
ELLIPSE
5
FE
100
AcDbEntity
8
1
62
256
6
ByLayer
370
18
48
1
60
0
100
AcDbEllipse
10
16.538022
20
10.664614
30
0
11
0.989949493661179
21
-0.989949493661153
31
0
210
0
220
0
230
1
40
0.990268
41
0.440667009574012
42
1.30466224242037
0
ELLIPSE
5
FF
100
AcDbEntity
8
1
62
256
6
ByLayer
370
18
48
1
60
0
100
AcDbEllipse
10
15.214568
20
9.802216
30
0
11
0.353553390593278
21
-0.353553390593269
31
0
210
0
220
0
230
1
40
0.990268
41
0.503277937986237
42
1.01723959001294
0
ELLIPSE
5
100
100
AcDbEntity
8
1
62
256
6
ByLayer
370
18
48
1
60
0
100
AcDbEllipse
10
18.063218
20
11.728753
30
0
11
0.353553390593278
21
-0.353553390593269
31
0
210
0
220
0
230
1
40
0.990268
41
-2.63831471560357
42
-2.00434030105207
0
ELLIPSE
5
101
100
AcDbEntity
8
1
62
256
6
ByLayer
370
18
48
1
60
0
100
AcDbEllipse
10
16.567828
20
12.728358
30
0
11
0.353553390593278
21
-0.353553390593269
31
0
210
0
220
0
230
1
40
0.990268
41
-1.59111716440696
42
-1.07715551238025
0
ELLIPSE
5
102
100
AcDbEntity
8
1
62
256
6
ByLayer
370
18
48
1
60
0
100
AcDbEllipse
10
18.206329
20
10.987543
30
0
11
-0.318198051533951
21
0.318198051533942
31
0
210
0
220
0
230
1
40
0.990268
41
2.59767304037943
42
-0.852343788385087
0
ELLIPSE
5
103
100
AcDbEntity
8
1
62
256
6
ByLayer
370
18
48
1
60
0
100
AcDbEllipse
10
17.355668
20
12.19812
30
0
11
-0.318198051533951
21
0.318198051533942
31
0
210
0
220
0
230
1
40
0.990268
41
-2.63831471560353
42
0.194853762811434
0
ELLIPSE
5
104
100
AcDbEntity
8
1
62
256
6
ByLayer
370
18
48
1
60
0
100
AcDbEllipse
10
16.538022
20
10.664614
30
0
11
0.989949493661179
21
-0.989949493661153
31
0
210
0
220
0
230
1
40
0.990268
41
-1.45587324176698
42
-0.836388927444646
0
ELLIPSE
5
105
100
AcDbEntity
8
1
62
256
6
ByLayer
370
18
48
1
60
0
100
AcDbEllipse
10
15.042632
20
11.664219
30
0
11
0.353553390593278
21
-0.353553390593269
31
0
210
0
220
0
230
1
40
0.990268
41
-0.543919613210358
42
-0.0299579611836972
0
ELLIPSE
5
106
100
AcDbEntity
8
1
62
256
6
ByLayer
370
18
48
1
60
0
100
AcDbEllipse
10
16.735502
20
10.862093
30
0
11
0.989949493661179
21
-0.989949493661153
31
0
210
0
220
0
230
1
40
0.990268
41
-0.789732859973269
42
-0.606530541622603
0
ELLIPSE
5
107
100
AcDbEntity
8
1
62
256
6
ByLayer
370
18
48
1
60
0
100
AcDbEllipse
10
16.709958
20
8.80261
30
0
11
0.353553390593278
21
-0.353553390593269
31
0
210
0
220
0
230
1
40
0.990268
41
3.14158800008493
42
-3.10092369348777
0
ELLIPSE
5
108
100
AcDbEntity
8
1
62
256
6
ByLayer
370
18
48
1
60
0
100
AcDbEllipse
10
16.567828
20
12.728358
30
0
11
0.353553390593278
21
-0.353553390593269
31
0
210
0
220
0
230
1
40
0.990268
41
-0.319107889215208
42
0.194853762811488
0
ELLIPSE
5
109
100
AcDbEntity
8
1
62
256
6
ByLayer
370
18
48
1
60
0
100
AcDbEllipse
10
17.153927
20
11.996379
30
0
11
-0.318198051533951
21
0.318198051533942
31
0
210
0
220
0
230
1
40
0.990268
41
-2.63831471560353
42
-0.28032261994643
0
ELLIPSE
5
10A
100
AcDbEntity
8
1
62
256
6
ByLayer
370
18
48
1
60
0
100
AcDbEllipse
10
16.739763
20
10.866355
30
0
11
1.00762716319084
21
-1.00762716319082
31
0
210
0
220
0
230
1
40
0.990268
41
2.31326404853426
42
2.57365785704989
0
ELLIPSE
5
10B
100
AcDbEntity
8
1
62
256
6
ByLayer
370
18
48
1
60
0
100
AcDbEllipse
10
16.739763
20
10.866355
30
0
11
1.00762716319084
21
-1.00762716319082
31
0
210
0
220
0
230
1
40
0.990268
41
1.26606649733766
42
1.5264603058533
0
ELLIPSE
5
10C
100
AcDbEntity
8
1
62
256
6
ByLayer
370
18
48
1
60
0
100
AcDbEllipse
10
15.214568
20
9.802216
30
0
11
0.353553390593278
21
-0.353553390593269
31
0
210
0
220
0
230
1
40
0.990268
41
1.77528721317797
42
2.28924886520471
0
ELLIPSE
5
10D
100
AcDbEntity
8
1
62
256
6
ByLayer
370
18
48
1
60
0
100
AcDbEllipse
10
14.840891
20
11.462478
30
0
11
0.353553390593278
21
-0.353553390593269
31
0
210
0
220
0
230
1
40
0.990268
41
-0.543919613210345
42
-8.30718773995725E-06
0
ELLIPSE
5
10E
100
AcDbEntity
8
1
62
256
6
ByLayer
370
18
48
1
60
0
100
AcDbEllipse
10
16.735502
20
10.862093
30
0
11
0.989949493661179
21
-0.989949493661153
31
0
210
0
220
0
230
1
40
0.990268
41
0.25746469122375
42
0.440667009573997
0
ELLIPSE
5
10F
100
AcDbEntity
8
1
62
256
6
ByLayer
370
18
48
1
60
0
100
AcDbEllipse
10
18.436894
20
10.06849
30
0
11
0.353553390593278
21
-0.353553390593269
31
0
210
0
220
0
230
1
40
0.990268
41
2.59767304037942
42
3.11163469240615
0
ELLIPSE
5
110
100
AcDbEntity
8
1
62
256
6
ByLayer
370
18
48
1
60
0
100
AcDbEllipse
10
16.444532
20
10.571124
30
0
11
3.53553390593278
21
-3.53553390593269
31
0
210
0
220
0
230
1
40
0.990268
41
-3.1415217040775
42
-2.72653444594805E-05
0
ELLIPSE
5
111
100
AcDbEntity
8
1
62
256
6
ByLayer
370
18
48
1
60
0
100
AcDbEllipse
10
17.388684
20
9.454037
30
0
11
-0.318198051533951
21
0.318198051533942
31
0
210
0
220
0
230
1
40
0.990268
41
-2.81576256984678
42
-1.89954133958166
0
ELLIPSE
5
112
100
AcDbEntity
8
1
62
256
6
ByLayer
370
18
48
1
60
0
100
AcDbEllipse
10
16.606482
20
10.733073
30
0
11
-3.53553390593278
21
3.53553390593269
31
0
210
0
220
0
230
1
40
0.990268
41
0
42
6.28318530717959
0
ELLIPSE
5
113
100
AcDbEntity
8
1
62
256
6
ByLayer
370
18
48
1
60
0
100
AcDbEllipse
10
18.264959
20
11.930494
30
0
11
0.353553390593278
21
-0.353553390593269
31
0
210
0
220
0
230
1
40
0.990268
41
-1.36630544041174
42
-0.852343788385042
0
ELLIPSE
5
114
100
AcDbEntity
8
1
62
256
6
ByLayer
370
18
48
1
60
0
100
AcDbEllipse
10
16.911699
20
9.004351
30
0
11
0.353553390593278
21
-0.353553390593269
31
0
210
0
220
0
230
1
40
0.990268
41
2.82248476437454
42
-2.94673889077835
0
ELLIPSE
5
115
100
AcDbEntity
8
1
62
256
6
ByLayer
370
18
48
1
60
0
100
AcDbEllipse
10
16.366087
20
12.526617
30
0
11
0.353553390593278
21
-0.353553390593269
31
0
210
0
220
0
230
1
40
0.990268
41
-1.59111716440696
42
-0.957142749855406
0
ELLIPSE
5
116
100
AcDbEntity
8
1
62
256
6
ByLayer
370
18
48
1
60
0
100
AcDbEllipse
10
16.538022
20
10.664614
30
0
11
0.989949493661179
21
-0.989949493661153
31
0
210
0
220
0
230
1
40
0.990268
41
1.48786456077059
42
2.35185979361694
0
ELLIPSE
5
117
100
AcDbEntity
8
1
62
256
6
ByLayer
370
18
48
1
60
0
100
AcDbEllipse
10
18.235153
20
9.866749
30
0
11
0.353553390593278
21
-0.353553390593269
31
0
210
0
220
0
230
1
40
0.990268
41
3.14158333400505
42
-3.05153785224869
0
ELLIPSE
5
118
100
AcDbEntity
8
1
62
256
6
ByLayer
370
18
48
1
60
0
100
AcDbEllipse
10
16.123859
20
9.534589
30
0
11
-0.318198051533951
21
0.318198051533942
31
0
210
0
220
0
230
1
40
0.990268
41
0.50327793798628
42
-2.94673889077821
0
ELLIPSE
5
119
100
AcDbEntity
8
1
62
256
6
ByLayer
370
18
48
1
60
0
100
AcDbEllipse
10
16.735502
20
10.862093
30
0
11
0.989949493661179
21
-0.989949493661153
31
0
210
0
220
0
230
1
40
0.990268
41
2.35185979361651
42
2.53506211196759
0
ELLIPSE
5
11A
100
AcDbEntity
8
1
62
256
6
ByLayer
370
18
48
1
60
0
100
AcDbEllipse
10
17.590425
20
9.655778
30
0
11
-0.318198051533951
21
0.318198051533942
31
0
210
0
220
0
230
1
40
0.990268
41
1.55047548918285
42
-1.89954133958167
0
ELLIPSE
5
11B
100
AcDbEntity
8
1
62
256
6
ByLayer
370
18
48
1
60
0
100
AcDbEllipse
10
16.735502
20
10.862093
30
0
11
0.989949493661179
21
-0.989949493661153
31
0
210
0
220
0
230
1
40
0.990268
41
-1.83693041117009
42
-1.65372809281918
0
ELLIPSE
5
11C
100
AcDbEntity
8
1
62
256
6
ByLayer
370
18
48
1
60
0
100
AcDbEllipse
10
16.739763
20
10.866355
30
0
11
1.00762716319084
21
-1.00762716319082
31
0
210
0
220
0
230
1
40
0.990268
41
0.218868946141058
42
0.479262754656692
0
ELLIPSE
5
11D
100
AcDbEntity
8
1
62
256
6
ByLayer
370
18
48
1
60
0
100
AcDbEllipse
10
16.735502
20
10.862093
30
0
11
0.989949493661179
21
-0.989949493661153
31
0
210
0
220
0
230
1
40
0.990268
41
-2.88412796236604
42
-2.70092564401581
0
ELLIPSE
5
11E
100
AcDbEntity
8
1
62
256
6
ByLayer
370
18
48
1
60
0
100
AcDbEllipse
10
16.538022
20
10.664614
30
0
11
0.989949493661179
21
-0.989949493661153
31
0
210
0
220
0
230
1
40
0.990268
41
-2.70092564401583
42
-2.09016212308343
0
ELLIPSE
5
11F
100
AcDbEntity
8
1
62
256
6
ByLayer
370
18
48
1
60
0
100
AcDbEllipse
10
16.739763
20
10.866355
30
0
11
1.00762716319084
21
-1.00762716319082
31
0
210
0
220
0
230
1
40
0.990268
41
-0.828328605055554
42
-0.567934796539927
0
ELLIPSE
5
120
100
AcDbEntity
8
1
62
256
6
ByLayer
370
18
48
1
60
0
100
AcDbEllipse
10
18.004588
20
10.785802
30
0
11
-0.318198051533951
21
0.318198051533942
31
0
210
0
220
0
230
1
40
0.990268
41
-2.81572899735431
42
-0.852343788385064
0
ELLIPSE
5
121
100
AcDbEntity
8
1
62
256
6
ByLayer
370
18
48
1
60
0
100
AcDbEllipse
10
16.739763
20
10.866355
30
0
11
1.00762716319084
21
-1.00762716319082
31
0
210
0
220
0
230
1
40
0.990268
41
-2.92272370744873
42
-2.66232989893311
0
ELLIPSE
5
122
100
AcDbEntity
8
1
62
256
6
ByLayer
370
18
48
1
60
0
100
AcDbEllipse
10
18.436894
20
10.06849
30
0
11
0.353553390593278
21
-0.353553390593269
31
0
210
0
220
0
230
1
40
0.990268
41
-2.41350299160836
42
-1.89954133958166
0
ELLIPSE
5
123
100
AcDbEntity
8
1
62
256
6
ByLayer
370
18
48
1
60
0
100
AcDbEllipse
10
16.911699
20
9.004351
30
0
11
0.353553390593278
21
-0.353553390593269
31
0
210
0
220
0
230
1
40
0.990268
41
1.55047548918284
42
2.0644371412095
0
ELLIPSE
5
124
100
AcDbEntity
8
1
62
256
6
ByLayer
370
18
48
1
60
0
100
AcDbEllipse
10
16.538022
20
10.664614
30
0
11
0.989949493661179
21
-0.989949493661153
31
0
210
0
220
0
230
1
40
0.990268
41
2.53506211196718
42
3.141586871084
0
ELLIPSE
5
125
100
AcDbEntity
8
1
62
256
6
ByLayer
370
18
48
1
60
0
100
AcDbEllipse
10
18.264959
20
11.930494
30
0
11
0.353553390593278
21
-0.353553390593269
31
0
210
0
220
0
230
1
40
0.990268
41
-2.63831471560354
42
-2.12435306357679
0
ELLIPSE
5
126
100
AcDbEntity
8
1
62
256
6
ByLayer
370
18
48
1
60
0
100
AcDbEllipse
10
15.273197
20
10.745166
30
0
11
-0.318198051533951
21
0.318198051533942
31
0
210
0
220
0
230
1
40
0.990268
41
-0.543919613210297
42
2.28924886520468
0
ELLIPSE
5
127
100
AcDbEntity
8
1
62
256
6
ByLayer
370
18
48
1
60
0
100
AcDbEllipse
10
15.68736
20
11.87519
30
0
11
-0.318198051533951
21
0.318198051533942
31
0
210
0
220
0
230
1
40
0.990268
41
-1.59111716440688
42
-0.325841511063226
0
ELLIPSE
5
128
100
AcDbEntity
8
1
62
256
6
ByLayer
370
18
48
1
60
0
100
AcDbEllipse
10
34.43068
20
10.671944
30
0
11
-2.52790674274194
21
2.52790674274187
31
0
210
0
220
0
230
1
40
0.990268
41
2.37086353827012
42
2.94214243295581
0
ELLIPSE
5
129
100
AcDbEntity
8
1
62
256
6
ByLayer
370
18
48
1
60
0
100
AcDbEllipse
10
34.43068
20
10.671944
30
0
11
-2.52790674274194
21
2.52790674274187
31
0
210
0
220
0
230
1
40
0.990268
41
2.94214271531561
42
-3.14155142972912
0
ELLIPSE
5
12A
100
AcDbEntity
8
1
62
256
6
ByLayer
370
18
48
1
60
0
100
AcDbEllipse
10
34.355658
20
10.596923
30
0
11
-2.52790674274194
21
2.52790674274187
31
0
210
0
220
0
230
1
40
0.990268
41
2.37086353827012
42
2.9511747125389
0
ELLIPSE
5
12B
100
AcDbEntity
8
1
62
256
6
ByLayer
370
18
48
1
60
0
100
AcDbEllipse
10
34.355658
20
10.596923
30
0
11
-2.52790674274194
21
2.52790674274187
31
0
210
0
220
0
230
1
40
0.990268
41
2.9511747125389
42
-3.14155142972913
0
ELLIPSE
5
12C
100
AcDbEntity
8
1
62
256
6
ByLayer
370
18
48
1
60
0
100
AcDbEllipse
10
34.35345
20
0.241927
30
0
11
-1.68379802270056
21
1.68379802270052
31
0
210
0
220
0
230
1
40
0.990268
41
2.35469747586369
42
2.65972628355678
0
POINT
5
6C
100
AcDbEntity
8
2
62
256
6
ByLayer
370
18
48
1
60
0
100
AcDbPoint
10
35.94487
20
24.425
30
0
39
0
210
0
220
0
230
1
50
360
0
POINT
5
6E
100
AcDbEntity
8
80
62
256
6
ByLayer
370
18
48
1
60
0
100
AcDbPoint
10
0
20
0
30
0
39
0
210
0
220
0
230
1
50
360
0
POINT
5
70
100
AcDbEntity
8
81
62
256
6
ByLayer
370
18
48
1
60
0
100
AcDbPoint
10
35.94487
20
24.425
30
0
39
0
210
0
220
0
230
1
50
360
0
SPLINE
5
12D
100
AcDbEntity
8
1
62
256
6
ByLayer
370
18
48
1
60
0
100
AcDbSpline
70
4
71
3
72
8
73
4
40
0
40
0
40
0
40
0
40
1
40
1
40
1
40
1
41
1
10
10.4562179287032
20
13.31852459753
30
3E-16
41
1
10
10.2348780783391
20
13.2495748077576
30
1E-16
41
1
10
10.0118221279205
20
13.2026539956934
30
-2E-16
41
1
10
9.79356535900706
20
13.1739928128269
30
-4E-16
0
SPLINE
5
12E
100
AcDbEntity
8
1
62
256
6
ByLayer
370
18
48
1
60
0
100
AcDbSpline
70
4
71
3
72
8
73
4
40
0
40
0
40
0
40
0
40
1
40
1
40
1
40
1
41
1
10
11.8122382547494
20
14.1625681493484
30
1.9E-15
41
1
10
12.5761854275527
20
15.0471781118812
30
2.8E-15
41
1
10
13.7005609874906
20
15.6023537907799
30
-3E-15
41
1
10
14.9681501681036
20
15.7071000787542
30
-1.5E-15
0
SPLINE
5
12F
100
AcDbEntity
8
1
62
256
6
ByLayer
370
18
48
1
60
0
100
AcDbSpline
70
4
71
2
72
7
73
4
40
0
40
0
40
0
40
0.509805491973019
40
1
40
1
40
1
41
1.01277102944297
10
32.3708827110274
20
4.53479493287152
30
-2.4E-15
41
1.0121771803069
10
33.1707076058163
20
5.00024513279985
30
-1.5E-15
41
1.00969049691473
10
34.7240299151291
20
6.02561307394844
30
3E-16
41
1.00836087185184
10
35.4534798581391
20
6.56617285461988
30
1.2E-15
0
SPLINE
5
130
100
AcDbEntity
8
1
62
256
6
ByLayer
370
18
48
1
60
0
100
AcDbSpline
70
4
71
3
72
12
73
8
40
0
40
0
40
0
40
0
40
0.470394739545279
40
0.470394739545279
40
0.888179192190578
40
0.888179192190578
40
1
40
1
40
1
40
1
41
1
10
11.0168948085729
20
7.24657921161437
30
1E-15
41
1
10
11.1932117864829
20
7.23509122401879
30
1.2E-15
41
1
10
11.3760915903078
20
7.20711714039291
30
1.4E-15
41
1
10
11.7124319755961
20
7.11619299319821
30
1.8E-15
41
1
10
11.8702885417412
20
7.0561865655479
30
2E-15
41
1
10
12.0534077072217
20
6.9615643031128
30
2.2E-15
41
1
10
12.0916594830173
20
6.94026951901216
30
2.3E-15
41
1
10
12.1288135460355
20
6.9180318252341
30
2.3E-15
0
SPLINE
5
131
100
AcDbEntity
8
1
62
256
6
ByLayer
370
18
48
1
60
0
100
AcDbSpline
70
4
71
3
72
14
73
10
40
0
40
0
40
0
40
0
40
0.272255003219813
40
0.272255003219813
40
0.545341763696495
40
0.545341763696495
40
0.80734128994427
40
0.80734128994427
40
1
40
1
40
1
40
1
41
1
10
36.7550263858944
20
8.10261964973805
30
2.7E-15
41
1
10
37.0156702319921
20
8.19041480429146
30
3E-15
41
1
10
37.284416369332
20
8.32715446642115
30
3.3E-15
41
1
10
37.7942669425397
20
8.68699926790111
30
-3.2E-15
41
1
10
38.0419217445721
20
8.91534127543224
30
-2.9E-15
41
1
10
38.471054432583
20
9.41582695544702
30
-2.4E-15
41
1
10
38.6601890250639
20
9.69145128612931
30
-2.1E-15
41
1
10
38.93606832587
20
10.1850130478604
30
-1.8E-15
41
1
10
39.0385734930247
20
10.4017074724502
30
-1.7E-15
41
1
10
39.1258907605663
20
10.6192460244689
30
-1.6E-15
0
SPLINE
5
132
100
AcDbEntity
8
1
62
256
6
ByLayer
370
18
48
1
60
0
100
AcDbSpline
70
4
71
3
72
8
73
4
40
0
40
0
40
0
40
0
40
1
40
1
40
1
40
1
41
1
10
8.58341892426932
20
16.5738609151478
30
-1.9E-15
41
1
10
9.35629533566458
20
16.0321879019602
30
-9E-16
41
1
10
10.3995862876715
20
15.02308243626
30
3E-16
41
1
10
11.4886945825052
20
13.8503087330092
30
1.5E-15
0
SPLINE
5
133
100
AcDbEntity
8
1
62
256
6
ByLayer
370
18
48
1
60
0
100
AcDbSpline
70
4
71
3
72
8
73
4
40
0
40
0
40
0
40
0
40
1
40
1
40
1
40
1
41
1
10
18.6129730495293
20
5.72933693855003
30
2.8E-15
41
1
10
18.4907159799194
20
5.70979687399472
30
2.6E-15
41
1
10
18.3679695303
20
5.69485078408175
30
2.5E-15
41
1
10
18.2447196601988
20
5.68466612284931
30
2.4E-15
0
SPLINE
5
134
100
AcDbEntity
8
1
62
256
6
ByLayer
370
18
48
1
60
0
100
AcDbSpline
70
4
71
3
72
8
73
4
40
0
40
0
40
0
40
0
40
1
40
1
40
1
40
1
41
1
10
15.9114148472215
20
5.49185521722617
30
-4E-16
41
1
10
14.6447524012922
20
5.38718550928229
30
-1.9E-15
41
1
10
13.4205153700607
20
5.83561335190623
30
-3.3E-15
41
1
10
12.5066662393761
20
6.64214248441977
30
2.7E-15
0
SPLINE
5
135
100
AcDbEntity
8
1
62
256
6
ByLayer
370
18
48
1
60
0
100
AcDbSpline
70
4
71
3
72
10
73
6
40
0
40
0
40
0
40
0
40
0.5
40
0.5
40
1
40
1
40
1
40
1
41
1
10
31.7961389834448
20
10.0746654243602
30
-3.1E-15
41
1
10
32.5634305636491
20
9.71185880350376
30
-2.2E-15
41
1
10
33.220187433461
20
9.17933558750997
30
-1.4E-15
41
1
10
34.4231080178646
20
7.9733332424174
30
0
41
1
10
35.0092583148821
20
7.34698093253715
30
7E-16
41
1
10
35.45428387182
20
6.56676868869039
30
1.2E-15
0
SPLINE
5
136
100
AcDbEntity
8
1
62
256
6
ByLayer
370
18
48
1
60
0
100
AcDbSpline
70
4
71
3
72
8
73
4
40
0
40
0
40
0
40
0
40
1
40
1
40
1
40
1
41
1
10
10.4562179287032
20
13.31852459753
30
3E-16
41
1
10
9.16929733008016
20
13.9289561228638
30
-1.2E-15
41
1
10
7.9686550494352
20
14.4320768144245
30
-2.6E-15
41
1
10
7.06817146670602
20
14.6881576247811
30
3.5E-15
0
SPLINE
5
137
100
AcDbEntity
8
1
62
256
6
ByLayer
370
18
48
1
60
0
100
AcDbSpline
70
4
71
1
72
4
73
2
40
0
40
0
40
1
40
1
41
1
10
17.3389659306755
20
17.297369021822
30
1.3E-15
41
1
10
16.5666416709353
20
19.5150397140768
30
4E-16
0
SPLINE
5
138
100
AcDbEntity
8
1
62
256
6
ByLayer
370
18
48
1
60
0
100
AcDbSpline
70
4
71
3
72
10
73
6
40
0
40
0
40
0
40
0
40
0.493064313563138
40
0.493064313563138
40
1
40
1
40
1
40
1
41
1
10
30.5003761174752
20
17.8107007714078
30
2.5E-15
41
1
10
30.1847623471169
20
17.77444076421
30
2.1E-15
41
1
10
29.8248396967873
20
17.7862442556882
30
1.7E-15
41
1
10
29.0776024642012
20
17.890242994963
30
8E-16
41
1
10
28.6796044543355
20
17.9846929275196
30
4E-16
41
1
10
28.2916019063164
20
18.1030287999442
30
-1E-16
0
SPLINE
5
139
100
AcDbEntity
8
1
62
256
6
ByLayer
370
18
48
1
60
0
100
AcDbSpline
70
4
71
3
72
26
73
22
40
0
40
0
40
0
40
0
40
0.305559650062837
40
0.305559650062837
40
0.592938506760057
40
0.592938506760057
40
0.736855759596372
40
0.736855759596372
40
0.79436449202095
40
0.79436449202095
40
0.820930548617519
40
0.820930548617519
40
0.847991021748969
40
0.847991021748969
40
0.871122963339845
40
0.871122963339845
40
0.898335682818841
40
0.898335682818841
40
0.945305435562308
40
0.945305435562308
40
1
40
1
40
1
40
1
41
1
10
33.3523234856335
20
11.3875131902495
30
-1.3E-15
41
1
10
33.1294903921785
20
11.31467371352
30
-1.5E-15
41
1
10
32.9049126271581
20
11.229479111231
30
-1.8E-15
41
1
10
32.4704765163801
20
11.029461973675
30
-2.3E-15
41
1
10
32.2582352055211
20
10.917260266252
30
-2.5E-15
41
1
10
31.9506105767186
20
10.7029671700388
30
-2.9E-15
41
1
10
31.8476287028917
20
10.623119696976
30
-3E-15
41
1
10
31.7183476126236
20
10.4877734622678
30
-3.2E-15
41
1
10
31.6824468313017
20
10.4454501330565
30
-3.2E-15
41
1
10
31.6392007686041
20
10.377816093344
30
-3.3E-15
41
1
10
31.6267545660334
20
10.3551963857018
30
-3.3E-15
41
1
10
31.6074361172696
20
10.3089944248252
30
-3.3E-15
41
1
10
31.6005527272468
20
10.2847069924814
30
-3.3E-15
41
1
10
31.5963535214959
20
10.2428493159954
30
-3.3E-15
41
1
10
31.5977766962282
20
10.2243293420011
30
-3.3E-15
41
1
10
31.607079668236
20
10.1892590747606
30
-3.3E-15
41
1
10
31.6160342010738
20
10.1729903838897
30
-3.3E-15
41
1
10
31.645753958592
20
10.1361411332211
30
-3.3E-15
41
1
10
31.6705766521856
20
10.1196818996816
30
-3.2E-15
41
1
10
31.7278008483486
20
10.0921134433049
30
-3.2E-15
41
1
10
31.7615051492163
20
10.0821249930743
30
-3.1E-15
41
1
10
31.7961389834448
20
10.0746654243602
30
-3.1E-15
0
SPLINE
5
13A
100
AcDbEntity
8
1
62
256
6
ByLayer
370
18
48
1
60
0
100
AcDbSpline
70
4
71
3
72
8
73
4
40
0
40
0
40
0
40
0
40
1
40
1
40
1
40
1
41
1
10
30.5003761174751
20
17.8107007714078
30
2.5E-15
41
1
10
30.7128031695356
20
17.8351059373421
30
2.8E-15
41
1
10
30.9252576103413
20
17.8593313414395
30
3E-15
41
1
10
31.1377848175288
20
17.883066517837
30
3.3E-15
0
SPLINE
5
13B
100
AcDbEntity
8
1
62
256
6
ByLayer
370
18
48
1
60
0
100
AcDbSpline
70
4
71
2
72
9
73
6
40
0
40
0
40
0
40
0.215578737060679
40
0.501173956569646
40
0.786769176078614
40
1
40
1
40
1
41
1.01987110935361
10
23.0704088131188
20
10.141764789066
30
9E-16
41
1.01898440041077
10
24.1859591184306
20
10.2921668178975
30
2.2E-15
41
1.01588036664668
10
27.9626982726332
20
10.8029395565382
30
-5E-16
41
1.01357557431911
10
30.3794776195692
20
11.0929787256517
30
2.4E-15
41
1.01293324595055
10
32.4501862729554
20
11.339467545227
30
-2.3E-15
41
1.0117874761266
10
33.3523234878193
20
11.3875131903659
30
-1.3E-15
0
SPLINE
5
13C
100
AcDbEntity
8
1
62
256
6
ByLayer
370
18
48
1
60
0
100
AcDbSpline
70
4
71
2
72
6
73
3
40
0
40
0
40
0
40
1
40
1
40
1
41
1.02275914691308
10
17.3389659306755
20
17.297369021822
30
1.3E-15
41
0.965735189096477
10
17.5034604413114
20
16.8250354771049
30
1.5E-15
41
0.952673021878259
10
17.6721427885429
20
15.9182178559431
30
1.7E-15
0
SPLINE
5
13D
100
AcDbEntity
8
1
62
256
6
ByLayer
370
18
48
1
60
0
100
AcDbSpline
70
4
71
2
72
6
73
3
40
0
40
0
40
0
40
1
40
1
40
1
41
0.952673021881286
10
18.6129730495324
20
5.7293369383047
30
2.8E-15
41
0.965735189103083
10
18.6261216410703
20
4.66698556162381
30
2.8E-15
41
1.02275914691308
10
18.5692933754891
20
3.97332924076784
30
2.7E-15
0
SPLINE
5
13E
100
AcDbEntity
8
1
62
256
6
ByLayer
370
18
48
1
60
0
100
AcDbSpline
70
4
71
3
72
8
73
4
40
0
40
0
40
0
40
0
40
1
40
1
40
1
40
1
41
1
10
33.2720011413399
20
12.2573776439509
30
-1.4E-15
41
1
10
33.951399507763
20
12.0834975300497
30
-6E-16
41
1
10
34.6193670212861
20
11.9502328767266
30
2E-16
41
1
10
35.2594105597479
20
11.86557524743
30
1E-15
0
SPLINE
5
13F
100
AcDbEntity
8
1
62
256
6
ByLayer
370
18
48
1
60
0
100
AcDbSpline
70
4
71
3
72
8
73
4
40
0
40
0
40
0
40
0
40
1
40
1
40
1
40
1
41
1
10
7.97386358530451
20
4.8798111813509
30
-2.6E-15
41
1
10
8.79319973002862
20
5.4975996696725
30
-1.6E-15
41
1
10
9.87010558553214
20
6.34454304059329
30
-3E-16
41
1
10
11.0168948085729
20
7.24657921161437
30
1E-15
0
SPLINE
5
140
100
AcDbEntity
8
1
62
256
6
ByLayer
370
18
48
1
60
0
100
AcDbSpline
70
4
71
3
72
10
73
6
40
0
40
0
40
0
40
0
40
0.5
40
0.5
40
1
40
1
40
1
40
1
41
1
10
29.5910683577063
20
4.03023641816802
30
1.4E-15
41
1
10
27.8269397132244
20
3.14834908555898
30
-6E-16
41
1
10
25.9631044276254
20
2.48539704374457
30
-2.8E-15
41
1
10
22.2024826312219
20
1.29288507678493
30
-1E-16
41
1
10
20.2681174404431
20
0.935575292558184
30
-2.4E-15
41
1
10
18.3024768842703
20
0.716517797553962
30
2.4E-15
0
SPLINE
5
141
100
AcDbEntity
8
1
62
256
6
ByLayer
370
18
48
1
60
0
100
AcDbSpline
70
4
71
3
72
12
73
8
40
0
40
0
40
0
40
0
40
0.29583184126231
40
0.29583184126231
40
0.591663914161889
40
0.591663914161889
40
1
40
1
40
1
40
1
41
1
10
22.8550687035598
20
12.4738270366265
30
7E-16
41
1
10
22.9270079641327
20
12.2513764896964
30
7E-16
41
1
10
22.9844837211386
20
12.0238027022536
30
8E-16
41
1
10
23.0690607664577
20
11.5647256158522
30
9E-16
41
1
10
23.0963554372663
20
11.3321697365995
30
9E-16
41
1
10
23.1247310669752
20
10.7797266839329
30
1E-15
41
1
10
23.1120419087607
20
10.4576094619584
30
1E-15
41
1
10
23.0704088131188
20
10.141764789066
30
9E-16
0
SPLINE
5
142
100
AcDbEntity
8
1
62
256
6
ByLayer
370
18
48
1
60
0
100
AcDbSpline
70
4
71
3
72
10
73
6
40
0
40
0
40
0
40
0
40
0.5
40
0.5
40
1
40
1
40
1
40
1
41
1
10
23.0704088131188
20
10.141764789066
30
9E-16
41
1
10
22.9241532613318
20
9.03244786018962
30
7E-16
41
1
10
22.3467996168102
20
8.0048456619906
30
1E-16
41
1
10
20.7519411774645
20
6.44960942811437
30
-1.8E-15
41
1
10
19.7192684194577
20
5.8997143497204
30
-3E-15
41
1
10
18.6129730495293
20
5.72933693855003
30
2.8E-15
0
SPLINE
5
143
100
AcDbEntity
8
1
62
256
6
ByLayer
370
18
48
1
60
0
100
AcDbSpline
70
4
71
3
72
8
73
4
40
0
40
0
40
0
40
0
40
1
40
1
40
1
40
1
41
1
10
32.3703769763957
20
4.53450063177223
30
-2.4E-15
41
1
10
32.1545279000453
20
4.54674020100114
30
-2.7E-15
41
1
10
31.9386609199373
20
4.55947147018665
30
-2.9E-15
41
1
10
31.7227880772062
20
4.57238307887002
30
-3.2E-15
0
SPLINE
5
144
100
AcDbEntity
8
1
62
256
6
ByLayer
370
18
48
1
60
0
100
AcDbSpline
70
4
71
3
72
10
73
6
40
0
40
0
40
0
40
0
40
0.5
40
0.5
40
1
40
1
40
1
40
1
41
1
10
34.547458244694
20
16.387390637039
30
1E-16
41
1
10
34.2363004928515
20
15.7181353354222
30
-2E-16
41
1
10
33.7574957045287
20
15.1784634942682
30
-8E-16
41
1
10
32.7612010556099
20
14.1391181160051
30
-2E-15
41
1
10
32.1975235948484
20
13.6804163303884
30
-2.6E-15
41
1
10
31.4923827430188
20
13.3642451640999
30
-3.4E-15
0
SPLINE
5
145
100
AcDbEntity
8
1
62
256
6
ByLayer
370
18
48
1
60
0
100
AcDbSpline
70
4
71
3
72
12
73
8
40
0
40
0
40
0
40
0
40
0.477525441753642
40
0.477525441753642
40
0.843795690072562
40
0.843795690072562
40
1
40
1
40
1
40
1
41
1
10
7.72001386809399
20
3.73126847198901
30
-2.9E-15
41
1
10
7.7321769214052
20
3.86455623349212
30
-2.9E-15
41
1
10
7.74122984682123
20
4.00742553064032
30
-2.8E-15
41
1
10
7.74706279576372
20
4.27458745301738
30
-2.8E-15
41
1
10
7.74619260056198
20
4.39767874669928
30
-2.8E-15
41
1
10
7.73716141222059
20
4.57530610593642
30
-2.8E-15
41
1
10
7.73340514045657
20
4.62935062649572
30
-2.9E-15
41
1
10
7.72848445356999
20
4.68264003989748
30
-2.9E-15
0
SPLINE
5
146
100
AcDbEntity
8
1
62
256
6
ByLayer
370
18
48
1
60
0
100
AcDbSpline
70
4
71
3
72
20
73
16
40
0
40
0
40
0
40
0
40
0.180139434362059
40
0.180139434362059
40
0.338734027847005
40
0.338734027847005
40
0.497328642471113
40
0.497328642471113
40
0.655923259311459
40
0.655923259311459
40
0.814517859427939
40
0.814517859427939
40
0.975792228009333
40
0.975792228009333
40
1
40
1
40
1
40
1
41
1
10
39.2611869694361
20
12.033085188926
30
-1.4E-15
41
1
10
39.2637783144442
20
12.0136336251732
30
-1.4E-15
41
1
10
39.2662281265661
20
11.9941689794596
30
-1.4E-15
41
1
10
39.2705665793437
20
11.9575554981925
30
-1.4E-15
41
1
10
39.2724875215041
20
11.9404060206248
30
-1.4E-15
41
1
10
39.2761071626301
20
11.9061054086172
30
-1.4E-15
41
1
10
39.2778060462033
20
11.8889525241347
30
-1.4E-15
41
1
10
39.2809808311857
20
11.8546521147912
30
-1.4E-15
41
1
10
39.2824568946883
20
11.8375028386313
30
-1.4E-15
41
1
10
39.2851855215729
20
11.8032166510297
30
-1.4E-15
41
1
10
39.2864382242402
20
11.7860779901947
30
-1.4E-15
41
1
10
39.28873910819
20
11.7515306026464
30
-1.4E-15
41
1
10
39.2897835970903
20
11.7341203864855
30
-1.4E-15
41
1
10
39.2908517479025
20
11.7141124396562
30
-1.4E-15
41
1
10
39.290988553249
20
11.7115013462363
30
-1.4E-15
41
1
10
39.2911227518441
20
11.7088905549222
30
-1.4E-15
0
SPLINE
5
147
100
AcDbEntity
8
1
62
256
6
ByLayer
370
18
48
1
60
0
100
AcDbSpline
70
4
71
3
72
8
73
4
40
0
40
0
40
0
40
0
40
1
40
1
40
1
40
1
41
1
10
39.2911227518441
20
11.7088905549223
30
-1.4E-15
41
1
10
39.0452635462227
20
11.7774268472104
30
-1.7E-15
41
1
10
38.7942839904563
20
11.8346898177716
30
-2E-15
41
1
10
38.5380707785969
20
11.8804300042894
30
-2.3E-15
0
SPLINE
5
148
100
AcDbEntity
8
1
62
256
6
ByLayer
370
18
48
1
60
0
100
AcDbSpline
70
4
71
3
72
10
73
6
40
0
40
0
40
0
40
0
40
0.13755983675288
40
0.13755983675288
40
1
40
1
40
1
40
1
41
1
10
12.1288135460355
20
6.91803182523412
30
2.3E-15
41
1
10
12.147520908051
20
6.90683497207451
30
2.3E-15
41
1
10
12.1660708945211
20
6.89541217376839
30
2.3E-15
41
1
10
12.2986915512923
20
6.81141886535707
30
2.5E-15
41
1
10
12.4068471582764
20
6.73023907956261
30
2.6E-15
41
1
10
12.5066662393761
20
6.64214248441974
30
2.7E-15
0
SPLINE
5
149
100
AcDbEntity
8
1
62
256
6
ByLayer
370
18
48
1
60
0
100
AcDbSpline
70
4
71
3
72
12
73
8
40
0
40
0
40
0
40
0
40
0.5
40
0.5
40
0.75
40
0.75
40
1
40
1
40
1
40
1
41
1
10
6.62106472737418
20
15.6325246213421
30
3E-15
41
1
10
6.3874113274104
20
16.3757890079237
30
2.7E-15
41
1
10
6.38995917795677
20
16.9679521803082
30
2.7E-15
41
1
10
6.66447481960398
20
17.7402635642615
30
3E-15
41
1
10
6.80879982033713
20
17.9869932411001
30
3.2E-15
41
1
10
7.31847420639593
20
18.4549290002671
30
-3.3E-15
41
1
10
7.70101487871619
20
18.6754536193166
30
-2.9E-15
41
1
10
8.18087797011214
20
18.7945123477563
30
-2.3E-15
0
SPLINE
5
14A
100
AcDbEntity
8
1
62
256
6
ByLayer
370
18
48
1
60
0
100
AcDbSpline
70
4
71
3
72
8
73
4
40
0
40
0
40
0
40
0
40
1
40
1
40
1
40
1
41
1
10
38.5380707785969
20
11.8804300042894
30
-2.3E-15
41
1
10
38.7862563444051
20
11.9215996364993
30
-2E-15
41
1
10
39.0272722434217
20
11.9725626273222
30
-1.7E-15
41
1
10
39.261186969436
20
12.033085188926
30
-1.4E-15
0
SPLINE
5
14B
100
AcDbEntity
8
1
62
256
6
ByLayer
370
18
48
1
60
0
100
AcDbSpline
70
4
71
3
72
8
73
4
40
0
40
0
40
0
40
0
40
1
40
1
40
1
40
1
41
1
10
9.74170048044874
20
-0.334903922065337
30
-5E-16
41
1
10
9.26166306839178
20
-0.420247779454968
30
-1.1E-15
41
1
10
8.71721298442969
20
-0.448732956984628
30
-1.7E-15
41
1
10
8.13705749480511
20
-0.334002170148068
30
-2.4E-15
0
SPLINE
5
14C
100
AcDbEntity
8
1
62
256
6
ByLayer
370
18
48
1
60
0
100
AcDbSpline
70
4
71
3
72
10
73
6
40
0
40
0
40
0
40
0
40
0.5
40
0.5
40
1
40
1
40
1
40
1
41
1
10
16.5666416709353
20
19.5150397140768
30
4E-16
41
1
10
18.5421201921548
20
19.6216691576326
30
2.7E-15
41
1
10
20.5127027482262
20
19.5871660394268
30
-2.1E-15
41
1
10
24.4369053094164
20
19.029192214897
30
2.5E-15
41
1
10
26.3924117083949
20
18.6822578027401
30
-2.3E-15
41
1
10
28.2916019063164
20
18.1030287999443
30
-1E-16
0
SPLINE
5
14D
100
AcDbEntity
8
1
62
256
6
ByLayer
370
18
48
1
60
0
100
AcDbSpline
70
4
71
3
72
8
73
4
40
0
40
0
40
0
40
0
40
1
40
1
40
1
40
1
41
1
10
12.1288135460355
20
6.9180318252341
30
2.3E-15
41
1
10
11.2798321555252
20
5.49812970138365
30
1.3E-15
41
1
10
10.4517451379713
20
4.16013932766703
30
3E-16
41
1
10
9.81374636908299
20
3.24982113409351
30
-4E-16
0
SPLINE
5
14E
100
AcDbEntity
8
1
62
256
6
ByLayer
370
18
48
1
60
0
100
AcDbSpline
70
4
71
3
72
10
73
6
40
0
40
0
40
0
40
0
40
0.5
40
0.5
40
1
40
1
40
1
40
1
41
1
10
17.6721427885422
20
15.9182178559466
30
1.7E-15
41
1
10
18.7932040929244
20
15.9276976638892
30
3E-15
41
1
10
19.9072599927087
20
15.5957841798465
30
-2.8E-15
41
1
10
21.7563800837361
20
14.4165290963255
30
-6E-16
41
1
10
22.507190669016
20
13.5494171636276
30
2E-16
41
1
10
22.8550687035598
20
12.4738270366265
30
7E-16
0
SPLINE
5
14F
100
AcDbEntity
8
1
62
256
6
ByLayer
370
18
48
1
60
0
100
AcDbSpline
70
4
71
3
72
10
73
6
40
0
40
0
40
0
40
0
40
0.495114567541137
40
0.495114567541137
40
1
40
1
40
1
40
1
41
1
10
29.5910683577063
20
4.03023641816799
30
1.4E-15
41
1
10
29.943346498377
20
4.20634014551482
30
1.9E-15
41
1
10
30.309814147562
20
4.35313686993621
30
2.3E-15
41
1
10
31.0305401560819
20
4.54646061608204
30
3.1E-15
41
1
10
31.3945949652337
20
4.5920126949938
30
3.6E-15
41
1
10
31.7227880772062
20
4.57238307886999
30
-3.2E-15
0
SPLINE
5
150
100
AcDbEntity
8
1
62
256
6
ByLayer
370
18
48
1
60
0
100
AcDbSpline
70
4
71
3
72
8
73
4
40
0
40
0
40
0
40
0
40
1
40
1
40
1
40
1
41
1
10
17.6721427859312
20
15.9182178559031
30
1.7E-15
41
1
10
17.548272064856
20
15.9161531130668
30
1.5E-15
41
1
10
17.4247048503162
20
15.9100956455382
30
1.4E-15
41
1
10
17.301454981081
20
15.8999109843774
30
1.3E-15
0
SPLINE
5
151
100
AcDbEntity
8
1
62
256
6
ByLayer
370
18
48
1
60
0
100
AcDbSpline
70
4
71
3
72
12
73
8
40
0
40
0
40
0
40
0
40
0.250000000000002
40
0.250000000000002
40
0.500000000000003
40
0.500000000000003
40
1
40
1
40
1
40
1
41
1
10
9.91060318983631
20
0.062159643563632
30
-3E-16
41
1
10
9.41381953350174
20
0.133539451468806
30
-9E-16
41
1
10
8.99211880772117
20
0.338673546795178
30
-1.4E-15
41
1
10
8.39201327782081
20
0.84821698569263
30
-2.1E-15
41
1
10
8.19834686183913
20
1.14332746163194
30
-2.3E-15
41
1
10
7.76370316853632
20
2.09106999838252
30
-2.8E-15
41
1
10
7.63816236424117
20
2.83430588824609
30
-3E-15
41
1
10
7.72001386809399
20
3.73126847198901
30
-2.9E-15
0
SPLINE
5
152
100
AcDbEntity
8
1
62
256
6
ByLayer
370
18
48
1
60
0
100
AcDbSpline
70
4
71
3
72
12
73
8
40
0
40
0
40
0
40
0
40
0.357928014296221
40
0.357928014296221
40
0.886263242629131
40
0.886263242629131
40
1
40
1
40
1
40
1
41
1
10
6.79684750119202
20
14.7719604621238
30
3.2E-15
41
1
10
6.78567943542822
20
14.8929069249067
30
3.1E-15
41
1
10
6.76828953932585
20
15.0117809148055
30
3.1E-15
41
1
10
6.7189153338382
20
15.2798763135439
30
3.1E-15
41
1
10
6.68309213502056
20
15.4236132829402
30
3E-15
41
1
10
6.63760695336248
20
15.5790006942463
30
3E-15
41
1
10
6.62937881857755
20
15.6060770374472
30
3E-15
41
1
10
6.62106472737429
20
15.6325246213432
30
3E-15
0
SPLINE
5
153
100
AcDbEntity
8
1
62
256
6
ByLayer
370
18
48
1
60
0
100
AcDbSpline
70
4
71
3
72
14
73
10
40
0
40
0
40
0
40
0
40
0.185244445916091
40
0.185244445916091
40
0.469711312964409
40
0.469711312964409
40
0.755916846591522
40
0.755916846591522
40
1
40
1
40
1
40
1
41
1
10
38.9096348709279
20
12.9612258677771
30
-1.9E-15
41
1
10
38.7900838187816
20
13.1387572132164
30
-2E-15
41
1
10
38.6567061209039
20
13.3154643298519
30
-2.2E-15
41
1
10
38.2878772896857
20
13.7484777335324
30
-2.6E-15
41
1
10
38.0303281481997
20
14.0022718747303
30
-2.9E-15
41
1
10
37.4780983277012
20
14.4474324088387
30
-3.5E-15
41
1
10
37.1752658547304
20
14.6442183887762
30
3.2E-15
41
1
10
36.6185080524897
20
14.9239478027025
30
2.6E-15
41
1
10
36.3578106306449
20
15.022734778624
30
2.3E-15
41
1
10
36.1099905870366
20
15.0881442598059
30
2E-15
0
SPLINE
5
154
100
AcDbEntity
8
1
62
256
6
ByLayer
370
18
48
1
60
0
100
AcDbSpline
70
4
71
2
72
9
73
6
40
0
40
0
40
0
40
0.215578737053014
40
0.501173956564867
40
0.78676917607672
40
1
40
1
40
1
41
1.01987110935352
10
22.8550687035599
20
12.4738270366265
30
7E-16
41
1.01898440041071
10
23.9844977855096
20
12.4739264990315
30
2E-15
41
1.01588036664668
10
27.8139830799049
20
12.4134759638304
30
-6E-16
41
1.01357557431911
10
30.2635513866962
20
12.3484215302872
30
2.2E-15
41
1.01293324595055
10
32.365570591463
20
12.2558274224675
30
-2.4E-15
41
1.01178747612661
10
33.2720011435362
20
12.2573776439547
30
-1.4E-15
0
SPLINE
5
155
100
AcDbEntity
8
1
62
256
6
ByLayer
370
18
48
1
60
0
100
AcDbSpline
70
4
71
3
72
14
73
10
40
0
40
0
40
0
40
0
40
0.124999999999995
40
0.124999999999995
40
0.24999999999999
40
0.24999999999999
40
0.500000000000001
40
0.500000000000001
40
1
40
1
40
1
40
1
41
1
10
31.4923827430189
20
13.3642451640999
30
-3.4E-15
41
1
10
31.4158191954637
20
13.3489598135436
30
-3.5E-15
41
1
10
31.3354008645077
20
13.3267832299486
30
3.5E-15
41
1
10
31.3090051100534
20
13.1829787226683
30
3.5E-15
41
1
10
31.4077299080341
20
13.0736292482802
30
-3.5E-15
41
1
10
31.689708586608
20
12.8509439245334
30
-3.2E-15
41
1
10
31.8966006061089
20
12.7493114970412
30
-3E-15
41
1
10
32.4976340904573
20
12.4775464008934
30
-2.3E-15
41
1
10
32.8869831351864
20
12.3560627947701
30
-1.8E-15
41
1
10
33.2720011413399
20
12.2573776439509
30
-1.4E-15
0
SPLINE
5
156
100
AcDbEntity
8
1
62
256
6
ByLayer
370
18
48
1
60
0
100
AcDbSpline
70
4
71
3
72
8
73
4
40
0
40
0
40
0
40
0
40
1
40
1
40
1
40
1
41
1
10
35.2594105597479
20
11.86557524743
30
1E-15
41
1
10
34.6371054639958
20
11.7602407399651
30
2E-16
41
1
10
33.9964936441342
20
11.5977592802399
30
-5E-16
41
1
10
33.3523234856335
20
11.3875131902495
30
-1.3E-15
0
SPLINE
5
157
100
AcDbEntity
8
1
62
256
6
ByLayer
370
18
48
1
60
0
100
AcDbSpline
70
4
71
2
72
10
73
7
40
0
40
0
40
0
40
0.327809911400262
40
0.546349852333769
40
0.764889793267277
40
0.983429734200785
40
1
40
1
40
1
41
1.02275914691308
10
18.5692933754891
20
3.97332924076784
30
2.7E-15
41
1.0218723728006
10
20.6730491435186
20
4.56725434049896
30
-1.9E-15
41
1.01941804929199
10
23.7884134652752
20
6.08940221551101
30
1.7E-15
41
1.01588036664668
10
28.0469956543951
20
8.34117717521446
30
-4E-16
41
1.01357557431911
10
30.440347915976
20
9.50118071838772
30
2.4E-15
41
1.01317993487853
10
31.7066971326511
20
10.0386848743359
30
-3.2E-15
41
1.01314306577281
10
31.7961389834453
20
10.0746654243604
30
-3.1E-15
0
SPLINE
5
158
100
AcDbEntity
8
1
62
256
6
ByLayer
370
18
48
1
60
0
100
AcDbSpline
70
4
71
2
72
7
73
4
40
0
40
0
40
0
40
0.490194509713996
40
1
40
1
40
1
41
1.00836087185432
10
34.5465572043222
20
16.3878455749543
30
1E-16
41
1.00969049691587
10
33.7290814460126
20
16.8005763017113
30
-8E-16
41
1.01217718029716
10
32.0113556747803
20
17.5556436163979
30
-2.8E-15
41
1.01277102943384
10
31.1383368454304
20
17.882859618035
30
3.3E-15
0
SPLINE
5
159
100
AcDbEntity
8
1
62
256
6
ByLayer
370
18
48
1
60
0
100
AcDbSpline
70
4
71
3
72
12
73
8
40
0
40
0
40
0
40
0
40
0.465693311738362
40
0.465693311738362
40
0.925991506701037
40
0.925991506701037
40
1
40
1
40
1
40
1
41
1
10
11.4886945825053
20
13.8503087330093
30
1.5E-15
41
1
10
11.3547656539609
20
13.7422402884968
30
1.4E-15
41
1
10
11.1979135527662
20
13.6407225978096
30
1.2E-15
41
1
10
10.8750138881071
20
13.4717196047465
30
8E-16
41
1
10
10.7049067436847
20
13.4011151374312
30
6E-16
41
1
10
10.5104866874423
20
13.3357558517279
30
4E-16
41
1
10
10.4833316988434
20
13.3269708341568
30
4E-16
41
1
10
10.456217928703
20
13.31852459753
30
3E-16
0
SPLINE
5
15A
100
AcDbEntity
8
1
62
256
6
ByLayer
370
18
48
1
60
0
100
AcDbSpline
70
4
71
2
72
10
73
7
40
0
40
0
40
0
40
0.327809911387053
40
0.546349852311755
40
0.764889793236458
40
0.98342973416116
40
1
40
1
40
1
41
1.02275914691308
10
17.3389659306755
20
17.297369021822
30
1.3E-15
41
1.0218723728006
10
19.516310805888
20
17.0943483969324
30
-3.3E-15
41
1.01941804929199
10
22.8587159447191
20
16.15771922447
30
7E-16
41
1.01588036664668
10
27.4671221938362
20
14.6210151821672
30
-1E-15
41
1.01357557431911
10
30.0445003643291
20
13.7880789290887
30
2E-15
41
1.01317993487846
10
31.397175607429
20
13.3907007412686
30
-3.6E-15
41
1.01314306577263
10
31.4923827430193
20
13.3642451640998
30
-3.4E-15
0
SPLINE
5
15B
100
AcDbEntity
8
1
62
256
6
ByLayer
370
18
48
1
60
0
100
AcDbSpline
70
4
71
3
72
8
73
4
40
0
40
0
40
0
40
0
40
1
40
1
40
1
40
1
41
1
10
11.0168948085729
20
7.24657921161437
30
1E-15
41
1
10
10.7878099495567
20
7.26150530693374
30
7E-16
41
1
10
10.5612966982804
20
7.25202592101689
30
5E-16
41
1
10
10.343039929367
20
7.22336473815031
30
2E-16
0
SPLINE
5
15C
100
AcDbEntity
8
1
62
256
6
ByLayer
370
18
48
1
60
0
100
AcDbSpline
70
4
71
2
72
6
73
3
40
0
40
0
40
0
40
1
40
1
40
1
41
1.02275914691308
10
18.5692933754891
20
3.97332924076784
30
2.7E-15
41
1.02275914691308
10
18.4358851298797
20
2.34492351916088
30
2.6E-15
41
1.02275914691308
10
18.3024768842703
20
0.716517797553974
30
2.4E-15
0
SPLINE
5
15D
100
AcDbEntity
8
1
62
256
6
ByLayer
370
18
48
1
60
0
100
AcDbSpline
70
4
71
3
72
8
73
4
40
0
40
0
40
0
40
0
40
1
40
1
40
1
40
1
41
1
10
11.8122382547495
20
14.1625681493484
30
1.9E-15
41
1
10
11.7161321762382
20
14.0512824511515
30
1.8E-15
41
1
10
11.607295898799
20
13.9460091907692
30
1.7E-15
41
1
10
11.4886945825053
20
13.8503087330093
30
1.5E-15
0
SPLINE
5
15E
100
AcDbEntity
8
1
62
256
6
ByLayer
370
18
48
1
60
0
100
AcDbSpline
70
4
71
3
72
10
73
6
40
0
40
0
40
0
40
0
40
0.537616842494929
40
0.537616842494929
40
1
40
1
40
1
40
1
41
1
10
17.9424386202058
20
10.1543911932994
30
2E-15
41
1
10
17.9411592993843
20
10.1438997800044
30
2E-15
41
1
10
17.9403855535289
20
10.1337507186498
30
2E-15
41
1
10
17.9397282190915
20
10.1155356834766
30
2E-15
41
1
10
17.9397345688856
20
10.1073572964937
30
2E-15
41
1
10
17.9400045814453
20
10.0994182757318
30
2E-15
0
SPLINE
5
15F
100
AcDbEntity
8
1
62
256
6
ByLayer
370
18
48
1
60
0
100
AcDbSpline
70
4
71
3
72
10
73
6
40
0
40
0
40
0
40
0
40
0.230438518716567
40
0.230438518716567
40
1
40
1
40
1
40
1
41
1
10
16.7362751171717
20
9.46894824327896
30
6E-16
41
1
10
16.7319879609988
20
9.46760402528852
30
6E-16
41
1
10
16.7277995931601
20
9.46622621454375
30
6E-16
41
1
10
16.7100759605024
20
9.46013208387618
30
6E-16
41
1
10
16.6974865370937
20
9.45511323826207
30
5E-16
41
1
10
16.6858312555086
20
9.44989271448841
30
5E-16
0
SPLINE
5
160
100
AcDbEntity
8
1
62
256
6
ByLayer
370
18
48
1
60
0
100
AcDbSpline
70
4
71
3
72
10
73
6
40
0
40
0
40
0
40
0
40
0.20115753023178
40
0.20115753023178
40
1
40
1
40
1
40
1
41
1
10
15.6982631343125
20
9.91417364065461
30
-6E-16
41
1
10
15.6970582471734
20
9.91754877845702
30
-6E-16
41
1
10
15.6958061891787
20
9.92096064593943
30
-6E-16
41
1
10
15.6893612718216
20
9.93803847269552
30
-6E-16
41
1
10
15.6834231966338
20
9.95230548031228
30
-6E-16
41
1
10
15.6765515132423
20
9.9671512996072
30
-7E-16
0
SPLINE
5
161
100
AcDbEntity
8
1
62
256
6
ByLayer
370
18
48
1
60
0
100
AcDbSpline
70
4
71
3
72
10
73
6
40
0
40
0
40
0
40
0
40
0.355593196477958
40
0.355593196477958
40
1
40
1
40
1
40
1
41
1
10
18.0939864485628
20
10.4323719136766
30
2.2E-15
41
1
10
18.0885810097
20
10.4272512071187
30
2.2E-15
41
1
10
18.0831860130662
20
10.4219552597344
30
2.2E-15
41
1
10
18.0681213632835
20
10.4065796987461
30
2.2E-15
41
1
10
18.058476410654
20
10.3960500034935
30
2.1E-15
41
1
10
18.0490253690131
20
10.3848627834636
30
2.1E-15
0
SPLINE
5
162
100
AcDbEntity
8
1
62
256
6
ByLayer
370
18
48
1
60
0
100
AcDbSpline
70
4
71
3
72
10
73
6
40
0
40
0
40
0
40
0
40
0.537616842495283
40
0.537616842495283
40
1
40
1
40
1
40
1
41
1
10
15.528565092009
20
11.5697953533346
30
-8E-16
41
1
10
15.5311795008204
20
11.5816218546197
30
-8E-16
41
1
10
15.5334129939609
20
11.5932306632593
30
-8E-16
41
1
10
15.5369491129639
20
11.6143244829981
30
-8E-16
41
1
10
15.5383420549511
20
11.6239021617623
30
-8E-16
41
1
10
15.5395217078513
20
11.6332908479841
30
-8E-16
0
SPLINE
5
163
100
AcDbEntity
8
1
62
256
6
ByLayer
370
18
48
1
60
0
100
AcDbSpline
70
4
71
3
72
10
73
6
40
0
40
0
40
0
40
0
40
0.230438518716493
40
0.230438518716493
40
1
40
1
40
1
40
1
41
1
10
16.7347285950429
20
12.2552383033549
30
6E-16
41
1
10
16.7395888819641
20
12.2571556520937
30
6E-16
41
1
10
16.7443732454634
20
12.259129458499
30
6E-16
41
1
10
16.7647645224761
20
12.2678912335216
30
6E-16
41
1
10
16.7796294116941
20
12.275185544945
30
6E-16
41
1
10
16.7936950337867
20
12.2828164092262
30
7E-16
0
SPLINE
5
164
100
AcDbEntity
8
1
62
256
6
ByLayer
370
18
48
1
60
0
100
AcDbSpline
70
4
71
3
72
10
73
6
40
0
40
0
40
0
40
0
40
0.769561481283279
40
0.769561481283279
40
1
40
1
40
1
40
1
41
1
10
16.4270398510673
20
12.252518131248
30
2E-16
41
1
10
16.4396780561883
20
12.2470939178424
30
2E-16
41
1
10
16.4531879534447
20
12.2421443357688
30
3E-16
41
1
10
16.4719843484285
20
12.2366208048388
30
3E-16
41
1
10
16.476411910685
20
12.2354082190582
30
3E-16
41
1
10
16.4809286860662
20
12.2342657368798
30
3E-16
0
SPLINE
5
165
100
AcDbEntity
8
1
62
256
6
ByLayer
370
18
48
1
60
0
100
AcDbSpline
70
4
71
3
72
10
73
6
40
0
40
0
40
0
40
0
40
0.20115753023153
40
0.20115753023153
40
1
40
1
40
1
40
1
41
1
10
17.7812631549833
20
11.8185354830605
30
1.8E-15
41
1
10
17.7818353394663
20
11.814527642602
30
1.8E-15
41
1
10
17.7824644693648
20
11.8104928470233
30
1.8E-15
41
1
10
17.7858798378013
20
11.7903854713465
30
1.8E-15
41
1
10
17.7895619507721
20
11.7738625015129
30
1.8E-15
41
1
10
17.7944521989725
20
11.7570352470268
30
1.8E-15
0
SPLINE
5
166
100
AcDbEntity
8
1
62
256
6
ByLayer
370
18
48
1
60
0
100
AcDbSpline
70
4
71
3
72
10
73
6
40
0
40
0
40
0
40
0
40
0.276054056491753
40
0.276054056491753
40
1
40
1
40
1
40
1
41
1
10
15.5293383530738
20
10.1766503232972
30
-8E-16
41
1
10
15.5251945202493
20
10.1807878338098
30
-8E-16
41
1
10
15.5210747541024
20
10.184801095346
30
-8E-16
41
1
10
15.5063190299714
20
10.1988444790026
30
-8E-16
41
1
10
15.4958342109196
20
10.2081959382129
30
-9E-16
41
1
10
15.4855898187188
20
10.2168290006136
30
-9E-16
0
SPLINE
5
167
100
AcDbEntity
8
1
62
256
6
ByLayer
370
18
48
1
60
0
100
AcDbSpline
70
4
71
3
72
10
73
6
40
0
40
0
40
0
40
0
40
0.769561481283299
40
0.769561481283299
40
1
40
1
40
1
40
1
41
1
10
17.0524864382281
20
9.48019099246665
30
1E-15
41
1
10
17.0374378925995
20
9.48320486536468
30
9E-16
41
1
10
17.0216525295338
20
9.48587898162899
30
9E-16
41
1
10
17.0001884901949
20
9.48873486820395
30
9E-16
41
1
10
16.9951649322779
20
9.48935145832397
30
9E-16
41
1
10
16.9900750261484
20
9.48992080975407
30
9E-16
0
SPLINE
5
168
100
AcDbEntity
8
1
62
256
6
ByLayer
370
18
48
1
60
0
100
AcDbSpline
70
4
71
3
72
10
73
6
40
0
40
0
40
0
40
0
40
0.355593196477888
40
0.355593196477888
40
1
40
1
40
1
40
1
41
1
10
15.3855398407316
20
11.3003372100371
30
-1E-15
41
1
10
15.3898282174955
20
11.304340854496
30
-1E-15
41
1
10
15.3941363148118
20
11.3085499025628
30
-1E-15
41
1
10
15.4062578727168
20
11.3209823716735
30
-1E-15
41
1
10
15.4141256923565
20
11.3297349339362
30
-1E-15
41
1
10
15.4219783432017
20
11.3393237631705
30
-9E-16
0
SPLINE
5
169
100
AcDbEntity
8
1
62
256
6
ByLayer
370
18
48
1
60
0
100
AcDbSpline
70
4
71
3
72
10
73
6
40
0
40
0
40
0
40
0
40
0.276054056492453
40
0.276054056492453
40
1
40
1
40
1
40
1
41
1
10
17.9416653591407
20
11.5475362233365
30
2E-15
41
1
10
17.9464973063647
20
11.5440868272236
30
2E-15
41
1
10
17.9513381820385
20
11.540794675214
30
2E-15
41
1
10
17.9687959685119
20
11.5294533539
30
2E-15
41
1
10
17.9814265180033
20
11.5222476251293
30
2E-15
41
1
10
17.9939364705778
20
11.5158801231022
30
2.1E-15
0
SPLINE
5
16A
100
AcDbEntity
8
1
62
256
6
ByLayer
370
18
48
1
60
0
100
AcDbSpline
70
4
71
3
72
12
73
8
40
0
40
0
40
0
40
0
40
0.160357295565952
40
0.160357295565952
40
0.60240834866877
40
0.60240834866877
40
1
40
1
40
1
40
1
41
1
10
33.7809453916139
20
11.8797532690735
30
-8E-16
41
1
10
33.7977615282436
20
11.8966915635666
30
-7E-16
41
1
10
33.8128432965637
20
11.9139827983611
30
-7E-16
41
1
10
33.8633038445209
20
11.9778010896693
30
-7E-16
41
1
10
33.8900319518248
20
12.0243993689629
30
-6E-16
41
1
10
33.9295383311472
20
12.1099658590054
30
-6E-16
41
1
10
33.9435095409389
20
12.1498435631991
30
-6E-16
41
1
10
33.9539239380398
20
12.188968697276
30
-6E-16
0
SPLINE
5
16B
100
AcDbEntity
8
1
62
256
6
ByLayer
370
18
48
1
60
0
100
AcDbSpline
70
4
71
3
72
10
73
6
40
0
40
0
40
0
40
0
40
0.60100467536195
40
0.60100467536195
40
1
40
1
40
1
40
1
41
1
10
33.9539239380399
20
12.188968697276
30
-6E-16
41
1
10
33.9690605454085
20
12.2458343791808
30
-5E-16
41
1
10
33.9925951450689
20
12.3041438615193
30
-5E-16
41
1
10
34.0506889612467
20
12.3990731901659
30
-4E-16
41
1
10
34.079336751934
20
12.4369121841539
30
-4E-16
41
1
10
34.1146224866335
20
12.4722822623262
30
-4E-16
0
LINE
5
72
100
AcDbEntity
8
1
62
256
6
ByLayer
370
18
48
1
60
0
100
AcDbLine
10
16.558145
20
9.357904
30
0
11
16.356404
21
9.156163
31
0
39
0
210
0
220
0
230
1
0
LINE
5
74
100
AcDbEntity
8
1
62
256
6
ByLayer
370
18
48
1
60
0
100
AcDbLine
10
15.194445
20
11.108925
30
0
11
15.395002
21
11.309482
31
0
39
0
210
0
220
0
230
1
0
LINE
5
75
100
AcDbEntity
8
1
62
256
6
ByLayer
370
18
48
1
60
0
100
AcDbLine
10
18.083134
20
10.421836
30
0
11
17.8816
21
10.220302
31
0
39
0
210
0
220
0
230
1
0
LINE
5
76
100
AcDbEntity
8
1
62
256
6
ByLayer
370
18
48
1
60
0
100
AcDbLine
10
16.71964
20
12.173064
30
0
11
16.921381
21
12.374805
31
0
39
0
210
0
220
0
230
1
0
LINE
5
77
100
AcDbEntity
8
1
62
256
6
ByLayer
370
18
48
1
60
0
100
AcDbLine
10
7.604571
20
18.58584
30
0
11
6.456752
21
18.020149
31
0
39
0
210
0
220
0
230
1
0
LINE
5
78
100
AcDbEntity
8
1
62
256
6
ByLayer
370
18
48
1
60
0
100
AcDbLine
10
36.883565
20
8.069016
30
0
11
36.958587
21
8.144038
31
0
39
0
210
0
220
0
230
1
0
LINE
5
79
100
AcDbEntity
8
1
62
256
6
ByLayer
370
18
48
1
60
0
100
AcDbLine
10
19.980066
20
7.03559
30
0
11
20.142016
21
7.197539
31
0
39
0
210
0
220
0
230
1
0
LINE
5
7A
100
AcDbEntity
8
1
62
256
6
ByLayer
370
18
48
1
60
0
100
AcDbLine
10
13.070948
20
14.268607
30
0
11
12.911203
21
14.108862
31
0
39
0
210
0
220
0
230
1
0
LINE
5
7B
100
AcDbEntity
8
1
62
256
6
ByLayer
370
18
48
1
60
0
100
AcDbLine
10
10.501385
20
13.291466
30
0
11
10.965677
21
13.520287
31
0
39
0
210
0
220
0
230
1
0
LINE
5
7C
100
AcDbEntity
8
80
62
256
6
ByLayer
370
18
48
1
60
0
100
AcDbLine
10
0
20
0
30
0
11
-5
21
0
31
0
39
0
210
0
220
0
230
1
0
LINE
5
7D
100
AcDbEntity
8
81
62
256
6
ByLayer
370
18
48
1
60
0
100
AcDbLine
10
35.94487
20
24.425
30
0
11
45.94487
21
24.425
31
0
39
0
210
0
220
0
230
1
0
LINE
5
7E
100
AcDbEntity
8
1
62
256
6
ByLayer
370
18
48
1
60
0
100
AcDbLine
10
12.871995
20
-2.417632
30
0
11
12.63012
21
0.201794
31
0
39
0
210
0
220
0
230
1
0
LINE
5
7F
100
AcDbEntity
8
1
62
256
6
ByLayer
370
18
48
1
60
0
100
AcDbLine
10
12.621463
20
-15.94796
30
0
11
20.541211
21
-15.94796
31
0
39
0
210
0
220
0
230
1
0
LINE
5
80
100
AcDbEntity
8
1
62
256
6
ByLayer
370
18
48
1
60
0
100
AcDbLine
10
6.419085
20
19.555589
30
0
11
10.807559
21
19.93953
31
0
39
0
210
0
220
0
230
1
0
LINE
5
81
100
AcDbEntity
8
1
62
256
6
ByLayer
370
18
48
1
60
0
100
AcDbLine
10
0
20
12.59578
30
0
11
0
21
15.925
31
0
39
0
210
0
220
0
230
1
0
LINE
5
82
100
AcDbEntity
8
1
62
256
6
ByLayer
370
18
48
1
60
0
100
AcDbLine
10
10.888355
20
19.064535
30
0
11
10.807559
21
19.93953
31
0
39
0
210
0
220
0
230
1
0
LINE
5
83
100
AcDbEntity
8
1
62
256
6
ByLayer
370
18
48
1
60
0
100
AcDbLine
10
8.78983
20
-15.933559
30
0
11
2.579131
21
-15.936254
31
0
39
0
210
0
220
0
230
1
0
LINE
5
84
100
AcDbEntity
8
1
62
256
6
ByLayer
370
18
48
1
60
0
100
AcDbLine
10
0
20
12.59578
30
0
11
0
21
-15.925
31
0
39
0
210
0
220
0
230
1
0
LINE
5
85
100
AcDbEntity
8
1
62
256
6
ByLayer
370
18
48
1
60
0
100
AcDbLine
10
20.541211
20
-15.94796
30
0
11
23.471767
21
-13.017404
31
0
39
0
210
0
220
0
230
1
0
LINE
5
86
100
AcDbEntity
8
1
62
256
6
ByLayer
370
18
48
1
60
0
100
AcDbLine
10
28.566196
20
18.029455
30
0
11
28.749846
21
18.211495
31
0
39
0
210
0
220
0
230
1
0
LINE
5
87
100
AcDbEntity
8
1
62
256
6
ByLayer
370
18
48
1
60
0
100
AcDbLine
10
32.363806
20
21.825458
30
0
11
32.107887
21
21.803068
31
0
39
0
210
0
220
0
230
1
0
LINE
5
88
100
AcDbEntity
8
1
62
256
6
ByLayer
370
18
48
1
60
0
100
AcDbLine
10
0
20
15.925
30
0
11
3.363236
21
19.288236
31
0
39
0
210
0
220
0
230
1
0
LINE
5
89
100
AcDbEntity
8
1
62
256
6
ByLayer
370
18
48
1
60
0
100
AcDbLine
10
5.520063
20
19.476934
30
0
11
6.397758
21
19.553723
31
0
39
0
210
0
220
0
230
1
0
LINE
5
8A
100
AcDbEntity
8
1
62
256
6
ByLayer
370
18
48
1
60
0
100
AcDbLine
10
6.397758
20
19.553723
30
0
11
6.419085
21
19.555589
31
0
39
0
210
0
220
0
230
1
0
LINE
5
8B
100
AcDbEntity
8
1
62
256
6
ByLayer
370
18
48
1
60
0
100
AcDbLine
10
8.78983
20
-15.933559
30
0
11
7.315318
21
0.034913
31
0
39
0
210
0
220
0
230
1
0
LINE
5
8C
100
AcDbEntity
8
1
62
256
6
ByLayer
370
18
48
1
60
0
100
AcDbLine
10
5.701229
20
17.514972
30
0
11
5.520063
21
19.476934
31
0
39
0
210
0
220
0
230
1
0
LINE
5
8D
100
AcDbEntity
8
1
62
256
6
ByLayer
370
18
48
1
60
0
100
AcDbLine
10
9.674905
20
-15.936702
30
0
11
8.235726
21
-0.35086
31
0
39
0
210
0
220
0
230
1
0
LINE
5
8E
100
AcDbEntity
8
1
62
256
6
ByLayer
370
18
48
1
60
0
100
AcDbLine
10
6.535808
20
18.058689
30
0
11
6.397758
21
19.553723
31
0
39
0
210
0
220
0
230
1
0
LINE
5
8F
100
AcDbEntity
8
1
62
256
6
ByLayer
370
18
48
1
60
0
100
AcDbLine
10
9.696485
20
-15.937574
30
0
11
8.257604
21
-0.354967
31
0
39
0
210
0
220
0
230
1
0
LINE
5
90
100
AcDbEntity
8
1
62
256
6
ByLayer
370
18
48
1
60
0
100
AcDbLine
10
6.556378
20
18.068758
30
0
11
6.419085
21
19.555589
31
0
39
0
210
0
220
0
230
1
0
LINE
5
91
100
AcDbEntity
8
1
62
256
6
ByLayer
370
18
48
1
60
0
100
AcDbLine
10
12.871995
20
-2.417632
30
0
11
12.621463
21
-15.94796
31
0
39
0
210
0
220
0
230
1
0
LINE
5
92
100
AcDbEntity
8
1
62
256
6
ByLayer
370
18
48
1
60
0
100
AcDbLine
10
2.579131
20
-15.936254
30
0
11
0
21
12.59578
31
0
39
0
210
0
220
0
230
1
0
LINE
5
93
100
AcDbEntity
8
1
62
256
6
ByLayer
370
18
48
1
60
0
100
AcDbLine
10
23.471767
20
-13.017404
30
0
11
12.871995
21
-2.417632
31
0
39
0
210
0
220
0
230
1
0
LINE
5
94
100
AcDbEntity
8
1
62
256
6
ByLayer
370
18
48
1
60
0
100
AcDbLine
10
35.041024
20
-1.448147
30
0
11
34.974479
21
-1.514691
31
0
39
0
210
0
220
0
230
1
0
LINE
5
95
100
AcDbEntity
8
1
62
256
6
ByLayer
370
18
48
1
60
0
100
AcDbLine
10
32.107887
20
21.803068
30
0
11
10.807559
21
19.93953
31
0
39
0
210
0
220
0
230
1
0
LINE
5
96
100
AcDbEntity
8
1
62
256
6
ByLayer
370
18
48
1
60
0
100
AcDbLine
10
32.107887
20
21.803068
30
0
11
28.357399
21
18.085486
31
0
39
0
210
0
220
0
230
1
0
LINE
5
97
100
AcDbEntity
8
1
62
256
6
ByLayer
370
18
48
1
60
0
100
AcDbLine
10
35.041024
20
-1.448147
30
0
11
30.593759
21
2.999118
31
0
39
0
210
0
220
0
230
1
0
LINE
5
98
100
AcDbEntity
8
1
62
256
6
ByLayer
370
18
48
1
60
0
100
AcDbLine
10
12.621463
20
-15.94796
30
0
11
9.696485
21
-15.937574
31
0
39
0
210
0
220
0
230
1
0
LINE
5
99
100
AcDbEntity
8
1
62
256
6
ByLayer
370
18
48
1
60
0
100
AcDbLine
10
9.696485
20
-15.937574
30
0
11
9.674905
21
-15.936702
31
0
39
0
210
0
220
0
230
1
0
LINE
5
9A
100
AcDbEntity
8
1
62
256
6
ByLayer
370
18
48
1
60
0
100
AcDbLine
10
34.974479
20
-1.514691
30
0
11
29.480959
21
3.978829
31
0
39
0
210
0
220
0
230
1
0
LINE
5
9B
100
AcDbEntity
8
1
62
256
6
ByLayer
370
18
48
1
60
0
100
AcDbLine
10
3.363236
20
19.288236
30
0
11
5.520063
21
19.476934
31
0
39
0
210
0
220
0
230
1
0
LINE
5
9C
100
AcDbEntity
8
1
62
256
6
ByLayer
370
18
48
1
60
0
100
AcDbLine
10
0
20
-15.925
30
0
11
2.579131
21
-15.936254
31
0
39
0
210
0
220
0
230
1
0
LINE
5
9D
100
AcDbEntity
8
1
62
256
6
ByLayer
370
18
48
1
60
0
100
AcDbLine
10
23.471767
20
-13.017404
30
0
11
34.974479
21
-1.514691
31
0
39
0
210
0
220
0
230
1
0
LINE
5
9E
100
AcDbEntity
8
1
62
256
6
ByLayer
370
18
48
1
60
0
100
AcDbLine
10
29.500829
20
3.988158
30
0
11
29.831401
21
3.657586
31
0
39
0
210
0
220
0
230
1
0
LINE
5
9F
100
AcDbEntity
8
SK1
62
256
6
ByLayer
370
18
48
1
60
0
100
AcDbLine
10
-135.40513
20
15.925
30
0
11
-135.40513
21
-15.925
31
0
39
0
210
0
220
0
230
1
0
LINE
5
A1
100
AcDbEntity
8
SK1
62
256
6
ByLayer
370
18
48
1
60
0
100
AcDbLine
10
0
20
12.59578
30
0
11
0
21
15.925
31
0
39
0
210
0
220
0
230
1
0
LINE
5
A2
100
AcDbEntity
8
SK1
62
256
6
ByLayer
370
18
48
1
60
0
100
AcDbLine
10
-3.32922
20
15.925
30
0
11
-135.40513
21
15.925
31
0
39
0
210
0
220
0
230
1
0
LINE
5
A3
100
AcDbEntity
8
SK1
62
256
6
ByLayer
370
18
48
1
60
0
100
AcDbLine
10
0
20
12.59578
30
0
11
-3.32922
21
15.925
31
0
39
0
210
0
220
0
230
1
0
LINE
5
A4
100
AcDbEntity
8
SK1
62
256
6
ByLayer
370
18
48
1
60
0
100
AcDbLine
10
0
20
12.59578
30
0
11
0
21
-15.925
31
0
39
0
210
0
220
0
230
1
0
LINE
5
A5
100
AcDbEntity
8
SK1
62
256
6
ByLayer
370
18
48
1
60
0
100
AcDbLine
10
-3.32922
20
15.925
30
0
11
0
21
15.925
31
0
39
0
210
0
220
0
230
1
0
LINE
5
A6
100
AcDbEntity
8
SK1
62
256
6
ByLayer
370
18
48
1
60
0
100
AcDbLine
10
-135.40513
20
-15.925
30
0
11
0
21
-15.925
31
0
39
0
210
0
220
0
230
1
0
LINE
5
A7
100
AcDbEntity
8
1
62
256
6
ByLayer
370
18
48
1
60
0
100
AcDbLine
10
48.082331
20
12.287539
30
0
11
36.296275
21
24.073595
31
0
39
0
210
0
220
0
230
1
0
LINE
5
A8
100
AcDbEntity
8
1
62
256
6
ByLayer
370
18
48
1
60
0
100
AcDbLine
10
36.419172
20
-1.059948
30
0
11
48.090527
21
10.611407
31
0
39
0
210
0
220
0
230
1
0
LINE
5
A9
100
AcDbEntity
8
1
62
256
6
ByLayer
370
18
48
1
60
0
100
AcDbLine
10
29.639309
20
4.051978
30
0
11
34.743039
21
-1.051752
31
0
39
0
210
0
220
0
230
1
0
LINE
5
AA
100
AcDbEntity
8
1
62
256
6
ByLayer
370
18
48
1
60
0
100
AcDbLine
10
34.620142
20
24.081791
30
0
11
28.567451
21
18.029099
31
0
39
0
210
0
220
0
230
1
0
LINE
5
AB
100
AcDbEntity
8
1
62
256
6
ByLayer
370
18
48
1
60
0
100
AcDbLine
10
34.693828
20
-1.100964
30
0
11
34.743039
21
-1.051752
31
0
39
0
210
0
220
0
230
1
0
LINE
5
AC
100
AcDbEntity
8
1
62
256
6
ByLayer
370
18
48
1
60
0
100
AcDbLine
10
36.419172
20
-1.059948
30
0
11
35.794267
21
-1.684853
31
0
39
0
210
0
220
0
230
1
0
LINE
5
AD
100
AcDbEntity
8
1
62
256
6
ByLayer
370
18
48
1
60
0
100
AcDbLine
10
36.109991
20
15.088144
30
0
11
34.545863
21
16.388717
31
0
39
0
210
0
220
0
230
1
0
LINE
5
AE
100
AcDbEntity
8
1
62
256
6
ByLayer
370
18
48
1
60
0
100
AcDbLine
10
12.818326
20
0.236671
30
0
11
12.854225
21
0.266306
31
0
39
0
210
0
220
0
230
1
0
LINE
5
AF
100
AcDbEntity
8
1
62
256
6
ByLayer
370
18
48
1
60
0
100
AcDbLine
10
11.078324
20
19.080326
30
0
11
8.775309
21
18.890018
31
0
39
0
210
0
220
0
230
1
0
LINE
5
B0
100
AcDbEntity
8
1
62
256
6
ByLayer
370
18
48
1
60
0
100
AcDbLine
10
10.515312
20
0.046363
30
0
11
12.818326
21
0.236671
31
0
39
0
210
0
220
0
230
1
0
LINE
5
B1
100
AcDbEntity
8
1
62
256
6
ByLayer
370
18
48
1
60
0
100
AcDbLine
10
16.566642
20
19.51504
30
0
11
11.118389
21
19.064827
31
0
39
0
210
0
220
0
230
1
0
LINE
5
B2
100
AcDbEntity
8
1
62
256
6
ByLayer
370
18
48
1
60
0
100
AcDbLine
10
12.818326
20
0.236671
30
0
11
9.968311
21
-0.293696
31
0
39
0
210
0
220
0
230
1
0
LINE
5
B3
100
AcDbEntity
8
1
62
256
6
ByLayer
370
18
48
1
60
0
100
AcDbLine
10
6.621065
20
15.632525
30
0
11
4.543749
21
14.608741
31
0
39
0
210
0
220
0
230
1
0
LINE
5
B4
100
AcDbEntity
8
1
62
256
6
ByLayer
370
18
48
1
60
0
100
AcDbLine
10
9.435767
20
12.997655
30
0
11
7.775469
21
12.863103
31
0
39
0
210
0
220
0
230
1
0
LINE
5
B5
100
AcDbEntity
8
1
62
256
6
ByLayer
370
18
48
1
60
0
100
AcDbLine
10
35.452956
20
6.565201
30
0
11
36.755026
21
8.10262
31
0
39
0
210
0
220
0
230
1
0
LINE
5
B6
100
AcDbEntity
8
1
62
256
6
ByLayer
370
18
48
1
60
0
100
AcDbLine
10
14.96815
20
15.7071
30
0
11
14.694161
21
15.572067
31
0
39
0
210
0
220
0
230
1
0
LINE
5
B7
100
AcDbEntity
8
1
62
256
6
ByLayer
370
18
48
1
60
0
100
AcDbLine
10
17.301455
20
15.899911
30
0
11
17.01844
21
15.76043
31
0
39
0
210
0
220
0
230
1
0
LINE
5
B8
100
AcDbEntity
8
1
62
256
6
ByLayer
370
18
48
1
60
0
100
AcDbLine
10
35.259411
20
11.865575
30
0
11
38.538071
21
11.88043
31
0
39
0
210
0
220
0
230
1
0
LINE
5
B9
100
AcDbEntity
8
1
62
256
6
ByLayer
370
18
48
1
60
0
100
AcDbLine
10
10.515312
20
0.046363
30
0
11
9.7417
21
-0.334904
31
0
39
0
210
0
220
0
230
1
0
LINE
5
BA
100
AcDbEntity
8
1
62
256
6
ByLayer
370
18
48
1
60
0
100
AcDbLine
10
7.775469
20
12.863103
30
0
11
8.324944
21
6.912475
31
0
39
0
210
0
220
0
230
1
0
LINE
5
BB
100
AcDbEntity
8
1
62
256
6
ByLayer
370
18
48
1
60
0
100
AcDbLine
10
18.302477
20
0.716518
30
0
11
12.854225
21
0.266306
31
0
39
0
210
0
220
0
230
1
0
LINE
5
BC
100
AcDbEntity
8
1
62
256
6
ByLayer
370
18
48
1
60
0
100
AcDbLine
10
9.793565
20
13.173993
30
0
11
9.435767
21
12.997655
31
0
39
0
210
0
220
0
230
1
0
LINE
5
BD
100
AcDbEntity
8
1
62
256
6
ByLayer
370
18
48
1
60
0
100
AcDbLine
10
11.078324
20
19.080326
30
0
11
11.118389
21
19.064827
31
0
39
0
210
0
220
0
230
1
0
LINE
5
BE
100
AcDbEntity
8
1
62
256
6
ByLayer
370
18
48
1
60
0
100
AcDbLine
10
18.24472
20
5.684666
30
0
11
15.911415
21
5.491855
31
0
39
0
210
0
220
0
230
1
0
LINE
5
BF
100
AcDbEntity
8
1
62
256
6
ByLayer
370
18
48
1
60
0
100
AcDbLine
10
14.694161
20
15.572067
30
0
11
16.016349
21
15.679219
31
0
39
0
210
0
220
0
230
1
0
LINE
5
C0
100
AcDbEntity
8
1
62
256
6
ByLayer
370
18
48
1
60
0
100
AcDbLine
10
16.296787
20
15.701946
30
0
11
17.01844
21
15.76043
31
0
39
0
210
0
220
0
230
1
0
LINE
5
C1
100
AcDbEntity
8
1
62
256
6
ByLayer
370
18
48
1
60
0
100
AcDbLine
10
9.813746
20
3.249821
30
0
11
18.569293
21
3.973329
31
0
39
0
210
0
220
0
230
1
0
LINE
5
C2
100
AcDbEntity
8
1
62
256
6
ByLayer
370
18
48
1
60
0
100
AcDbLine
10
6.796848
20
14.77196
30
0
11
7.728484
21
4.68264
31
0
39
0
210
0
220
0
230
1
0
LINE
5
C3
100
AcDbEntity
8
1
62
256
6
ByLayer
370
18
48
1
60
0
100
AcDbLine
10
7.720014
20
3.731268
30
0
11
5.642698
21
2.707484
31
0
39
0
210
0
220
0
230
1
0
LINE
5
C4
100
AcDbEntity
8
1
62
256
6
ByLayer
370
18
48
1
60
0
100
AcDbLine
10
8.583419
20
16.573861
30
0
11
17.338966
21
17.297369
31
0
39
0
210
0
220
0
230
1
0
LINE
5
C5
100
AcDbEntity
8
1
62
256
6
ByLayer
370
18
48
1
60
0
100
AcDbLine
10
5.642698
20
2.707484
30
0
11
4.543749
21
14.608741
31
0
39
0
210
0
220
0
230
1
0
LINE
5
C6
100
AcDbEntity
8
1
62
256
6
ByLayer
370
18
48
1
60
0
100
AcDbLine
10
14.96815
20
15.7071
30
0
11
17.301455
21
15.899911
31
0
39
0
210
0
220
0
230
1
0
LINE
5
C7
100
AcDbEntity
8
1
62
256
6
ByLayer
370
18
48
1
60
0
100
AcDbLine
10
18.03236
20
11.232463
30
0
11
18.234101
21
11.434204
31
0
39
0
210
0
220
0
230
1
0
LINE
5
C8
100
AcDbEntity
8
1
62
256
6
ByLayer
370
18
48
1
60
0
100
AcDbLine
10
16.537249
20
12.057759
30
0
11
16.734729
21
12.255238
31
0
39
0
210
0
220
0
230
1
0
LINE
5
C9
100
AcDbEntity
8
1
62
256
6
ByLayer
370
18
48
1
60
0
100
AcDbLine
10
18.049025
20
10.384863
30
0
11
17.851546
21
10.187383
31
0
39
0
210
0
220
0
230
1
0
LINE
5
CA
100
AcDbEntity
8
1
62
256
6
ByLayer
370
18
48
1
60
0
100
AcDbLine
10
16.375024
20
9.161402
30
0
11
16.497046
21
9.283424
31
0
39
0
210
0
220
0
230
1
0
LINE
5
CB
100
AcDbEntity
8
1
62
256
6
ByLayer
370
18
48
1
60
0
100
AcDbLine
10
14.962241
20
10.978766
30
0
11
15.163982
21
11.180507
31
0
39
0
210
0
220
0
230
1
0
LINE
5
CC
100
AcDbEntity
8
1
62
256
6
ByLayer
370
18
48
1
60
0
100
AcDbLine
10
16.008862
20
12.183761
30
0
11
16.210603
21
12.385502
31
0
39
0
210
0
220
0
230
1
0
LINE
5
CD
100
AcDbEntity
8
1
62
256
6
ByLayer
370
18
48
1
60
0
100
AcDbLine
10
17.794452
20
11.757035
30
0
11
17.596972
21
11.559556
31
0
39
0
210
0
220
0
230
1
0
LINE
5
CE
100
AcDbEntity
8
1
62
256
6
ByLayer
370
18
48
1
60
0
100
AcDbLine
10
17.744186
20
11.350057
30
0
11
17.941665
21
11.547536
31
0
39
0
210
0
220
0
230
1
0
LINE
5
CF
100
AcDbEntity
8
1
62
256
6
ByLayer
370
18
48
1
60
0
100
AcDbLine
10
17.789643
20
9.649532
30
0
11
17.991384
21
9.851273
31
0
39
0
210
0
220
0
230
1
0
LINE
5
D0
100
AcDbEntity
8
1
62
256
6
ByLayer
370
18
48
1
60
0
100
AcDbLine
10
17.744959
20
9.956911
30
0
11
17.942439
21
10.154391
31
0
39
0
210
0
220
0
230
1
0
LINE
5
D1
100
AcDbEntity
8
1
62
256
6
ByLayer
370
18
48
1
60
0
100
AcDbLine
10
16.480929
20
12.234266
30
0
11
16.283449
21
12.036786
31
0
39
0
210
0
220
0
230
1
0
LINE
5
D2
100
AcDbEntity
8
1
62
256
6
ByLayer
370
18
48
1
60
0
100
AcDbLine
10
17.584644
20
11.869608
30
0
11
17.786385
21
12.071349
31
0
39
0
210
0
220
0
230
1
0
LINE
5
D3
100
AcDbEntity
8
2
62
256
6
ByLayer
370
18
48
1
60
1
100
AcDbLine
10
35.94487
20
24.425
30
0
11
35.945577
21
24.424293
31
0
39
0
210
0
220
0
230
1
0
MTEXT
5
16C
100
AcDbEntity
8
SK6
62
256
6
ByLayer
370
18
48
1
60
0
100
AcDbMText
10
-62.610775
20
-26.81148
30
0
210
0
220
0
230
1
1
\W0.7606;DSSNR 3232P 19
40
3.5
41
0
44
1.084337
50
0
71
7
72
5
7
iso_b_vert
0
DIMENSION
5
17D
100
AcDbEntity
8
2
62
256
6
ByLayer
370
13
48
1
60
0
100
AcDbDimension
2
DimnDraft3D1
10
88.54487
20
-15.925
30
0
11
88.54487
21
-7.273598
31
0
70
32
71
5
72
1
41
1
210
0
220
0
230
1
3
Standard
100
AcDbAlignedDimension
13
50.428908
23
11.940962
33
0
14
2
24
-15.925
34
0
50
90
100
AcDbRotatedDimension
1001
ACAD
1000
DSTYLE
1002
{
1070
    74
1070
     0
1070
   279
1070
     0
1070
   172
1070
     1
1070
   173
1070
     1
1070
   340
1005
16D
1070
    77
1070
     1
1070
    73
1070
     0
1070
   171
1070
     3
1070
   274
1070
     4
1070
   177
1070
     2
1070
   176
1070
     2
1070
   178
1070
     7
1070
    78
1070
     8
1070
    41
1041
3.175
1070
   147
1041
2.25
1070
    42
1041
2.0
1070
    44
1041
2.0
1070
   140
1041
4.5
1070
   343
1005
17E
1070
   344
1005
17E
1002
}
0
DIMENSION
5
193
100
AcDbEntity
8
SK2
62
256
6
ByLayer
370
13
48
1
60
0
100
AcDbDimension
2
DimnDraft3D2
10
-143.15513
20
15.925
30
0
11
-143.15513
21
-5.281579
31
0
70
32
71
5
72
1
41
1
210
0
220
0
230
1
3
Standard
100
AcDbAlignedDimension
13
-137.40513
23
-15.925
33
0
14
-137.40513
24
15.925
34
0
50
90
100
AcDbRotatedDimension
1001
ACAD
1000
DSTYLE
1002
{
1070
    74
1070
     0
1070
   279
1070
     0
1070
   172
1070
     1
1070
   173
1070
     1
1070
   340
1005
16D
1070
    77
1070
     1
1070
    73
1070
     0
1070
   171
1070
     3
1070
   274
1070
     4
1070
   177
1070
     2
1070
   176
1070
     2
1070
   178
1070
     7
1070
    78
1070
     8
1070
    41
1041
3.175
1070
   147
1041
2.25
1070
    42
1041
2.0
1070
    44
1041
2.0
1070
   140
1041
4.5
1070
   343
1005
17E
1070
   344
1005
17E
1002
}
0
DIMENSION
5
1A1
100
AcDbEntity
8
2
62
256
6
ByLayer
370
13
48
1
60
0
100
AcDbDimension
2
DimnDraft3D3
10
98.54487
20
24.425
30
0
11
98.54487
21
-1.268421
31
0
70
32
71
5
72
1
41
1
210
0
220
0
230
1
3
Standard
100
AcDbAlignedDimension
13
2
23
-15.925
33
0
14
37.94487
24
24.425
34
0
50
90
100
AcDbRotatedDimension
1001
ACAD
1000
DSTYLE
1002
{
1070
    74
1070
     0
1070
   279
1070
     0
1070
   172
1070
     1
1070
   173
1070
     1
1070
   340
1005
16D
1070
    77
1070
     1
1070
    73
1070
     0
1070
   171
1070
     3
1070
   274
1070
     4
1070
   177
1070
     2
1070
   176
1070
     2
1070
   178
1070
     7
1070
    78
1070
     8
1070
    41
1041
3.175
1070
   147
1041
2.25
1070
    42
1041
2.0
1070
    44
1041
2.0
1070
   140
1041
4.5
1070
   343
1005
17E
1070
   344
1005
17E
1002
}
0
DIMENSION
5
1AF
100
AcDbEntity
8
2
62
256
6
ByLayer
370
13
48
1
60
0
100
AcDbDimension
2
DimnDraft3D4
10
35.94487
20
27.690962
30
0
11
12.690856
21
27.690962
31
0
70
32
71
5
72
1
41
1
210
0
220
0
230
1
3
Standard
100
AcDbAlignedDimension
13
0
23
17.925
33
0
14
35.94487
24
26.425
34
0
50
0
100
AcDbRotatedDimension
1001
ACAD
1000
DSTYLE
1002
{
1070
   279
1070
     0
1070
   172
1070
     1
1070
   173
1070
     1
1070
   340
1005
16D
1070
    77
1070
     1
1070
    73
1070
     0
1070
   171
1070
     3
1070
   274
1070
     4
1070
   177
1070
     2
1070
   176
1070
     2
1070
   178
1070
     7
1070
    78
1070
     8
1070
    41
1041
3.175
1070
   147
1041
2.25
1070
    42
1041
2.0
1070
    44
1041
2.0
1070
   140
1041
4.5
1070
   343
1005
17E
1070
   344
1005
17E
1002
}
0
DIMENSION
5
1BD
100
AcDbEntity
8
SK2
62
256
6
ByLayer
370
13
48
1
60
0
100
AcDbDimension
2
DimnDraft3D5
10
35.94487
20
37.690962
30
0
11
-56.130788
21
37.690962
31
0
70
32
71
5
72
1
41
1
210
0
220
0
230
1
3
Standard
100
AcDbAlignedDimension
13
-135.40513
23
17.925
33
0
14
35.94487
24
26.425
34
0
50
0
100
AcDbRotatedDimension
1001
ACAD
1000
DSTYLE
1002
{
1070
   279
1070
     0
1070
   172
1070
     1
1070
   173
1070
     1
1070
   340
1005
16D
1070
    77
1070
     1
1070
    73
1070
     0
1070
   171
1070
     3
1070
   274
1070
     4
1070
   177
1070
     2
1070
   176
1070
     2
1070
   178
1070
     7
1070
    78
1070
     8
1070
    41
1041
3.175
1070
   147
1041
2.25
1070
    42
1041
2.0
1070
    44
1041
2.0
1070
   140
1041
4.5
1070
   343
1005
17E
1070
   344
1005
17E
1002
}
0
DIMENSION
5
1CB
100
AcDbEntity
8
SK2
62
256
6
ByLayer
370
13
48
1
60
0
100
AcDbDimension
2
DimnDraft3D6
10
-135.40513
20
47.690962
30
0
11
-49.888769
21
47.690962
31
0
70
32
71
5
72
1
41
1
210
0
220
0
230
1
3
Standard
100
AcDbAlignedDimension
13
48.428908
23
13.940962
33
0
14
-135.40513
24
17.925
34
0
50
0
100
AcDbRotatedDimension
1001
ACAD
1000
DSTYLE
1002
{
1070
   279
1070
     0
1070
   172
1070
     1
1070
   173
1070
     1
1070
   340
1005
16D
1070
    77
1070
     1
1070
    73
1070
     0
1070
   171
1070
     3
1070
   274
1070
     4
1070
   177
1070
     2
1070
   176
1070
     2
1070
   178
1070
     7
1070
    78
1070
     8
1070
    41
1041
3.175
1070
   147
1041
2.25
1070
    42
1041
2.0
1070
    44
1041
2.0
1070
   140
1041
4.5
1070
   343
1005
17E
1070
   344
1005
17E
1002
}
0
DIMENSION
5
1D9
100
AcDbEntity
8
2
62
256
6
ByLayer
370
13
48
1
60
0
100
AcDbDimension
2
DimnDraft3D7
10
48.428908
20
11.940962
30
0
11
63.509858
21
-24.467672
31
0
70
34
71
5
72
1
41
1
210
0
220
0
230
1
3
Standard
100
AcDb2LineAngularDimension
13
48.428908
23
11.940962
33
0
14
48.428908
24
10.750337
34
0
15
35.94487
25
24.425
35
0
16
65.231933
26
-28.62513
36
0
40
0
0
ENDSEC
0
SECTION
2
OBJECTS
0
DICTIONARY
5
243
330
0
100
AcDbDictionary
280
0
281
1
3
ACAD_GROUP
350
244
3
ACAD_MLINESTYLE
350
245
0
DICTIONARY
5
244
330
0
100
AcDbDictionary
280
0
281
1
0
DICTIONARY
5
245
330
0
100
AcDbDictionary
280
0
281
1
3
Standard
350
18
0
MLINESTYLE
5
18
330
245
100
AcDbMlineStyle
2
Standard
70
0
3

62
256
51
90
52
90
71
2
49
-0.5
62
256
6
ByLayer
49
0.5
62
256
6
ByLayer
0
RASTERVARIABLES
5
232
330

100
AcDbRasterVariables
90
0
70
1
71
1
72
1
0
ENDSEC
0
EOF
