0
SECTION
2
HEADER
9
$ACADVER
1
AC1015
9
$DWGCODEPAGE
3
ANSI_1252
9
$HANDSEED
5
226
9
$ANGBASE
50
0
9
$ANGDIR
70
0
9
$ATTMODE
70
1
9
$AUNITS
70
0
9
$AUPREC
70
0
9
$CECOLOR
62
256
9
$CELTSCALE
40
1
9
$CELTYPE
6
ByLayer
9
$CELWEIGHT
370
18
9
$CLAYER
8
0
9
$CMLJUST
70
0
9
$CMLSCALE
40
1
9
$CMLSTYLE
2
Standard
9
$DIMSTYLE
2
Standard
9
$TEXTSIZE
40
0.2
9
$TEXTSTYLE
7
Standard
9
$LUNITS
70
2
9
$LUPREC
70
4
9
$EXTNAMES
290
1
9
$INSUNITS
70
4
9
$LTSCALE
40
1
9
$LWDISPLAY
290
1
9
$PDMODE
70
0
9
$PDSIZE
40
0
9
$PLINEGEN
70
0
0
ENDSEC
0
SECTION
2
CLASSES
0
CLASS
1
RASTERVARIABLES
2
AcDbRasterVariables
3
ISM
90
0
280
0
281
0
0
ENDSEC
0
SECTION
2
TABLES
0
TABLE
2
VPORT
5
21c
100
AcDbSymbolTable
0
VPORT
5
1
100
AcDbSymbolTableRecord
100
AcDbViewportTableRecord
2
*Active
70
0
10
0
20
0
11
1
21
1
12
-1
22
1
13
0
23
0
14
0.5
24
0.5
15
10
25
10
16
0
26
0
36
1
17
0
27
0
37
0
0
ENDTAB
0
TABLE
2
LTYPE
5
21d
100
AcDbSymbolTable
0
LTYPE
5
14
100
AcDbSymbolTableRecord
100
AcDbLinetypeTableRecord
70
0
2
ByBlock
3

72
65
73
0
40
0
0
LTYPE
5
15
100
AcDbSymbolTableRecord
100
AcDbLinetypeTableRecord
70
0
2
ByLayer
3

72
65
73
0
40
0
0
LTYPE
5
16
100
AcDbSymbolTableRecord
100
AcDbLinetypeTableRecord
70
0
2
CONTINUOUS
3
Solid line
72
65
73
0
40
0
0
LTYPE
5
6A
100
AcDbSymbolTableRecord
100
AcDbLinetypeTableRecord
70
0
2
CENTER
3
____ _ ____ _ ____ _ ____
72
65
73
4
40
47.5
49
22
74
0
49
-8.5
74
0
49
8.5
74
0
49
-8.5
74
0
0
LTYPE
5
6B
100
AcDbSymbolTableRecord
100
AcDbLinetypeTableRecord
70
0
2
DASHED
3
__ __ __ __ __ __ __ __ __
72
65
73
2
40
25.72
49
12.86
74
0
49
-12.86
74
0
0
ENDTAB
0
TABLE
2
LAYER
5
21e
100
AcDbSymbolTable
0
LAYER
5
10
100
AcDbSymbolTableRecord
100
AcDbLayerTableRecord
2
0
70
0
62
7
6
CONTINUOUS
290
1
370
-3
390
0
0
LAYER
5
6D
100
AcDbSymbolTableRecord
100
AcDbLayerTableRecord
2
2
70
0
62
7
6
CONTINUOUS
290
1
370
-3
390
0
0
LAYER
5
6F
100
AcDbSymbolTableRecord
100
AcDbLayerTableRecord
2
80
70
0
62
-6
6
CONTINUOUS
290
1
370
-3
390
0
0
LAYER
5
71
100
AcDbSymbolTableRecord
100
AcDbLayerTableRecord
2
81
70
0
62
-3
6
CONTINUOUS
290
1
370
-3
390
0
0
LAYER
5
73
100
AcDbSymbolTableRecord
100
AcDbLayerTableRecord
2
1
70
0
62
4
6
CONTINUOUS
290
1
370
-3
390
0
0
LAYER
5
209
100
AcDbSymbolTableRecord
100
AcDbLayerTableRecord
2
SK1
70
0
62
4
6
CONTINUOUS
290
1
370
-3
390
0
0
LAYER
5
20a
100
AcDbSymbolTableRecord
100
AcDbLayerTableRecord
2
SK6
70
0
62
5
6
CONTINUOUS
290
1
370
-3
390
0
0
LAYER
5
20b
100
AcDbSymbolTableRecord
100
AcDbLayerTableRecord
2
SK2
70
0
62
7
6
CONTINUOUS
290
1
370
-3
390
0
0
ENDTAB
0
TABLE
2
STYLE
5
21f
100
AcDbSymbolTable
0
STYLE
5
11
100
AcDbSymbolTableRecord
100
AcDbTextStyleTableRecord
2
Standard
3
txt
70
0
71
0
40
0
41
1
42
0
50
0
0
STYLE
5
143
100
AcDbSymbolTableRecord
100
AcDbTextStyleTableRecord
2
iso_b_vert
3
simplex.shx
70
0
71
0
40
0
41
1
42
0
50
0
0
STYLE
5
144
100
AcDbSymbolTableRecord
100
AcDbTextStyleTableRecord
2
DWGDirectTextStyle
3
simplex
70
0
71
0
40
0
41
1
42
0
50
0
0
ENDTAB
0
TABLE
2
DIMSTYLE
5
220
100
AcDbSymbolTable
100
AcDbDimStyleTable
0
DIMSTYLE
105
27
100
AcDbSymbolTableRecord
100
AcDbDimStyleTableRecord
2
Standard
70
0
3
<>
41
0.18
42
0.0625
44
0.18
140
0.18
147
0.09
73
0
74
0
77
1
271
2
275
0
278
52
280
0
340
11
0
ENDTAB
0
TABLE
2
VIEW
5
221
100
AcDbSymbolTable
0
ENDTAB
0
TABLE
2
UCS
5
222
100
AcDbSymbolTable
0
ENDTAB
0
TABLE
2
APPID
5
223
100
AcDbSymbolTable
0
APPID
5
12
100
AcDbSymbolTableRecord
100
AcDbRegAppTableRecord
2
ACAD
70
0
0
ENDTAB
0
TABLE
2
BLOCK_RECORD
5
224
100
AcDbSymbolTable
0
BLOCK_RECORD
5
1F
100
AcDbSymbolTableRecord
100
AcDbBlockTableRecord
2
*Model_Space
340
0
70
0
0
BLOCK_RECORD
5
1B
100
AcDbSymbolTableRecord
100
AcDbBlockTableRecord
2
*Paper_Space
340
0
70
0
0
BLOCK_RECORD
5
23
100
AcDbSymbolTableRecord
100
AcDbBlockTableRecord
2
*Paper_Space0
340
0
70
0
0
BLOCK_RECORD
5
146
100
AcDbSymbolTableRecord
100
AcDbBlockTableRecord
2
DimnDraft3D1
340
0
70
0
0
BLOCK_RECORD
5
154
100
AcDbSymbolTableRecord
100
AcDbBlockTableRecord
2
_CLOSED
340
0
70
0
0
BLOCK_RECORD
5
15B
100
AcDbSymbolTableRecord
100
AcDbBlockTableRecord
2
DimnDraft3D2
340
0
70
0
0
BLOCK_RECORD
5
16A
100
AcDbSymbolTableRecord
100
AcDbBlockTableRecord
2
DimnDraft3D3
340
0
70
0
0
BLOCK_RECORD
5
178
100
AcDbSymbolTableRecord
100
AcDbBlockTableRecord
2
DimnDraft3D4
340
0
70
0
0
BLOCK_RECORD
5
186
100
AcDbSymbolTableRecord
100
AcDbBlockTableRecord
2
DimnDraft3D5
340
0
70
0
0
BLOCK_RECORD
5
194
100
AcDbSymbolTableRecord
100
AcDbBlockTableRecord
2
DimnDraft3D6
340
0
70
0
0
BLOCK_RECORD
5
1A2
100
AcDbSymbolTableRecord
100
AcDbBlockTableRecord
2
DimnDraft3D7
340
0
70
0
0
ENDTAB
0
ENDSEC
0
SECTION
2
BLOCKS
0
BLOCK
5
20
100
AcDbEntity
8
0
100
AcDbBlockBegin
2
*Model_Space
70
0
10
0
20
0
30
0
3
*Model_Space
0
ENDBLK
5
21
100
AcDbEntity
8
0
100
AcDbBlockEnd
0
BLOCK
5
1C
100
AcDbEntity
8
0
100
AcDbBlockBegin
2
*Paper_Space
70
0
10
0
20
0
30
0
3
*Paper_Space
0
ENDBLK
5
1D
100
AcDbEntity
8
0
100
AcDbBlockEnd
0
BLOCK
5
24
100
AcDbEntity
8
0
100
AcDbBlockBegin
2
*Paper_Space0
70
0
10
0
20
0
30
0
3
*Paper_Space0
0
ENDBLK
5
25
100
AcDbEntity
8
0
100
AcDbBlockEnd
0
BLOCK
5
151
100
AcDbEntity
8
0
100
AcDbBlockBegin
2
DimnDraft3D1
70
0
10
0
20
0
30
0
3
DimnDraft3D1
0
MTEXT
5
147
100
AcDbEntity
8
2
62
256
6
ByLayer
370
18
48
1
60
0
100
AcDbMText
10
78.825118
20
-3.505425
30
0
210
0
220
0
230
1
1
\W0.6562;31.7
40
4.5
41
0
44
1.084337
50
90
71
7
72
5
7
iso_b_vert
0
LINE
5
148
100
AcDbEntity
8
2
62
256
6
ByLayer
370
13
48
1
60
0
100
AcDbLine
10
37.67281
20
16.102308
30
0
11
81.950118
21
16.102308
31
0
39
0
210
0
220
0
230
1
0
LINE
5
149
100
AcDbEntity
8
2
62
256
6
ByLayer
370
13
48
1
60
0
100
AcDbLine
10
2
20
-15.925
30
0
11
81.950118
21
-15.925
31
0
39
0
210
0
220
0
230
1
0
LINE
5
14A
100
AcDbEntity
8
2
62
256
6
ByLayer
370
13
48
1
60
0
100
AcDbLine
10
79.950118
20
16.102308
30
0
11
79.950118
21
-15.925
31
0
39
0
210
0
220
0
230
1
0
LINE
5
14B
100
AcDbEntity
8
2
62
256
6
ByLayer
370
13
48
1
60
0
100
AcDbLine
10
79.950118
20
16.102308
30
0
11
80.368115
21
12.927309
31
0
39
0
210
0
220
0
230
1
0
LINE
5
14C
100
AcDbEntity
8
2
62
256
6
ByLayer
370
13
48
1
60
0
100
AcDbLine
10
79.950118
20
16.102308
30
0
11
79.532122
21
12.927306
31
0
39
0
210
0
220
0
230
1
0
LINE
5
14D
100
AcDbEntity
8
2
62
256
6
ByLayer
370
13
48
1
60
0
100
AcDbLine
10
80.368115
20
12.927309
30
0
11
79.532122
21
12.927306
31
0
39
0
210
0
220
0
230
1
0
LINE
5
14E
100
AcDbEntity
8
2
62
256
6
ByLayer
370
13
48
1
60
0
100
AcDbLine
10
79.950118
20
-15.925
30
0
11
79.532122
21
-12.750002
31
0
39
0
210
0
220
0
230
1
0
LINE
5
14F
100
AcDbEntity
8
2
62
256
6
ByLayer
370
13
48
1
60
0
100
AcDbLine
10
79.950118
20
-15.925
30
0
11
80.368115
21
-12.749998
31
0
39
0
210
0
220
0
230
1
0
LINE
5
150
100
AcDbEntity
8
2
62
256
6
ByLayer
370
13
48
1
60
0
100
AcDbLine
10
79.532122
20
-12.750002
30
0
11
80.368115
21
-12.749998
31
0
39
0
210
0
220
0
230
1
0
ENDBLK
5
152
100
AcDbEntity
8
0
100
AcDbBlockEnd
0
BLOCK
5
155
100
AcDbEntity
8
0
100
AcDbBlockBegin
2
_CLOSED
70
0
10
0
20
0
30
0
3
_CLOSED
0
LINE
5
157
100
AcDbEntity
8
0
62
256
6
ByLayer
370
-2
48
1
60
0
100
AcDbLine
10
-1
20
0.166667
30
0
11
0
21
0
31
0
39
0
210
0
220
0
230
1
0
LINE
5
158
100
AcDbEntity
8
0
62
256
6
ByLayer
370
-2
48
1
60
0
100
AcDbLine
10
0
20
0
30
0
11
-1
21
-0.166667
31
0
39
0
210
0
220
0
230
1
0
LINE
5
159
100
AcDbEntity
8
0
62
256
6
ByLayer
370
-2
48
1
60
0
100
AcDbLine
10
-1
20
0.166667
30
0
11
-1
21
-0.166667
31
0
39
0
210
0
220
0
230
1
0
LINE
5
15A
100
AcDbEntity
8
0
62
256
6
ByLayer
370
-2
48
1
60
0
100
AcDbLine
10
0
20
0
30
0
11
-1
21
0
31
0
39
0
210
0
220
0
230
1
0
ENDBLK
5
156
100
AcDbEntity
8
0
100
AcDbBlockEnd
0
BLOCK
5
167
100
AcDbEntity
8
0
100
AcDbBlockBegin
2
DimnDraft3D2
70
0
10
0
20
0
30
0
3
DimnDraft3D2
0
MTEXT
5
15C
100
AcDbEntity
8
SK2
62
256
6
ByLayer
370
18
48
1
60
0
100
AcDbMText
10
-152.874882
20
-4.156579
30
0
210
0
220
0
230
1
1
\W0.7346;32.0
40
4.5
41
0
44
1.084337
50
90
71
7
72
5
7
iso_b_vert
0
LINE
5
15E
100
AcDbEntity
8
SK2
62
256
6
ByLayer
370
13
48
1
60
0
100
AcDbLine
10
-145.999882
20
-15.925
30
0
11
-153.749882
21
-15.925
31
0
39
0
210
0
220
0
230
1
0
LINE
5
15F
100
AcDbEntity
8
SK2
62
256
6
ByLayer
370
13
48
1
60
0
100
AcDbLine
10
-145.999882
20
15.925
30
0
11
-153.749882
21
15.925
31
0
39
0
210
0
220
0
230
1
0
LINE
5
160
100
AcDbEntity
8
SK2
62
256
6
ByLayer
370
13
48
1
60
0
100
AcDbLine
10
-151.749882
20
-15.925
30
0
11
-151.749882
21
15.925
31
0
39
0
210
0
220
0
230
1
0
LINE
5
161
100
AcDbEntity
8
SK2
62
256
6
ByLayer
370
13
48
1
60
0
100
AcDbLine
10
-151.749882
20
-15.925
30
0
11
-152.167878
21
-12.750002
31
0
39
0
210
0
220
0
230
1
0
LINE
5
162
100
AcDbEntity
8
SK2
62
256
6
ByLayer
370
13
48
1
60
0
100
AcDbLine
10
-151.749882
20
-15.925
30
0
11
-151.331885
21
-12.749998
31
0
39
0
210
0
220
0
230
1
0
LINE
5
163
100
AcDbEntity
8
SK2
62
256
6
ByLayer
370
13
48
1
60
0
100
AcDbLine
10
-152.167878
20
-12.750002
30
0
11
-151.331885
21
-12.749998
31
0
39
0
210
0
220
0
230
1
0
LINE
5
164
100
AcDbEntity
8
SK2
62
256
6
ByLayer
370
13
48
1
60
0
100
AcDbLine
10
-151.749882
20
15.925
30
0
11
-151.331885
21
12.750002
31
0
39
0
210
0
220
0
230
1
0
LINE
5
165
100
AcDbEntity
8
SK2
62
256
6
ByLayer
370
13
48
1
60
0
100
AcDbLine
10
-151.749882
20
15.925
30
0
11
-152.167878
21
12.749998
31
0
39
0
210
0
220
0
230
1
0
LINE
5
166
100
AcDbEntity
8
SK2
62
256
6
ByLayer
370
13
48
1
60
0
100
AcDbLine
10
-151.331885
20
12.750002
30
0
11
-152.167878
21
12.749998
31
0
39
0
210
0
220
0
230
1
0
ENDBLK
5
168
100
AcDbEntity
8
0
100
AcDbBlockEnd
0
BLOCK
5
175
100
AcDbEntity
8
0
100
AcDbBlockBegin
2
DimnDraft3D3
70
0
10
0
20
0
30
0
3
DimnDraft3D3
0
MTEXT
5
16B
100
AcDbEntity
8
2
62
256
6
ByLayer
370
18
48
1
60
0
100
AcDbMText
10
88.825118
20
-0.143421
30
0
210
0
220
0
230
1
1
\W0.7640;40.0
40
4.5
41
0
44
1.084337
50
90
71
7
72
5
7
iso_b_vert
0
LINE
5
16C
100
AcDbEntity
8
2
62
256
6
ByLayer
370
13
48
1
60
0
100
AcDbLine
10
2
20
-15.925
30
0
11
91.950118
21
-15.925
31
0
39
0
210
0
220
0
230
1
0
LINE
5
16D
100
AcDbEntity
8
2
62
256
6
ByLayer
370
13
48
1
60
0
100
AcDbLine
10
29.350118
20
24.425
30
0
11
91.950118
21
24.425
31
0
39
0
210
0
220
0
230
1
0
LINE
5
16E
100
AcDbEntity
8
2
62
256
6
ByLayer
370
13
48
1
60
0
100
AcDbLine
10
89.950118
20
-15.925
30
0
11
89.950118
21
24.425
31
0
39
0
210
0
220
0
230
1
0
LINE
5
16F
100
AcDbEntity
8
2
62
256
6
ByLayer
370
13
48
1
60
0
100
AcDbLine
10
89.950118
20
-15.925
30
0
11
89.532122
21
-12.750002
31
0
39
0
210
0
220
0
230
1
0
LINE
5
170
100
AcDbEntity
8
2
62
256
6
ByLayer
370
13
48
1
60
0
100
AcDbLine
10
89.950118
20
-15.925
30
0
11
90.368115
21
-12.749998
31
0
39
0
210
0
220
0
230
1
0
LINE
5
171
100
AcDbEntity
8
2
62
256
6
ByLayer
370
13
48
1
60
0
100
AcDbLine
10
89.532122
20
-12.750002
30
0
11
90.368115
21
-12.749998
31
0
39
0
210
0
220
0
230
1
0
LINE
5
172
100
AcDbEntity
8
2
62
256
6
ByLayer
370
13
48
1
60
0
100
AcDbLine
10
89.950118
20
24.425
30
0
11
90.368115
21
21.250002
31
0
39
0
210
0
220
0
230
1
0
LINE
5
173
100
AcDbEntity
8
2
62
256
6
ByLayer
370
13
48
1
60
0
100
AcDbLine
10
89.950118
20
24.425
30
0
11
89.532122
21
21.249998
31
0
39
0
210
0
220
0
230
1
0
LINE
5
174
100
AcDbEntity
8
2
62
256
6
ByLayer
370
13
48
1
60
0
100
AcDbLine
10
90.368115
20
21.250002
30
0
11
89.532122
21
21.249998
31
0
39
0
210
0
220
0
230
1
0
ENDBLK
5
176
100
AcDbEntity
8
0
100
AcDbBlockEnd
0
BLOCK
5
183
100
AcDbEntity
8
0
100
AcDbBlockBegin
2
DimnDraft3D4
70
0
10
0
20
0
30
0
3
DimnDraft3D4
0
MTEXT
5
179
100
AcDbEntity
8
2
62
256
6
ByLayer
370
18
48
1
60
0
100
AcDbMText
10
9.281638
20
32.977308
30
0
210
0
220
0
230
1
1
\W0.7528;27.4
40
4.5
41
0
44
1.084337
50
0
71
7
72
5
7
iso_b_vert
0
LINE
5
17A
100
AcDbEntity
8
2
62
256
6
ByLayer
370
13
48
1
60
0
100
AcDbLine
10
0
20
17.925
30
0
11
0
21
33.852308
31
0
39
0
210
0
220
0
230
1
0
LINE
5
17B
100
AcDbEntity
8
2
62
256
6
ByLayer
370
13
48
1
60
0
100
AcDbLine
10
27.350118
20
26.425
30
0
11
27.350118
21
33.852308
31
0
39
0
210
0
220
0
230
1
0
LINE
5
17C
100
AcDbEntity
8
2
62
256
6
ByLayer
370
13
48
1
60
0
100
AcDbLine
10
0
20
31.852308
30
0
11
27.350118
21
31.852308
31
0
39
0
210
0
220
0
230
1
0
LINE
5
17D
100
AcDbEntity
8
2
62
256
6
ByLayer
370
13
48
1
60
0
100
AcDbLine
10
0
20
31.852308
30
0
11
3.174998
21
32.270305
31
0
39
0
210
0
220
0
230
1
0
LINE
5
17E
100
AcDbEntity
8
2
62
256
6
ByLayer
370
13
48
1
60
0
100
AcDbLine
10
0
20
31.852308
30
0
11
3.175002
21
31.434311
31
0
39
0
210
0
220
0
230
1
0
LINE
5
17F
100
AcDbEntity
8
2
62
256
6
ByLayer
370
13
48
1
60
0
100
AcDbLine
10
3.174998
20
32.270305
30
0
11
3.175002
21
31.434311
31
0
39
0
210
0
220
0
230
1
0
LINE
5
180
100
AcDbEntity
8
2
62
256
6
ByLayer
370
13
48
1
60
0
100
AcDbLine
10
27.350118
20
31.852308
30
0
11
24.17512
21
31.434311
31
0
39
0
210
0
220
0
230
1
0
LINE
5
181
100
AcDbEntity
8
2
62
256
6
ByLayer
370
13
48
1
60
0
100
AcDbLine
10
27.350118
20
31.852308
30
0
11
24.175117
21
32.270305
31
0
39
0
210
0
220
0
230
1
0
LINE
5
182
100
AcDbEntity
8
2
62
256
6
ByLayer
370
13
48
1
60
0
100
AcDbLine
10
24.17512
20
31.434311
30
0
11
24.175117
21
32.270305
31
0
39
0
210
0
220
0
230
1
0
ENDBLK
5
184
100
AcDbEntity
8
0
100
AcDbBlockEnd
0
BLOCK
5
191
100
AcDbEntity
8
0
100
AcDbBlockBegin
2
DimnDraft3D5
70
0
10
0
20
0
30
0
3
DimnDraft3D5
0
MTEXT
5
187
100
AcDbEntity
8
SK2
62
256
6
ByLayer
370
18
48
1
60
0
100
AcDbMText
10
-63.60054
20
42.977308
30
0
210
0
220
0
230
1
1
\W0.6864;170.0
40
4.5
41
0
44
1.084337
50
0
71
7
72
5
7
iso_b_vert
0
LINE
5
188
100
AcDbEntity
8
SK2
62
256
6
ByLayer
370
13
48
1
60
0
100
AcDbLine
10
-143.999882
20
17.925
30
0
11
-143.999882
21
43.852308
31
0
39
0
210
0
220
0
230
1
0
LINE
5
189
100
AcDbEntity
8
SK2
62
256
6
ByLayer
370
13
48
1
60
0
100
AcDbLine
10
27.350118
20
26.425
30
0
11
27.350118
21
43.852308
31
0
39
0
210
0
220
0
230
1
0
LINE
5
18A
100
AcDbEntity
8
SK2
62
256
6
ByLayer
370
13
48
1
60
0
100
AcDbLine
10
-143.999882
20
41.852308
30
0
11
27.350118
21
41.852308
31
0
39
0
210
0
220
0
230
1
0
LINE
5
18B
100
AcDbEntity
8
SK2
62
256
6
ByLayer
370
13
48
1
60
0
100
AcDbLine
10
-143.999882
20
41.852308
30
0
11
-140.824883
21
42.270305
31
0
39
0
210
0
220
0
230
1
0
LINE
5
18C
100
AcDbEntity
8
SK2
62
256
6
ByLayer
370
13
48
1
60
0
100
AcDbLine
10
-143.999882
20
41.852308
30
0
11
-140.82488
21
41.434311
31
0
39
0
210
0
220
0
230
1
0
LINE
5
18D
100
AcDbEntity
8
SK2
62
256
6
ByLayer
370
13
48
1
60
0
100
AcDbLine
10
-140.824883
20
42.270305
30
0
11
-140.82488
21
41.434311
31
0
39
0
210
0
220
0
230
1
0
LINE
5
18E
100
AcDbEntity
8
SK2
62
256
6
ByLayer
370
13
48
1
60
0
100
AcDbLine
10
27.350118
20
41.852308
30
0
11
24.17512
21
41.434311
31
0
39
0
210
0
220
0
230
1
0
LINE
5
18F
100
AcDbEntity
8
SK2
62
256
6
ByLayer
370
13
48
1
60
0
100
AcDbLine
10
27.350118
20
41.852308
30
0
11
24.175117
21
42.270305
31
0
39
0
210
0
220
0
230
1
0
LINE
5
190
100
AcDbEntity
8
SK2
62
256
6
ByLayer
370
13
48
1
60
0
100
AcDbLine
10
24.17512
20
41.434311
30
0
11
24.175117
21
42.270305
31
0
39
0
210
0
220
0
230
1
0
ENDBLK
5
192
100
AcDbEntity
8
0
100
AcDbBlockEnd
0
BLOCK
5
19F
100
AcDbEntity
8
0
100
AcDbBlockBegin
2
DimnDraft3D6
70
0
10
0
20
0
30
0
3
DimnDraft3D6
0
MTEXT
5
195
100
AcDbEntity
8
SK2
62
256
6
ByLayer
370
18
48
1
60
0
100
AcDbMText
10
-59.439194
20
52.977308
30
0
210
0
220
0
230
1
1
\W0.6864;178.3
40
4.5
41
0
44
1.084337
50
0
71
7
72
5
7
iso_b_vert
0
LINE
5
196
100
AcDbEntity
8
SK2
62
256
6
ByLayer
370
13
48
1
60
0
100
AcDbLine
10
35.67281
20
18.102308
30
0
11
35.67281
21
53.852308
31
0
39
0
210
0
220
0
230
1
0
LINE
5
197
100
AcDbEntity
8
SK2
62
256
6
ByLayer
370
13
48
1
60
0
100
AcDbLine
10
-143.999882
20
17.925
30
0
11
-143.999882
21
53.852308
31
0
39
0
210
0
220
0
230
1
0
LINE
5
198
100
AcDbEntity
8
SK2
62
256
6
ByLayer
370
13
48
1
60
0
100
AcDbLine
10
35.67281
20
51.852308
30
0
11
-143.999882
21
51.852308
31
0
39
0
210
0
220
0
230
1
0
LINE
5
199
100
AcDbEntity
8
SK2
62
256
6
ByLayer
370
13
48
1
60
0
100
AcDbLine
10
35.67281
20
51.852308
30
0
11
32.497812
21
51.434311
31
0
39
0
210
0
220
0
230
1
0
LINE
5
19A
100
AcDbEntity
8
SK2
62
256
6
ByLayer
370
13
48
1
60
0
100
AcDbLine
10
35.67281
20
51.852308
30
0
11
32.497809
21
52.270305
31
0
39
0
210
0
220
0
230
1
0
LINE
5
19B
100
AcDbEntity
8
SK2
62
256
6
ByLayer
370
13
48
1
60
0
100
AcDbLine
10
32.497812
20
51.434311
30
0
11
32.497809
21
52.270305
31
0
39
0
210
0
220
0
230
1
0
LINE
5
19C
100
AcDbEntity
8
SK2
62
256
6
ByLayer
370
13
48
1
60
0
100
AcDbLine
10
-143.999882
20
51.852308
30
0
11
-140.824883
21
52.270305
31
0
39
0
210
0
220
0
230
1
0
LINE
5
19D
100
AcDbEntity
8
SK2
62
256
6
ByLayer
370
13
48
1
60
0
100
AcDbLine
10
-143.999882
20
51.852308
30
0
11
-140.82488
21
51.434311
31
0
39
0
210
0
220
0
230
1
0
LINE
5
19E
100
AcDbEntity
8
SK2
62
256
6
ByLayer
370
13
48
1
60
0
100
AcDbLine
10
-140.824883
20
52.270305
30
0
11
-140.82488
21
51.434311
31
0
39
0
210
0
220
0
230
1
0
ENDBLK
5
1A0
100
AcDbEntity
8
0
100
AcDbBlockEnd
0
BLOCK
5
1AD
100
AcDbEntity
8
0
100
AcDbBlockBegin
2
DimnDraft3D7
70
0
10
0
20
0
30
0
3
DimnDraft3D7
0
MTEXT
5
1A3
100
AcDbEntity
8
2
62
256
6
ByLayer
370
18
48
1
60
0
100
AcDbMText
10
51.38173
20
-30.069199
30
0
210
0
220
0
230
1
1
\W0.7785;45%%d
40
4.5
41
0
44
1.084337
50
22.4999999999999
71
7
72
5
7
iso_b_vert
0
LINE
5
1A4
100
AcDbEntity
8
2
62
256
6
ByLayer
370
13
48
1
60
0
100
AcDbLine
10
35.67281
20
13.308558
30
0
11
35.67281
21
-35.691145
31
0
39
0
210
0
220
0
230
1
0
LINE
5
1A5
100
AcDbEntity
8
2
62
256
6
ByLayer
370
13
48
1
60
0
100
AcDbLine
10
37.087024
20
14.688094
30
0
11
72.296312
21
-20.521194
31
0
39
0
210
0
220
0
230
1
0
ARC
5
1A6
100
AcDbEntity
8
2
62
256
6
ByLayer
370
13
48
1
60
0
100
AcDbCircle
39
0
10
35.67281
20
16.102308
30
0
40
49.7934532114547
210
0
220
0
230
1
100
AcDbArc
50
270
51
315
0
LINE
5
1A7
100
AcDbEntity
8
2
62
256
6
ByLayer
370
13
48
1
60
0
100
AcDbLine
10
35.67281
20
-33.691145
30
0
11
38.840745
21
-33.222609
31
0
39
0
210
0
220
0
230
1
0
LINE
5
1A8
100
AcDbEntity
8
2
62
256
6
ByLayer
370
13
48
1
60
0
100
AcDbLine
10
35.67281
20
-33.691145
30
0
11
38.854069
21
-34.058496
31
0
39
0
210
0
220
0
230
1
0
LINE
5
1A9
100
AcDbEntity
8
2
62
256
6
ByLayer
370
13
48
1
60
0
100
AcDbLine
10
38.840745
20
-33.222609
30
0
11
38.854069
21
-34.058496
31
0
39
0
210
0
220
0
230
1
0
LINE
5
1AA
100
AcDbEntity
8
2
62
256
6
ByLayer
370
13
48
1
60
0
100
AcDbLine
10
70.882099
20
-19.106981
30
0
11
68.892367
21
-21.616224
31
0
39
0
210
0
220
0
230
1
0
LINE
5
1AB
100
AcDbEntity
8
2
62
256
6
ByLayer
370
13
48
1
60
0
100
AcDbLine
10
70.882099
20
-19.106981
30
0
11
68.310723
21
-21.015745
31
0
39
0
210
0
220
0
230
1
0
LINE
5
1AC
100
AcDbEntity
8
2
62
256
6
ByLayer
370
13
48
1
60
0
100
AcDbLine
10
68.892367
20
-21.616224
30
0
11
68.310723
21
-21.015745
31
0
39
0
210
0
220
0
230
1
0
ENDBLK
5
1AE
100
AcDbEntity
8
0
100
AcDbBlockEnd
0
ENDSEC
0
SECTION
2
ENTITIES
0
ELLIPSE
5
D1
100
AcDbEntity
8
1
62
256
6
ByLayer
370
18
48
1
60
0
100
AcDbEllipse
10
9.550049
20
21.23863
30
0
11
3.49899918404681
21
0.169143106448065
31
0
210
0
220
0
230
-1
40
0.284023
41
2.5599621278389
42
-3.00000507293706
0
ELLIPSE
5
D2
100
AcDbEntity
8
1
62
256
6
ByLayer
370
18
48
1
60
0
100
AcDbEllipse
10
6.754599
20
18.626161
30
0
11
-0.703536876446178
21
-1.87217410073966
31
0
210
0
220
0
230
1
40
0.823421
41
-2.6533356108359
42
-1.24066011657628
0
ELLIPSE
5
D3
100
AcDbEntity
8
1
62
256
6
ByLayer
370
18
48
1
60
0
100
AcDbEllipse
10
27.467625
20
16.116601
30
0
11
0.116783927444459
21
-2.3780459344949
31
0
210
0
220
0
230
-1
40
0.822101
41
-1.5130447562917
42
-0.657833422811363
0
ELLIPSE
5
D4
100
AcDbEntity
8
1
62
256
6
ByLayer
370
18
48
1
60
0
100
AcDbEllipse
10
7.234839
20
9.726826
30
0
11
2.74193925656365
21
-1.2500228544447
31
0
210
0
220
0
230
-1
40
0.988829
41
1.57491384805225
42
2.62660291111749
0
ELLIPSE
5
D5
100
AcDbEntity
8
1
62
256
6
ByLayer
370
18
48
1
60
0
100
AcDbEllipse
10
13.770187
20
15.121746
30
0
11
-2.71113597415643
21
3.14201236942741
31
0
210
0
220
0
230
1
40
0.988257
41
2.94979594319127
42
-0.625434656542336
0
ELLIPSE
5
D6
100
AcDbEntity
8
1
62
256
6
ByLayer
370
18
48
1
60
0
100
AcDbEllipse
10
11.742625
20
14.95743
30
0
11
2.71113597415643
21
-3.14201236942741
31
0
210
0
220
0
230
1
40
0.988257
41
2.51615799704744
42
2.8629359141034
0
ELLIPSE
5
D7
100
AcDbEntity
8
1
62
256
6
ByLayer
370
18
48
1
60
0
100
AcDbEllipse
10
9.651857
20
19.31347
30
0
11
5.48990769700831
21
0.36222213263712
31
0
210
0
220
0
230
-1
40
0.148431
41
2.56851366398898
42
2.62150597636992
0
ELLIPSE
5
D8
100
AcDbEntity
8
1
62
256
6
ByLayer
370
18
48
1
60
0
100
AcDbEllipse
10
6.465575
20
18.057705
30
0
11
2.74193925664038
21
-1.25002285432582
31
0
210
0
220
0
230
-1
40
0.988829
41
2.62660291116494
42
-2.60489333295337
0
ELLIPSE
5
D9
100
AcDbEntity
8
1
62
256
6
ByLayer
370
18
48
1
60
0
100
AcDbEllipse
10
10.329144
20
11.978687
30
0
11
5.47670107840134
21
0.505712663315402
31
0
210
0
220
0
230
1
40
0.089459
41
2.01027168357028
42
2.45203942285631
0
ELLIPSE
5
DA
100
AcDbEntity
8
1
62
256
6
ByLayer
370
18
48
1
60
0
100
AcDbEllipse
10
10.771102
20
8.01503
30
0
11
3.46770729003564
21
0.50028248900176
31
0
210
0
220
0
230
-1
40
0.462487
41
3.0112614587054
42
-2.54870574207782
0
ELLIPSE
5
DB
100
AcDbEntity
8
1
62
256
6
ByLayer
370
18
48
1
60
0
100
AcDbEllipse
10
2.871546
20
6.900893
30
0
11
6.97034682705626
21
0.643634298765057
31
0
210
0
220
0
230
1
40
0.089459
41
-0.785253590175571
42
-0.77047255343558
0
ELLIPSE
5
DC
100
AcDbEntity
8
1
62
256
6
ByLayer
370
18
48
1
60
0
100
AcDbEllipse
10
9.026883
20
19.32002
30
0
11
3.56214569762524
21
-1.28377502249723
31
0
210
0
220
0
230
-1
40
0.476491
41
-2.69452518779758
42
-2.33490945445147
0
ELLIPSE
5
DD
100
AcDbEntity
8
1
62
256
6
ByLayer
370
18
48
1
60
0
100
AcDbEllipse
10
6.832935
20
20.155023
30
0
11
1.95985733071549
21
-2.27133424295958
31
0
210
0
220
0
230
1
40
0.988257
41
-0.625434656542358
42
-0.251157406134166
0
ELLIPSE
5
DE
100
AcDbEntity
8
1
62
256
6
ByLayer
370
18
48
1
60
0
100
AcDbEllipse
10
9.796147
20
10.98914
30
0
11
2.66847802719039
21
3.53424837715652
31
0
210
0
220
0
230
-1
40
0.567379
41
2.67243907041949
42
3.0320548037619
0
ELLIPSE
5
DF
100
AcDbEntity
8
1
62
256
6
ByLayer
370
18
48
1
60
0
100
AcDbEllipse
10
27.467625
20
16.116601
30
0
11
1.5805869940254
21
-1.53042442167016
31
0
210
0
220
0
230
-1
40
0.799391
41
-1.71498712956598
42
-0.859775796083914
0
ELLIPSE
5
E0
100
AcDbEntity
8
1
62
256
6
ByLayer
370
18
48
1
60
0
100
AcDbEllipse
10
7.525059
20
10.282334
30
0
11
1.35572226096165
21
-1.47037993427993
31
0
210
0
220
0
230
1
40
0.766119
41
-2.15307575414523
42
-0.740400259885642
0
ELLIPSE
5
E1
100
AcDbEntity
8
1
62
256
6
ByLayer
370
18
48
1
60
0
100
AcDbEllipse
10
9.852933
20
17.135898
30
0
11
5.47670107840134
21
0.505712663315402
31
0
210
0
220
0
230
1
40
0.089459
41
2.01027168357027
42
2.45203942285629
0
ELLIPSE
5
E2
100
AcDbEntity
8
1
62
256
6
ByLayer
370
18
48
1
60
0
100
AcDbEllipse
10
10.530218
20
9.801115
30
0
11
5.46194769923371
21
0.662846648712409
31
0
210
0
220
0
230
-1
40
0.327207
41
-2.61600534458457
42
-2.5630130380556
0
ELLIPSE
5
E3
100
AcDbEntity
8
1
62
256
6
ByLayer
370
18
48
1
60
0
100
AcDbEllipse
10
11.6635
20
14.951017
30
0
11
-1.69854301995343
21
1.96848967723163
31
0
210
0
220
0
230
1
40
0.988257
41
0.88694752701268
42
1.01452556187566
0
ELLIPSE
5
E4
100
AcDbEntity
8
1
62
256
6
ByLayer
370
18
48
1
60
0
100
AcDbEllipse
10
12.989788
20
16.734461
30
0
11
0.300520382004277
21
-0.300520382004288
31
0
210
0
220
0
230
1
40
0.990268
41
-1.59200386979194
42
-1.69656587173543E-05
0
ELLIPSE
5
E5
100
AcDbEntity
8
1
62
256
6
ByLayer
370
18
48
1
60
0
100
AcDbEllipse
10
11.891892
20
15.053676
30
0
11
-0.268700576850887
21
0.268700576850889
31
0
210
0
220
0
230
1
40
0.990268
41
-0.544806318595306
42
-0.300336769489616
0
ELLIPSE
5
E6
100
AcDbEntity
8
1
62
256
6
ByLayer
370
18
48
1
60
0
100
AcDbEllipse
10
13.856839
20
14.129905
30
0
11
-0.268700576850887
21
0.268700576850889
31
0
210
0
220
0
230
1
40
0.990268
41
-2.84122779950516
42
-1.89865463419676
0
ELLIPSE
5
E7
100
AcDbEntity
8
1
62
256
6
ByLayer
370
18
48
1
60
0
100
AcDbEllipse
10
14.014295
20
14.287361
30
0
11
-0.268700576850887
21
0.268700576850889
31
0
210
0
220
0
230
1
40
0.990268
41
1.54958878379791
42
-1.89865463419679
0
ELLIPSE
5
E8
100
AcDbEntity
8
1
62
256
6
ByLayer
370
18
48
1
60
0
100
AcDbEllipse
10
12.571619
20
16.340433
30
0
11
-0.268700576850887
21
0.268700576850889
31
0
210
0
220
0
230
1
40
0.990268
41
-1.59200386979199
42
1.24293801939305
0
ELLIPSE
5
E9
100
AcDbEntity
8
1
62
256
6
ByLayer
370
18
48
1
60
0
100
AcDbEllipse
10
13.22072
20
15.24166
30
0
11
-2.82842712474618
21
2.8284271247462
31
0
210
0
220
0
230
1
40
0.990268
41
0
42
6.28318530717959
0
ELLIPSE
5
EA
100
AcDbEntity
8
1
62
256
6
ByLayer
370
18
48
1
60
0
100
AcDbEllipse
10
11.854664
20
15.990075
30
0
11
0.300520382004277
21
-0.300520382004288
31
0
210
0
220
0
230
1
40
0.990268
41
-0.544806318595208
42
1.24293801939305
0
ELLIPSE
5
EB
100
AcDbEntity
8
1
62
256
6
ByLayer
370
18
48
1
60
0
100
AcDbEllipse
10
14.73125
20
14.637719
30
0
11
0.300520382004277
21
-0.300520382004288
31
0
210
0
220
0
230
1
40
0.990268
41
2.59678633499449
42
-1.89865463419671
0
ELLIPSE
5
EC
100
AcDbEntity
8
1
62
256
6
ByLayer
370
18
48
1
60
0
100
AcDbEllipse
10
13.815228
20
16.443198
30
0
11
-0.268700576850887
21
0.268700576850889
31
0
210
0
220
0
230
1
40
0.990268
41
-2.63920142098846
42
0.195740468196418
0
ELLIPSE
5
ED
100
AcDbEntity
8
1
62
256
6
ByLayer
370
18
48
1
60
0
100
AcDbEllipse
10
13.281214
20
13.578421
30
0
11
0.300520382004277
21
-0.300520382004288
31
0
210
0
220
0
230
1
40
0.990268
41
3.14157462539906
42
-3.06163639463742
0
ELLIPSE
5
EE
100
AcDbEntity
8
1
62
256
6
ByLayer
370
18
48
1
60
0
100
AcDbEllipse
10
14.428081
20
16.058283
30
0
11
0.300520382004277
21
-0.300520382004288
31
0
210
0
220
0
230
1
40
0.990268
41
-2.63920142098844
42
-0.851457083000041
0
ELLIPSE
5
EF
100
AcDbEntity
8
1
62
256
6
ByLayer
370
18
48
1
60
0
100
AcDbEllipse
10
13.086296
20
15.107236
30
0
11
0.813172798364513
21
-0.813172798364545
31
0
210
0
220
0
230
1
40
0.990268
41
0.0305048268670959
42
0.790287775403198
0
ELLIPSE
5
F0
100
AcDbEntity
8
1
62
256
6
ByLayer
370
18
48
1
60
0
100
AcDbEllipse
10
13.086296
20
15.107236
30
0
11
0.813172798364513
21
-0.813172798364545
31
0
210
0
220
0
230
1
40
0.990268
41
0.790287775403198
42
3.11113119067067
0
ELLIPSE
5
F1
100
AcDbEntity
8
1
62
256
6
ByLayer
370
18
48
1
60
0
100
AcDbEllipse
10
14.536566
20
15.416662
30
0
11
-0.268700576850887
21
0.268700576850889
31
0
210
0
220
0
230
1
40
0.990268
41
2.59678633499442
42
-0.851457083000097
0
ELLIPSE
5
F2
100
AcDbEntity
8
1
62
256
6
ByLayer
370
18
48
1
60
0
100
AcDbEllipse
10
14.585538
20
16.215739
30
0
11
0.300520382004277
21
-0.300520382004288
31
0
210
0
220
0
230
1
40
0.990268
41
-2.63920142098848
42
-0.851457083000065
0
ELLIPSE
5
F3
100
AcDbEntity
8
1
62
256
6
ByLayer
370
18
48
1
60
0
100
AcDbEllipse
10
13.657771
20
16.285742
30
0
11
-0.268700576850887
21
0.268700576850889
31
0
210
0
220
0
230
1
40
0.990268
41
-2.63920142098854
42
-0.272469071295411
0
ELLIPSE
5
F4
100
AcDbEntity
8
1
62
256
6
ByLayer
370
18
48
1
60
0
100
AcDbEllipse
10
12.414163
20
16.182977
30
0
11
-0.268700576850887
21
0.268700576850889
31
0
210
0
220
0
230
1
40
0.990268
41
-1.59200386979199
42
-0.300332161097331
0
ELLIPSE
5
F5
100
AcDbEntity
8
1
62
256
6
ByLayer
370
18
48
1
60
0
100
AcDbEllipse
10
13.056773
20
15.077713
30
0
11
2.82842712474614
21
-2.82842712474624
31
0
210
0
220
0
230
1
40
0.990268
41
-3.14152150211198
42
-2.70128875620168E-05
0
ELLIPSE
5
F6
100
AcDbEntity
8
1
62
256
6
ByLayer
370
18
48
1
60
0
100
AcDbEllipse
10
14.573794
20
14.480263
30
0
11
0.300520382004277
21
-0.300520382004288
31
0
210
0
220
0
230
1
40
0.990268
41
-3.14158432898245
42
-1.89865463419666
0
ELLIPSE
5
F7
100
AcDbEntity
8
1
62
256
6
ByLayer
370
18
48
1
60
0
100
AcDbEllipse
10
13.43867
20
13.735877
30
0
11
0.300520382004277
21
-0.300520382004288
31
0
210
0
220
0
230
1
40
0.990268
41
1.54958878379786
42
-2.94585218539337
0
ELLIPSE
5
F8
100
AcDbEntity
8
1
62
256
6
ByLayer
370
18
48
1
60
0
100
AcDbEllipse
10
13.147245
20
16.891917
30
0
11
0.300520382004277
21
-0.300520382004288
31
0
210
0
220
0
230
1
40
0.990268
41
-1.59200386979197
42
0.195740468196489
0
ELLIPSE
5
F9
100
AcDbEntity
8
1
62
256
6
ByLayer
370
18
48
1
60
0
100
AcDbEllipse
10
13.292957
20
15.313897
30
0
11
-1.62634559672905
21
1.62634559672907
31
0
210
0
220
0
230
1
40
0.990268
41
0
42
6.28318530717959
0
ELLIPSE
5
FA
100
AcDbEntity
8
1
62
256
6
ByLayer
370
18
48
1
60
0
100
AcDbEllipse
10
12.770687
20
14.184596
30
0
11
-0.268700576850887
21
0.268700576850889
31
0
210
0
220
0
230
1
40
0.990268
41
0.502391232601292
42
-2.94585218539339
0
ELLIPSE
5
FB
100
AcDbEntity
8
1
62
256
6
ByLayer
370
18
48
1
60
0
100
AcDbEllipse
10
11.697208
20
15.832619
30
0
11
0.300520382004277
21
-0.300520382004288
31
0
210
0
220
0
230
1
40
0.990268
41
-0.544806318595242
42
8.87311470978076E-06
0
ELLIPSE
5
FC
100
AcDbEntity
8
1
62
256
6
ByLayer
370
18
48
1
60
0
100
AcDbEllipse
10
12.049349
20
15.211133
30
0
11
-0.268700576850887
21
0.268700576850889
31
0
210
0
220
0
230
1
40
0.990268
41
-0.544806318595306
42
2.29013557058956
0
ELLIPSE
5
FD
100
AcDbEntity
8
1
62
256
6
ByLayer
370
18
48
1
60
0
100
AcDbEllipse
10
13.135501
20
15.156441
30
0
11
0.813172798364513
21
-0.813172798364545
31
0
210
0
220
0
230
1
40
0.990268
41
-0.351983371493212
42
0
0
ELLIPSE
5
FE
100
AcDbEntity
8
1
62
256
6
ByLayer
370
18
48
1
60
0
100
AcDbEllipse
10
13.135501
20
15.156441
30
0
11
0.813172798364513
21
-0.813172798364545
31
0
210
0
220
0
230
1
40
0.990268
41
0
42
0.790287551908098
0
ELLIPSE
5
FF
100
AcDbEntity
8
1
62
256
6
ByLayer
370
18
48
1
60
0
100
AcDbEllipse
10
13.135501
20
15.156441
30
0
11
0.813172798364513
21
-0.813172798364545
31
0
210
0
220
0
230
1
40
0.990268
41
-1.48295713010815
42
-0.8088891904645
0
ELLIPSE
5
100
100
AcDbEntity
8
1
62
256
6
ByLayer
370
18
48
1
60
0
100
AcDbEllipse
10
13.135501
20
15.156441
30
0
11
0.813172798364513
21
-0.813172798364545
31
0
210
0
220
0
230
1
40
0.990268
41
-2.7666900911986
42
-2.0643474559313
0
ELLIPSE
5
101
100
AcDbEntity
8
1
62
256
6
ByLayer
370
18
48
1
60
0
100
AcDbEllipse
10
13.135501
20
15.156441
30
0
11
0.813172798364513
21
-0.813172798364545
31
0
210
0
220
0
230
1
40
0.990268
41
0.790287775403198
42
-3.07643147331956
0
ELLIPSE
5
102
100
AcDbEntity
8
1
62
256
6
ByLayer
370
18
48
1
60
0
100
AcDbEllipse
10
12.000377
20
14.412055
30
0
11
0.300520382004277
21
-0.300520382004288
31
0
210
0
220
0
230
1
40
0.990268
41
0.502391232601277
42
2.29013557058972
0
ELLIPSE
5
103
100
AcDbEntity
8
1
62
256
6
ByLayer
370
18
48
1
60
0
100
AcDbEllipse
10
14.379109
20
15.259205
30
0
11
-0.268700576850887
21
0.268700576850889
31
0
210
0
220
0
230
1
40
0.990268
41
-2.84118640681552
42
-0.8514570830002
0
ELLIPSE
5
104
100
AcDbEntity
8
1
62
256
6
ByLayer
370
18
48
1
60
0
100
AcDbEllipse
10
26.106669
20
15.10564
30
0
11
1.9268659787333
21
-1.92686597873338
31
0
210
0
220
0
230
1
40
0.990268
41
0.19796138423642
42
0.453804688247322
0
ELLIPSE
5
105
100
AcDbEntity
8
1
62
256
6
ByLayer
370
18
48
1
60
0
100
AcDbEllipse
10
26.106669
20
15.10564
30
0
11
1.9268659787333
21
-1.92686597873338
31
0
210
0
220
0
230
1
40
0.990268
41
0.79028806398611
42
-0.770728962055102
0
ELLIPSE
5
106
100
AcDbEntity
8
1
62
256
6
ByLayer
370
18
48
1
60
0
100
AcDbEllipse
10
25.07512
20
10.510948
30
0
11
1.77017998972644
21
-1.77017998972644
31
0
210
0
220
0
230
-1
40
0.50533
41
1.22846584175288
42
1.5707963267949
0
ELLIPSE
5
107
100
AcDbEntity
8
1
62
256
6
ByLayer
370
18
48
1
60
0
100
AcDbEllipse
10
27.066643
20
15.815614
30
0
11
1.82433549546126
21
-1.82433549546133
31
0
210
0
220
0
230
1
40
0.990268
41
-0.475596622657106
42
0
0
ELLIPSE
5
108
100
AcDbEntity
8
1
62
256
6
ByLayer
370
18
48
1
60
0
100
AcDbEllipse
10
27.066643
20
15.815614
30
0
11
1.82433549546126
21
-1.82433549546133
31
0
210
0
220
0
230
1
40
0.990268
41
0
42
0.790287982017203
0
ELLIPSE
5
109
100
AcDbEntity
8
1
62
256
6
ByLayer
370
18
48
1
60
0
100
AcDbEllipse
10
27.066643
20
15.815614
30
0
11
1.82433549546126
21
-1.82433549546133
31
0
210
0
220
0
230
1
40
0.990268
41
2.1990769939954
42
-2.34641496610185
0
ELLIPSE
5
10A
100
AcDbEntity
8
1
62
256
6
ByLayer
370
18
48
1
60
0
100
AcDbEllipse
10
27.066643
20
15.815614
30
0
11
1.82433549546126
21
-1.82433549546133
31
0
210
0
220
0
230
1
40
0.990268
41
0.790288063271495
42
2.1990769939954
0
ELLIPSE
5
10B
100
AcDbEntity
8
1
62
256
6
ByLayer
370
18
48
1
60
0
100
AcDbEllipse
10
26.59821
20
15.347181
30
0
11
-1.82433549546128
21
1.8243354954613
31
0
210
0
220
0
230
1
40
0.990268
41
-3.01166631210181
42
-2.57577045458919
0
ELLIPSE
5
10C
100
AcDbEntity
8
1
62
256
6
ByLayer
370
18
48
1
60
0
100
AcDbEllipse
10
26.049367
20
7.50188
30
0
11
0.841899011350193
21
-0.841899011350225
31
0
210
0
220
0
230
1
40
0.990268
41
-1.14606795671741
42
4.7458392480224E-14
0
ELLIPSE
5
10D
100
AcDbEntity
8
1
62
256
6
ByLayer
370
18
48
1
60
0
100
AcDbEllipse
10
34.88578
20
15.777381
30
0
11
-0.561442784262116
21
0.561442784262122
31
0
210
0
220
0
230
1
40
0.990268
41
3.14159265358976
42
-1.57079632679486
0
ELLIPSE
5
10E
100
AcDbEntity
8
1
62
256
6
ByLayer
370
18
48
1
60
0
100
AcDbEllipse
10
27.104877
20
7.996477
30
0
11
-0.561442784262116
21
0.561442784262122
31
0
210
0
220
0
230
1
40
0.990268
41
1.57079632679488
42
3.14159265358976
0
ELLIPSE
5
10F
100
AcDbEntity
8
1
62
256
6
ByLayer
370
18
48
1
60
0
100
AcDbEllipse
10
27.028409
20
23.634751
30
0
11
-0.561442784262116
21
0.561442784262122
31
0
210
0
220
0
230
1
40
0.990268
41
-1.57079632679491
42
3.61473902182336E-14
0
ELLIPSE
5
110
100
AcDbEntity
8
1
62
256
6
ByLayer
370
18
48
1
60
0
100
AcDbEllipse
10
26.636444
20
7.528045
30
0
11
-0.561442784262116
21
0.561442784262122
31
0
210
0
220
0
230
1
40
0.990268
41
1.68946519553519
42
3.14159265358976
0
POINT
5
6C
100
AcDbEntity
8
2
62
256
6
ByLayer
370
18
48
1
60
0
100
AcDbPoint
10
27.350118
20
24.425
30
0
39
0
210
0
220
0
230
1
50
360
0
POINT
5
6E
100
AcDbEntity
8
80
62
256
6
ByLayer
370
18
48
1
60
0
100
AcDbPoint
10
0
20
0
30
0
39
0
210
0
220
0
230
1
50
360
0
POINT
5
70
100
AcDbEntity
8
81
62
256
6
ByLayer
370
18
48
1
60
0
100
AcDbPoint
10
27.350118
20
24.425
30
0
39
0
210
0
220
0
230
1
50
360
0
SPLINE
5
111
100
AcDbEntity
8
1
62
256
6
ByLayer
370
18
48
1
60
0
100
AcDbSpline
70
4
71
3
72
8
73
4
40
0
40
0
40
0
40
0
40
1
40
1
40
1
40
1
41
1
10
28.2665737919994
20
17.7283615843467
30
2.9E-15
41
1
10
28.1943824653366
20
17.7777580639683
30
2.8E-15
41
1
10
28.1214263453161
20
17.82328868259
30
2.7E-15
41
1
10
28.0490627207407
20
17.864280805446
30
2.6E-15
0
SPLINE
5
112
100
AcDbEntity
8
1
62
256
6
ByLayer
370
18
48
1
60
0
100
AcDbSpline
70
4
71
2
72
6
73
3
40
0
40
0
40
0
40
1
40
1
40
1
41
0.937301687603846
10
15.3879401816261
20
11.3618362645501
30
2E-15
41
0.930554446910518
10
15.4300811004637
20
9.86427584937272
30
2E-15
41
1.02805999725225
10
15.3298166453702
20
9.12128452974462
30
1.9E-15
0
SPLINE
5
113
100
AcDbEntity
8
1
62
256
6
ByLayer
370
18
48
1
60
0
100
AcDbSpline
70
4
71
3
72
12
73
8
40
0
40
0
40
0
40
0
40
0.466938972358622
40
0.466938972358622
40
0.928803236876561
40
0.928803236876561
40
1
40
1
40
1
40
1
41
1
10
9.2132764002215
20
18.0669499464185
30
1.8E-15
41
1
10
9.08172020353453
20
17.957974981399
30
1.7E-15
41
1
10
8.92750813253178
20
17.8552651493288
30
1.5E-15
41
1
10
8.60919636401877
20
17.6832691416383
30
1.1E-15
41
1
10
8.44112015964379
20
17.61089297886
30
9E-16
41
1
10
8.25003816096489
20
17.5438000409485
30
7E-16
41
1
10
8.22429561154706
20
17.5350757040495
30
7E-16
41
1
10
8.19858888754715
20
17.5266613115642
30
7E-16
0
SPLINE
5
114
100
AcDbEntity
8
1
62
256
6
ByLayer
370
18
48
1
60
0
100
AcDbSpline
70
4
71
3
72
11
73
7
40
0
40
0
40
0
40
0
40
0.423407924939466
40
0.740963868644065
40
0.899741840496364
40
1
40
1
40
1
40
1
41
1.02805999725225
10
15.3298166453702
20
9.12128452974462
30
1.9E-15
41
1.02767136955277
10
16.1733276648106
20
9.30715731400092
30
2.9E-15
41
1.02349884684923
10
19.0585333272459
20
10.8460500016523
30
-8E-16
41
1.01876555595691
10
22.6223282817026
20
13.0752550973447
30
3.3E-15
41
1.01635405201137
10
23.9756169671557
20
13.8876701003611
30
-2.2E-15
41
1.01722454828226
10
24.4653940349817
20
13.956354719594
30
-1.6E-15
41
1.01774327987904
10
24.669967262919
20
13.9751198542669
30
-1.4E-15
0
SPLINE
5
115
100
AcDbEntity
8
1
62
256
6
ByLayer
370
18
48
1
60
0
100
AcDbSpline
70
4
71
3
72
10
73
6
40
0
40
0
40
0
40
0
40
0.5
40
0.5
40
1
40
1
40
1
40
1
41
1
10
27.0045079078192
20
18.6952228902578
30
1.4E-15
41
1
10
26.3014709634444
20
19.0100475419661
30
5E-16
41
1
10
25.7049916041694
20
19.0083255357644
30
-2E-16
41
1
10
24.8470882970485
20
18.6765589535995
30
-1.2E-15
41
1
10
24.5455290524042
20
18.3644874147285
30
-1.5E-15
41
1
10
24.2973149513252
20
18.0108212807327
30
-1.8E-15
0
SPLINE
5
116
100
AcDbEntity
8
1
62
256
6
ByLayer
370
18
48
1
60
0
100
AcDbSpline
70
4
71
3
72
8
73
4
40
0
40
0
40
0
40
0
40
1
40
1
40
1
40
1
41
1
10
9.78383368176071
20
11.8880030741652
30
2.5E-15
41
1
10
9.84718656522011
20
11.8490209199337
30
2.6E-15
41
1
10
9.90869002301793
20
11.8073902357158
30
2.7E-15
41
1
10
9.9679308760692
20
11.7634021028361
30
2.7E-15
0
SPLINE
5
117
100
AcDbEntity
8
1
62
256
6
ByLayer
370
18
48
1
60
0
100
AcDbSpline
70
4
71
3
72
8
73
4
40
0
40
0
40
0
40
0
40
1
40
1
40
1
40
1
41
1
10
12.5089853661333
20
11.031966458414
30
-1.4E-15
41
1
10
11.5871904928848
20
10.9557946255179
30
-2.5E-15
41
1
10
10.6866099220003
20
11.2297610807716
30
-3.5E-15
41
1
10
9.9679308760692
20
11.7634021028362
30
2.7E-15
0
SPLINE
5
118
100
AcDbEntity
8
1
62
256
6
ByLayer
370
18
48
1
60
0
100
AcDbSpline
70
4
71
3
72
10
73
6
40
0
40
0
40
0
40
0
40
0.5
40
0.5
40
1
40
1
40
1
40
1
41
1
10
7.362874537685
20
7.3105606285599
30
-3E-16
41
1
10
6.938294908773
20
7.51841429103735
30
-8E-16
41
1
10
6.65636117768418
20
7.82579640773588
30
-1.1E-15
41
1
10
6.07235121207611
20
8.73894646447354
30
-1.8E-15
41
1
10
5.79181882737259
20
9.41433914503082
30
-2.2E-15
41
1
10
5.69665532277111
20
10.1244038577892
30
-2.3E-15
0
SPLINE
5
119
100
AcDbEntity
8
1
62
256
6
ByLayer
370
18
48
1
60
0
100
AcDbSpline
70
4
71
3
72
10
73
6
40
0
40
0
40
0
40
0
40
0.96746555641947
40
0.96746555641947
40
1
40
1
40
1
40
1
41
1
10
25.5132343354982
20
16.7166425928956
30
-4E-16
41
1
10
25.888729142195
20
16.5163040554843
30
1E-16
41
1
10
26.2633061647851
20
16.3258312420561
30
5E-16
41
1
10
26.6467146117841
20
16.1451436240432
30
1E-15
41
1
10
26.6591954415489
20
16.1392782307609
30
1E-15
41
1
10
26.671672023578
20
16.133431560061
30
1E-15
0
SPLINE
5
11A
100
AcDbEntity
8
1
62
256
6
ByLayer
370
18
48
1
60
0
100
AcDbSpline
70
4
71
3
72
8
73
4
40
0
40
0
40
0
40
0
40
1
40
1
40
1
40
1
41
1
10
5.83865383200151
20
10.2234513632205
30
-2.1E-15
41
1
10
6.53372892341815
20
10.6840205169216
30
-1.3E-15
41
1
10
7.57398630695286
20
11.4305852167179
30
-1E-16
41
1
10
8.68781792950159
20
12.228472407036
30
1.2E-15
0
SPLINE
5
11B
100
AcDbEntity
8
1
62
256
6
ByLayer
370
18
48
1
60
0
100
AcDbSpline
70
4
71
3
72
20
73
16
40
0
40
0
40
0
40
0
40
0.33287322665239
40
0.33287322665239
40
0.501657261698205
40
0.501657261698205
40
0.631212321676505
40
0.631212321676505
40
0.722542323637658
40
0.722542323637658
40
0.814765347404181
40
0.814765347404181
40
0.896421359038787
40
0.896421359038787
40
1
40
1
40
1
40
1
41
1
10
25.6271838901446
20
15.4826065600088
30
-2E-16
41
1
10
25.4550242259655
20
15.3676639091551
30
-4E-16
41
1
10
25.2818469609377
20
15.2395050667178
30
-6E-16
41
1
10
25.031579575555
20
15.0101541588145
30
-9E-16
41
1
10
24.9483019905306
20
14.9256254843737
30
-1E-15
41
1
10
24.8128496848681
20
14.7603968174248
30
-1.2E-15
41
1
10
24.7569600504289
20
14.6818947090029
30
-1.3E-15
41
1
10
24.6783411257773
20
14.541081413397
30
-1.4E-15
41
1
10
24.6502040745378
20
14.4795523050316
30
-1.4E-15
41
1
10
24.6101436855647
20
14.3583972347688
30
-1.4E-15
41
1
10
24.5980445239928
20
14.2971817823472
30
-1.4E-15
41
1
10
24.5929949719985
20
14.1926654013674
30
-1.5E-15
41
1
10
24.5978133110329
20
14.1468626264806
30
-1.4E-15
41
1
10
24.6211951414709
20
14.0554366363497
30
-1.4E-15
41
1
10
24.6431311999509
20
14.0117735466246
30
-1.4E-15
41
1
10
24.6699672629186
20
13.9751198542669
30
-1.4E-15
0
SPLINE
5
11C
100
AcDbEntity
8
1
62
256
6
ByLayer
370
18
48
1
60
0
100
AcDbSpline
70
4
71
3
72
8
73
4
40
0
40
0
40
0
40
0
40
1
40
1
40
1
40
1
41
1
10
8.68781792950153
20
12.228472407036
30
1.2E-15
41
1
10
8.43706925236739
20
12.2484447620228
30
9E-16
41
1
10
8.19377941245148
20
12.2387104262969
30
7E-16
41
1
10
7.95805925316427
20
12.2069068237147
30
4E-16
0
SPLINE
5
11D
100
AcDbEntity
8
1
62
256
6
ByLayer
370
18
48
1
60
0
100
AcDbSpline
70
4
71
3
72
8
73
4
40
0
40
0
40
0
40
0
40
1
40
1
40
1
40
1
41
1
10
22.6574703520954
20
10.0991719771653
30
3.4E-15
41
1
10
23.379109841262
20
10.4764553803908
30
-2.9E-15
41
1
10
24.1162183900038
20
10.7432845498516
30
-2E-15
41
1
10
24.7694557406826
20
10.8550349222939
30
-1.2E-15
0
SPLINE
5
11E
100
AcDbEntity
8
1
62
256
6
ByLayer
370
18
48
1
60
0
100
AcDbSpline
70
4
71
1
72
4
73
2
40
0
40
0
40
1
40
1
41
1
10
14.2166644368926
20
21.1763552108432
30
6E-16
41
1
10
13.8221305042131
20
21.9955292002151
30
1E-16
0
SPLINE
5
11F
100
AcDbEntity
8
1
62
256
6
ByLayer
370
18
48
1
60
0
100
AcDbSpline
70
4
71
3
72
12
73
8
40
0
40
0
40
0
40
0
40
0.108853988607129
40
0.502629237162303
40
0.69951686143989
40
0.896404485717477
40
1
40
1
40
1
40
1
41
1.02441262532206
10
18.3517192396115
20
14.5115176347021
30
-1.7E-15
41
1.02394775682001
10
18.6896062731404
20
14.5628507107554
30
-1.3E-15
41
1.02173322384668
10
20.2892739993071
20
14.8088298605442
30
6E-16
41
1.01876555595691
10
22.5434972954328
20
15.1664109660363
30
3.3E-15
41
1.01610930227499
10
24.0565431858662
20
15.4142649986636
30
-2.1E-15
41
1.01814069306376
10
24.7657629730488
20
15.4346507373642
30
-1.3E-15
41
1.02005196006971
10
25.3966278176603
20
15.4684310516682
30
-5E-16
41
1.02076673234773
10
25.6271838901339
20
15.4826065600082
30
-2E-16
0
SPLINE
5
120
100
AcDbEntity
8
1
62
256
6
ByLayer
370
18
48
1
60
0
100
AcDbSpline
70
4
71
3
72
20
73
16
40
0
40
0
40
0
40
0
40
0.110576036200128
40
0.110576036200128
40
0.197179369122805
40
0.197179369122805
40
0.284291117387364
40
0.284291117387364
40
0.365904217918076
40
0.365904217918076
40
0.497270233392065
40
0.497270233392065
40
0.733496364826694
40
0.733496364826694
40
1
40
1
40
1
40
1
41
1
10
24.2973149513265
20
18.0108212807327
30
-1.8E-15
41
1
10
24.2752178871804
20
17.9793430010987
30
-1.8E-15
41
1
10
24.2600464275756
20
17.9409352644183
30
-1.8E-15
41
1
10
24.2541586903599
20
17.8591286878168
30
-1.9E-15
41
1
10
24.2590660268874
20
17.8177080477389
30
-1.8E-15
41
1
10
24.2865605416661
20
17.7283589160325
30
-1.8E-15
41
1
10
24.3097016641979
20
17.6792429670374
30
-1.8E-15
41
1
10
24.3678686583565
20
17.584470563103
30
-1.7E-15
41
1
10
24.4025566208367
20
17.5377481979392
30
-1.7E-15
41
1
10
24.501206698403
20
17.4211716202385
30
-1.6E-15
41
1
10
24.5715659963706
20
17.3523804825515
30
-1.5E-15
41
1
10
24.7729376808012
20
17.1764567153605
30
-1.2E-15
41
1
10
24.9116188146065
20
17.07757941742
30
-1.1E-15
41
1
10
25.2032631942577
20
16.8882619579854
30
-7E-16
41
1
10
25.3590676356093
20
16.798861520388
30
-6E-16
41
1
10
25.5132343354982
20
16.7166425928956
30
-4E-16
0
SPLINE
5
121
100
AcDbEntity
8
1
62
256
6
ByLayer
370
18
48
1
60
0
100
AcDbSpline
70
4
71
3
72
10
73
6
40
0
40
0
40
0
40
0
40
0.5
40
0.5
40
1
40
1
40
1
40
1
41
1
10
13.8221305042131
20
21.9955292002151
30
1E-16
41
1
10
15.1569457431787
20
22.0932095592934
30
1.7E-15
41
1
10
16.4724674353762
20
21.9808931574619
30
3.2E-15
41
1
10
19.089788888649
20
21.6069067319001
30
-8E-16
41
1
10
20.3940157994339
20
21.2951528354003
30
7E-16
41
1
10
21.6616505952626
20
20.8835709684486
30
2.2E-15
0
SPLINE
5
122
100
AcDbEntity
8
1
62
256
6
ByLayer
370
18
48
1
60
0
100
AcDbSpline
70
4
71
3
72
11
73
7
40
0
40
0
40
0
40
0
40
0.564783939443768
40
0.564783939443768
40
0.564783939443768
40
1
40
1
40
1
40
1
41
1
10
23.8901591373734
20
20.377526655064
30
-2.3E-15
41
1
10
23.517385332906
20
20.4198989791017
30
-2.7E-15
41
1
10
23.0970102499821
20
20.4829150347613
30
-3.2E-15
41
1
10
22.670940578139
20
20.5892481399734
30
3.4E-15
41
1
10
22.3399075847419
20
20.6718631873278
30
3E-15
41
1
10
21.999325560603
20
20.7739330087499
30
2.6E-15
41
1
10
21.6616505952629
20
20.8835709684485
30
2.2E-15
0
SPLINE
5
123
100
AcDbEntity
8
1
62
256
6
ByLayer
370
18
48
1
60
0
100
AcDbSpline
70
4
71
3
72
8
73
4
40
0
40
0
40
0
40
0
40
1
40
1
40
1
40
1
41
1
10
28.4080074985661
20
13.977027441226
30
3E-15
41
1
10
28.4723228885072
20
14.0231950406758
30
3.1E-15
41
1
10
28.5363077076665
20
14.0748206466522
30
3.2E-15
41
1
10
28.5987359971348
20
14.131154634569
30
3.2E-15
0
SPLINE
5
124
100
AcDbEntity
8
1
62
256
6
ByLayer
370
18
48
1
60
0
100
AcDbSpline
70
4
71
3
72
8
73
4
40
0
40
0
40
0
40
0
40
1
40
1
40
1
40
1
41
1
10
23.8901591373734
20
20.377526655064
30
-2.3E-15
41
1
10
23.9981112197942
20
20.3652559950496
30
-2.2E-15
41
1
10
24.1060746571576
20
20.350455893822
30
-2E-15
41
1
10
24.2139428540904
20
20.3333582327549
30
-1.9E-15
0
SPLINE
5
125
100
AcDbEntity
8
1
62
256
6
ByLayer
370
18
48
1
60
0
100
AcDbSpline
70
4
71
3
72
8
73
4
40
0
40
0
40
0
40
0
40
1
40
1
40
1
40
1
41
1
10
8.19858888754715
20
17.5266613115642
30
7E-16
41
1
10
7.95698676790221
20
17.4475794705646
30
4E-16
41
1
10
7.71756811813952
20
17.3959214243499
30
1E-16
41
1
10
7.48184795885243
20
17.3641178217677
30
-2E-16
0
SPLINE
5
126
100
AcDbEntity
8
1
62
256
6
ByLayer
370
18
48
1
60
0
100
AcDbSpline
70
4
71
3
72
11
73
7
40
0
40
0
40
0
40
0
40
0.423407924946041
40
0.740963868655571
40
0.899741840510337
40
1
40
1
40
1
40
1
41
1.02805999725224
10
14.2166644368926
20
21.1763552108432
30
6E-16
41
1.02767136955277
10
15.0799637296425
20
21.1479275320092
30
1.6E-15
41
1.02349884684923
10
18.1916592219054
20
20.2340101845038
30
-1.8E-15
41
1.01876555595691
10
22.1078660494748
20
18.6467111163658
30
2.7E-15
41
1.01635405201144
10
23.5927031390132
20
18.034500360776
30
-2.6E-15
41
1.01722454828215
10
24.0908758270801
20
18.0122631861426
30
-2E-15
41
1.0177432798788
10
24.2973149512408
20
18.0108212807333
30
-1.8E-15
0
SPLINE
5
127
100
AcDbEntity
8
1
62
256
6
ByLayer
370
18
48
1
60
0
100
AcDbSpline
70
4
71
3
72
8
73
4
40
0
40
0
40
0
40
0
40
1
40
1
40
1
40
1
41
1
10
6.65279019368438
20
20.5513200955248
30
-1.2E-15
41
1
10
7.27216074707167
20
20.1879622116486
30
-4E-16
41
1
10
8.22245275715898
20
19.2218549014899
30
7E-16
41
1
10
9.21327640021417
20
18.0669499464137
30
1.8E-15
0
SPLINE
5
128
100
AcDbEntity
8
1
62
256
6
ByLayer
370
18
48
1
60
0
100
AcDbSpline
70
4
71
3
72
8
73
4
40
0
40
0
40
0
40
0
40
1
40
1
40
1
40
1
41
1
10
9.37260271685409
20
18.210609396798
30
2E-15
41
1
10
9.98866091702575
20
18.8154084435074
30
2.8E-15
41
1
10
10.8242620399683
20
19.1872636046002
30
-3.4E-15
41
1
10
11.7488788771354
20
19.2636686283832
30
-2.3E-15
0
SPLINE
5
129
100
AcDbEntity
8
1
62
256
6
ByLayer
370
18
48
1
60
0
100
AcDbSpline
70
4
71
2
72
6
73
3
40
0
40
0
40
0
40
1
40
1
40
1
41
1.02805999725224
10
15.3298166453702
20
9.12128452974465
30
1.9E-15
41
1.02805999725224
10
15.2351483109952
20
8.41976223434386
30
1.8E-15
41
1.02805999725224
10
15.1404799766202
20
7.7182399389431
30
1.7E-15
0
SPLINE
5
12A
100
AcDbEntity
8
1
62
256
6
ByLayer
370
18
48
1
60
0
100
AcDbSpline
70
4
71
3
72
15
73
11
40
0
40
0
40
0
40
0
40
0.322163720426459
40
0.322163720426459
40
0.64483345260023
40
0.64483345260023
40
0.912233455904556
40
0.912233455904556
40
0.912233455904556
40
1
40
1
40
1
40
1
41
1
10
14.6437633184095
20
19.4210258675306
30
1.1E-15
41
1
10
15.1253304944906
20
19.3691500664607
30
1.7E-15
41
1
10
15.6042780361198
20
19.2332484151497
30
2.2E-15
41
1
10
16.479579839709
20
18.8295360679107
30
3.3E-15
41
1
10
16.8886731199524
20
18.5556410737914
30
-3.4E-15
41
1
10
17.5220427420754
20
17.9476229621274
30
-2.6E-15
41
1
10
17.7728768228218
20
17.623606507379
30
-2.3E-15
41
1
10
17.9620591438309
20
17.2687872455432
30
-2.1E-15
41
1
10
18.0249289365315
20
17.150872350965
30
-2E-15
41
1
10
18.081443967273
20
17.0290040033693
30
-2E-15
41
1
10
18.1307565848887
20
16.9044701889692
30
-1.9E-15
0
SPLINE
5
12B
100
AcDbEntity
8
1
62
256
6
ByLayer
370
18
48
1
60
0
100
AcDbSpline
70
4
71
3
72
10
73
6
40
0
40
0
40
0
40
0
40
0.507860739409802
40
0.507860739409802
40
1
40
1
40
1
40
1
41
1
10
4.91456459520936
20
18.5941880687762
30
-3.2E-15
41
1
10
4.87715068193666
20
19.3206611434607
30
-3.2E-15
41
1
10
5.0338518381318
20
19.9603000939223
30
-3E-15
41
1
10
5.45431757523329
20
20.7787106576448
30
-2.6E-15
41
1
10
5.67802911559039
20
21.0159598708554
30
-2.3E-15
41
1
10
6.04379221161338
20
21.1944860950253
30
-1.9E-15
0
SPLINE
5
12C
100
AcDbEntity
8
1
62
256
6
ByLayer
370
18
48
1
60
0
100
AcDbSpline
70
4
71
3
72
8
73
4
40
0
40
0
40
0
40
0
40
1
40
1
40
1
40
1
41
1
10
5.68884189381026
20
10.1935009781797
30
-2.3E-15
41
1
10
5.69099591314261
20
10.1701736604046
30
-2.3E-15
41
1
10
5.6936073827045
20
10.1471461338008
30
-2.3E-15
41
1
10
5.69665532277111
20
10.1244038577892
30
-2.3E-15
0
SPLINE
5
12D
100
AcDbEntity
8
1
62
256
6
ByLayer
370
18
48
1
60
0
100
AcDbSpline
70
4
71
3
72
12
73
8
40
0
40
0
40
0
40
0
40
0.471343086678515
40
0.471343086678515
40
0.89261972610822
40
0.89261972610822
40
1
40
1
40
1
40
1
41
1
10
8.68781792950153
20
12.228472407036
30
1.2E-15
41
1
10
8.86239878414847
20
12.2145668868045
30
1.4E-15
41
1
10
9.04343944845851
20
12.1841531213348
30
1.6E-15
41
1
10
9.37667762701847
20
12.0888074848664
30
2E-15
41
1
10
9.53329738322918
20
12.0265231471725
30
2.2E-15
41
1
10
9.71269055460749
20
11.9303221726484
30
2.4E-15
41
1
10
9.74875984131205
20
11.9095846310446
30
2.5E-15
41
1
10
9.78383368176065
20
11.8880030741652
30
2.5E-15
0
SPLINE
5
12E
100
AcDbEntity
8
1
62
256
6
ByLayer
370
18
48
1
60
0
100
AcDbSpline
70
4
71
3
72
8
73
4
40
0
40
0
40
0
40
0
40
1
40
1
40
1
40
1
41
1
10
15.3879401727727
20
11.3618362876563
30
2E-15
41
1
10
15.1159973332982
20
11.2797786235886
30
1.7E-15
41
1
10
14.8310701835053
20
11.2238502080556
30
1.3E-15
41
1
10
14.5444214795816
20
11.2001632058724
30
1E-15
0
SPLINE
5
12F
100
AcDbEntity
8
1
62
256
6
ByLayer
370
18
48
1
60
0
100
AcDbSpline
70
4
71
3
72
8
73
4
40
0
40
0
40
0
40
0
40
1
40
1
40
1
40
1
41
1
10
9.78383368176065
20
11.8880030741652
30
2.5E-15
41
1
10
9.0267277149627
20
10.5030659707346
30
1.6E-15
41
1
10
8.2861667598537
20
9.21538554441989
30
8E-16
41
1
10
7.76594240216184
20
8.49624941442622
30
2E-16
0
SPLINE
5
130
100
AcDbEntity
8
1
62
256
6
ByLayer
370
18
48
1
60
0
100
AcDbSpline
70
4
71
3
72
8
73
4
40
0
40
0
40
0
40
0
40
1
40
1
40
1
40
1
41
1
10
14.6437633032548
20
19.4210258691332
30
1.1E-15
41
1
10
14.3558157818869
20
19.4514754541882
30
8E-16
41
1
10
14.069266724776
20
19.4554121501949
30
4E-16
41
1
10
13.7843149905838
20
19.4318653758417
30
1E-16
0
SPLINE
5
131
100
AcDbEntity
8
1
62
256
6
ByLayer
370
18
48
1
60
0
100
AcDbSpline
70
4
71
3
72
15
73
11
40
0
40
0
40
0
40
0
40
0.227604479949748
40
0.227604479949748
40
0.479423709218438
40
0.479423709218438
40
0.785574270382832
40
0.785574270382832
40
0.785574270382832
40
1
40
1
40
1
40
1
41
1
10
18.3517192396114
20
14.5115176347021
30
-1.7E-15
41
1
10
18.2855475746003
20
14.178859749175
30
-1.7E-15
41
1
10
18.1687402725157
20
13.8486183367334
30
-1.9E-15
41
1
10
17.8412079115152
20
13.2039585912113
30
-2.3E-15
41
1
10
17.6187736057053
20
12.8870326509955
30
-2.5E-15
41
1
10
17.0516818414676
20
12.2672835963804
30
-3.2E-15
41
1
10
16.6831030975285
20
11.9730280954541
30
3.5E-15
41
1
10
16.2827646667402
20
11.7453664398892
30
3E-15
41
1
10
16.0006433165929
20
11.5849316459618
30
2.7E-15
41
1
10
15.6986850373892
20
11.4553988221437
30
2.3E-15
41
1
10
15.3879401809069
20
11.3618362901107
30
2E-15
0
SPLINE
5
132
100
AcDbEntity
8
1
62
256
6
ByLayer
370
18
48
1
60
0
100
AcDbSpline
70
4
71
3
72
10
73
6
40
0
40
0
40
0
40
0
40
0.5
40
0.5
40
1
40
1
40
1
40
1
41
1
10
22.6574703520952
20
10.0991719771652
30
3.4E-15
41
1
10
21.4900092974834
20
9.48880670970206
30
2E-15
41
1
10
20.280244358307
20
8.9735805442366
30
6E-16
41
1
10
17.7598880252865
20
8.16988134610389
30
-2.4E-15
41
1
10
16.4690222612978
20
7.84060663957285
30
3.2E-15
41
1
10
15.1404799766202
20
7.7182399389431
30
1.7E-15
0
SPLINE
5
133
100
AcDbEntity
8
1
62
256
6
ByLayer
370
18
48
1
60
0
100
AcDbSpline
70
4
71
3
72
8
73
4
40
0
40
0
40
0
40
0
40
1
40
1
40
1
40
1
41
1
10
5.18485899563376
20
20.771018999337
30
-2.1E-15
41
1
10
5.03564602228096
20
20.6979534975609
30
-1.2E-15
41
1
10
4.88641959146196
20
20.6140346972015
30
3E-16
41
1
10
4.74114886742405
20
20.5182734268298
30
2E-16
0
SPLINE
5
134
100
AcDbEntity
8
1
62
256
6
ByLayer
370
18
48
1
60
0
100
AcDbSpline
70
4
71
3
72
8
73
4
40
0
40
0
40
0
40
0
40
1
40
1
40
1
40
1
41
1.01923193622652
10
25.0835450895376
20
10.9163497416363
30
-9E-16
41
1.02059843499303
10
25.551322557172
20
11.2425899895502
30
-3E-16
41
1.02233811057541
10
26.1210956570946
20
11.6672341249597
30
3E-16
41
1.02417041321379
10
26.6711930891981
20
12.1341536552148
30
1E-15
0
SPLINE
5
135
100
AcDbEntity
8
1
62
256
6
ByLayer
370
18
48
1
60
0
100
AcDbSpline
70
4
71
3
72
8
73
4
40
0
40
0
40
0
40
0
40
1
40
1
40
1
40
1
41
1
10
26.0008952341012
20
19.3943160191586
30
2E-16
41
1
10
26.3346708642127
20
19.1647160994259
30
6E-16
41
1
10
26.6697918844997
20
18.9312917690742
30
1E-15
41
1
10
27.0045079078419
20
18.6952228902476
30
1.4E-15
0
SPLINE
5
136
100
AcDbEntity
8
1
62
256
6
ByLayer
370
18
48
1
60
0
100
AcDbSpline
70
4
71
2
72
6
73
3
40
0
40
0
40
0
40
1
40
1
40
1
41
1.02805999725224
10
14.2166644368926
20
21.1763552108432
30
6E-16
41
0.93055444607248
10
14.42559242962
20
20.742556332933
30
8E-16
41
0.937301687719828
10
14.643763318409
20
19.4210258675338
30
1.1E-15
0
SPLINE
5
137
100
AcDbEntity
8
1
62
256
6
ByLayer
370
18
48
1
60
0
100
AcDbSpline
70
4
71
3
72
8
73
4
40
0
40
0
40
0
40
0
40
1
40
1
40
1
40
1
41
1
10
4.91957749530644
20
18.5243802827269
30
-3.2E-15
41
1
10
4.91742347597415
20
18.547707600502
30
-3.2E-15
41
1
10
4.91576004013336
20
18.5709758871686
30
-3.2E-15
41
1
10
4.91456459520941
20
18.5941880687762
30
-3.2E-15
0
SPLINE
5
138
100
AcDbEntity
8
1
62
256
6
ByLayer
370
18
48
1
60
0
100
AcDbSpline
70
4
71
3
72
10
73
6
40
0
40
0
40
0
40
0
40
0.655488757716274
40
0.655488757716274
40
1
40
1
40
1
40
1
41
1
10
7.8417459851479
20
6.91521782851581
30
2E-16
41
1
10
7.48892707527574
20
6.85053255821489
30
-2E-16
41
1
10
7.08676452934122
20
6.82006818721186
30
-6E-16
41
1
10
6.44340155948822
20
6.89528663696314
30
-1.4E-15
41
1
10
6.21385413777978
20
6.9439140505693
30
-1.7E-15
41
1
10
5.98750138431626
20
7.02068740914473
30
-1.9E-15
0
SPLINE
5
139
100
AcDbEntity
8
1
62
256
6
ByLayer
370
18
48
1
60
0
100
AcDbSpline
70
4
71
3
72
8
73
4
40
0
40
0
40
0
40
0
40
1
40
1
40
1
40
1
41
1.02417048357497
10
26.0008159627873
20
19.3943627252778
30
2E-16
41
1.02233815524058
10
25.3734654580768
20
19.7639911985509
30
-5E-16
41
1.02059845272928
10
24.7344835255862
20
20.0887567115022
30
-1.3E-15
41
1.01923193651505
10
24.2139908841679
20
20.3333356635408
30
-1.9E-15
0
SPLINE
5
13A
100
AcDbEntity
8
1
62
256
6
ByLayer
370
18
48
1
60
0
100
AcDbSpline
70
4
71
3
72
8
73
4
40
0
40
0
40
0
40
0
40
1
40
1
40
1
40
1
41
1
10
26.6712836863742
20
12.134230554109
30
1E-15
41
1
10
26.9565938574201
20
12.4294955445721
30
1.3E-15
41
1
10
27.2428046766407
20
12.7257525333461
30
1.7E-15
41
1
10
27.5284178372137
20
13.0214514362426
30
2E-15
0
SPLINE
5
13B
100
AcDbEntity
8
1
62
256
6
ByLayer
370
18
48
1
60
0
100
AcDbSpline
70
4
71
3
72
8
73
4
40
0
40
0
40
0
40
0
40
1
40
1
40
1
40
1
41
1
10
25.0835020222876
20
10.9163197054863
30
-9E-16
41
1
10
24.9793168406237
20
10.8935315278801
30
-1E-15
41
1
10
24.874613629787
20
10.873024452838
30
-1.1E-15
41
1
10
24.7694557406826
20
10.8550349222938
30
-1.2E-15
0
SPLINE
5
13C
100
AcDbEntity
8
1
62
256
6
ByLayer
370
18
48
1
60
0
100
AcDbSpline
70
4
71
3
72
8
73
4
40
0
40
0
40
0
40
0
40
1
40
1
40
1
40
1
41
1
10
8.19858888754715
20
17.5266613115642
30
7E-16
41
1
10
6.96231966080535
20
18.0430110316324
30
-8E-16
41
1
10
5.82399339967753
20
18.4451564600567
30
-2.1E-15
41
1
10
5.06819392044781
20
18.5672776791525
30
-3E-15
0
SPLINE
5
13D
100
AcDbEntity
8
1
62
256
6
ByLayer
370
18
48
1
60
0
100
AcDbSpline
70
4
71
3
72
12
73
8
40
0
40
0
40
0
40
0
40
0.10885400284168
40
0.502629245107339
40
0.699516866240168
40
0.896404487372997
40
1
40
1
40
1
40
1
41
1.0244126255267
10
18.1307564339787
20
16.9044701904686
30
-1.9E-15
41
1.02394775696077
10
18.4736981876274
20
16.9010628358903
30
-1.5E-15
41
1.02173322391444
10
20.0984411982096
20
16.8754854895605
30
4E-16
41
1.01876555595691
10
22.3950495023069
20
16.7740515249113
30
3.1E-15
41
1.01610930227499
10
23.9411282984899
20
16.6641701009302
30
-2.2E-15
41
1.01814069306376
10
24.6486325511013
20
16.7031345122884
30
-1.4E-15
41
1.0200519600697
10
25.2815161507544
20
16.7150523763584
30
-6E-16
41
1.02076673234771
10
25.5132343354796
20
16.7166425928955
30
-4E-16
0
SPLINE
5
13E
100
AcDbEntity
8
1
62
256
6
ByLayer
370
18
48
1
60
0
100
AcDbSpline
70
4
71
3
72
8
73
4
40
0
40
0
40
0
40
0
40
1
40
1
40
1
40
1
41
1
10
9.37260271685409
20
18.2106093967981
30
2E-15
41
1
10
9.32223578304456
20
18.1611629751041
30
2E-15
41
1
10
9.26914444815475
20
18.1132284093305
30
1.9E-15
41
1
10
9.2132764002215
20
18.0669499464185
30
1.8E-15
0
SPLINE
5
13F
100
AcDbEntity
8
1
62
256
6
ByLayer
370
18
48
1
60
0
100
AcDbSpline
70
4
71
3
72
10
73
6
40
0
40
0
40
0
40
0
40
0.264715639145581
40
0.264715639145581
40
1
40
1
40
1
40
1
41
1
10
26.6716720235629
20
16.1334315600682
30
1E-15
41
1
10
26.5794819092263
20
16.0807080414139
30
9E-16
41
1
10
26.487256606231
20
16.0265034897302
30
8E-16
41
1
10
26.1389365484672
20
15.8170013933884
30
4E-16
41
1
10
25.8827823851685
20
15.6533418188368
30
1E-16
41
1
10
25.6271838901446
20
15.4826065600088
30
-2E-16
0
SPLINE
5
140
100
AcDbEntity
8
1
62
256
6
ByLayer
370
18
48
1
60
0
100
AcDbSpline
70
4
71
3
72
12
73
8
40
0
40
0
40
0
40
0
40
0.286978363858295
40
0.286978363858295
40
0.569998995185616
40
0.569998995185616
40
1
40
1
40
1
40
1
41
1
10
18.1307565848879
20
16.9044701889694
30
-1.9E-15
41
1
10
18.2169445130955
20
16.6867807334818
30
-1.8E-15
41
1
10
18.2854588086343
20
16.4612950414967
30
-1.7E-15
41
1
10
18.3837549069965
20
16.0074946277981
30
-1.6E-15
41
1
10
18.4143960247764
20
15.7777041022148
30
-1.6E-15
41
1
10
18.4441989289378
20
15.2010616462595
30
-1.6E-15
41
1
10
18.4190472640752
20
14.8500580927556
30
-1.6E-15
41
1
10
18.3517192396114
20
14.5115176347021
30
-1.7E-15
0
SPLINE
5
141
100
AcDbEntity
8
1
62
256
6
ByLayer
370
18
48
1
60
0
100
AcDbSpline
70
4
71
3
72
10
73
6
40
0
40
0
40
0
40
0
40
0.5
40
0.5
40
1
40
1
40
1
40
1
41
1
10
24.6699672629186
20
13.9751198542669
30
-1.4E-15
41
1
10
24.9910022645584
20
13.536569768923
30
-1E-15
41
1
10
25.3484198107258
20
13.1514572837813
30
-6E-16
41
1
10
26.2827508992868
20
12.703621509871
30
5E-16
41
1
10
26.8754119924754
20
12.6677192317252
30
1.2E-15
41
1
10
27.5284178372137
20
13.0214514362426
30
2E-15
0
LINE
5
72
100
AcDbEntity
8
1
62
256
6
ByLayer
370
18
48
1
60
0
100
AcDbLine
10
6.045631
20
21.195291
30
0
11
5.178296
21
20.767833
31
0
39
0
210
0
220
0
230
1
0
LINE
5
74
100
AcDbEntity
8
1
62
256
6
ByLayer
370
18
48
1
60
0
100
AcDbLine
10
13.290309
20
16.43394
30
0
11
13.447765
21
16.591397
31
0
39
0
210
0
220
0
230
1
0
LINE
5
75
100
AcDbEntity
8
1
62
256
6
ByLayer
370
18
48
1
60
0
100
AcDbLine
10
15.8852
20
12.249285
30
0
11
16.049147
21
12.413233
31
0
39
0
210
0
220
0
230
1
0
LINE
5
76
100
AcDbEntity
8
1
62
256
6
ByLayer
370
18
48
1
60
0
100
AcDbLine
10
13.13815
20
14.036398
30
0
11
12.980693
21
13.878941
31
0
39
0
210
0
220
0
230
1
0
LINE
5
77
100
AcDbEntity
8
1
62
256
6
ByLayer
370
18
48
1
60
0
100
AcDbLine
10
11.997728
20
15.532098
30
0
11
12.155185
21
15.689555
31
0
39
0
210
0
220
0
230
1
0
LINE
5
78
100
AcDbEntity
8
1
62
256
6
ByLayer
370
18
48
1
60
0
100
AcDbLine
10
14.43073
20
14.938239
30
0
11
14.273273
21
14.780783
31
0
39
0
210
0
220
0
230
1
0
LINE
5
79
100
AcDbEntity
8
1
62
256
6
ByLayer
370
18
48
1
60
0
100
AcDbLine
10
10.392293
20
18.070087
30
0
11
10.228346
21
17.90614
31
0
39
0
210
0
220
0
230
1
0
LINE
5
7A
100
AcDbEntity
8
1
62
256
6
ByLayer
370
18
48
1
60
0
100
AcDbLine
10
8.173455
20
17.473601
30
0
11
8.659856
21
17.713318
31
0
39
0
210
0
220
0
230
1
0
LINE
5
7B
100
AcDbEntity
8
80
62
256
6
ByLayer
370
18
48
1
60
0
100
AcDbLine
10
0
20
0
30
0
11
-5
21
0
31
0
39
0
210
0
220
0
230
1
0
LINE
5
7C
100
AcDbEntity
8
81
62
256
6
ByLayer
370
18
48
1
60
0
100
AcDbLine
10
27.350118
20
24.425
30
0
11
37.350118
21
24.425
31
0
39
0
210
0
220
0
230
1
0
LINE
5
7D
100
AcDbEntity
8
1
62
256
6
ByLayer
370
18
48
1
60
0
100
AcDbLine
10
8.43066
20
21.551626
30
0
11
7.003895
21
21.433726
31
0
39
0
210
0
220
0
230
1
0
LINE
5
7E
100
AcDbEntity
8
1
62
256
6
ByLayer
370
18
48
1
60
0
100
AcDbLine
10
8.43066
20
21.551626
30
0
11
8.435769
21
21.550431
31
0
39
0
210
0
220
0
230
1
0
LINE
5
7F
100
AcDbEntity
8
1
62
256
6
ByLayer
370
18
48
1
60
0
100
AcDbLine
10
11.748879
20
19.263669
30
0
11
13.784315
21
19.431865
31
0
39
0
210
0
220
0
230
1
0
LINE
5
80
100
AcDbEntity
8
1
62
256
6
ByLayer
370
18
48
1
60
0
100
AcDbLine
10
13.784315
20
19.431865
30
0
11
13.390133
21
19.237597
31
0
39
0
210
0
220
0
230
1
0
LINE
5
81
100
AcDbEntity
8
1
62
256
6
ByLayer
370
18
48
1
60
0
100
AcDbLine
10
8.322634
20
7.152219
30
0
11
9.749399
21
7.270119
31
0
39
0
210
0
220
0
230
1
0
LINE
5
82
100
AcDbEntity
8
1
62
256
6
ByLayer
370
18
48
1
60
0
100
AcDbLine
10
5.688842
20
10.193501
30
0
11
4.239745
21
9.479328
31
0
39
0
210
0
220
0
230
1
0
LINE
5
83
100
AcDbEntity
8
1
62
256
6
ByLayer
370
18
48
1
60
0
100
AcDbLine
10
6.65279
20
20.55132
30
0
11
14.216664
21
21.176355
31
0
39
0
210
0
220
0
230
1
0
LINE
5
84
100
AcDbEntity
8
1
62
256
6
ByLayer
370
18
48
1
60
0
100
AcDbLine
10
9.749399
20
7.270119
30
0
11
7.91344
21
6.92846
31
0
39
0
210
0
220
0
230
1
0
LINE
5
85
100
AcDbEntity
8
1
62
256
6
ByLayer
370
18
48
1
60
0
100
AcDbLine
10
9.749399
20
7.270119
30
0
11
9.754118
21
7.273142
31
0
39
0
210
0
220
0
230
1
0
LINE
5
86
100
AcDbEntity
8
1
62
256
6
ByLayer
370
18
48
1
60
0
100
AcDbLine
10
11.362571
20
19.073281
30
0
11
12.523794
21
19.167388
31
0
39
0
210
0
220
0
230
1
0
LINE
5
87
100
AcDbEntity
8
1
62
256
6
ByLayer
370
18
48
1
60
0
100
AcDbLine
10
13.200145
20
19.2222
30
0
11
13.390133
21
19.237597
31
0
39
0
210
0
220
0
230
1
0
LINE
5
88
100
AcDbEntity
8
1
62
256
6
ByLayer
370
18
48
1
60
0
100
AcDbLine
10
7.107673
20
17.179709
30
0
11
5.59871
21
17.057421
31
0
39
0
210
0
220
0
230
1
0
LINE
5
89
100
AcDbEntity
8
1
62
256
6
ByLayer
370
18
48
1
60
0
100
AcDbLine
10
14.544421
20
11.200163
30
0
11
12.508985
21
11.031966
31
0
39
0
210
0
220
0
230
1
0
LINE
5
8A
100
AcDbEntity
8
1
62
256
6
ByLayer
370
18
48
1
60
0
100
AcDbLine
10
28.451219
20
17.586906
30
0
11
28.266574
21
17.728362
31
0
39
0
210
0
220
0
230
1
0
LINE
5
8B
100
AcDbEntity
8
1
62
256
6
ByLayer
370
18
48
1
60
0
100
AcDbLine
10
28.265655
20
13.785817
30
0
11
28.408007
21
13.977027
31
0
39
0
210
0
220
0
230
1
0
LINE
5
8C
100
AcDbEntity
8
1
62
256
6
ByLayer
370
18
48
1
60
0
100
AcDbLine
10
4.239745
20
9.479328
30
0
11
3.47048
21
17.810207
31
0
39
0
210
0
220
0
230
1
0
LINE
5
8D
100
AcDbEntity
8
1
62
256
6
ByLayer
370
18
48
1
60
0
100
AcDbLine
10
7.481848
20
17.364118
30
0
11
7.107673
21
17.179709
31
0
39
0
210
0
220
0
230
1
0
LINE
5
8E
100
AcDbEntity
8
1
62
256
6
ByLayer
370
18
48
1
60
0
100
AcDbLine
10
7.765942
20
8.496249
30
0
11
15.329817
21
9.121285
31
0
39
0
210
0
220
0
230
1
0
LINE
5
8F
100
AcDbEntity
8
1
62
256
6
ByLayer
370
18
48
1
60
0
100
AcDbLine
10
5.59871
20
17.057421
30
0
11
6.074921
21
11.90021
31
0
39
0
210
0
220
0
230
1
0
LINE
5
90
100
AcDbEntity
8
1
62
256
6
ByLayer
370
18
48
1
60
0
100
AcDbLine
10
27.873821
20
18.029247
30
0
11
27.004508
21
18.695223
31
0
39
0
210
0
220
0
230
1
0
LINE
5
91
100
AcDbEntity
8
1
62
256
6
ByLayer
370
18
48
1
60
0
100
AcDbLine
10
13.822131
20
21.995529
30
0
11
8.435769
21
21.550431
31
0
39
0
210
0
220
0
230
1
0
LINE
5
92
100
AcDbEntity
8
1
62
256
6
ByLayer
370
18
48
1
60
0
100
AcDbLine
10
28.755328
20
14.293509
30
0
11
28.598736
21
14.131155
31
0
39
0
210
0
220
0
230
1
0
LINE
5
93
100
AcDbEntity
8
1
62
256
6
ByLayer
370
18
48
1
60
0
100
AcDbLine
10
28.049063
20
17.864281
30
0
11
27.873821
21
18.029247
31
0
39
0
210
0
220
0
230
1
0
LINE
5
94
100
AcDbEntity
8
1
62
256
6
ByLayer
370
18
48
1
60
0
100
AcDbLine
10
11.748879
20
19.263669
30
0
11
11.362571
21
19.073281
31
0
39
0
210
0
220
0
230
1
0
LINE
5
95
100
AcDbEntity
8
1
62
256
6
ByLayer
370
18
48
1
60
0
100
AcDbLine
10
4.919577
20
18.52438
30
0
11
5.688842
21
10.193501
31
0
39
0
210
0
220
0
230
1
0
LINE
5
96
100
AcDbEntity
8
1
62
256
6
ByLayer
370
18
48
1
60
0
100
AcDbLine
10
26.671672
20
16.133432
30
0
11
29.426099
21
16.07519
31
0
39
0
210
0
220
0
230
1
0
LINE
5
97
100
AcDbEntity
8
1
62
256
6
ByLayer
370
18
48
1
60
0
100
AcDbLine
10
8.322634
20
7.152219
30
0
11
7.841746
21
6.915218
31
0
39
0
210
0
220
0
230
1
0
LINE
5
98
100
AcDbEntity
8
1
62
256
6
ByLayer
370
18
48
1
60
0
100
AcDbLine
10
4.919577
20
18.52438
30
0
11
3.47048
21
17.810207
31
0
39
0
210
0
220
0
230
1
0
LINE
5
99
100
AcDbEntity
8
1
62
256
6
ByLayer
370
18
48
1
60
0
100
AcDbLine
10
15.14048
20
7.71824
30
0
11
9.754118
21
7.273142
31
0
39
0
210
0
220
0
230
1
0
LINE
5
9A
100
AcDbEntity
8
1
62
256
6
ByLayer
370
18
48
1
60
0
100
AcDbLine
10
28.265655
20
13.785817
30
0
11
27.528418
21
13.021451
31
0
39
0
210
0
220
0
230
1
0
LINE
5
9B
100
AcDbEntity
8
1
62
256
6
ByLayer
370
18
48
1
60
0
100
AcDbLine
10
14.402227
20
15.63641
30
0
11
14.559683
21
15.793866
31
0
39
0
210
0
220
0
230
1
0
LINE
5
9C
100
AcDbEntity
8
1
62
256
6
ByLayer
370
18
48
1
60
0
100
AcDbLine
10
11.799992
20
15.421376
30
0
11
11.957448
21
15.578832
31
0
39
0
210
0
220
0
230
1
0
LINE
5
9D
100
AcDbEntity
8
1
62
256
6
ByLayer
370
18
48
1
60
0
100
AcDbLine
10
14.195277
20
14.295291
30
0
11
14.352734
21
14.452747
31
0
39
0
210
0
220
0
230
1
0
LINE
5
9E
100
AcDbEntity
8
1
62
256
6
ByLayer
370
18
48
1
60
0
100
AcDbLine
10
12.685887
20
16.443305
30
0
11
12.843343
21
16.600761
31
0
39
0
210
0
220
0
230
1
0
LINE
5
9F
100
AcDbEntity
8
1
62
256
6
ByLayer
370
18
48
1
60
0
100
AcDbLine
10
14.021396
20
16.17837
30
0
11
14.178852
21
16.335826
31
0
39
0
210
0
220
0
230
1
0
LINE
5
A0
100
AcDbEntity
8
1
62
256
6
ByLayer
370
18
48
1
60
0
100
AcDbLine
10
12.982505
20
13.869276
30
0
11
13.086008
21
13.972779
31
0
39
0
210
0
220
0
230
1
0
LINE
5
A1
100
AcDbEntity
8
1
62
256
6
ByLayer
370
18
48
1
60
0
100
AcDbLine
10
7.801767
20
-11.439569
30
0
11
6.099485
21
6.995582
31
0
39
0
210
0
220
0
230
1
0
LINE
5
A2
100
AcDbEntity
8
1
62
256
6
ByLayer
370
18
48
1
60
0
100
AcDbLine
10
4.845661
20
20.574078
30
0
11
4.841035
21
20.624177
31
0
39
0
210
0
220
0
230
1
0
LINE
5
A3
100
AcDbEntity
8
1
62
256
6
ByLayer
370
18
48
1
60
0
100
AcDbLine
10
23.362759
20
10.434258
30
0
11
24.180595
21
9.616423
31
0
39
0
210
0
220
0
230
1
0
LINE
5
A4
100
AcDbEntity
8
1
62
256
6
ByLayer
370
18
48
1
60
0
100
AcDbLine
10
2.720816
20
-15.936872
30
0
11
0
21
14.162572
31
0
39
0
210
0
220
0
230
1
0
LINE
5
A5
100
AcDbEntity
8
1
62
256
6
ByLayer
370
18
48
1
60
0
100
AcDbLine
10
4.685576
20
20.610576
30
0
11
4.841035
21
20.624177
31
0
39
0
210
0
220
0
230
1
0
LINE
5
A6
100
AcDbEntity
8
1
62
256
6
ByLayer
370
18
48
1
60
0
100
AcDbLine
10
24.625899
20
22.355129
30
0
11
24.377511
21
22.333397
31
0
39
0
210
0
220
0
230
1
0
LINE
5
A7
100
AcDbEntity
8
1
62
256
6
ByLayer
370
18
48
1
60
0
100
AcDbLine
10
0
20
15.925
30
0
11
4.019052
21
19.944052
31
0
39
0
210
0
220
0
230
1
0
LINE
5
A8
100
AcDbEntity
8
1
62
256
6
ByLayer
370
18
48
1
60
0
100
AcDbLine
10
17.107792
20
-2.133543
30
0
11
9.587486
21
5.386764
31
0
39
0
210
0
220
0
230
1
0
LINE
5
A9
100
AcDbEntity
8
1
62
256
6
ByLayer
370
18
48
1
60
0
100
AcDbLine
10
7.821449
20
-11.419887
30
0
11
6.121454
21
6.9905
31
0
39
0
210
0
220
0
230
1
0
LINE
5
AA
100
AcDbEntity
8
1
62
256
6
ByLayer
370
18
48
1
60
0
100
AcDbLine
10
4.866154
20
20.584984
30
0
11
4.862362
21
20.626043
31
0
39
0
210
0
220
0
230
1
0
LINE
5
AB
100
AcDbEntity
8
1
62
256
6
ByLayer
370
18
48
1
60
0
100
AcDbLine
10
26.571081
20
7.329746
30
0
11
26.509656
21
7.26832
31
0
39
0
210
0
220
0
230
1
0
LINE
5
AC
100
AcDbEntity
8
1
62
256
6
ByLayer
370
18
48
1
60
0
100
AcDbLine
10
0
20
-15.925
30
0
11
2.720816
21
-15.936872
31
0
39
0
210
0
220
0
230
1
0
LINE
5
AD
100
AcDbEntity
8
1
62
256
6
ByLayer
370
18
48
1
60
0
100
AcDbLine
10
9.303735
20
-9.937601
30
0
11
7.821449
21
-11.419887
31
0
39
0
210
0
220
0
230
1
0
LINE
5
AE
100
AcDbEntity
8
1
62
256
6
ByLayer
370
18
48
1
60
0
100
AcDbLine
10
9.587486
20
5.386764
30
0
11
9.303735
21
-9.937601
31
0
39
0
210
0
220
0
230
1
0
LINE
5
AF
100
AcDbEntity
8
1
62
256
6
ByLayer
370
18
48
1
60
0
100
AcDbLine
10
0
20
14.162572
30
0
11
0
21
15.925
31
0
39
0
210
0
220
0
230
1
0
LINE
5
B0
100
AcDbEntity
8
1
62
256
6
ByLayer
370
18
48
1
60
0
100
AcDbLine
10
17.107792
20
-2.133543
30
0
11
26.509656
21
7.26832
31
0
39
0
210
0
220
0
230
1
0
LINE
5
B1
100
AcDbEntity
8
1
62
256
6
ByLayer
370
18
48
1
60
0
100
AcDbLine
10
3.304717
20
-15.936619
30
0
11
2.720816
21
-15.936872
31
0
39
0
210
0
220
0
230
1
0
LINE
5
B2
100
AcDbEntity
8
1
62
256
6
ByLayer
370
18
48
1
60
0
100
AcDbLine
10
4.862362
20
20.626043
30
0
11
4.9574
21
20.634358
31
0
39
0
210
0
220
0
230
1
0
LINE
5
B3
100
AcDbEntity
8
1
62
256
6
ByLayer
370
18
48
1
60
0
100
AcDbLine
10
0
20
14.162572
30
0
11
0
21
-15.925
31
0
39
0
210
0
220
0
230
1
0
LINE
5
B4
100
AcDbEntity
8
1
62
256
6
ByLayer
370
18
48
1
60
0
100
AcDbLine
10
4.019052
20
19.944052
30
0
11
4.685576
21
20.610576
31
0
39
0
210
0
220
0
230
1
0
LINE
5
B5
100
AcDbEntity
8
1
62
256
6
ByLayer
370
18
48
1
60
0
100
AcDbLine
10
7.821449
20
-11.419887
30
0
11
7.801767
21
-11.439569
31
0
39
0
210
0
220
0
230
1
0
LINE
5
B6
100
AcDbEntity
8
1
62
256
6
ByLayer
370
18
48
1
60
0
100
AcDbLine
10
9.587486
20
5.386764
30
0
11
9.419242
21
7.208788
31
0
39
0
210
0
220
0
230
1
0
LINE
5
B7
100
AcDbEntity
8
1
62
256
6
ByLayer
370
18
48
1
60
0
100
AcDbLine
10
6.991775
20
-12.24956
30
0
11
5.160531
21
7.582208
31
0
39
0
210
0
220
0
230
1
0
LINE
5
B8
100
AcDbEntity
8
1
62
256
6
ByLayer
370
18
48
1
60
0
100
AcDbLine
10
4.029642
20
19.829362
30
0
11
4.019052
21
19.944052
31
0
39
0
210
0
220
0
230
1
0
LINE
5
B9
100
AcDbEntity
8
1
62
256
6
ByLayer
370
18
48
1
60
0
100
AcDbLine
10
6.991775
20
-12.24956
30
0
11
3.304717
21
-15.936619
31
0
39
0
210
0
220
0
230
1
0
LINE
5
BA
100
AcDbEntity
8
1
62
256
6
ByLayer
370
18
48
1
60
0
100
AcDbLine
10
24.377511
20
22.333397
30
0
11
17.880896
21
21.765017
31
0
39
0
210
0
220
0
230
1
0
LINE
5
BB
100
AcDbEntity
8
1
62
256
6
ByLayer
370
18
48
1
60
0
100
AcDbLine
10
24.377511
20
22.333397
30
0
11
22.629326
21
20.600551
31
0
39
0
210
0
220
0
230
1
0
LINE
5
BC
100
AcDbEntity
8
1
62
256
6
ByLayer
370
18
48
1
60
0
100
AcDbLine
10
26.509656
20
7.26832
30
0
11
23.348983
21
10.428993
31
0
39
0
210
0
220
0
230
1
0
LINE
5
BD
100
AcDbEntity
8
1
62
256
6
ByLayer
370
18
48
1
60
0
100
AcDbLine
10
7.801767
20
-11.439569
30
0
11
6.991775
21
-12.24956
31
0
39
0
210
0
220
0
230
1
0
LINE
5
BE
100
AcDbEntity
8
1
62
256
6
ByLayer
370
18
48
1
60
0
100
AcDbLine
10
4.841035
20
20.624177
30
0
11
4.862362
21
20.626043
31
0
39
0
210
0
220
0
230
1
0
LINE
5
BF
100
AcDbEntity
8
1
62
256
6
ByLayer
370
18
48
1
60
0
100
AcDbLine
10
9.303735
20
-9.937601
30
0
11
17.107792
21
-2.133543
31
0
39
0
210
0
220
0
230
1
0
LINE
5
C0
100
AcDbEntity
8
1
62
256
6
ByLayer
370
18
48
1
60
0
100
AcDbLine
10
26.571081
20
7.329746
30
0
11
24.826719
21
9.074108
31
0
39
0
210
0
220
0
230
1
0
LINE
5
C1
100
AcDbEntity
8
SK1
62
256
6
ByLayer
370
18
48
1
60
0
100
AcDbLine
10
0
20
14.162572
30
0
11
-1.762428
21
15.925
31
0
39
0
210
0
220
0
230
1
0
LINE
5
C3
100
AcDbEntity
8
SK1
62
256
6
ByLayer
370
18
48
1
60
0
100
AcDbLine
10
-143.999882
20
15.925
30
0
11
-143.999882
21
-15.925
31
0
39
0
210
0
220
0
230
1
0
LINE
5
C4
100
AcDbEntity
8
SK1
62
256
6
ByLayer
370
18
48
1
60
0
100
AcDbLine
10
0
20
14.162572
30
0
11
0
21
-15.925
31
0
39
0
210
0
220
0
230
1
0
LINE
5
C5
100
AcDbEntity
8
SK1
62
256
6
ByLayer
370
18
48
1
60
0
100
AcDbLine
10
0
20
14.162572
30
0
11
0
21
15.925
31
0
39
0
210
0
220
0
230
1
0
LINE
5
C6
100
AcDbEntity
8
SK1
62
256
6
ByLayer
370
18
48
1
60
0
100
AcDbLine
10
-143.999882
20
-15.925
30
0
11
0
21
-15.925
31
0
39
0
210
0
220
0
230
1
0
LINE
5
C7
100
AcDbEntity
8
SK1
62
256
6
ByLayer
370
18
48
1
60
0
100
AcDbLine
10
-1.762428
20
15.925
30
0
11
0
21
15.925
31
0
39
0
210
0
220
0
230
1
0
LINE
5
C8
100
AcDbEntity
8
SK1
62
256
6
ByLayer
370
18
48
1
60
0
100
AcDbLine
10
-1.762428
20
15.925
30
0
11
-143.999882
21
15.925
31
0
39
0
210
0
220
0
230
1
0
LINE
5
C9
100
AcDbEntity
8
1
62
256
6
ByLayer
370
18
48
1
60
0
100
AcDbLine
10
27.197884
20
6.966599
30
0
11
26.891266
21
6.659981
31
0
39
0
210
0
220
0
230
1
0
LINE
5
CA
100
AcDbEntity
8
1
62
256
6
ByLayer
370
18
48
1
60
0
100
AcDbLine
10
27.66632
20
7.435035
30
0
11
35.447223
21
15.215938
31
0
39
0
210
0
220
0
230
1
0
LINE
5
CB
100
AcDbEntity
8
1
62
256
6
ByLayer
370
18
48
1
60
0
100
AcDbLine
10
35.441759
20
16.333359
30
0
11
27.584388
21
24.19073
31
0
39
0
210
0
220
0
230
1
0
LINE
5
CC
100
AcDbEntity
8
1
62
256
6
ByLayer
370
18
48
1
60
0
100
AcDbLine
10
26.504609
20
7.39621
30
0
11
26.548898
21
7.440499
31
0
39
0
210
0
220
0
230
1
0
LINE
5
CD
100
AcDbEntity
8
1
62
256
6
ByLayer
370
18
48
1
60
0
100
AcDbLine
10
23.50208
20
10.487317
30
0
11
26.548898
21
7.440499
31
0
39
0
210
0
220
0
230
1
0
LINE
5
CE
100
AcDbEntity
8
1
62
256
6
ByLayer
370
18
48
1
60
0
100
AcDbLine
10
26.466967
20
24.196194
30
0
11
22.827449
21
20.556676
31
0
39
0
210
0
220
0
230
1
0
LINE
5
CF
100
AcDbEntity
8
1
62
256
6
ByLayer
370
18
48
1
60
0
100
AcDbLine
10
27.197887
20
6.966602
30
0
11
27.66632
21
7.435035
31
0
39
0
210
0
220
0
230
1
0
LINE
5
D0
100
AcDbEntity
8
2
62
256
6
ByLayer
370
18
48
1
60
1
100
AcDbLine
10
27.350118
20
24.425
30
0
11
27.350825
21
24.424293
31
0
39
0
210
0
220
0
230
1
0
MTEXT
5
142
100
AcDbEntity
8
SK6
62
256
6
ByLayer
370
18
48
1
60
0
100
AcDbMText
10
-72.449882
20
-26.805936
30
0
210
0
220
0
230
1
1
\W0.7579;DSSNR 3232P 12
40
3.5
41
0
44
1.084337
50
0
71
7
72
5
7
iso_b_vert
0
DIMENSION
5
153
100
AcDbEntity
8
2
62
256
6
ByLayer
370
13
48
1
60
0
100
AcDbDimension
2
DimnDraft3D1
10
79.950118
20
-15.925
30
0
11
79.950118
21
-4.630425
31
0
70
32
71
5
72
1
41
1
210
0
220
0
230
1
3
Standard
100
AcDbAlignedDimension
13
37.67281
23
16.102308
33
0
14
2
24
-15.925
34
0
50
90
100
AcDbRotatedDimension
1001
ACAD
1000
DSTYLE
1002
{
1070
    74
1070
     0
1070
   279
1070
     0
1070
   172
1070
     1
1070
   173
1070
     1
1070
   340
1005
143
1070
    77
1070
     1
1070
    73
1070
     0
1070
   171
1070
     3
1070
   274
1070
     4
1070
   177
1070
     2
1070
   176
1070
     2
1070
   178
1070
     7
1070
    78
1070
     8
1070
    41
1041
3.175
1070
   147
1041
2.25
1070
    42
1041
2.0
1070
    44
1041
2.0
1070
   140
1041
4.5
1070
   343
1005
154
1070
   344
1005
154
1002
}
0
DIMENSION
5
169
100
AcDbEntity
8
SK2
62
256
6
ByLayer
370
13
48
1
60
0
100
AcDbDimension
2
DimnDraft3D2
10
-151.749882
20
15.925
30
0
11
-151.749882
21
-5.281579
31
0
70
32
71
5
72
1
41
1
210
0
220
0
230
1
3
Standard
100
AcDbAlignedDimension
13
-145.999882
23
-15.925
33
0
14
-145.999882
24
15.925
34
0
50
90
100
AcDbRotatedDimension
1001
ACAD
1000
DSTYLE
1002
{
1070
    74
1070
     0
1070
   279
1070
     0
1070
   172
1070
     1
1070
   173
1070
     1
1070
   340
1005
143
1070
    77
1070
     1
1070
    73
1070
     0
1070
   171
1070
     3
1070
   274
1070
     4
1070
   177
1070
     2
1070
   176
1070
     2
1070
   178
1070
     7
1070
    78
1070
     8
1070
    41
1041
3.175
1070
   147
1041
2.25
1070
    42
1041
2.0
1070
    44
1041
2.0
1070
   140
1041
4.5
1070
   343
1005
154
1070
   344
1005
154
1002
}
0
DIMENSION
5
177
100
AcDbEntity
8
2
62
256
6
ByLayer
370
13
48
1
60
0
100
AcDbDimension
2
DimnDraft3D3
10
89.950118
20
24.425
30
0
11
89.950118
21
-1.268421
31
0
70
32
71
5
72
1
41
1
210
0
220
0
230
1
3
Standard
100
AcDbAlignedDimension
13
2
23
-15.925
33
0
14
29.350118
24
24.425
34
0
50
90
100
AcDbRotatedDimension
1001
ACAD
1000
DSTYLE
1002
{
1070
    74
1070
     0
1070
   279
1070
     0
1070
   172
1070
     1
1070
   173
1070
     1
1070
   340
1005
143
1070
    77
1070
     1
1070
    73
1070
     0
1070
   171
1070
     3
1070
   274
1070
     4
1070
   177
1070
     2
1070
   176
1070
     2
1070
   178
1070
     7
1070
    78
1070
     8
1070
    41
1041
3.175
1070
   147
1041
2.25
1070
    42
1041
2.0
1070
    44
1041
2.0
1070
   140
1041
4.5
1070
   343
1005
154
1070
   344
1005
154
1002
}
0
DIMENSION
5
185
100
AcDbEntity
8
2
62
256
6
ByLayer
370
13
48
1
60
0
100
AcDbDimension
2
DimnDraft3D4
10
27.350118
20
31.852308
30
0
11
8.156638
21
31.852308
31
0
70
32
71
5
72
1
41
1
210
0
220
0
230
1
3
Standard
100
AcDbAlignedDimension
13
0
23
17.925
33
0
14
27.350118
24
26.425
34
0
50
0
100
AcDbRotatedDimension
1001
ACAD
1000
DSTYLE
1002
{
1070
   279
1070
     0
1070
   172
1070
     1
1070
   173
1070
     1
1070
   340
1005
143
1070
    77
1070
     1
1070
    73
1070
     0
1070
   171
1070
     3
1070
   274
1070
     4
1070
   177
1070
     2
1070
   176
1070
     2
1070
   178
1070
     7
1070
    78
1070
     8
1070
    41
1041
3.175
1070
   147
1041
2.25
1070
    42
1041
2.0
1070
    44
1041
2.0
1070
   140
1041
4.5
1070
   343
1005
154
1070
   344
1005
154
1002
}
0
DIMENSION
5
193
100
AcDbEntity
8
SK2
62
256
6
ByLayer
370
13
48
1
60
0
100
AcDbDimension
2
DimnDraft3D5
10
27.350118
20
41.852308
30
0
11
-64.72554
21
41.852308
31
0
70
32
71
5
72
1
41
1
210
0
220
0
230
1
3
Standard
100
AcDbAlignedDimension
13
-143.999882
23
17.925
33
0
14
27.350118
24
26.425
34
0
50
0
100
AcDbRotatedDimension
1001
ACAD
1000
DSTYLE
1002
{
1070
   279
1070
     0
1070
   172
1070
     1
1070
   173
1070
     1
1070
   340
1005
143
1070
    77
1070
     1
1070
    73
1070
     0
1070
   171
1070
     3
1070
   274
1070
     4
1070
   177
1070
     2
1070
   176
1070
     2
1070
   178
1070
     7
1070
    78
1070
     8
1070
    41
1041
3.175
1070
   147
1041
2.25
1070
    42
1041
2.0
1070
    44
1041
2.0
1070
   140
1041
4.5
1070
   343
1005
154
1070
   344
1005
154
1002
}
0
DIMENSION
5
1A1
100
AcDbEntity
8
SK2
62
256
6
ByLayer
370
13
48
1
60
0
100
AcDbDimension
2
DimnDraft3D6
10
-143.999882
20
51.852308
30
0
11
-60.564194
21
51.852308
31
0
70
32
71
5
72
1
41
1
210
0
220
0
230
1
3
Standard
100
AcDbAlignedDimension
13
35.67281
23
18.102308
33
0
14
-143.999882
24
17.925
34
0
50
0
100
AcDbRotatedDimension
1001
ACAD
1000
DSTYLE
1002
{
1070
   279
1070
     0
1070
   172
1070
     1
1070
   173
1070
     1
1070
   340
1005
143
1070
    77
1070
     1
1070
    73
1070
     0
1070
   171
1070
     3
1070
   274
1070
     4
1070
   177
1070
     2
1070
   176
1070
     2
1070
   178
1070
     7
1070
    78
1070
     8
1070
    41
1041
3.175
1070
   147
1041
2.25
1070
    42
1041
2.0
1070
    44
1041
2.0
1070
   140
1041
4.5
1070
   343
1005
154
1070
   344
1005
154
1002
}
0
DIMENSION
5
1AF
100
AcDbEntity
8
2
62
256
6
ByLayer
370
13
48
1
60
0
100
AcDbDimension
2
DimnDraft3D7
10
35.67281
20
16.102308
30
0
11
53.005864
21
-25.743386
31
0
70
34
71
5
72
1
41
1
210
0
220
0
230
1
3
Standard
100
AcDb2LineAngularDimension
13
35.67281
23
16.102308
33
0
14
35.67281
24
15.308558
34
0
15
27.350118
25
24.425
35
0
16
54.72794
26
-29.900844
36
0
40
0
0
ENDSEC
0
SECTION
2
OBJECTS
0
DICTIONARY
5
219
330
0
100
AcDbDictionary
280
0
281
1
3
ACAD_GROUP
350
21a
3
ACAD_MLINESTYLE
350
21b
0
DICTIONARY
5
21a
330
0
100
AcDbDictionary
280
0
281
1
0
DICTIONARY
5
21b
330
0
100
AcDbDictionary
280
0
281
1
3
Standard
350
18
0
MLINESTYLE
5
18
330
21b
100
AcDbMlineStyle
2
Standard
70
0
3

62
256
51
90
52
90
71
2
49
-0.5
62
256
6
ByLayer
49
0.5
62
256
6
ByLayer
0
RASTERVARIABLES
5
208
330

100
AcDbRasterVariables
90
0
70
1
71
1
72
1
0
ENDSEC
0
EOF
