0
SECTION
2
HEADER
9
$ACADVER
1
AC1015
9
$DWGCODEPAGE
3
ANSI_1252
9
$HANDSEED
5
238
9
$ANGBASE
50
0
9
$ANGDIR
70
0
9
$ATTMODE
70
1
9
$AUNITS
70
0
9
$AUPREC
70
0
9
$CECOLOR
62
256
9
$CELTSCALE
40
1
9
$CELTYPE
6
ByLayer
9
$CELWEIGHT
370
18
9
$CLAYER
8
0
9
$CMLJUST
70
0
9
$CMLSCALE
40
1
9
$CMLSTYLE
2
Standard
9
$DIMSTYLE
2
Standard
9
$TEXTSIZE
40
0.2
9
$TEXTSTYLE
7
Standard
9
$LUNITS
70
2
9
$LUPREC
70
4
9
$EXTNAMES
290
1
9
$INSUNITS
70
4
9
$LTSCALE
40
1
9
$LWDISPLAY
290
1
9
$PDMODE
70
0
9
$PDSIZE
40
0
9
$PLINEGEN
70
0
0
ENDSEC
0
SECTION
2
CLASSES
0
CLASS
1
RASTERVARIABLES
2
AcDbRasterVariables
3
ISM
90
0
280
0
281
0
0
ENDSEC
0
SECTION
2
TABLES
0
TABLE
2
VPORT
5
22e
100
AcDbSymbolTable
0
VPORT
5
1
100
AcDbSymbolTableRecord
100
AcDbViewportTableRecord
2
*Active
70
0
10
0
20
0
11
1
21
1
12
-1
22
1
13
0
23
0
14
0.5
24
0.5
15
10
25
10
16
0
26
0
36
1
17
0
27
0
37
0
0
ENDTAB
0
TABLE
2
LTYPE
5
22f
100
AcDbSymbolTable
0
LTYPE
5
14
100
AcDbSymbolTableRecord
100
AcDbLinetypeTableRecord
70
0
2
ByBlock
3

72
65
73
0
40
0
0
LTYPE
5
15
100
AcDbSymbolTableRecord
100
AcDbLinetypeTableRecord
70
0
2
ByLayer
3

72
65
73
0
40
0
0
LTYPE
5
16
100
AcDbSymbolTableRecord
100
AcDbLinetypeTableRecord
70
0
2
CONTINUOUS
3
Solid line
72
65
73
0
40
0
0
LTYPE
5
6A
100
AcDbSymbolTableRecord
100
AcDbLinetypeTableRecord
70
0
2
CENTER
3
____ _ ____ _ ____ _ ____
72
65
73
4
40
47.5
49
22
74
0
49
-8.5
74
0
49
8.5
74
0
49
-8.5
74
0
0
LTYPE
5
6B
100
AcDbSymbolTableRecord
100
AcDbLinetypeTableRecord
70
0
2
DASHED
3
__ __ __ __ __ __ __ __ __
72
65
73
2
40
25.72
49
12.86
74
0
49
-12.86
74
0
0
ENDTAB
0
TABLE
2
LAYER
5
230
100
AcDbSymbolTable
0
LAYER
5
10
100
AcDbSymbolTableRecord
100
AcDbLayerTableRecord
2
0
70
0
62
7
6
CONTINUOUS
290
1
370
-3
390
0
0
LAYER
5
6D
100
AcDbSymbolTableRecord
100
AcDbLayerTableRecord
2
2
70
0
62
7
6
CONTINUOUS
290
1
370
-3
390
0
0
LAYER
5
6F
100
AcDbSymbolTableRecord
100
AcDbLayerTableRecord
2
80
70
0
62
-6
6
CONTINUOUS
290
1
370
-3
390
0
0
LAYER
5
71
100
AcDbSymbolTableRecord
100
AcDbLayerTableRecord
2
81
70
0
62
-3
6
CONTINUOUS
290
1
370
-3
390
0
0
LAYER
5
73
100
AcDbSymbolTableRecord
100
AcDbLayerTableRecord
2
1
70
0
62
4
6
CONTINUOUS
290
1
370
-3
390
0
0
LAYER
5
21b
100
AcDbSymbolTableRecord
100
AcDbLayerTableRecord
2
SK1
70
0
62
4
6
CONTINUOUS
290
1
370
-3
390
0
0
LAYER
5
21c
100
AcDbSymbolTableRecord
100
AcDbLayerTableRecord
2
SK6
70
0
62
5
6
CONTINUOUS
290
1
370
-3
390
0
0
LAYER
5
21d
100
AcDbSymbolTableRecord
100
AcDbLayerTableRecord
2
SK2
70
0
62
7
6
CONTINUOUS
290
1
370
-3
390
0
0
ENDTAB
0
TABLE
2
STYLE
5
231
100
AcDbSymbolTable
0
STYLE
5
11
100
AcDbSymbolTableRecord
100
AcDbTextStyleTableRecord
2
Standard
3
txt
70
0
71
0
40
0
41
1
42
0
50
0
0
STYLE
5
155
100
AcDbSymbolTableRecord
100
AcDbTextStyleTableRecord
2
iso_b_vert
3
simplex.shx
70
0
71
0
40
0
41
1
42
0
50
0
0
STYLE
5
156
100
AcDbSymbolTableRecord
100
AcDbTextStyleTableRecord
2
DWGDirectTextStyle
3
simplex
70
0
71
0
40
0
41
1
42
0
50
0
0
ENDTAB
0
TABLE
2
DIMSTYLE
5
232
100
AcDbSymbolTable
100
AcDbDimStyleTable
0
DIMSTYLE
105
27
100
AcDbSymbolTableRecord
100
AcDbDimStyleTableRecord
2
Standard
70
0
3
<>
41
0.18
42
0.0625
44
0.18
140
0.18
147
0.09
73
0
74
0
77
1
271
2
275
0
278
52
280
0
340
11
0
ENDTAB
0
TABLE
2
VIEW
5
233
100
AcDbSymbolTable
0
ENDTAB
0
TABLE
2
UCS
5
234
100
AcDbSymbolTable
0
ENDTAB
0
TABLE
2
APPID
5
235
100
AcDbSymbolTable
0
APPID
5
12
100
AcDbSymbolTableRecord
100
AcDbRegAppTableRecord
2
ACAD
70
0
0
ENDTAB
0
TABLE
2
BLOCK_RECORD
5
236
100
AcDbSymbolTable
0
BLOCK_RECORD
5
1F
100
AcDbSymbolTableRecord
100
AcDbBlockTableRecord
2
*Model_Space
340
0
70
0
0
BLOCK_RECORD
5
1B
100
AcDbSymbolTableRecord
100
AcDbBlockTableRecord
2
*Paper_Space
340
0
70
0
0
BLOCK_RECORD
5
23
100
AcDbSymbolTableRecord
100
AcDbBlockTableRecord
2
*Paper_Space0
340
0
70
0
0
BLOCK_RECORD
5
158
100
AcDbSymbolTableRecord
100
AcDbBlockTableRecord
2
DimnDraft3D1
340
0
70
0
0
BLOCK_RECORD
5
166
100
AcDbSymbolTableRecord
100
AcDbBlockTableRecord
2
_CLOSED
340
0
70
0
0
BLOCK_RECORD
5
16D
100
AcDbSymbolTableRecord
100
AcDbBlockTableRecord
2
DimnDraft3D2
340
0
70
0
0
BLOCK_RECORD
5
17C
100
AcDbSymbolTableRecord
100
AcDbBlockTableRecord
2
DimnDraft3D3
340
0
70
0
0
BLOCK_RECORD
5
18A
100
AcDbSymbolTableRecord
100
AcDbBlockTableRecord
2
DimnDraft3D4
340
0
70
0
0
BLOCK_RECORD
5
198
100
AcDbSymbolTableRecord
100
AcDbBlockTableRecord
2
DimnDraft3D5
340
0
70
0
0
BLOCK_RECORD
5
1A6
100
AcDbSymbolTableRecord
100
AcDbBlockTableRecord
2
DimnDraft3D6
340
0
70
0
0
BLOCK_RECORD
5
1B4
100
AcDbSymbolTableRecord
100
AcDbBlockTableRecord
2
DimnDraft3D7
340
0
70
0
0
ENDTAB
0
ENDSEC
0
SECTION
2
BLOCKS
0
BLOCK
5
20
100
AcDbEntity
8
0
100
AcDbBlockBegin
2
*Model_Space
70
0
10
0
20
0
30
0
3
*Model_Space
0
ENDBLK
5
21
100
AcDbEntity
8
0
100
AcDbBlockEnd
0
BLOCK
5
1C
100
AcDbEntity
8
0
100
AcDbBlockBegin
2
*Paper_Space
70
0
10
0
20
0
30
0
3
*Paper_Space
0
ENDBLK
5
1D
100
AcDbEntity
8
0
100
AcDbBlockEnd
0
BLOCK
5
24
100
AcDbEntity
8
0
100
AcDbBlockBegin
2
*Paper_Space0
70
0
10
0
20
0
30
0
3
*Paper_Space0
0
ENDBLK
5
25
100
AcDbEntity
8
0
100
AcDbBlockEnd
0
BLOCK
5
163
100
AcDbEntity
8
0
100
AcDbBlockBegin
2
DimnDraft3D1
70
0
10
0
20
0
30
0
3
DimnDraft3D1
0
MTEXT
5
159
100
AcDbEntity
8
2
62
256
6
ByLayer
370
18
48
1
60
0
100
AcDbMText
10
76.617165
20
-4.976066
30
0
210
0
220
0
230
1
1
\W0.6562;21.8
40
4.5
41
0
44
1.084337
50
90
71
7
72
5
7
iso_b_vert
0
LINE
5
15A
100
AcDbEntity
8
2
62
256
6
ByLayer
370
13
48
1
60
0
100
AcDbLine
10
45.38114
20
9.673526
30
0
11
79.742165
21
9.673526
31
0
39
0
210
0
220
0
230
1
0
LINE
5
15B
100
AcDbEntity
8
2
62
256
6
ByLayer
370
13
48
1
60
0
100
AcDbLine
10
2
20
-12.4375
30
0
11
79.742165
21
-12.4375
31
0
39
0
210
0
220
0
230
1
0
LINE
5
15C
100
AcDbEntity
8
2
62
256
6
ByLayer
370
13
48
1
60
0
100
AcDbLine
10
77.742165
20
9.673526
30
0
11
77.742165
21
-12.4375
31
0
39
0
210
0
220
0
230
1
0
LINE
5
15D
100
AcDbEntity
8
2
62
256
6
ByLayer
370
13
48
1
60
0
100
AcDbLine
10
77.742165
20
9.673526
30
0
11
78.160162
21
6.498527
31
0
39
0
210
0
220
0
230
1
0
LINE
5
15E
100
AcDbEntity
8
2
62
256
6
ByLayer
370
13
48
1
60
0
100
AcDbLine
10
77.742165
20
9.673526
30
0
11
77.324169
21
6.498524
31
0
39
0
210
0
220
0
230
1
0
LINE
5
15F
100
AcDbEntity
8
2
62
256
6
ByLayer
370
13
48
1
60
0
100
AcDbLine
10
78.160162
20
6.498527
30
0
11
77.324169
21
6.498524
31
0
39
0
210
0
220
0
230
1
0
LINE
5
160
100
AcDbEntity
8
2
62
256
6
ByLayer
370
13
48
1
60
0
100
AcDbLine
10
77.742165
20
-12.4375
30
0
11
77.324169
21
-9.262502
31
0
39
0
210
0
220
0
230
1
0
LINE
5
161
100
AcDbEntity
8
2
62
256
6
ByLayer
370
13
48
1
60
0
100
AcDbLine
10
77.742165
20
-12.4375
30
0
11
78.160162
21
-9.262498
31
0
39
0
210
0
220
0
230
1
0
LINE
5
162
100
AcDbEntity
8
2
62
256
6
ByLayer
370
13
48
1
60
0
100
AcDbLine
10
77.324169
20
-9.262502
30
0
11
78.160162
21
-9.262498
31
0
39
0
210
0
220
0
230
1
0
ENDBLK
5
164
100
AcDbEntity
8
0
100
AcDbBlockEnd
0
BLOCK
5
167
100
AcDbEntity
8
0
100
AcDbBlockBegin
2
_CLOSED
70
0
10
0
20
0
30
0
3
_CLOSED
0
LINE
5
169
100
AcDbEntity
8
0
62
256
6
ByLayer
370
-2
48
1
60
0
100
AcDbLine
10
-1
20
0.166667
30
0
11
0
21
0
31
0
39
0
210
0
220
0
230
1
0
LINE
5
16A
100
AcDbEntity
8
0
62
256
6
ByLayer
370
-2
48
1
60
0
100
AcDbLine
10
0
20
0
30
0
11
-1
21
-0.166667
31
0
39
0
210
0
220
0
230
1
0
LINE
5
16B
100
AcDbEntity
8
0
62
256
6
ByLayer
370
-2
48
1
60
0
100
AcDbLine
10
-1
20
0.166667
30
0
11
-1
21
-0.166667
31
0
39
0
210
0
220
0
230
1
0
LINE
5
16C
100
AcDbEntity
8
0
62
256
6
ByLayer
370
-2
48
1
60
0
100
AcDbLine
10
0
20
0
30
0
11
-1
21
0
31
0
39
0
210
0
220
0
230
1
0
ENDBLK
5
168
100
AcDbEntity
8
0
100
AcDbBlockEnd
0
BLOCK
5
179
100
AcDbEntity
8
0
100
AcDbBlockBegin
2
DimnDraft3D2
70
0
10
0
20
0
30
0
3
DimnDraft3D2
0
MTEXT
5
16E
100
AcDbEntity
8
SK2
62
256
6
ByLayer
370
18
48
1
60
0
100
AcDbMText
10
-147.082835
20
-4.156579
30
0
210
0
220
0
230
1
1
\W0.7346;25.0
40
4.5
41
0
44
1.084337
50
90
71
7
72
5
7
iso_b_vert
0
LINE
5
170
100
AcDbEntity
8
SK2
62
256
6
ByLayer
370
13
48
1
60
0
100
AcDbLine
10
-140.207835
20
-12.4375
30
0
11
-147.957835
21
-12.4375
31
0
39
0
210
0
220
0
230
1
0
LINE
5
171
100
AcDbEntity
8
SK2
62
256
6
ByLayer
370
13
48
1
60
0
100
AcDbLine
10
-140.207835
20
12.4375
30
0
11
-147.957835
21
12.4375
31
0
39
0
210
0
220
0
230
1
0
LINE
5
172
100
AcDbEntity
8
SK2
62
256
6
ByLayer
370
13
48
1
60
0
100
AcDbLine
10
-145.957835
20
-12.4375
30
0
11
-145.957835
21
12.4375
31
0
39
0
210
0
220
0
230
1
0
LINE
5
173
100
AcDbEntity
8
SK2
62
256
6
ByLayer
370
13
48
1
60
0
100
AcDbLine
10
-145.957835
20
-12.4375
30
0
11
-146.375831
21
-9.262502
31
0
39
0
210
0
220
0
230
1
0
LINE
5
174
100
AcDbEntity
8
SK2
62
256
6
ByLayer
370
13
48
1
60
0
100
AcDbLine
10
-145.957835
20
-12.4375
30
0
11
-145.539838
21
-9.262498
31
0
39
0
210
0
220
0
230
1
0
LINE
5
175
100
AcDbEntity
8
SK2
62
256
6
ByLayer
370
13
48
1
60
0
100
AcDbLine
10
-146.375831
20
-9.262502
30
0
11
-145.539838
21
-9.262498
31
0
39
0
210
0
220
0
230
1
0
LINE
5
176
100
AcDbEntity
8
SK2
62
256
6
ByLayer
370
13
48
1
60
0
100
AcDbLine
10
-145.957835
20
12.4375
30
0
11
-145.539838
21
9.262502
31
0
39
0
210
0
220
0
230
1
0
LINE
5
177
100
AcDbEntity
8
SK2
62
256
6
ByLayer
370
13
48
1
60
0
100
AcDbLine
10
-145.957835
20
12.4375
30
0
11
-146.375831
21
9.262498
31
0
39
0
210
0
220
0
230
1
0
LINE
5
178
100
AcDbEntity
8
SK2
62
256
6
ByLayer
370
13
48
1
60
0
100
AcDbLine
10
-145.539838
20
9.262502
30
0
11
-146.375831
21
9.262498
31
0
39
0
210
0
220
0
230
1
0
ENDBLK
5
17A
100
AcDbEntity
8
0
100
AcDbBlockEnd
0
BLOCK
5
187
100
AcDbEntity
8
0
100
AcDbBlockBegin
2
DimnDraft3D3
70
0
10
0
20
0
30
0
3
DimnDraft3D3
0
MTEXT
5
17D
100
AcDbEntity
8
2
62
256
6
ByLayer
370
18
48
1
60
0
100
AcDbMText
10
86.617165
20
-0.419079
30
0
210
0
220
0
230
1
1
\W0.7346;32.0
40
4.5
41
0
44
1.084337
50
90
71
7
72
5
7
iso_b_vert
0
LINE
5
17E
100
AcDbEntity
8
2
62
256
6
ByLayer
370
13
48
1
60
0
100
AcDbLine
10
2
20
-12.4375
30
0
11
89.742165
21
-12.4375
31
0
39
0
210
0
220
0
230
1
0
LINE
5
17F
100
AcDbEntity
8
2
62
256
6
ByLayer
370
13
48
1
60
0
100
AcDbLine
10
35.142165
20
19.9125
30
0
11
89.742165
21
19.9125
31
0
39
0
210
0
220
0
230
1
0
LINE
5
180
100
AcDbEntity
8
2
62
256
6
ByLayer
370
13
48
1
60
0
100
AcDbLine
10
87.742165
20
-12.4375
30
0
11
87.742165
21
19.9125
31
0
39
0
210
0
220
0
230
1
0
LINE
5
181
100
AcDbEntity
8
2
62
256
6
ByLayer
370
13
48
1
60
0
100
AcDbLine
10
87.742165
20
-12.4375
30
0
11
87.324169
21
-9.262502
31
0
39
0
210
0
220
0
230
1
0
LINE
5
182
100
AcDbEntity
8
2
62
256
6
ByLayer
370
13
48
1
60
0
100
AcDbLine
10
87.742165
20
-12.4375
30
0
11
88.160162
21
-9.262498
31
0
39
0
210
0
220
0
230
1
0
LINE
5
183
100
AcDbEntity
8
2
62
256
6
ByLayer
370
13
48
1
60
0
100
AcDbLine
10
87.324169
20
-9.262502
30
0
11
88.160162
21
-9.262498
31
0
39
0
210
0
220
0
230
1
0
LINE
5
184
100
AcDbEntity
8
2
62
256
6
ByLayer
370
13
48
1
60
0
100
AcDbLine
10
87.742165
20
19.9125
30
0
11
88.160162
21
16.737502
31
0
39
0
210
0
220
0
230
1
0
LINE
5
185
100
AcDbEntity
8
2
62
256
6
ByLayer
370
13
48
1
60
0
100
AcDbLine
10
87.742165
20
19.9125
30
0
11
87.324169
21
16.737498
31
0
39
0
210
0
220
0
230
1
0
LINE
5
186
100
AcDbEntity
8
2
62
256
6
ByLayer
370
13
48
1
60
0
100
AcDbLine
10
88.160162
20
16.737502
30
0
11
87.324169
21
16.737498
31
0
39
0
210
0
220
0
230
1
0
ENDBLK
5
188
100
AcDbEntity
8
0
100
AcDbBlockEnd
0
BLOCK
5
195
100
AcDbEntity
8
0
100
AcDbBlockBegin
2
DimnDraft3D4
70
0
10
0
20
0
30
0
3
DimnDraft3D4
0
MTEXT
5
18B
100
AcDbEntity
8
2
62
256
6
ByLayer
370
18
48
1
60
0
100
AcDbMText
10
12.977004
20
26.548526
30
0
210
0
220
0
230
1
1
\W0.7208;33.1
40
4.5
41
0
44
1.084337
50
0
71
7
72
5
7
iso_b_vert
0
LINE
5
18C
100
AcDbEntity
8
2
62
256
6
ByLayer
370
13
48
1
60
0
100
AcDbLine
10
0
20
14.4375
30
0
11
0
21
27.423526
31
0
39
0
210
0
220
0
230
1
0
LINE
5
18D
100
AcDbEntity
8
2
62
256
6
ByLayer
370
13
48
1
60
0
100
AcDbLine
10
33.142165
20
21.9125
30
0
11
33.142165
21
27.423526
31
0
39
0
210
0
220
0
230
1
0
LINE
5
18E
100
AcDbEntity
8
2
62
256
6
ByLayer
370
13
48
1
60
0
100
AcDbLine
10
0
20
25.423526
30
0
11
33.142165
21
25.423526
31
0
39
0
210
0
220
0
230
1
0
LINE
5
18F
100
AcDbEntity
8
2
62
256
6
ByLayer
370
13
48
1
60
0
100
AcDbLine
10
0
20
25.423526
30
0
11
3.174998
21
25.841523
31
0
39
0
210
0
220
0
230
1
0
LINE
5
190
100
AcDbEntity
8
2
62
256
6
ByLayer
370
13
48
1
60
0
100
AcDbLine
10
0
20
25.423526
30
0
11
3.175002
21
25.005529
31
0
39
0
210
0
220
0
230
1
0
LINE
5
191
100
AcDbEntity
8
2
62
256
6
ByLayer
370
13
48
1
60
0
100
AcDbLine
10
3.174998
20
25.841523
30
0
11
3.175002
21
25.005529
31
0
39
0
210
0
220
0
230
1
0
LINE
5
192
100
AcDbEntity
8
2
62
256
6
ByLayer
370
13
48
1
60
0
100
AcDbLine
10
33.142165
20
25.423526
30
0
11
29.967167
21
25.005529
31
0
39
0
210
0
220
0
230
1
0
LINE
5
193
100
AcDbEntity
8
2
62
256
6
ByLayer
370
13
48
1
60
0
100
AcDbLine
10
33.142165
20
25.423526
30
0
11
29.967164
21
25.841523
31
0
39
0
210
0
220
0
230
1
0
LINE
5
194
100
AcDbEntity
8
2
62
256
6
ByLayer
370
13
48
1
60
0
100
AcDbLine
10
29.967167
20
25.005529
30
0
11
29.967164
21
25.841523
31
0
39
0
210
0
220
0
230
1
0
ENDBLK
5
196
100
AcDbEntity
8
0
100
AcDbBlockEnd
0
BLOCK
5
1A3
100
AcDbEntity
8
0
100
AcDbBlockBegin
2
DimnDraft3D5
70
0
10
0
20
0
30
0
3
DimnDraft3D5
0
MTEXT
5
199
100
AcDbEntity
8
SK2
62
256
6
ByLayer
370
18
48
1
60
0
100
AcDbMText
10
-57.808492
20
36.548526
30
0
210
0
220
0
230
1
1
\W0.6864;170.0
40
4.5
41
0
44
1.084337
50
0
71
7
72
5
7
iso_b_vert
0
LINE
5
19A
100
AcDbEntity
8
SK2
62
256
6
ByLayer
370
13
48
1
60
0
100
AcDbLine
10
-138.207835
20
14.4375
30
0
11
-138.207835
21
37.423526
31
0
39
0
210
0
220
0
230
1
0
LINE
5
19B
100
AcDbEntity
8
SK2
62
256
6
ByLayer
370
13
48
1
60
0
100
AcDbLine
10
33.142165
20
21.9125
30
0
11
33.142165
21
37.423526
31
0
39
0
210
0
220
0
230
1
0
LINE
5
19C
100
AcDbEntity
8
SK2
62
256
6
ByLayer
370
13
48
1
60
0
100
AcDbLine
10
-138.207835
20
35.423526
30
0
11
33.142165
21
35.423526
31
0
39
0
210
0
220
0
230
1
0
LINE
5
19D
100
AcDbEntity
8
SK2
62
256
6
ByLayer
370
13
48
1
60
0
100
AcDbLine
10
-138.207835
20
35.423526
30
0
11
-135.032836
21
35.841523
31
0
39
0
210
0
220
0
230
1
0
LINE
5
19E
100
AcDbEntity
8
SK2
62
256
6
ByLayer
370
13
48
1
60
0
100
AcDbLine
10
-138.207835
20
35.423526
30
0
11
-135.032833
21
35.005529
31
0
39
0
210
0
220
0
230
1
0
LINE
5
19F
100
AcDbEntity
8
SK2
62
256
6
ByLayer
370
13
48
1
60
0
100
AcDbLine
10
-135.032836
20
35.841523
30
0
11
-135.032833
21
35.005529
31
0
39
0
210
0
220
0
230
1
0
LINE
5
1A0
100
AcDbEntity
8
SK2
62
256
6
ByLayer
370
13
48
1
60
0
100
AcDbLine
10
33.142165
20
35.423526
30
0
11
29.967167
21
35.005529
31
0
39
0
210
0
220
0
230
1
0
LINE
5
1A1
100
AcDbEntity
8
SK2
62
256
6
ByLayer
370
13
48
1
60
0
100
AcDbLine
10
33.142165
20
35.423526
30
0
11
29.967164
21
35.841523
31
0
39
0
210
0
220
0
230
1
0
LINE
5
1A2
100
AcDbEntity
8
SK2
62
256
6
ByLayer
370
13
48
1
60
0
100
AcDbLine
10
29.967167
20
35.005529
30
0
11
29.967164
21
35.841523
31
0
39
0
210
0
220
0
230
1
0
ENDBLK
5
1A4
100
AcDbEntity
8
0
100
AcDbBlockEnd
0
BLOCK
5
1B1
100
AcDbEntity
8
0
100
AcDbBlockBegin
2
DimnDraft3D6
70
0
10
0
20
0
30
0
3
DimnDraft3D6
0
MTEXT
5
1A7
100
AcDbEntity
8
SK2
62
256
6
ByLayer
370
18
48
1
60
0
100
AcDbMText
10
-52.689005
20
46.548526
30
0
210
0
220
0
230
1
1
\W0.6864;180.2
40
4.5
41
0
44
1.084337
50
0
71
7
72
5
7
iso_b_vert
0
LINE
5
1A8
100
AcDbEntity
8
SK2
62
256
6
ByLayer
370
13
48
1
60
0
100
AcDbLine
10
43.38114
20
11.673526
30
0
11
43.38114
21
47.423526
31
0
39
0
210
0
220
0
230
1
0
LINE
5
1A9
100
AcDbEntity
8
SK2
62
256
6
ByLayer
370
13
48
1
60
0
100
AcDbLine
10
-138.207835
20
14.4375
30
0
11
-138.207835
21
47.423526
31
0
39
0
210
0
220
0
230
1
0
LINE
5
1AA
100
AcDbEntity
8
SK2
62
256
6
ByLayer
370
13
48
1
60
0
100
AcDbLine
10
43.38114
20
45.423526
30
0
11
-138.207835
21
45.423526
31
0
39
0
210
0
220
0
230
1
0
LINE
5
1AB
100
AcDbEntity
8
SK2
62
256
6
ByLayer
370
13
48
1
60
0
100
AcDbLine
10
43.38114
20
45.423526
30
0
11
40.206141
21
45.005529
31
0
39
0
210
0
220
0
230
1
0
LINE
5
1AC
100
AcDbEntity
8
SK2
62
256
6
ByLayer
370
13
48
1
60
0
100
AcDbLine
10
43.38114
20
45.423526
30
0
11
40.206138
21
45.841523
31
0
39
0
210
0
220
0
230
1
0
LINE
5
1AD
100
AcDbEntity
8
SK2
62
256
6
ByLayer
370
13
48
1
60
0
100
AcDbLine
10
40.206141
20
45.005529
30
0
11
40.206138
21
45.841523
31
0
39
0
210
0
220
0
230
1
0
LINE
5
1AE
100
AcDbEntity
8
SK2
62
256
6
ByLayer
370
13
48
1
60
0
100
AcDbLine
10
-138.207835
20
45.423526
30
0
11
-135.032836
21
45.841523
31
0
39
0
210
0
220
0
230
1
0
LINE
5
1AF
100
AcDbEntity
8
SK2
62
256
6
ByLayer
370
13
48
1
60
0
100
AcDbLine
10
-138.207835
20
45.423526
30
0
11
-135.032833
21
45.005529
31
0
39
0
210
0
220
0
230
1
0
LINE
5
1B0
100
AcDbEntity
8
SK2
62
256
6
ByLayer
370
13
48
1
60
0
100
AcDbLine
10
-135.032836
20
45.841523
30
0
11
-135.032833
21
45.005529
31
0
39
0
210
0
220
0
230
1
0
ENDBLK
5
1B2
100
AcDbEntity
8
0
100
AcDbBlockEnd
0
BLOCK
5
1BF
100
AcDbEntity
8
0
100
AcDbBlockBegin
2
DimnDraft3D7
70
0
10
0
20
0
30
0
3
DimnDraft3D7
0
MTEXT
5
1B5
100
AcDbEntity
8
2
62
256
6
ByLayer
370
18
48
1
60
0
100
AcDbMText
10
53.723406
20
-23.541734
30
0
210
0
220
0
230
1
1
\W0.7785;45%%d
40
4.5
41
0
44
1.084337
50
22.5
71
7
72
5
7
iso_b_vert
0
LINE
5
1B6
100
AcDbEntity
8
2
62
256
6
ByLayer
370
13
48
1
60
0
100
AcDbLine
10
43.38114
20
6.482901
30
0
11
43.38114
21
-28.096187
31
0
39
0
210
0
220
0
230
1
0
LINE
5
1B7
100
AcDbEntity
8
2
62
256
6
ByLayer
370
13
48
1
60
0
100
AcDbLine
10
44.795353
20
8.259312
30
0
11
70.08836
21
-17.033694
31
0
39
0
210
0
220
0
230
1
0
ARC
5
1B8
100
AcDbEntity
8
2
62
256
6
ByLayer
370
13
48
1
60
0
100
AcDbCircle
39
0
10
43.38114
20
9.673526
30
0
40
35.7697126973282
210
0
220
0
230
1
100
AcDbArc
50
270
51
315
0
LINE
5
1B9
100
AcDbEntity
8
2
62
256
6
ByLayer
370
13
48
1
60
0
100
AcDbLine
10
43.38114
20
-26.096187
30
0
11
46.546089
21
-25.60789
31
0
39
0
210
0
220
0
230
1
0
LINE
5
1BA
100
AcDbEntity
8
2
62
256
6
ByLayer
370
13
48
1
60
0
100
AcDbLine
10
43.38114
20
-26.096187
30
0
11
46.564629
21
-26.443678
31
0
39
0
210
0
220
0
230
1
0
LINE
5
1BB
100
AcDbEntity
8
2
62
256
6
ByLayer
370
13
48
1
60
0
100
AcDbLine
10
46.546089
20
-25.60789
30
0
11
46.564629
21
-26.443678
31
0
39
0
210
0
220
0
230
1
0
LINE
5
1BC
100
AcDbEntity
8
2
62
256
6
ByLayer
370
13
48
1
60
0
100
AcDbLine
10
68.674146
20
-15.619481
30
0
11
66.668794
21
-18.116259
31
0
39
0
210
0
220
0
230
1
0
LINE
5
1BD
100
AcDbEntity
8
2
62
256
6
ByLayer
370
13
48
1
60
0
100
AcDbLine
10
68.674146
20
-15.619481
30
0
11
66.090909
21
-17.512162
31
0
39
0
210
0
220
0
230
1
0
LINE
5
1BE
100
AcDbEntity
8
2
62
256
6
ByLayer
370
13
48
1
60
0
100
AcDbLine
10
66.668794
20
-18.116259
30
0
11
66.090909
21
-17.512162
31
0
39
0
210
0
220
0
230
1
0
ENDBLK
5
1C0
100
AcDbEntity
8
0
100
AcDbBlockEnd
0
ENDSEC
0
SECTION
2
ENTITIES
0
ELLIPSE
5
CC
100
AcDbEntity
8
1
62
256
6
ByLayer
370
18
48
1
60
0
100
AcDbEllipse
10
8.129792
20
-12.44739
30
0
11
0.803406090797805
21
-3.03757714543046E-05
31
0
210
0
220
0
230
-1
40
0.004364
41
-1.67844690210851
42
-0.107650575313083
0
ELLIPSE
5
CD
100
AcDbEntity
8
1
62
256
6
ByLayer
370
18
48
1
60
0
100
AcDbEllipse
10
30.527591
20
2.634989
30
0
11
2.50581301656953
21
-2.50581301656953
31
0
210
0
220
0
230
-1
40
0.50533
41
1.28337423120482
42
1.5707963267949
0
ELLIPSE
5
CE
100
AcDbEntity
8
1
62
256
6
ByLayer
370
18
48
1
60
0
100
AcDbEllipse
10
32.127549
20
-0.88691
30
0
11
0.842164176393188
21
-0.842164176393168
31
0
210
0
220
0
230
1
40
0.990268
41
-1.14584676780898
42
-2.82401486079949E-16
0
ELLIPSE
5
CF
100
AcDbEntity
8
1
62
256
6
ByLayer
370
18
48
1
60
0
100
AcDbEllipse
10
32.752454
20
-0.262005
30
0
11
-0.842164176393188
21
0.842164176393169
31
0
210
0
220
0
230
1
40
0.990268
41
1.57079632679488
42
3.14159265358979
0
ELLIPSE
5
D0
100
AcDbEntity
8
1
62
256
6
ByLayer
370
18
48
1
60
0
100
AcDbEllipse
10
42.200594
20
9.186135
30
0
11
-0.842164176393188
21
0.842164176393169
31
0
210
0
220
0
230
1
40
0.990268
41
3.14159265358979
42
-1.57079632679491
0
ELLIPSE
5
D1
100
AcDbEntity
8
1
62
256
6
ByLayer
370
18
48
1
60
0
100
AcDbEllipse
10
32.659602
20
18.727127
30
0
11
-0.842164176393188
21
0.842164176393169
31
0
210
0
220
0
230
1
40
0.990268
41
-1.57079632679491
42
0
0
ELLIPSE
5
D2
100
AcDbEntity
8
1
62
256
6
ByLayer
370
18
48
1
60
0
100
AcDbEllipse
10
32.706028
20
9.232561
30
0
11
2.24506403026732
21
-2.24506403026726
31
0
210
0
220
0
230
1
40
0.990268
41
-0.427687199904624
42
0
0
ELLIPSE
5
D3
100
AcDbEntity
8
1
62
256
6
ByLayer
370
18
48
1
60
0
100
AcDbEllipse
10
32.706028
20
9.232561
30
0
11
2.24506403026732
21
-2.24506403026726
31
0
210
0
220
0
230
1
40
0.990268
41
0
42
0.790287813349581
0
ELLIPSE
5
D4
100
AcDbEntity
8
1
62
256
6
ByLayer
370
18
48
1
60
0
100
AcDbEllipse
10
32.706028
20
9.232561
30
0
11
2.24506403026732
21
-2.24506403026726
31
0
210
0
220
0
230
1
40
0.990268
41
0.790287913003971
42
2.16609023329013
0
ELLIPSE
5
D5
100
AcDbEntity
8
1
62
256
6
ByLayer
370
18
48
1
60
0
100
AcDbEllipse
10
32.081123
20
8.607656
30
0
11
2.24506403026732
21
-2.24506403026726
31
0
210
0
220
0
230
1
40
0.990268
41
0.140921824382742
42
0.452332264235718
0
ELLIPSE
5
D6
100
AcDbEntity
8
1
62
256
6
ByLayer
370
18
48
1
60
0
100
AcDbEllipse
10
31.528897
20
0.197706
30
0
11
-1.68379802270051
21
1.68379802270048
31
0
210
0
220
0
230
1
40
0.990268
41
2.35469747586358
42
2.65972628355667
0
ELLIPSE
5
D7
100
AcDbEntity
8
1
62
256
6
ByLayer
370
18
48
1
60
0
100
AcDbEllipse
10
15.935552
20
8.733882
30
0
11
0.989949493661179
21
-0.989949493661153
31
0
210
0
220
0
230
1
40
0.990268
41
1.30466224242037
42
1.48786456077059
0
ELLIPSE
5
D8
100
AcDbEntity
8
1
62
256
6
ByLayer
370
18
48
1
60
0
100
AcDbEllipse
10
15.566137
20
10.398405
30
0
11
0.353553390593278
21
-0.353553390593269
31
0
210
0
220
0
230
1
40
0.990268
41
-1.59111716440693
42
-0.95714274985545
0
ELLIPSE
5
D9
100
AcDbEntity
8
1
62
256
6
ByLayer
370
18
48
1
60
0
100
AcDbEllipse
10
15.738072
20
8.536402
30
0
11
0.989949493661179
21
-0.989949493661153
31
0
210
0
220
0
230
1
40
0.990268
41
1.48786456077058
42
2.35185979361699
0
ELLIPSE
5
DA
100
AcDbEntity
8
1
62
256
6
ByLayer
370
18
48
1
60
0
100
AcDbEllipse
10
15.806532
20
8.604862
30
0
11
-3.53553390593278
21
3.53553390593269
31
0
210
0
220
0
230
1
40
0.990268
41
0
42
6.28318530717959
0
ELLIPSE
5
DB
100
AcDbEntity
8
1
62
256
6
ByLayer
370
18
48
1
60
0
100
AcDbEllipse
10
15.939813
20
8.738143
30
0
11
1.00762716319084
21
-1.00762716319082
31
0
210
0
220
0
230
1
40
0.990268
41
-2.92272370744873
42
-2.66232989893312
0
ELLIPSE
5
DC
100
AcDbEntity
8
1
62
256
6
ByLayer
370
18
48
1
60
0
100
AcDbEllipse
10
16.353977
20
9.868167
30
0
11
-0.31819805153395
21
0.318198051533943
31
0
210
0
220
0
230
1
40
0.990268
41
-2.63831471560353
42
-0.280322619946426
0
ELLIPSE
5
DD
100
AcDbEntity
8
1
62
256
6
ByLayer
370
18
48
1
60
0
100
AcDbEllipse
10
15.566137
20
10.398405
30
0
11
0.353553390593278
21
-0.353553390593269
31
0
210
0
220
0
230
1
40
0.990268
41
-0.439120651739927
42
-4.64060094292273E-06
0
ELLIPSE
5
DE
100
AcDbEntity
8
1
62
256
6
ByLayer
370
18
48
1
60
0
100
AcDbEllipse
10
14.271506
20
8.415213
30
0
11
-0.31819805153395
21
0.318198051533943
31
0
210
0
220
0
230
1
40
0.990268
41
-0.543919613210315
42
-0.325854365137292
0
ELLIPSE
5
DF
100
AcDbEntity
8
1
62
256
6
ByLayer
370
18
48
1
60
0
100
AcDbEllipse
10
15.767878
20
10.600146
30
0
11
0.353553390593278
21
-0.353553390593269
31
0
210
0
220
0
230
1
40
0.990268
41
-0.319107889215201
42
0.194853762811488
0
ELLIPSE
5
E0
100
AcDbEntity
8
1
62
256
6
ByLayer
370
18
48
1
60
0
100
AcDbEllipse
10
15.935552
20
8.733882
30
0
11
0.989949493661179
21
-0.989949493661153
31
0
210
0
220
0
230
1
40
0.990268
41
2.35185979361655
42
2.53506211196763
0
ELLIPSE
5
E1
100
AcDbEntity
8
1
62
256
6
ByLayer
370
18
48
1
60
0
100
AcDbEllipse
10
15.738072
20
8.536402
30
0
11
0.989949493661179
21
-0.989949493661153
31
0
210
0
220
0
230
1
40
0.990268
41
2.53506211196722
42
3.14158687108405
0
ELLIPSE
5
E2
100
AcDbEntity
8
1
62
256
6
ByLayer
370
18
48
1
60
0
100
AcDbEllipse
10
15.089151
20
9.948719
30
0
11
-0.31819805153395
21
0.318198051533943
31
0
210
0
220
0
230
1
40
0.990268
41
-1.59111716440688
42
1.24205131400802
0
ELLIPSE
5
E3
100
AcDbEntity
8
1
62
256
6
ByLayer
370
18
48
1
60
0
100
AcDbEllipse
10
14.473247
20
8.616954
30
0
11
-0.31819805153395
21
0.318198051533943
31
0
210
0
220
0
230
1
40
0.990268
41
-0.543919613210384
42
2.2892488652047
0
ELLIPSE
5
E4
100
AcDbEntity
8
1
62
256
6
ByLayer
370
18
48
1
60
0
100
AcDbEllipse
10
15.683946
20
8.482276
30
0
11
0.989949493661179
21
-0.989949493661153
31
0
210
0
220
0
230
1
40
0.990268
41
0.0275599182157755
42
0.790287556961956
0
ELLIPSE
5
E5
100
AcDbEntity
8
1
62
256
6
ByLayer
370
18
48
1
60
0
100
AcDbEllipse
10
15.683946
20
8.482276
30
0
11
0.989949493661179
21
-0.989949493661153
31
0
210
0
220
0
230
1
40
0.990268
41
0.790287556961956
42
3.10789140197053
0
ELLIPSE
5
E6
100
AcDbEntity
8
1
62
256
6
ByLayer
370
18
48
1
60
0
100
AcDbEllipse
10
14.414617
20
7.674004
30
0
11
0.353553390593278
21
-0.353553390593269
31
0
210
0
220
0
230
1
40
0.990268
41
1.77528721317799
42
2.28924886520471
0
ELLIPSE
5
E7
100
AcDbEntity
8
1
62
256
6
ByLayer
370
18
48
1
60
0
100
AcDbEllipse
10
17.636944
20
7.940278
30
0
11
0.353553390593278
21
-0.353553390593269
31
0
210
0
220
0
230
1
40
0.990268
41
-2.41350299160838
42
-1.89954133958169
0
ELLIPSE
5
E8
100
AcDbEntity
8
1
62
256
6
ByLayer
370
18
48
1
60
0
100
AcDbEllipse
10
17.465009
20
9.802282
30
0
11
0.353553390593278
21
-0.353553390593269
31
0
210
0
220
0
230
1
40
0.990268
41
-1.3663054404118
42
-0.852343788385088
0
ELLIPSE
5
E9
100
AcDbEntity
8
1
62
256
6
ByLayer
370
18
48
1
60
0
100
AcDbEllipse
10
14.88741
20
9.746978
30
0
11
-0.31819805153395
21
0.318198051533943
31
0
210
0
220
0
230
1
40
0.990268
41
-1.591117164407
42
-0.325841511063352
0
ELLIPSE
5
EA
100
AcDbEntity
8
1
62
256
6
ByLayer
370
18
48
1
60
0
100
AcDbEllipse
10
15.644582
20
8.442912
30
0
11
3.53553390593278
21
-3.53553390593269
31
0
210
0
220
0
230
1
40
0.990268
41
-0.739086792934211
42
-2.70633789339037E-05
0
ELLIPSE
5
EB
100
AcDbEntity
8
1
62
256
6
ByLayer
370
18
48
1
60
0
100
AcDbEllipse
10
15.939813
20
8.738143
30
0
11
1.00762716319084
21
-1.00762716319082
31
0
210
0
220
0
230
1
40
0.990268
41
-1.87552615625214
42
-1.61513234773651
0
ELLIPSE
5
EC
100
AcDbEntity
8
1
62
256
6
ByLayer
370
18
48
1
60
0
100
AcDbEllipse
10
14.242682
20
9.536007
30
0
11
0.353553390593278
21
-0.353553390593269
31
0
210
0
220
0
230
1
40
0.990268
41
-0.543919613210382
42
-0.0299579611837295
0
ELLIPSE
5
ED
100
AcDbEntity
8
1
62
256
6
ByLayer
370
18
48
1
60
0
100
AcDbEllipse
10
15.939813
20
8.738143
30
0
11
1.00762716319084
21
-1.00762716319082
31
0
210
0
220
0
230
1
40
0.990268
41
0.218868946141063
42
0.47926275465669
0
ELLIPSE
5
EE
100
AcDbEntity
8
1
62
256
6
ByLayer
370
18
48
1
60
0
100
AcDbEllipse
10
17.406379
20
8.859332
30
0
11
-0.31819805153395
21
0.318198051533943
31
0
210
0
220
0
230
1
40
0.990268
41
2.59767304037951
42
-0.852343788385087
0
ELLIPSE
5
EF
100
AcDbEntity
8
1
62
256
6
ByLayer
370
18
48
1
60
0
100
AcDbEllipse
10
15.323908
20
7.406378
30
0
11
-0.31819805153395
21
0.318198051533943
31
0
210
0
220
0
230
1
40
0.990268
41
0.503277937986253
42
-2.94673889077828
0
ELLIPSE
5
F0
100
AcDbEntity
8
1
62
256
6
ByLayer
370
18
48
1
60
0
100
AcDbEllipse
10
15.939813
20
8.738143
30
0
11
1.00762716319084
21
-1.00762716319082
31
0
210
0
220
0
230
1
40
0.990268
41
1.26606649733767
42
1.52646030585329
0
ELLIPSE
5
F1
100
AcDbEntity
8
1
62
256
6
ByLayer
370
18
48
1
60
0
100
AcDbEllipse
10
15.738072
20
8.536402
30
0
11
0.989949493661179
21
-0.989949493661153
31
0
210
0
220
0
230
1
40
0.990268
41
-2.70092564401581
42
-2.09016212308342
0
ELLIPSE
5
F2
100
AcDbEntity
8
1
62
256
6
ByLayer
370
18
48
1
60
0
100
AcDbEllipse
10
15.935552
20
8.733882
30
0
11
0.989949493661179
21
-0.989949493661153
31
0
210
0
220
0
230
1
40
0.990268
41
-0.789732859973283
42
-0.606530541622624
0
ELLIPSE
5
F3
100
AcDbEntity
8
1
62
256
6
ByLayer
370
18
48
1
60
0
100
AcDbEllipse
10
16.111748
20
6.876139
30
0
11
0.353553390593278
21
-0.353553390593269
31
0
210
0
220
0
230
1
40
0.990268
41
1.55047548918286
42
2.06443714120954
0
ELLIPSE
5
F4
100
AcDbEntity
8
1
62
256
6
ByLayer
370
18
48
1
60
0
100
AcDbEllipse
10
14.414617
20
7.674004
30
0
11
0.353553390593278
21
-0.353553390593269
31
0
210
0
220
0
230
1
40
0.990268
41
0.503277937986246
42
1.01723959001292
0
ELLIPSE
5
F5
100
AcDbEntity
8
1
62
256
6
ByLayer
370
18
48
1
60
0
100
AcDbEllipse
10
15.939813
20
8.738143
30
0
11
1.00762716319084
21
-1.00762716319082
31
0
210
0
220
0
230
1
40
0.990268
41
2.31326404853426
42
2.57365785704988
0
ELLIPSE
5
F6
100
AcDbEntity
8
1
62
256
6
ByLayer
370
18
48
1
60
0
100
AcDbEllipse
10
17.435203
20
7.738537
30
0
11
0.353553390593278
21
-0.353553390593269
31
0
210
0
220
0
230
1
40
0.990268
41
-2.53351575413311
42
-1.89954133958169
0
ELLIPSE
5
F7
100
AcDbEntity
8
1
62
256
6
ByLayer
370
18
48
1
60
0
100
AcDbEllipse
10
15.767878
20
10.600146
30
0
11
0.353553390593278
21
-0.353553390593269
31
0
210
0
220
0
230
1
40
0.990268
41
-1.59111716440699
42
-1.07715551238029
0
ELLIPSE
5
F8
100
AcDbEntity
8
1
62
256
6
ByLayer
370
18
48
1
60
0
100
AcDbEllipse
10
16.555718
20
10.069908
30
0
11
-0.31819805153395
21
0.318198051533943
31
0
210
0
220
0
230
1
40
0.990268
41
-2.63831471560355
42
0.194853762811466
0
ELLIPSE
5
F9
100
AcDbEntity
8
1
62
256
6
ByLayer
370
18
48
1
60
0
100
AcDbEllipse
10
15.738072
20
8.536402
30
0
11
0.989949493661179
21
-0.989949493661153
31
0
210
0
220
0
230
1
40
0.990268
41
-1.45587324176698
42
-0.836388927444648
0
ELLIPSE
5
FA
100
AcDbEntity
8
1
62
256
6
ByLayer
370
18
48
1
60
0
100
AcDbEllipse
10
15.935552
20
8.733882
30
0
11
0.989949493661179
21
-0.989949493661153
31
0
210
0
220
0
230
1
40
0.990268
41
-1.83693041117011
42
-1.6537280928192
0
ELLIPSE
5
FB
100
AcDbEntity
8
1
62
256
6
ByLayer
370
18
48
1
60
0
100
AcDbEllipse
10
15.910007
20
6.674398
30
0
11
0.353553390593278
21
-0.353553390593269
31
0
210
0
220
0
230
1
40
0.990268
41
3.14158800008493
42
-3.10092369348777
0
ELLIPSE
5
FC
100
AcDbEntity
8
1
62
256
6
ByLayer
370
18
48
1
60
0
100
AcDbEllipse
10
15.935552
20
8.733882
30
0
11
0.989949493661179
21
-0.989949493661153
31
0
210
0
220
0
230
1
40
0.990268
41
-2.88412796236601
42
-2.70092564401581
0
ELLIPSE
5
FD
100
AcDbEntity
8
1
62
256
6
ByLayer
370
18
48
1
60
0
100
AcDbEllipse
10
16.588734
20
7.325825
30
0
11
-0.31819805153395
21
0.318198051533943
31
0
210
0
220
0
230
1
40
0.990268
41
-2.81576256984677
42
-1.89954133958165
0
ELLIPSE
5
FE
100
AcDbEntity
8
1
62
256
6
ByLayer
370
18
48
1
60
0
100
AcDbEllipse
10
17.263268
20
9.600541
30
0
11
0.353553390593278
21
-0.353553390593269
31
0
210
0
220
0
230
1
40
0.990268
41
-2.63831471560352
42
-2.00434030105203
0
ELLIPSE
5
FF
100
AcDbEntity
8
1
62
256
6
ByLayer
370
18
48
1
60
0
100
AcDbEllipse
10
14.242682
20
9.536007
30
0
11
0.353553390593278
21
-0.353553390593269
31
0
210
0
220
0
230
1
40
0.990268
41
0.728089661981355
42
1.24205131400814
0
ELLIPSE
5
100
100
AcDbEntity
8
1
62
256
6
ByLayer
370
18
48
1
60
0
100
AcDbEllipse
10
17.636944
20
7.940278
30
0
11
0.353553390593278
21
-0.353553390593269
31
0
210
0
220
0
230
1
40
0.990268
41
2.59767304037945
42
3.11163469240618
0
ELLIPSE
5
101
100
AcDbEntity
8
1
62
256
6
ByLayer
370
18
48
1
60
0
100
AcDbEllipse
10
17.465009
20
9.802282
30
0
11
0.353553390593278
21
-0.353553390593269
31
0
210
0
220
0
230
1
40
0.990268
41
-2.63831471560351
42
-2.12435306357682
0
ELLIPSE
5
102
100
AcDbEntity
8
1
62
256
6
ByLayer
370
18
48
1
60
0
100
AcDbEllipse
10
15.939813
20
8.738143
30
0
11
-1.76776695296639
21
1.76776695296635
31
0
210
0
220
0
230
1
40
0.990268
41
0
42
6.28318530717959
0
ELLIPSE
5
103
100
AcDbEntity
8
1
62
256
6
ByLayer
370
18
48
1
60
0
100
AcDbEllipse
10
17.204638
20
8.657591
30
0
11
-0.31819805153395
21
0.318198051533943
31
0
210
0
220
0
230
1
40
0.990268
41
-2.81572899735421
42
-0.85234378838498
0
ELLIPSE
5
104
100
AcDbEntity
8
1
62
256
6
ByLayer
370
18
48
1
60
0
100
AcDbEllipse
10
15.738072
20
8.536402
30
0
11
0.989949493661179
21
-0.989949493661153
31
0
210
0
220
0
230
1
40
0.990268
41
0.440667009573987
42
1.30466224242037
0
ELLIPSE
5
105
100
AcDbEntity
8
1
62
256
6
ByLayer
370
18
48
1
60
0
100
AcDbEllipse
10
14.040941
20
9.334266
30
0
11
0.353553390593278
21
-0.353553390593269
31
0
210
0
220
0
230
1
40
0.990268
41
-0.543919613210369
42
-8.30718776507065E-06
0
ELLIPSE
5
106
100
AcDbEntity
8
1
62
256
6
ByLayer
370
18
48
1
60
0
100
AcDbEllipse
10
16.111748
20
6.876139
30
0
11
0.353553390593278
21
-0.353553390593269
31
0
210
0
220
0
230
1
40
0.990268
41
2.82248476437464
42
-2.9467388907783
0
ELLIPSE
5
107
100
AcDbEntity
8
1
62
256
6
ByLayer
370
18
48
1
60
0
100
AcDbEllipse
10
15.935552
20
8.733882
30
0
11
0.989949493661179
21
-0.989949493661153
31
0
210
0
220
0
230
1
40
0.990268
41
0.25746469122375
42
0.440667009573978
0
ELLIPSE
5
108
100
AcDbEntity
8
1
62
256
6
ByLayer
370
18
48
1
60
0
100
AcDbEllipse
10
17.435203
20
7.738537
30
0
11
0.353553390593278
21
-0.353553390593269
31
0
210
0
220
0
230
1
40
0.990268
41
3.14158333400511
42
-3.05153785224864
0
ELLIPSE
5
109
100
AcDbEntity
8
1
62
256
6
ByLayer
370
18
48
1
60
0
100
AcDbEllipse
10
16.790475
20
7.527566
30
0
11
-0.31819805153395
21
0.318198051533943
31
0
210
0
220
0
230
1
40
0.990268
41
1.55047548918285
42
-1.89954133958171
0
ELLIPSE
5
10A
100
AcDbEntity
8
1
62
256
6
ByLayer
370
18
48
1
60
0
100
AcDbEllipse
10
15.939813
20
8.738143
30
0
11
1.00762716319084
21
-1.00762716319082
31
0
210
0
220
0
230
1
40
0.990268
41
-0.828328605055546
42
-0.567934796539907
0
ELLIPSE
5
10B
100
AcDbEntity
8
1
62
256
6
ByLayer
370
18
48
1
60
0
100
AcDbEllipse
10
15.738072
20
8.536402
30
0
11
0.989949493661179
21
-0.989949493661153
31
0
210
0
220
0
230
1
40
0.990268
41
-0.312204999338694
42
0.257464691223753
0
ELLIPSE
5
10C
100
AcDbEntity
8
1
62
256
6
ByLayer
370
18
48
1
60
0
100
AcDbEllipse
10
17.263268
20
9.600541
30
0
11
0.353553390593278
21
-0.353553390593269
31
0
210
0
220
0
230
1
40
0.990268
41
-1.48631820293658
42
-0.852343788385062
0
ELLIPSE
5
10D
100
AcDbEntity
8
1
62
256
6
ByLayer
370
18
48
1
60
0
100
AcDbEllipse
10
11.074442
20
10.768069
30
0
11
5.47670107840134
21
0.505712663315433
31
0
210
0
220
0
230
1
40
0.089459
41
1.95975726285901
42
2.36517643487227
0
ELLIPSE
5
10E
100
AcDbEntity
8
1
62
256
6
ByLayer
370
18
48
1
60
0
100
AcDbEllipse
10
11.623916
20
4.817441
30
0
11
5.47670107840134
21
0.505712663315433
31
0
210
0
220
0
230
1
40
0.089459
41
1.959757262859
42
2.36517643487227
0
ELLIPSE
5
10F
100
AcDbEntity
8
1
62
256
6
ByLayer
370
18
48
1
60
0
100
AcDbEllipse
10
33.208176
20
9.607444
30
0
11
2.00550535599025
21
-1.95408191121433
31
0
210
0
220
0
230
-1
40
0.794373
41
-1.31205839335121
42
-0.862348417304957
0
ELLIPSE
5
110
100
AcDbEntity
8
1
62
256
6
ByLayer
370
18
48
1
60
0
100
AcDbEllipse
10
8.781445
20
1.586689
30
0
11
3.19892913272495
21
-1.45835999671431
31
0
210
0
220
0
230
-1
40
0.988829
41
1.45436808044902
42
2.62660291116071
0
ELLIPSE
5
111
100
AcDbEntity
8
1
62
256
6
ByLayer
370
18
48
1
60
0
100
AcDbEllipse
10
33.208176
20
9.607444
30
0
11
0.152207409305765
21
-3.03154381156366
31
0
210
0
220
0
230
-1
40
0.817727
41
-1.50943784230743
42
-1.05972786625901
0
ELLIPSE
5
112
100
AcDbEntity
8
1
62
256
6
ByLayer
370
18
48
1
60
0
100
AcDbEllipse
10
7.797886
20
12.238313
30
0
11
3.19892913273454
21
-1.45835999667365
31
0
210
0
220
0
230
-1
40
0.988829
41
2.62660291117158
42
-2.48434756529493
0
ELLIPSE
5
113
100
AcDbEntity
8
1
62
256
6
ByLayer
370
18
48
1
60
0
100
AcDbEllipse
10
4.512309
20
-1.735647
30
0
11
6.97034682705625
21
0.643634298765096
31
0
210
0
220
0
230
1
40
0.089459
41
-0.801151610592839
42
-0.770472553435575
0
ELLIPSE
5
114
100
AcDbEntity
8
1
62
256
6
ByLayer
370
18
48
1
60
0
100
AcDbEllipse
10
8.361525
20
13.84753
30
0
11
1.95985733071548
21
-2.27133424295959
31
0
210
0
220
0
230
1
40
0.988257
41
-0.625434656542336
42
-0.250976749617689
0
ELLIPSE
5
115
100
AcDbEntity
8
1
62
256
6
ByLayer
370
18
48
1
60
0
100
AcDbEllipse
10
10.518586
20
13.579183
30
0
11
3.98886380381253
21
-1.54122884600177
31
0
210
0
220
0
230
-1
40
0.529671
41
2.85354265465233
42
-2.31166997835654
0
ELLIPSE
5
116
100
AcDbEntity
8
1
62
256
6
ByLayer
370
18
48
1
60
0
100
AcDbEllipse
10
11.502146
20
2.927559
30
0
11
2.91003459846303
21
3.97747410860015
31
0
210
0
220
0
230
-1
40
0.60761
41
2.65689973938918
42
-2.50831289362052
0
POINT
5
6C
100
AcDbEntity
8
2
62
256
6
ByLayer
370
18
48
1
60
0
100
AcDbPoint
10
33.142165
20
19.9125
30
0
39
0
210
0
220
0
230
1
50
360
0
POINT
5
6E
100
AcDbEntity
8
80
62
256
6
ByLayer
370
18
48
1
60
0
100
AcDbPoint
10
0
20
0
30
0
39
0
210
0
220
0
230
1
50
360
0
POINT
5
70
100
AcDbEntity
8
81
62
256
6
ByLayer
370
18
48
1
60
0
100
AcDbPoint
10
33.142165
20
19.9125
30
0
39
0
210
0
220
0
230
1
50
360
0
SPLINE
5
117
100
AcDbEntity
8
1
62
256
6
ByLayer
370
18
48
1
60
0
100
AcDbSpline
70
4
71
3
72
10
73
6
40
0
40
0
40
0
40
0
40
0.769561481283194
40
0.769561481283194
40
1
40
1
40
1
40
1
41
1
10
15.6270897472627
20
10.1243065166012
30
2.6E-15
41
1
10
15.6397279523837
20
10.1188823031956
30
2.6E-15
41
1
10
15.6532378496402
20
10.113932721122
30
2.6E-15
41
1
10
15.672034244624
20
10.108409190192
30
2.6E-15
41
1
10
15.6764618068805
20
10.1071966044115
30
2.6E-15
41
1
10
15.6809785822617
20
10.106054122233
30
2.6E-15
0
SPLINE
5
118
100
AcDbEntity
8
1
62
256
6
ByLayer
370
18
48
1
60
0
100
AcDbSpline
70
4
71
3
72
10
73
6
40
0
40
0
40
0
40
0
40
0.769561481283283
40
0.769561481283283
40
1
40
1
40
1
40
1
41
1
10
16.2525363344235
20
7.35197937781987
30
3.3E-15
41
1
10
16.237487788795
20
7.35499325071791
30
3.3E-15
41
1
10
16.2217024257293
20
7.35766736698221
30
3.3E-15
41
1
10
16.2002383863904
20
7.36052325355718
30
3.2E-15
41
1
10
16.1952148284734
20
7.36113984367717
30
3.2E-15
41
1
10
16.1901249223439
20
7.36170919510727
30
3.2E-15
0
SPLINE
5
119
100
AcDbEntity
8
1
62
256
6
ByLayer
370
18
48
1
60
0
100
AcDbSpline
70
4
71
3
72
10
73
6
40
0
40
0
40
0
40
0
40
0.355593196478025
40
0.355593196478025
40
1
40
1
40
1
40
1
41
1
10
17.2940363447583
20
8.30416029902983
30
-2.6E-15
41
1
10
17.2886309058955
20
8.2990395924719
30
-2.6E-15
41
1
10
17.2832359092616
20
8.29374364508766
30
-2.6E-15
41
1
10
17.268171259479
20
8.27836808409933
30
-2.6E-15
41
1
10
17.2585263068495
20
8.26783838884677
30
-2.6E-15
41
1
10
17.2490752652086
20
8.25665116881683
30
-2.6E-15
0
SPLINE
5
11A
100
AcDbEntity
8
1
62
256
6
ByLayer
370
18
48
1
60
0
100
AcDbSpline
70
4
71
3
72
10
73
6
40
0
40
0
40
0
40
0
40
0.201157530231516
40
0.201157530231516
40
1
40
1
40
1
40
1
41
1
10
16.9813130511788
20
9.69032386841374
30
-2.9E-15
41
1
10
16.9818852356618
20
9.68631602795526
30
-2.9E-15
41
1
10
16.9825143655602
20
9.68228123237648
30
-2.9E-15
41
1
10
16.9859297339967
20
9.66217385669978
30
-2.9E-15
41
1
10
16.9896118469677
20
9.64565088686612
30
-2.9E-15
41
1
10
16.9945020951679
20
9.62882363238006
30
-2.9E-15
0
SPLINE
5
11B
100
AcDbEntity
8
1
62
256
6
ByLayer
370
18
48
1
60
0
100
AcDbSpline
70
4
71
3
72
10
73
6
40
0
40
0
40
0
40
0
40
0.201157530231803
40
0.201157530231803
40
1
40
1
40
1
40
1
41
1
10
14.898313030508
20
7.78596202600784
30
1.7E-15
41
1
10
14.8971081433689
20
7.78933716381025
30
1.7E-15
41
1
10
14.8958560853742
20
7.79274903129266
30
1.7E-15
41
1
10
14.889411168017
20
7.80982685804875
30
1.7E-15
41
1
10
14.8834730928293
20
7.8240938656655
30
1.7E-15
41
1
10
14.8766014094378
20
7.83893968496042
30
1.7E-15
0
SPLINE
5
11C
100
AcDbEntity
8
1
62
256
6
ByLayer
370
18
48
1
60
0
100
AcDbSpline
70
4
71
3
72
10
73
6
40
0
40
0
40
0
40
0
40
0.537616842495196
40
0.537616842495196
40
1
40
1
40
1
40
1
41
1
10
14.7286149882045
20
9.44158373868785
30
1.5E-15
41
1
10
14.7312293970159
20
9.4534102399729
30
1.5E-15
41
1
10
14.7334628901564
20
9.46501904861253
30
1.5E-15
41
1
10
14.7369990091594
20
9.48611286835134
30
1.5E-15
41
1
10
14.7383919511466
20
9.49569054711552
30
1.5E-15
41
1
10
14.7395716040468
20
9.50507923333734
30
1.5E-15
0
SPLINE
5
11D
100
AcDbEntity
8
1
62
256
6
ByLayer
370
18
48
1
60
0
100
AcDbSpline
70
4
71
3
72
10
73
6
40
0
40
0
40
0
40
0
40
0.537616842494914
40
0.537616842494914
40
1
40
1
40
1
40
1
41
1
10
17.1424885164013
20
8.02617957865263
30
-2.8E-15
41
1
10
17.1412091955798
20
8.01568816535757
30
-2.8E-15
41
1
10
17.1404354497244
20
8.00553910400302
30
-2.8E-15
41
1
10
17.1397781152871
20
7.98732406882982
30
-2.8E-15
41
1
10
17.1397844650811
20
7.97914568184689
30
-2.8E-15
41
1
10
17.1400544776408
20
7.97120666108498
30
-2.8E-15
0
SPLINE
5
11E
100
AcDbEntity
8
1
62
256
6
ByLayer
370
18
48
1
60
0
100
AcDbSpline
70
4
71
3
72
10
73
6
40
0
40
0
40
0
40
0
40
0.230438518716907
40
0.230438518716907
40
1
40
1
40
1
40
1
41
1
10
15.9363250133672
20
7.34073662863219
30
2.9E-15
41
1
10
15.9320378571942
20
7.33939241064175
30
2.9E-15
41
1
10
15.9278494893556
20
7.33801459989698
30
2.9E-15
41
1
10
15.9101258566978
20
7.3319204692294
30
2.9E-15
41
1
10
15.8975364332892
20
7.3269016236153
30
2.9E-15
41
1
10
15.8858811517041
20
7.32168109984164
30
2.9E-15
0
SPLINE
5
11F
100
AcDbEntity
8
1
62
256
6
ByLayer
370
18
48
1
60
0
100
AcDbSpline
70
4
71
3
72
10
73
6
40
0
40
0
40
0
40
0
40
0.355593196477787
40
0.355593196477787
40
1
40
1
40
1
40
1
41
1
10
14.5855897369271
20
9.17212559539036
30
1.4E-15
41
1
10
14.5898781136909
20
9.17612923984927
30
1.4E-15
41
1
10
14.5941862110072
20
9.18033828791599
30
1.4E-15
41
1
10
14.6063077689123
20
9.19277075702675
30
1.4E-15
41
1
10
14.614175588552
20
9.20152331928946
30
1.4E-15
41
1
10
14.6220282393972
20
9.21111214852371
30
1.4E-15
0
SPLINE
5
120
100
AcDbEntity
8
1
62
256
6
ByLayer
370
18
48
1
60
0
100
AcDbSpline
70
4
71
3
72
10
73
6
40
0
40
0
40
0
40
0
40
0.230438518716874
40
0.230438518716874
40
1
40
1
40
1
40
1
41
1
10
15.9347784912383
20
10.1270266887081
30
2.9E-15
41
1
10
15.9396387781596
20
10.1289440374469
30
2.9E-15
41
1
10
15.9444231416588
20
10.1309178438522
30
2.9E-15
41
1
10
15.9648144186716
20
10.1396796188748
30
3E-15
41
1
10
15.9796793078896
20
10.1469739302982
30
3E-15
41
1
10
15.9937449299822
20
10.1546047945794
30
3E-15
0
SPLINE
5
121
100
AcDbEntity
8
1
62
256
6
ByLayer
370
18
48
1
60
0
100
AcDbSpline
70
4
71
3
72
10
73
6
40
0
40
0
40
0
40
0
40
0.276054056492022
40
0.276054056492022
40
1
40
1
40
1
40
1
41
1
10
14.7293882492693
20
8.04843870865045
30
1.5E-15
41
1
10
14.7252444164448
20
8.05257621916297
30
1.5E-15
41
1
10
14.7211246502978
20
8.05658948069927
30
1.5E-15
41
1
10
14.7063689261669
20
8.07063286435579
30
1.5E-15
41
1
10
14.6958841071151
20
8.07998432356609
30
1.5E-15
41
1
10
14.6856397149143
20
8.08861738596684
30
1.5E-15
0
SPLINE
5
122
100
AcDbEntity
8
1
62
256
6
ByLayer
370
18
48
1
60
0
100
AcDbSpline
70
4
71
3
72
10
73
6
40
0
40
0
40
0
40
0
40
0.276054056492469
40
0.276054056492469
40
1
40
1
40
1
40
1
41
1
10
17.1417152553362
20
9.41932460868978
30
-2.8E-15
41
1
10
17.1465472025602
20
9.41587521257679
30
-2.8E-15
41
1
10
17.1513880782339
20
9.41258306056727
30
-2.7E-15
41
1
10
17.1688458647074
20
9.40124173925327
30
-2.7E-15
41
1
10
17.1814764141988
20
9.39403601048252
30
-2.7E-15
41
1
10
17.1939863667733
20
9.3876685084555
30
-2.7E-15
0
SPLINE
5
123
100
AcDbEntity
8
1
62
256
6
ByLayer
370
18
48
1
60
0
100
AcDbSpline
70
4
71
3
72
8
73
4
40
0
40
0
40
0
40
0
40
1
40
1
40
1
40
1
41
1
10
7.5064603167956
20
1.96794093505409
30
2E-16
41
1
10
8.27274733564536
20
2.8460503878033
30
1.1E-15
41
1
10
9.27929889401048
20
3.95018730936573
30
2.2E-15
41
1
10
10.3176346863148
20
5.08644871532655
30
3.5E-15
0
SPLINE
5
124
100
AcDbEntity
8
1
62
256
6
ByLayer
370
18
48
1
60
0
100
AcDbSpline
70
4
71
3
72
16
73
12
40
0
40
0
40
0
40
0
40
0.107738294188996
40
0.107738294188996
40
0.260376815889415
40
0.260376815889415
40
0.501548994683956
40
0.501548994683956
40
0.879664328740044
40
0.879664328740044
40
1
40
1
40
1
40
1
41
1
10
6.44970463665118
20
13.4122558452459
30
-1.1E-15
41
1
10
6.45365798097686
20
13.4660470345778
30
-1.1E-15
41
1
10
6.45647699856215
20
13.5218383628944
30
-1.1E-15
41
1
10
6.46212772660522
20
13.6497572300818
30
-1.1E-15
41
1
10
6.46463260383359
20
13.7218461785487
30
-1.1E-15
41
1
10
6.47042279003568
20
13.8916780306322
30
-1E-15
41
1
10
6.47335706094066
20
13.984062430899
30
-1E-15
41
1
10
6.47806611231351
20
14.1877677770997
30
-1E-15
41
1
10
6.47798856919303
20
14.2847002875863
30
-1E-15
41
1
10
6.47128014047314
20
14.3832210516128
30
-1E-15
41
1
10
6.46915093285452
20
14.405030713943
30
-1E-15
41
1
10
6.46651508447167
20
14.424914548873
30
-1.1E-15
0
SPLINE
5
125
100
AcDbEntity
8
1
62
256
6
ByLayer
370
18
48
1
60
0
100
AcDbSpline
70
4
71
3
72
20
73
16
40
0
40
0
40
0
40
0
40
0.118962056339782
40
0.118962056339782
40
0.191173230286448
40
0.191173230286448
40
0.263712164126321
40
0.263712164126321
40
0.333306822588766
40
0.333306822588766
40
0.451479822004408
40
0.451479822004408
40
0.65441453400904
40
0.65441453400904
40
1
40
1
40
1
40
1
41
1
10
29.4817385652382
20
11.885767923177
30
-2.5E-15
41
1
10
29.4439829784023
20
11.8528372748001
30
-2.6E-15
41
1
10
29.4153633114612
20
11.8090908218682
30
-2.6E-15
41
1
10
29.4019189222528
20
11.716166180369
30
-2.6E-15
41
1
10
29.4046028285073
20
11.6748250377816
30
-2.6E-15
41
1
10
29.4285151705711
20
11.5843203457301
30
-2.6E-15
41
1
10
29.4501865814623
20
11.5340148442856
30
-2.5E-15
41
1
10
29.5066253375318
20
11.4346177412071
30
-2.5E-15
41
1
10
29.5412602515097
20
11.3845043403241
30
-2.4E-15
41
1
10
29.6440058068821
20
11.2537250750382
30
-2.3E-15
41
1
10
29.7201147296129
20
11.1735810573192
30
-2.2E-15
41
1
10
29.9335884907791
20
10.9721534343345
30
-2E-15
41
1
10
30.0802614902479
20
10.8574294630041
30
-1.8E-15
41
1
10
30.4736341030989
20
10.5799051460362
30
-1.3E-15
41
1
10
30.7257684021614
20
10.4337720504936
30
-1.1E-15
41
1
10
30.972499812973
20
10.3029879240726
30
-8E-16
0
SPLINE
5
126
100
AcDbEntity
8
1
62
256
6
ByLayer
370
18
48
1
60
0
100
AcDbSpline
70
4
71
3
72
8
73
4
40
0
40
0
40
0
40
0
40
1
40
1
40
1
40
1
41
1
10
10.9356396105691
20
11.9991337200423
30
-2.9E-15
41
1
10
10.7077893047827
20
11.7352952536662
30
-3.2E-15
41
1
10
10.4118412917872
20
11.5108973450429
30
-3.5E-15
41
1
10
10.0780289764544
20
11.3516636144839
30
3.2E-15
0
SPLINE
5
127
100
AcDbEntity
8
1
62
256
6
ByLayer
370
18
48
1
60
0
100
AcDbSpline
70
4
71
3
72
12
73
8
40
0
40
0
40
0
40
0
40
0.500000000000009
40
0.500000000000009
40
0.750000000000005
40
0.750000000000005
40
1
40
1
40
1
40
1
41
1
10
31.103391271213
20
8.88547667225035
30
-6E-16
41
1
10
30.7828211572852
20
8.67493829260741
30
-1E-15
41
1
10
30.4600758736228
20
8.43627796972535
30
-1.4E-15
41
1
10
30.0285292936858
20
7.91890259794056
30
-1.9E-15
41
1
10
29.8912730669898
20
7.71091594871601
30
-2E-15
41
1
10
29.7788811667969
20
7.29766676612257
30
-2.2E-15
41
1
10
29.8329253256788
20
7.13503236572498
30
-2.1E-15
41
1
10
29.9287490016117
20
7.04479257016547
30
-2E-15
0
SPLINE
5
128
100
AcDbEntity
8
1
62
256
6
ByLayer
370
18
48
1
60
0
100
AcDbSpline
70
4
71
3
72
8
73
4
40
0
40
0
40
0
40
0
40
1
40
1
40
1
40
1
41
1
10
6.4665150844661
20
14.4249145488611
30
-1.1E-15
41
1
10
7.28088919149036
20
13.8613100900464
30
-1E-16
41
1
10
8.67552407220944
20
12.6659179081113
30
1.5E-15
41
1
10
10.0780289764544
20
11.3516636144839
30
3.2E-15
0
SPLINE
5
129
100
AcDbEntity
8
1
62
256
6
ByLayer
370
18
48
1
60
0
100
AcDbSpline
70
4
71
3
72
8
73
4
40
0
40
0
40
0
40
0
40
1
40
1
40
1
40
1
41
1
10
6.4665150844661
20
14.4249145488611
30
-1.1E-15
41
1
10
6.46507559900704
20
14.4357734781673
30
-1.1E-15
41
1
10
6.46362564849983
20
14.4463708513564
30
-1.1E-15
41
1
10
6.46215538191018
20
14.4567061975768
30
-1.1E-15
0
SPLINE
5
12A
100
AcDbEntity
8
1
62
256
6
ByLayer
370
18
48
1
60
0
100
AcDbSpline
70
4
71
3
72
10
73
6
40
0
40
0
40
0
40
0
40
0.579529299651687
40
0.579529299651687
40
1
40
1
40
1
40
1
41
1
10
27.6726189091324
20
2.46447846963108
30
2.5E-15
41
1
10
28.0853229624296
20
2.68541675172489
30
3E-15
41
1
10
28.5098894470283
20
2.88068128448629
30
3.5E-15
41
1
10
29.214659599697
20
3.13017466768889
30
-2.8E-15
41
1
10
29.5083408696683
20
3.20790295837551
30
-2.5E-15
41
1
10
29.7815434753196
20
3.25348911018929
30
-2.2E-15
0
SPLINE
5
12B
100
AcDbEntity
8
1
62
256
6
ByLayer
370
18
48
1
60
0
100
AcDbSpline
70
4
71
3
72
8
73
4
40
0
40
0
40
0
40
0
40
1
40
1
40
1
40
1
41
1
10
28.7234241196152
20
14.7125721761977
30
-3.4E-15
41
1
10
28.0500264644496
20
14.7864214750427
30
2.9E-15
41
1
10
27.2729317478156
20
14.9897986013664
30
2E-15
41
1
10
26.4918547551214
20
15.2517641848323
30
1.1E-15
0
SPLINE
5
12C
100
AcDbEntity
8
1
62
256
6
ByLayer
370
18
48
1
60
0
100
AcDbSpline
70
4
71
3
72
12
73
8
40
0
40
0
40
0
40
0
40
0.274077856982877
40
0.274077856982877
40
0.548155363965173
40
0.548155363965173
40
1
40
1
40
1
40
1
41
1
10
21.7833023726802
20
10.3824548307079
30
2.7E-15
41
1
10
21.8592126340675
20
10.1613106154524
30
2.8E-15
41
1
10
21.9207313208051
20
9.93476254333825
30
2.8E-15
41
1
10
22.0134058241625
20
9.47713525822724
30
3E-15
41
1
10
22.0447743149114
20
9.24500767396358
30
3E-15
41
1
10
22.0870023230757
20
8.63138509366331
30
3E-15
41
1
10
22.0717108080272
20
8.24590528408928
30
3E-15
41
1
10
22.015257906301
20
7.87045302954462
30
3E-15
0
SPLINE
5
12D
100
AcDbEntity
8
1
62
256
6
ByLayer
370
18
48
1
60
0
100
AcDbSpline
70
4
71
3
72
14
73
10
40
0
40
0
40
0
40
0
40
0.0560617400824645
40
0.0560617400824645
40
0.432699965147827
40
0.432699965147827
40
0.81134530467092
40
0.81134530467092
40
1
40
1
40
1
40
1
41
1
10
35.22190632011
20
10.647560357471
30
-2.9E-15
41
1
10
35.1993481127593
20
10.6766728578224
30
-2.9E-15
41
1
10
35.1763451086356
20
10.7057073074569
30
-2.9E-15
41
1
10
34.9970043299917
20
10.9270051441435
30
-3.2E-15
41
1
10
34.8188082726546
20
11.1169975998635
30
-3.4E-15
41
1
10
34.4404019479795
20
11.4587907187957
30
3.3E-15
41
1
10
34.2348892628672
20
11.6147460007316
30
3.1E-15
41
1
10
33.9314122273089
20
11.8044726055789
30
2.7E-15
41
1
10
33.8296415738506
20
11.8614279395948
30
2.6E-15
41
1
10
33.7297484267715
20
11.9111743552092
30
2.5E-15
0
SPLINE
5
12E
100
AcDbEntity
8
1
62
256
6
ByLayer
370
18
48
1
60
0
100
AcDbSpline
70
4
71
3
72
8
73
4
40
0
40
0
40
0
40
0
40
1
40
1
40
1
40
1
41
1
10
7.43643891759291
20
2.35718824623979
30
1E-16
41
1
10
7.44897389200889
20
2.2214386143211
30
1E-16
41
1
10
7.47289102513105
20
2.09208763586517
30
1E-16
41
1
10
7.5064603167956
20
1.96794093505406
30
2E-16
0
SPLINE
5
12F
100
AcDbEntity
8
1
62
256
6
ByLayer
370
18
48
1
60
0
100
AcDbSpline
70
4
71
3
72
8
73
4
40
0
40
0
40
0
40
0
40
1
40
1
40
1
40
1
41
1
10
17.4348172765721
20
3.5320945447146
30
-2.4E-15
41
1
10
17.3599686973384
20
3.52236303073201
30
-2.5E-15
41
1
10
17.2847861666256
20
3.51434538032257
30
-2.6E-15
41
1
10
17.209257709603
20
3.50810414252206
30
-2.7E-15
0
SPLINE
5
130
100
AcDbEntity
8
1
62
256
6
ByLayer
370
18
48
1
60
0
100
AcDbSpline
70
4
71
2
72
6
73
3
40
0
40
0
40
0
40
1
40
1
40
1
41
1.0258173342201
10
17.3700247677213
20
1.56465007518266
30
-2.5E-15
41
1.0258173342201
10
17.2384539863742
20
0.373069614341731
30
-2.6E-15
41
1.0258173342201
10
17.1068832050271
20
-0.818510846499194
30
-2.8E-15
0
SPLINE
5
131
100
AcDbEntity
8
1
62
256
6
ByLayer
370
18
48
1
60
0
100
AcDbSpline
70
4
71
3
72
10
73
6
40
0
40
0
40
0
40
0
40
0.5
40
0.5
40
1
40
1
40
1
40
1
41
1
10
16.4924673206692
20
13.7374332560081
30
-3.5E-15
41
1
10
17.6222855711195
20
13.7826399628158
30
-2.2E-15
41
1
10
18.7519472674824
20
13.4700183184611
30
-9E-16
41
1
10
20.6399080763988
20
12.3192630751162
30
1.3E-15
41
1
10
21.4138449978432
20
11.4585988599509
30
2.2E-15
41
1
10
21.7833023726802
20
10.3824548307079
30
2.7E-15
0
SPLINE
5
132
100
AcDbEntity
8
1
62
256
6
ByLayer
370
18
48
1
60
0
100
AcDbSpline
70
4
71
3
72
11
73
7
40
0
40
0
40
0
40
0
40
0.425230898251464
40
0.744154071940062
40
0.956769521065794
40
1
40
1
40
1
40
1
41
1.0258173342201
10
16.1060002396675
20
15.2536181356877
30
3.1E-15
41
1.02559001729416
10
17.2497709914716
20
15.2509322902788
30
-2.6E-15
41
1.0228008665691
10
21.2453059449753
20
14.4770535158038
30
2.1E-15
41
1.01953314781965
10
26.7772230755916
20
12.6796987739263
30
1.4E-15
41
1.01775466813745
10
28.7039449245141
20
12.0195671483023
30
-3.4E-15
41
1.01823166218985
10
29.3713481298485
20
11.902450925485
30
-2.6E-15
41
1.01834276704992
10
29.4817385652382
20
11.885767923177
30
-2.5E-15
0
SPLINE
5
133
100
AcDbEntity
8
1
62
256
6
ByLayer
370
18
48
1
60
0
100
AcDbSpline
70
4
71
3
72
11
73
7
40
0
40
0
40
0
40
0
40
0.0598016998824464
40
0.468392215028713
40
0.740785891792891
40
1
40
1
40
1
40
1
41
1.0229825050537
10
21.7833023725962
20
10.3824548307057
30
2.7E-15
41
1.02281639303114
10
22.0280759968314
20
10.3887301252408
30
3E-15
41
1.02150796927553
10
23.965175953616
20
10.431997857973
30
-1.9E-15
41
1.01953314781965
10
27.1254079652885
20
10.4136567588735
30
1.8E-15
41
1.01726237988674
10
29.472363325888
20
10.3130065791071
30
-2.5E-15
41
1.01931548101018
10
30.350993652986
20
10.3197359109258
30
-1.5E-15
41
1.02052415826821
10
30.972499812973
20
10.3029879240726
30
-8E-16
0
SPLINE
5
134
100
AcDbEntity
8
1
62
256
6
ByLayer
370
18
48
1
60
0
100
AcDbSpline
70
4
71
3
72
10
73
6
40
0
40
0
40
0
40
0
40
0.731096563947359
40
0.731096563947359
40
1
40
1
40
1
40
1
41
1
10
10.0780289764544
20
11.3516636144839
30
3.2E-15
41
1
10
10.0025534327571
20
11.3156605917167
30
3.1E-15
41
1
10
9.92091288667564
20
11.2810298545783
30
3E-15
41
1
10
9.81097328480359
20
11.2390028130959
30
2.9E-15
41
1
10
9.78110742802448
20
11.2280353905323
30
2.8E-15
41
1
10
9.75149539601807
20
11.2175502016248
30
2.8E-15
0
SPLINE
5
135
100
AcDbEntity
8
1
62
256
6
ByLayer
370
18
48
1
60
0
100
AcDbSpline
70
4
71
3
72
8
73
4
40
0
40
0
40
0
40
0
40
1
40
1
40
1
40
1
41
1
10
10.3176346863148
20
5.08644871532655
30
3.5E-15
41
1
10
10.0417754596841
20
5.1184995503524
30
3.1E-15
41
1
10
9.76764235831979
20
5.11298161030749
30
2.8E-15
41
1
10
9.50514128295612
20
5.07900321219441
30
2.5E-15
0
SPLINE
5
136
100
AcDbEntity
8
1
62
256
6
ByLayer
370
18
48
1
60
0
100
AcDbSpline
70
4
71
3
72
8
73
4
40
0
40
0
40
0
40
0
40
1
40
1
40
1
40
1
41
1
10
10.6630947472747
20
5.01559459659796
30
-3.2E-15
41
1
10
11.0260804953674
20
4.90458204341024
30
-2.8E-15
41
1
10
11.3565758760375
20
4.72008163812197
30
-2.4E-15
41
1
10
11.6300675951958
20
4.47870805511363
30
-2.1E-15
0
SPLINE
5
137
100
AcDbEntity
8
1
62
256
6
ByLayer
370
18
48
1
60
0
100
AcDbSpline
70
4
71
3
72
8
73
4
40
0
40
0
40
0
40
0
40
1
40
1
40
1
40
1
41
1
10
16.4924673208257
20
13.737433256015
30
-3.5E-15
41
1
10
16.4166798362269
20
13.7342531607338
30
3.5E-15
41
1
10
16.3411872287152
20
13.7295626206242
30
3.4E-15
41
1
10
16.2659930304851
20
13.7233490040501
30
3.3E-15
0
SPLINE
5
138
100
AcDbEntity
8
1
62
256
6
ByLayer
370
18
48
1
60
0
100
AcDbSpline
70
4
71
3
72
16
73
12
40
0
40
0
40
0
40
0
40
0.47432043627442
40
0.47432043627442
40
0.658954025821058
40
0.658954025821058
40
0.845504004041773
40
0.845504004041773
40
0.957858191960716
40
0.957858191960716
40
1
40
1
40
1
40
1
41
1
10
7.72314680502791
20
0.816008151232893
30
4E-16
41
1
10
7.71552079716457
20
0.932284920317585
30
4E-16
41
1
10
7.69429487725097
20
1.07631194711254
30
4E-16
41
1
10
7.64776104857452
20
1.32363396993941
30
3E-16
41
1
10
7.63265322772924
20
1.39959212222391
30
3E-16
41
1
10
7.59931591308759
20
1.56195604686525
30
3E-16
41
1
10
7.58078164239737
20
1.65028422295052
30
3E-16
41
1
10
7.54868795532184
20
1.79560362069424
30
2E-16
41
1
10
7.53579084356557
20
1.85233406352506
30
2E-16
41
1
10
7.51710093639542
20
1.92758376094787
30
2E-16
41
1
10
7.51183044319544
20
1.94808101420338
30
2E-16
41
1
10
7.5064603167956
20
1.96794093505409
30
2E-16
0
SPLINE
5
139
100
AcDbEntity
8
1
62
256
6
ByLayer
370
18
48
1
60
0
100
AcDbSpline
70
4
71
3
72
11
73
7
40
0
40
0
40
0
40
0
40
0.0598016998855032
40
0.468392215040456
40
0.740785891810424
40
1
40
1
40
1
40
1
41
1.02298250505371
10
22.0152579062175
20
7.87045302953536
30
3E-15
41
1.02281639303115
10
22.2581310083704
20
7.89731035044844
30
3.2E-15
41
1.02150796927554
10
24.1794719556231
20
8.11124295038063
30
-1.6E-15
41
1.01953314781965
10
27.304178798668
20
8.47762769144262
30
2E-15
41
1.0172623798868
10
29.6146368444445
20
8.77223137348325
30
-2.4E-15
41
1.01931548101
10
30.4885220707065
20
8.8303485794696
30
-1.3E-15
41
1.02052415826788
10
31.1033912710316
20
8.88547667223408
30
-6E-16
0
SPLINE
5
13A
100
AcDbEntity
8
1
62
256
6
ByLayer
370
18
48
1
60
0
100
AcDbSpline
70
4
71
3
72
8
73
4
40
0
40
0
40
0
40
0
40
1
40
1
40
1
40
1
41
1
10
10.6630947472747
20
5.01559459659796
30
-3.2E-15
41
1
10
9.53174561986509
20
3.41049142992458
30
2.5E-15
41
1
10
8.39155423288753
20
1.81218113759536
30
1.2E-15
41
1
10
7.72314680502791
20
0.816008151232893
30
4E-16
0
SPLINE
5
13B
100
AcDbEntity
8
1
62
256
6
ByLayer
370
18
48
1
60
0
100
AcDbSpline
70
4
71
3
72
10
73
6
40
0
40
0
40
0
40
0
40
0.914968234315964
40
0.914968234315964
40
1
40
1
40
1
40
1
41
1
10
30.972499812973
20
10.3029879240726
30
-8E-16
41
1
10
31.3769248335592
20
10.0885397773501
30
-3E-16
41
1
10
31.780035826488
20
9.88262512966978
30
2E-16
41
1
10
32.2184904424971
20
9.66666731343355
30
7E-16
41
1
10
32.2557654861173
20
9.64837635650235
30
7E-16
41
1
10
32.2930224903324
20
9.63016518999356
30
8E-16
0
SPLINE
5
13C
100
AcDbEntity
8
1
62
256
6
ByLayer
370
18
48
1
60
0
100
AcDbSpline
70
4
71
3
72
14
73
10
40
0
40
0
40
0
40
0
40
0.264998964150955
40
0.264998964150955
40
0.633007150607443
40
0.633007150607443
40
0.984533813617853
40
0.984533813617853
40
1
40
1
40
1
40
1
41
1
10
34.203523946432
20
6.78034199195744
30
3E-15
41
1
10
34.3296201392723
20
6.857117258334
30
3.2E-15
41
1
10
34.4568341188494
20
6.95116415061577
30
3.3E-15
41
1
10
34.7494676200282
20
7.21065906430158
30
-3.4E-15
41
1
10
34.9145318456937
20
7.39399549097894
30
-3.3E-15
41
1
10
35.1997806069369
20
7.78367641755963
30
-2.9E-15
41
1
10
35.3251799130857
20
7.99294650437659
30
-2.8E-15
41
1
10
35.4355545827282
20
8.21437440679173
30
-2.6E-15
41
1
10
35.4402155759501
20
8.22380604365119
30
-2.6E-15
41
1
10
35.4448413811373
20
8.23324729451829
30
-2.6E-15
0
SPLINE
5
13D
100
AcDbEntity
8
1
62
256
6
ByLayer
370
18
48
1
60
0
100
AcDbSpline
70
4
71
3
72
10
73
6
40
0
40
0
40
0
40
0
40
0.0734657164133823
40
0.699676314776448
40
1
40
1
40
1
40
1
41
1.02544020896672
10
33.0970904304993
20
12.5148046501826
30
1.7E-15
41
1.02527247753992
10
33.0013551341722
20
12.5775283811409
30
1.6E-15
41
1.02366228488755
10
32.0680929403253
20
13.1783629005898
30
5E-16
41
1.02128760257541
10
30.4556345479731
20
14.0562067089441
30
-1.4E-15
41
1.01951717951064
10
29.5026136118475
20
14.5156836629891
30
-2.5E-15
41
1.01906346594983
10
29.2116655775416
20
14.6482999499225
30
-2.8E-15
0
SPLINE
5
13E
100
AcDbEntity
8
1
62
256
6
ByLayer
370
18
48
1
60
0
100
AcDbSpline
70
4
71
3
72
10
73
6
40
0
40
0
40
0
40
0
40
0.5
40
0.5
40
1
40
1
40
1
40
1
41
1
10
29.9287490016117
20
7.04479257016547
30
-2E-15
41
1
10
30.4121164701204
20
6.60091968351381
30
-1.4E-15
41
1
10
30.9143763820898
20
6.16780647576834
30
-8E-16
41
1
10
32.1560376974049
20
5.76817244552629
30
6E-16
41
1
10
32.8691013446205
20
5.69374347926853
30
1.5E-15
41
1
10
33.6884603985975
20
6.07963547446661
30
2.4E-15
0
SPLINE
5
13F
100
AcDbEntity
8
1
62
256
6
ByLayer
370
18
48
1
60
0
100
AcDbSpline
70
4
71
3
72
8
73
4
40
0
40
0
40
0
40
0
40
1
40
1
40
1
40
1
41
1
10
9.75149539601807
20
11.2175502016248
30
2.8E-15
41
1
10
8.52743878994028
20
12.095855765772
30
1.4E-15
41
1
10
7.34524028170949
20
12.8853562085442
30
0
41
1
10
6.44970463665118
20
13.4122558452459
30
-1.1E-15
0
SPLINE
5
140
100
AcDbEntity
8
1
62
256
6
ByLayer
370
18
48
1
60
0
100
AcDbSpline
70
4
71
3
72
8
73
4
40
0
40
0
40
0
40
0
40
1
40
1
40
1
40
1
41
1
10
10.9356396105691
20
11.9991337200423
30
-2.9E-15
41
1
10
11.6957181233649
20
12.8792639812213
30
-2E-15
41
1
10
12.8097313945817
20
13.4377433976233
30
-7E-16
41
1
10
14.0915515239233
20
13.5436656494481
30
8E-16
0
SPLINE
5
141
100
AcDbEntity
8
1
62
256
6
ByLayer
370
18
48
1
60
0
100
AcDbSpline
70
4
71
3
72
8
73
4
40
0
40
0
40
0
40
0
40
1
40
1
40
1
40
1
41
1
10
6.23004175462859
20
15.3676335894493
30
-1.3E-15
41
1
10
6.20218588130354
20
15.3538971561763
30
-1.4E-15
41
1
10
6.17429584218416
20
15.3398163368945
30
-1.4E-15
41
1
10
6.14637746867095
20
15.3253803821013
30
-1.4E-15
0
SPLINE
5
142
100
AcDbEntity
8
1
62
256
6
ByLayer
370
18
48
1
60
0
100
AcDbSpline
70
4
71
3
72
8
73
4
40
0
40
0
40
0
40
0
40
1
40
1
40
1
40
1
41
1
10
7.726179909964
20
0.767738137071802
30
4E-16
41
1
10
7.72523238103241
20
0.783583505384911
30
4E-16
41
1
10
7.72421683755306
20
0.799692940562011
30
4E-16
41
1
10
7.72314680502768
20
0.816008151232865
30
4E-16
0
SPLINE
5
143
100
AcDbEntity
8
1
62
256
6
ByLayer
370
18
48
1
60
0
100
AcDbSpline
70
4
71
3
72
8
73
4
40
0
40
0
40
0
40
0
40
1
40
1
40
1
40
1
41
1
10
16.4924673206692
20
13.7374332560081
30
-3.5E-15
41
1
10
16.3631833634226
20
14.4310704060046
30
3.4E-15
41
1
10
16.2292671049462
20
14.956449710547
30
3.3E-15
41
1
10
16.1060002396675
20
15.2536181356877
30
3.1E-15
0
SPLINE
5
144
100
AcDbEntity
8
1
62
256
6
ByLayer
370
18
48
1
60
0
100
AcDbSpline
70
4
71
3
72
8
73
4
40
0
40
0
40
0
40
0
40
1
40
1
40
1
40
1
41
1
10
15.4844345750636
20
16.7520718300713
30
2.4E-15
41
1
10
19.2278563638335
20
17.0390348974307
30
-3E-16
41
1
10
22.9372686186448
20
16.4439376068273
30
-3.1E-15
41
1
10
26.4918547551213
20
15.2517641848323
30
1.1E-15
0
SPLINE
5
145
100
AcDbEntity
8
1
62
256
6
ByLayer
370
18
48
1
60
0
100
AcDbSpline
70
4
71
3
72
8
73
4
40
0
40
0
40
0
40
0
40
1
40
1
40
1
40
1
41
1
10
9.40418558040301
20
-1.73556790759946
30
2.4E-15
41
1
10
8.90503123884002
20
-1.82564884093492
30
1.8E-15
41
1
10
8.32821873811974
20
-1.85510997432391
30
1.1E-15
41
1
10
7.72074497018656
20
-1.72449955727527
30
4E-16
0
SPLINE
5
146
100
AcDbEntity
8
1
62
256
6
ByLayer
370
18
48
1
60
0
100
AcDbSpline
70
4
71
3
72
10
73
6
40
0
40
0
40
0
40
0
40
0.731297369966837
40
0.731297369966837
40
1
40
1
40
1
40
1
41
1
10
10.3176346863148
20
5.08644871532655
30
3.5E-15
41
1
10
10.4006976856909
20
5.07679800136538
30
-3.5E-15
41
1
10
10.4873402874647
20
5.06173647936691
30
-3.4E-15
41
1
10
10.6020461340615
20
5.03333224395331
30
-3.3E-15
41
1
10
10.6329154985148
20
5.02482436794776
30
-3.3E-15
41
1
10
10.6630947472747
20
5.01559459659796
30
-3.2E-15
0
SPLINE
5
147
100
AcDbEntity
8
1
62
256
6
ByLayer
370
18
48
1
60
0
100
AcDbSpline
70
4
71
3
72
8
73
4
40
0
40
0
40
0
40
0
40
1
40
1
40
1
40
1
41
1
10
6.45287943664869
20
13.0088124999108
30
-1.1E-15
41
1
10
6.4403444622327
20
13.1445621318295
30
-1.1E-15
41
1
10
6.43990778152272
20
13.278954911742
30
-1.1E-15
41
1
10
6.44970463665118
20
13.4122558452459
30
-1.1E-15
0
SPLINE
5
148
100
AcDbEntity
8
1
62
256
6
ByLayer
370
18
48
1
60
0
100
AcDbSpline
70
4
71
1
72
4
73
2
40
0
40
0
40
1
40
1
41
1
10
16.1060002396675
20
15.2536181356877
30
3.1E-15
41
1
10
15.4844345750636
20
16.7520718300713
30
2.4E-15
0
SPLINE
5
149
100
AcDbEntity
8
1
62
256
6
ByLayer
370
18
48
1
60
0
100
AcDbSpline
70
4
71
3
72
10
73
6
40
0
40
0
40
0
40
0
40
0.5
40
0.5
40
1
40
1
40
1
40
1
41
1
10
33.0940605568731
20
12.5167893872334
30
1.7E-15
41
1
10
32.2048386934941
20
12.8751416228136
30
7E-16
41
1
10
31.5035019218045
20
12.8454062211895
30
-1E-16
41
1
10
30.3227900900794
20
12.5695809534786
30
-1.5E-15
41
1
10
29.8922097451082
20
12.2326980366232
30
-2E-15
41
1
10
29.4817385652382
20
11.885767923177
30
-2.5E-15
0
SPLINE
5
14A
100
AcDbEntity
8
1
62
256
6
ByLayer
370
18
48
1
60
0
100
AcDbSpline
70
4
71
3
72
11
73
7
40
0
40
0
40
0
40
0
40
0.425230898249524
40
0.744154071936666
40
0.956769521061428
40
1
40
1
40
1
40
1
41
1.0258173342201
10
17.3700247677213
20
1.56465007518266
30
-2.5E-15
41
1.02559001729416
10
18.4945364128775
20
1.77053399346547
30
-1.2E-15
41
1.0228008665691
10
22.2767263329328
20
3.30711145293654
30
3.3E-15
41
1.01953314781965
10
27.3989779041651
20
5.9462993817455
30
2.2E-15
41
1.01775466813744
10
29.1825421241825
20
6.83651758371819
30
-2.9E-15
41
1.01823166218986
10
29.8223770003266
20
7.01795725855015
30
-2.1E-15
41
1.01834276704995
10
29.9287490016116
20
7.04479257016545
30
-2E-15
0
SPLINE
5
14B
100
AcDbEntity
8
1
62
256
6
ByLayer
370
18
48
1
60
0
100
AcDbSpline
70
4
71
3
72
8
73
4
40
0
40
0
40
0
40
0
40
1
40
1
40
1
40
1
41
1
10
9.75149539601807
20
11.2175502016248
30
2.8E-15
41
1
10
9.48723590180782
20
11.1239797665807
30
2.5E-15
41
1
10
9.21816778795994
20
11.063609684984
30
2.2E-15
41
1
10
8.95566671259621
20
11.029631286871
30
1.9E-15
0
SPLINE
5
14C
100
AcDbEntity
8
1
62
256
6
ByLayer
370
18
48
1
60
0
100
AcDbSpline
70
4
71
3
72
10
73
6
40
0
40
0
40
0
40
0
40
0.300434803509631
40
0.926576302243943
40
1
40
1
40
1
40
1
41
1.01906281214953
10
30.2551486738388
20
3.34337107390887
30
-1.6E-15
41
1.01951662816455
10
30.5174959899927
20
3.52176647139525
30
-1.3E-15
41
1.02128725997138
10
31.3719307864317
20
4.13062287155191
30
-3E-16
41
1.02366220434836
10
32.7992356926166
20
5.25976725677439
30
1.4E-15
41
1.02527232143637
10
33.608212908224
20
6.00453902218159
30
2.3E-15
41
1.02543997666398
10
33.6909659793035
20
6.08197981811106
30
2.4E-15
0
SPLINE
5
14D
100
AcDbEntity
8
1
62
256
6
ByLayer
370
18
48
1
60
0
100
AcDbSpline
70
4
71
3
72
8
73
4
40
0
40
0
40
0
40
0
40
1
40
1
40
1
40
1
41
1
10
15.0348162030413
20
3.32842078792007
30
1.9E-15
41
1
10
13.7671467513722
20
3.22366786680678
30
4E-16
41
1
10
12.5435980579701
20
3.67246016700312
30
-1E-15
41
1
10
11.6300675951958
20
4.47870805511366
30
-2.1E-15
0
SPLINE
5
14E
100
AcDbEntity
8
1
62
256
6
ByLayer
370
18
48
1
60
0
100
AcDbSpline
70
4
71
3
72
8
73
4
40
0
40
0
40
0
40
0
40
1
40
1
40
1
40
1
41
1
10
28.7234241196152
20
14.7125721761977
30
-3.4E-15
41
1
10
28.8860529896366
20
14.6947372046458
30
-3.2E-15
41
1
10
29.048724303223
20
14.6738511163113
30
-3E-15
41
1
10
29.211239060143
20
14.6484943539066
30
-2.8E-15
0
SPLINE
5
14F
100
AcDbEntity
8
1
62
256
6
ByLayer
370
18
48
1
60
0
100
AcDbSpline
70
4
71
3
72
10
73
6
40
0
40
0
40
0
40
0
40
0.5
40
0.5
40
1
40
1
40
1
40
1
41
1
10
27.6726189091323
20
2.46447846963105
30
2.5E-15
41
1
10
26.0367480941861
20
1.58872625761842
30
6E-16
41
1
10
24.3403821227226
20
0.866283896397675
30
-1.4E-15
41
1
10
20.816665242256
20
-0.2466522472441
30
1.5E-15
41
1
10
18.9763823196586
20
-0.652841244264664
30
-6E-16
41
1
10
17.1068832050271
20
-0.818510846499208
30
-2.8E-15
0
SPLINE
5
150
100
AcDbEntity
8
1
62
256
6
ByLayer
370
18
48
1
60
0
100
AcDbSpline
70
4
71
3
72
10
73
6
40
0
40
0
40
0
40
0
40
0.5
40
0.5
40
1
40
1
40
1
40
1
41
1
10
22.015257906301
20
7.87045302954459
30
3E-15
41
1
10
21.8477022149552
20
6.75639728459407
30
2.8E-15
41
1
10
21.2438389410248
20
5.72905641986068
30
2E-15
41
1
10
19.6049173271299
20
4.19944010063978
30
1E-16
41
1
10
18.5574093992155
20
3.6762751589678
30
-1.1E-15
41
1
10
17.4348172765721
20
3.5320945447146
30
-2.4E-15
0
SPLINE
5
151
100
AcDbEntity
8
1
62
256
6
ByLayer
370
18
48
1
60
0
100
AcDbSpline
70
4
71
2
72
6
73
3
40
0
40
0
40
0
40
1
40
1
40
1
41
0.943993462491077
10
17.4348172774316
20
3.53209447372195
30
-2.4E-15
41
0.955129619920243
10
17.4498816759469
20
2.28788003954472
30
-2.4E-15
41
1.0258173342201
10
17.3700247677213
20
1.56465007518266
30
-2.5E-15
0
SPLINE
5
152
100
AcDbEntity
8
1
62
256
6
ByLayer
370
18
48
1
60
0
100
AcDbSpline
70
4
71
3
72
8
73
4
40
0
40
0
40
0
40
0
40
1
40
1
40
1
40
1
41
1
10
30.2551423335825
20
3.34336676255512
30
-1.6E-15
41
1
10
30.0981022474139
20
3.3094346492851
30
-1.8E-15
41
1
10
29.9400827849239
20
3.27994272697978
30
-2E-15
41
1
10
29.7815434753195
20
3.25348911018924
30
-2.2E-15
0
SPLINE
5
153
100
AcDbEntity
8
1
62
256
6
ByLayer
370
18
48
1
60
0
100
AcDbSpline
70
4
71
3
72
10
73
6
40
0
40
0
40
0
40
0
40
0.311681797709781
40
0.311681797709781
40
1
40
1
40
1
40
1
41
1
10
32.2930224903506
20
9.63016518998461
30
8E-16
41
1
10
32.1694375964419
20
9.55660089042422
30
6E-16
41
1
10
32.0458256158241
20
9.48175379524358
30
5E-16
41
1
10
31.649244358819
20
9.23793368070704
30
0
41
1
10
31.3762038004901
20
9.06472667659776
30
-3E-16
41
1
10
31.103391271213
20
8.88547667225035
30
-6E-16
0
LINE
5
72
100
AcDbEntity
8
1
62
256
6
ByLayer
370
18
48
1
60
0
100
AcDbLine
10
12.270998
20
12.140396
30
0
11
12.114231
21
11.983629
31
0
39
0
210
0
220
0
230
1
0
LINE
5
74
100
AcDbEntity
8
1
62
256
6
ByLayer
370
18
48
1
60
0
100
AcDbLine
10
10.105305
20
11.36485
30
0
11
10.110102
21
11.367214
31
0
39
0
210
0
220
0
230
1
0
LINE
5
75
100
AcDbEntity
8
1
62
256
6
ByLayer
370
18
48
1
60
0
100
AcDbLine
10
9.70188
20
11.166026
30
0
11
10.105305
21
11.36485
31
0
39
0
210
0
220
0
230
1
0
LINE
5
76
100
AcDbEntity
8
1
62
256
6
ByLayer
370
18
48
1
60
0
100
AcDbLine
10
7.291241
20
15.890594
30
0
11
6.228393
21
15.36678
31
0
39
0
210
0
220
0
230
1
0
LINE
5
77
100
AcDbEntity
8
1
62
256
6
ByLayer
370
18
48
1
60
0
100
AcDbLine
10
15.758195
20
7.229693
30
0
11
15.556454
21
7.027952
31
0
39
0
210
0
220
0
230
1
0
LINE
5
78
100
AcDbEntity
8
1
62
256
6
ByLayer
370
18
48
1
60
0
100
AcDbLine
10
14.394494
20
8.980713
30
0
11
14.595051
21
9.18127
31
0
39
0
210
0
220
0
230
1
0
LINE
5
79
100
AcDbEntity
8
1
62
256
6
ByLayer
370
18
48
1
60
0
100
AcDbLine
10
17.283183
20
8.293625
30
0
11
17.08165
21
8.092091
31
0
39
0
210
0
220
0
230
1
0
LINE
5
7A
100
AcDbEntity
8
1
62
256
6
ByLayer
370
18
48
1
60
0
100
AcDbLine
10
15.91969
20
10.044852
30
0
11
16.121431
21
10.246593
31
0
39
0
210
0
220
0
230
1
0
LINE
5
7B
100
AcDbEntity
8
1
62
256
6
ByLayer
370
18
48
1
60
0
100
AcDbLine
10
19.180116
20
4.907378
30
0
11
19.342066
21
5.069328
31
0
39
0
210
0
220
0
230
1
0
LINE
5
7C
100
AcDbEntity
8
80
62
256
6
ByLayer
370
18
48
1
60
0
100
AcDbLine
10
0
20
0
30
0
11
-5
21
0
31
0
39
0
210
0
220
0
230
1
0
LINE
5
7D
100
AcDbEntity
8
81
62
256
6
ByLayer
370
18
48
1
60
0
100
AcDbLine
10
33.142165
20
19.9125
30
0
11
43.142165
21
19.9125
31
0
39
0
210
0
220
0
230
1
0
LINE
5
7E
100
AcDbEntity
8
1
62
256
6
ByLayer
370
18
48
1
60
0
100
AcDbLine
10
0
20
12.4375
30
0
11
2.508677
21
14.946177
31
0
39
0
210
0
220
0
230
1
0
LINE
5
7F
100
AcDbEntity
8
1
62
256
6
ByLayer
370
18
48
1
60
0
100
AcDbLine
10
8.950128
20
-12.447916
30
0
11
7.963905
21
-1.767447
31
0
39
0
210
0
220
0
230
1
0
LINE
5
80
100
AcDbEntity
8
1
62
256
6
ByLayer
370
18
48
1
60
0
100
AcDbLine
10
32.221391
20
-1.487447
30
0
11
30.023624
21
0.71032
31
0
39
0
210
0
220
0
230
1
0
LINE
5
81
100
AcDbEntity
8
1
62
256
6
ByLayer
370
18
48
1
60
0
100
AcDbLine
10
32.159965
20
-1.548873
30
0
11
27.989687
21
2.621406
31
0
39
0
210
0
220
0
230
1
0
LINE
5
82
100
AcDbEntity
8
1
62
256
6
ByLayer
370
18
48
1
60
0
100
AcDbLine
10
29.316752
20
17.29158
30
0
11
27.079736
21
15.07419
31
0
39
0
210
0
220
0
230
1
0
LINE
5
83
100
AcDbEntity
8
1
62
256
6
ByLayer
370
18
48
1
60
0
100
AcDbLine
10
2.061698
20
-12.446496
30
0
11
0
21
10.361348
31
0
39
0
210
0
220
0
230
1
0
LINE
5
84
100
AcDbEntity
8
1
62
256
6
ByLayer
370
18
48
1
60
0
100
AcDbLine
10
12.032522
20
-3.908273
30
0
11
11.874207
21
-12.458298
31
0
39
0
210
0
220
0
230
1
0
LINE
5
85
100
AcDbEntity
8
1
62
256
6
ByLayer
370
18
48
1
60
0
100
AcDbLine
10
29.316752
20
17.29158
30
0
11
20.821279
21
16.548322
31
0
39
0
210
0
220
0
230
1
0
LINE
5
86
100
AcDbEntity
8
1
62
256
6
ByLayer
370
18
48
1
60
0
100
AcDbLine
10
0
20
10.361348
30
0
11
0
21
-12.4375
31
0
39
0
210
0
220
0
230
1
0
LINE
5
87
100
AcDbEntity
8
1
62
256
6
ByLayer
370
18
48
1
60
0
100
AcDbLine
10
21.25083
20
-12.458008
30
0
11
32.159965
21
-1.548873
31
0
39
0
210
0
220
0
230
1
0
LINE
5
88
100
AcDbEntity
8
1
62
256
6
ByLayer
370
18
48
1
60
0
100
AcDbLine
10
8.043472
20
-12.443901
30
0
11
7.024962
21
-1.413773
31
0
39
0
210
0
220
0
230
1
0
LINE
5
89
100
AcDbEntity
8
1
62
256
6
ByLayer
370
18
48
1
60
0
100
AcDbLine
10
5.518102
20
14.905028
30
0
11
5.490215
21
15.207028
31
0
39
0
210
0
220
0
230
1
0
LINE
5
8A
100
AcDbEntity
8
1
62
256
6
ByLayer
370
18
48
1
60
0
100
AcDbLine
10
11.874207
20
-12.458298
30
0
11
20.582547
21
-12.458298
31
0
39
0
210
0
220
0
230
1
0
LINE
5
8B
100
AcDbEntity
8
1
62
256
6
ByLayer
370
18
48
1
60
0
100
AcDbLine
10
0
20
10.361348
30
0
11
0
21
12.4375
31
0
39
0
210
0
220
0
230
1
0
LINE
5
8C
100
AcDbEntity
8
1
62
256
6
ByLayer
370
18
48
1
60
0
100
AcDbLine
10
28.002292
20
2.627763
30
0
11
29.261328
21
1.368726
31
0
39
0
210
0
220
0
230
1
0
LINE
5
8D
100
AcDbEntity
8
1
62
256
6
ByLayer
370
18
48
1
60
0
100
AcDbLine
10
11.874207
20
-12.458298
30
0
11
8.950128
21
-12.447916
31
0
39
0
210
0
220
0
230
1
0
LINE
5
8E
100
AcDbEntity
8
1
62
256
6
ByLayer
370
18
48
1
60
0
100
AcDbLine
10
8.043472
20
-12.443901
30
0
11
2.061698
21
-12.446496
31
0
39
0
210
0
220
0
230
1
0
LINE
5
8F
100
AcDbEntity
8
1
62
256
6
ByLayer
370
18
48
1
60
0
100
AcDbLine
10
8.950128
20
-12.447916
30
0
11
8.928548
21
-12.447044
31
0
39
0
210
0
220
0
230
1
0
LINE
5
90
100
AcDbEntity
8
1
62
256
6
ByLayer
370
18
48
1
60
0
100
AcDbLine
10
20.582547
20
-12.458298
30
0
11
12.032522
21
-3.908273
31
0
39
0
210
0
220
0
230
1
0
LINE
5
91
100
AcDbEntity
8
1
62
256
6
ByLayer
370
18
48
1
60
0
100
AcDbLine
10
32.221391
20
-1.487447
30
0
11
32.159965
21
-1.548873
31
0
39
0
210
0
220
0
230
1
0
LINE
5
92
100
AcDbEntity
8
1
62
256
6
ByLayer
370
18
48
1
60
0
100
AcDbLine
10
0
20
-12.4375
30
0
11
2.061698
21
-12.446496
31
0
39
0
210
0
220
0
230
1
0
LINE
5
93
100
AcDbEntity
8
1
62
256
6
ByLayer
370
18
48
1
60
0
100
AcDbLine
10
5.490215
20
15.207028
30
0
11
6.014307
21
15.25288
31
0
39
0
210
0
220
0
230
1
0
LINE
5
94
100
AcDbEntity
8
1
62
256
6
ByLayer
370
18
48
1
60
0
100
AcDbLine
10
21.25083
20
-12.458008
30
0
11
20.582547
21
-12.458298
31
0
39
0
210
0
220
0
230
1
0
LINE
5
95
100
AcDbEntity
8
1
62
256
6
ByLayer
370
18
48
1
60
0
100
AcDbLine
10
29.561102
20
17.312958
30
0
11
29.316752
21
17.29158
31
0
39
0
210
0
220
0
230
1
0
LINE
5
96
100
AcDbEntity
8
1
62
256
6
ByLayer
370
18
48
1
60
0
100
AcDbLine
10
2.508677
20
14.946177
30
0
11
5.490215
21
15.207028
31
0
39
0
210
0
220
0
230
1
0
LINE
5
97
100
AcDbEntity
8
1
62
256
6
ByLayer
370
18
48
1
60
0
100
AcDbLine
10
8.928548
20
-12.447044
30
0
11
7.942062
21
-1.76373
31
0
39
0
210
0
220
0
230
1
0
LINE
5
98
100
AcDbEntity
8
1
62
256
6
ByLayer
370
18
48
1
60
0
100
AcDbLine
10
12.032522
20
-3.908273
30
0
11
11.790914
21
-1.291737
31
0
39
0
210
0
220
0
230
1
0
LINE
5
99
100
AcDbEntity
8
SK1
62
256
6
ByLayer
370
18
48
1
60
0
100
AcDbLine
10
-138.207835
20
12.4375
30
0
11
-138.207835
21
-12.4375
31
0
39
0
210
0
220
0
230
1
0
LINE
5
9B
100
AcDbEntity
8
SK1
62
256
6
ByLayer
370
18
48
1
60
0
100
AcDbLine
10
-138.207835
20
-12.4375
30
0
11
0
21
-12.4375
31
0
39
0
210
0
220
0
230
1
0
LINE
5
9C
100
AcDbEntity
8
SK1
62
256
6
ByLayer
370
18
48
1
60
0
100
AcDbLine
10
0
20
10.361348
30
0
11
0
21
-12.4375
31
0
39
0
210
0
220
0
230
1
0
LINE
5
9D
100
AcDbEntity
8
SK1
62
256
6
ByLayer
370
18
48
1
60
0
100
AcDbLine
10
0
20
10.361348
30
0
11
-2.076152
21
12.4375
31
0
39
0
210
0
220
0
230
1
0
LINE
5
9E
100
AcDbEntity
8
SK1
62
256
6
ByLayer
370
18
48
1
60
0
100
AcDbLine
10
0
20
10.361348
30
0
11
0
21
12.4375
31
0
39
0
210
0
220
0
230
1
0
LINE
5
9F
100
AcDbEntity
8
SK1
62
256
6
ByLayer
370
18
48
1
60
0
100
AcDbLine
10
-2.076152
20
12.4375
30
0
11
-138.207835
21
12.4375
31
0
39
0
210
0
220
0
230
1
0
LINE
5
A0
100
AcDbEntity
8
SK1
62
256
6
ByLayer
370
18
48
1
60
0
100
AcDbLine
10
-2.076152
20
12.4375
30
0
11
0
21
12.4375
31
0
39
0
210
0
220
0
230
1
0
LINE
5
A1
100
AcDbEntity
8
1
62
256
6
ByLayer
370
18
48
1
60
0
100
AcDbLine
10
31.817438
20
19.569291
30
0
11
27.265944
21
15.017797
31
0
39
0
210
0
220
0
230
1
0
LINE
5
A2
100
AcDbEntity
8
1
62
256
6
ByLayer
370
18
48
1
60
0
100
AcDbLine
10
43.034562
20
10.020103
30
0
11
33.493571
21
19.561095
31
0
39
0
210
0
220
0
230
1
0
LINE
5
A3
100
AcDbEntity
8
1
62
256
6
ByLayer
370
18
48
1
60
0
100
AcDbLine
10
33.594619
20
-1.104169
30
0
11
43.042758
21
8.343971
31
0
39
0
210
0
220
0
230
1
0
LINE
5
A4
100
AcDbEntity
8
1
62
256
6
ByLayer
370
18
48
1
60
0
100
AcDbLine
10
28.130862
20
2.691652
30
0
11
31.918486
21
-1.095973
31
0
39
0
210
0
220
0
230
1
0
LINE
5
A5
100
AcDbEntity
8
1
62
256
6
ByLayer
370
18
48
1
60
0
100
AcDbLine
10
33.594619
20
-1.104169
30
0
11
32.969714
21
-1.729074
31
0
39
0
210
0
220
0
230
1
0
LINE
5
A6
100
AcDbEntity
8
1
62
256
6
ByLayer
370
18
48
1
60
0
100
AcDbLine
10
31.874196
20
-1.140263
30
0
11
31.918486
21
-1.095973
31
0
39
0
210
0
220
0
230
1
0
LINE
5
A7
100
AcDbEntity
8
1
62
256
6
ByLayer
370
18
48
1
60
0
100
AcDbLine
10
17.23241
20
9.104251
30
0
11
17.434151
21
9.305992
31
0
39
0
210
0
220
0
230
1
0
LINE
5
A8
100
AcDbEntity
8
1
62
256
6
ByLayer
370
18
48
1
60
0
100
AcDbLine
10
15.737299
20
9.929547
30
0
11
15.934778
21
10.127027
31
0
39
0
210
0
220
0
230
1
0
LINE
5
A9
100
AcDbEntity
8
1
62
256
6
ByLayer
370
18
48
1
60
0
100
AcDbLine
10
16.784693
20
9.741397
30
0
11
16.986434
21
9.943138
31
0
39
0
210
0
220
0
230
1
0
LINE
5
AA
100
AcDbEntity
8
1
62
256
6
ByLayer
370
18
48
1
60
0
100
AcDbLine
10
14.162291
20
8.850554
30
0
11
14.364032
21
9.052295
31
0
39
0
210
0
220
0
230
1
0
LINE
5
AB
100
AcDbEntity
8
1
62
256
6
ByLayer
370
18
48
1
60
0
100
AcDbLine
10
16.989693
20
7.521321
30
0
11
17.191434
21
7.723062
31
0
39
0
210
0
220
0
230
1
0
LINE
5
AC
100
AcDbEntity
8
1
62
256
6
ByLayer
370
18
48
1
60
0
100
AcDbLine
10
15.680979
20
10.106054
30
0
11
15.483499
21
9.908574
31
0
39
0
210
0
220
0
230
1
0
LINE
5
AD
100
AcDbEntity
8
1
62
256
6
ByLayer
370
18
48
1
60
0
100
AcDbLine
10
16.994502
20
9.628824
30
0
11
16.797022
21
9.431344
31
0
39
0
210
0
220
0
230
1
0
LINE
5
AE
100
AcDbEntity
8
1
62
256
6
ByLayer
370
18
48
1
60
0
100
AcDbLine
10
15.208912
20
10.055549
30
0
11
15.410653
21
10.25729
31
0
39
0
210
0
220
0
230
1
0
LINE
5
AF
100
AcDbEntity
8
1
62
256
6
ByLayer
370
18
48
1
60
0
100
AcDbLine
10
17.249075
20
8.256651
30
0
11
17.051596
21
8.059171
31
0
39
0
210
0
220
0
230
1
0
LINE
5
B0
100
AcDbEntity
8
1
62
256
6
ByLayer
370
18
48
1
60
0
100
AcDbLine
10
15.575074
20
7.03319
30
0
11
15.697096
21
7.155212
31
0
39
0
210
0
220
0
230
1
0
LINE
5
B1
100
AcDbEntity
8
1
62
256
6
ByLayer
370
18
48
1
60
0
100
AcDbLine
10
16.945009
20
7.8287
30
0
11
17.142489
21
8.02618
31
0
39
0
210
0
220
0
230
1
0
LINE
5
B2
100
AcDbEntity
8
1
62
256
6
ByLayer
370
18
48
1
60
0
100
AcDbLine
10
16.944236
20
9.221845
30
0
11
17.141715
21
9.419325
31
0
39
0
210
0
220
0
230
1
0
LINE
5
B3
100
AcDbEntity
8
1
62
256
6
ByLayer
370
18
48
1
60
0
100
AcDbLine
10
10.053347
20
-1.415635
30
0
11
11.982212
21
-1.256245
31
0
39
0
210
0
220
0
230
1
0
LINE
5
B4
100
AcDbEntity
8
1
62
256
6
ByLayer
370
18
48
1
60
0
100
AcDbLine
10
6.452879
20
13.008812
30
0
11
4.303609
21
11.949566
31
0
39
0
210
0
220
0
230
1
0
LINE
5
B5
100
AcDbEntity
8
1
62
256
6
ByLayer
370
18
48
1
60
0
100
AcDbLine
10
17.209258
20
3.508104
30
0
11
15.034816
21
3.328421
31
0
39
0
210
0
220
0
230
1
0
LINE
5
B6
100
AcDbEntity
8
1
62
256
6
ByLayer
370
18
48
1
60
0
100
AcDbLine
10
10.357599
20
16.337779
30
0
11
10.382369
21
16.330466
31
0
39
0
210
0
220
0
230
1
0
LINE
5
B7
100
AcDbEntity
8
1
62
256
6
ByLayer
370
18
48
1
60
0
100
AcDbLine
10
11.982212
20
-1.256245
30
0
11
12.004817
21
-1.240116
31
0
39
0
210
0
220
0
230
1
0
LINE
5
B8
100
AcDbEntity
8
1
62
256
6
ByLayer
370
18
48
1
60
0
100
AcDbLine
10
10.357599
20
16.337779
30
0
11
8.428734
21
16.178389
31
0
39
0
210
0
220
0
230
1
0
LINE
5
B9
100
AcDbEntity
8
1
62
256
6
ByLayer
370
18
48
1
60
0
100
AcDbLine
10
17.106883
20
-0.818511
30
0
11
12.004817
21
-1.240116
31
0
39
0
210
0
220
0
230
1
0
LINE
5
BA
100
AcDbEntity
8
1
62
256
6
ByLayer
370
18
48
1
60
0
100
AcDbLine
10
7.72618
20
0.767738
30
0
11
17.370025
21
1.56465
31
0
39
0
210
0
220
0
230
1
0
LINE
5
BB
100
AcDbEntity
8
1
62
256
6
ByLayer
370
18
48
1
60
0
100
AcDbLine
10
15.484435
20
16.752072
30
0
11
10.382369
21
16.330466
31
0
39
0
210
0
220
0
230
1
0
LINE
5
BC
100
AcDbEntity
8
1
62
256
6
ByLayer
370
18
48
1
60
0
100
AcDbLine
10
14.091552
20
13.543666
30
0
11
13.894656
21
13.446628
31
0
39
0
210
0
220
0
230
1
0
LINE
5
BD
100
AcDbEntity
8
1
62
256
6
ByLayer
370
18
48
1
60
0
100
AcDbLine
10
32.293022
20
9.630165
30
0
11
35.691821
21
9.545779
31
0
39
0
210
0
220
0
230
1
0
LINE
5
BE
100
AcDbEntity
8
1
62
256
6
ByLayer
370
18
48
1
60
0
100
AcDbLine
10
7.436439
20
2.357188
30
0
11
5.287168
21
1.297942
31
0
39
0
210
0
220
0
230
1
0
LINE
5
BF
100
AcDbEntity
8
1
62
256
6
ByLayer
370
18
48
1
60
0
100
AcDbLine
10
33.729748
20
11.911174
30
0
11
33.099396
21
12.511706
31
0
39
0
210
0
220
0
230
1
0
LINE
5
C0
100
AcDbEntity
8
1
62
256
6
ByLayer
370
18
48
1
60
0
100
AcDbLine
10
10.053347
20
-1.415635
30
0
11
9.404186
21
-1.735568
31
0
39
0
210
0
220
0
230
1
0
LINE
5
C1
100
AcDbEntity
8
1
62
256
6
ByLayer
370
18
48
1
60
0
100
AcDbLine
10
8.636262
20
10.872216
30
0
11
7.135501
21
10.750592
31
0
39
0
210
0
220
0
230
1
0
LINE
5
C2
100
AcDbEntity
8
1
62
256
6
ByLayer
370
18
48
1
60
0
100
AcDbLine
10
11.982212
20
-1.256245
30
0
11
9.554204
21
-1.708079
31
0
39
0
210
0
220
0
230
1
0
LINE
5
C3
100
AcDbEntity
8
1
62
256
6
ByLayer
370
18
48
1
60
0
100
AcDbLine
10
8.955667
20
11.029631
30
0
11
8.636262
21
10.872216
31
0
39
0
210
0
220
0
230
1
0
LINE
5
C4
100
AcDbEntity
8
1
62
256
6
ByLayer
370
18
48
1
60
0
100
AcDbLine
10
6.462155
20
14.456706
30
0
11
16.106
21
15.253618
31
0
39
0
210
0
220
0
230
1
0
LINE
5
C5
100
AcDbEntity
8
1
62
256
6
ByLayer
370
18
48
1
60
0
100
AcDbLine
10
5.287168
20
1.297942
30
0
11
4.303609
21
11.949566
31
0
39
0
210
0
220
0
230
1
0
LINE
5
C6
100
AcDbEntity
8
1
62
256
6
ByLayer
370
18
48
1
60
0
100
AcDbLine
10
6.452879
20
13.008812
30
0
11
7.436439
21
2.357188
31
0
39
0
210
0
220
0
230
1
0
LINE
5
C7
100
AcDbEntity
8
1
62
256
6
ByLayer
370
18
48
1
60
0
100
AcDbLine
10
7.135501
20
10.750592
30
0
11
7.684976
21
4.799964
31
0
39
0
210
0
220
0
230
1
0
LINE
5
C8
100
AcDbEntity
8
1
62
256
6
ByLayer
370
18
48
1
60
0
100
AcDbLine
10
16.265993
20
13.723349
30
0
11
16.060686
21
13.622165
31
0
39
0
210
0
220
0
230
1
0
LINE
5
C9
100
AcDbEntity
8
1
62
256
6
ByLayer
370
18
48
1
60
0
100
AcDbLine
10
33.692598
20
6.085264
30
0
11
34.203524
21
6.780342
31
0
39
0
210
0
220
0
230
1
0
LINE
5
CA
100
AcDbEntity
8
1
62
256
6
ByLayer
370
18
48
1
60
0
100
AcDbLine
10
14.091552
20
13.543666
30
0
11
16.265993
21
13.723349
31
0
39
0
210
0
220
0
230
1
0
LINE
5
CB
100
AcDbEntity
8
2
62
256
6
ByLayer
370
18
48
1
60
1
100
AcDbLine
10
33.142165
20
19.9125
30
0
11
33.142873
21
19.911793
31
0
39
0
210
0
220
0
230
1
0
MTEXT
5
154
100
AcDbEntity
8
SK6
62
256
6
ByLayer
370
18
48
1
60
0
100
AcDbMText
10
-66.536011
20
-23.322899
30
0
210
0
220
0
230
1
1
\W0.7579;DSSNR 3225P 15
40
3.5
41
0
44
1.084337
50
0
71
7
72
5
7
iso_b_vert
0
DIMENSION
5
165
100
AcDbEntity
8
2
62
256
6
ByLayer
370
13
48
1
60
0
100
AcDbDimension
2
DimnDraft3D1
10
77.742165
20
-12.4375
30
0
11
77.742165
21
-6.101066
31
0
70
32
71
5
72
1
41
1
210
0
220
0
230
1
3
Standard
100
AcDbAlignedDimension
13
45.38114
23
9.673526
33
0
14
2
24
-12.4375
34
0
50
90
100
AcDbRotatedDimension
1001
ACAD
1000
DSTYLE
1002
{
1070
    74
1070
     0
1070
   279
1070
     0
1070
   172
1070
     1
1070
   173
1070
     1
1070
   340
1005
155
1070
    77
1070
     1
1070
    73
1070
     0
1070
   171
1070
     3
1070
   274
1070
     4
1070
   177
1070
     2
1070
   176
1070
     2
1070
   178
1070
     7
1070
    78
1070
     8
1070
    41
1041
3.175
1070
   147
1041
2.25
1070
    42
1041
2.0
1070
    44
1041
2.0
1070
   140
1041
4.5
1070
   343
1005
166
1070
   344
1005
166
1002
}
0
DIMENSION
5
17B
100
AcDbEntity
8
SK2
62
256
6
ByLayer
370
13
48
1
60
0
100
AcDbDimension
2
DimnDraft3D2
10
-145.957835
20
12.4375
30
0
11
-145.957835
21
-5.281579
31
0
70
32
71
5
72
1
41
1
210
0
220
0
230
1
3
Standard
100
AcDbAlignedDimension
13
-140.207835
23
-12.4375
33
0
14
-140.207835
24
12.4375
34
0
50
90
100
AcDbRotatedDimension
1001
ACAD
1000
DSTYLE
1002
{
1070
    74
1070
     0
1070
   279
1070
     0
1070
   172
1070
     1
1070
   173
1070
     1
1070
   340
1005
155
1070
    77
1070
     1
1070
    73
1070
     0
1070
   171
1070
     3
1070
   274
1070
     4
1070
   177
1070
     2
1070
   176
1070
     2
1070
   178
1070
     7
1070
    78
1070
     8
1070
    41
1041
3.175
1070
   147
1041
2.25
1070
    42
1041
2.0
1070
    44
1041
2.0
1070
   140
1041
4.5
1070
   343
1005
166
1070
   344
1005
166
1002
}
0
DIMENSION
5
189
100
AcDbEntity
8
2
62
256
6
ByLayer
370
13
48
1
60
0
100
AcDbDimension
2
DimnDraft3D3
10
87.742165
20
19.9125
30
0
11
87.742165
21
-1.544079
31
0
70
32
71
5
72
1
41
1
210
0
220
0
230
1
3
Standard
100
AcDbAlignedDimension
13
2
23
-12.4375
33
0
14
35.142165
24
19.9125
34
0
50
90
100
AcDbRotatedDimension
1001
ACAD
1000
DSTYLE
1002
{
1070
    74
1070
     0
1070
   279
1070
     0
1070
   172
1070
     1
1070
   173
1070
     1
1070
   340
1005
155
1070
    77
1070
     1
1070
    73
1070
     0
1070
   171
1070
     3
1070
   274
1070
     4
1070
   177
1070
     2
1070
   176
1070
     2
1070
   178
1070
     7
1070
    78
1070
     8
1070
    41
1041
3.175
1070
   147
1041
2.25
1070
    42
1041
2.0
1070
    44
1041
2.0
1070
   140
1041
4.5
1070
   343
1005
166
1070
   344
1005
166
1002
}
0
DIMENSION
5
197
100
AcDbEntity
8
2
62
256
6
ByLayer
370
13
48
1
60
0
100
AcDbDimension
2
DimnDraft3D4
10
33.142165
20
25.423526
30
0
11
11.852004
21
25.423526
31
0
70
32
71
5
72
1
41
1
210
0
220
0
230
1
3
Standard
100
AcDbAlignedDimension
13
0
23
14.4375
33
0
14
33.142165
24
21.9125
34
0
50
0
100
AcDbRotatedDimension
1001
ACAD
1000
DSTYLE
1002
{
1070
   279
1070
     0
1070
   172
1070
     1
1070
   173
1070
     1
1070
   340
1005
155
1070
    77
1070
     1
1070
    73
1070
     0
1070
   171
1070
     3
1070
   274
1070
     4
1070
   177
1070
     2
1070
   176
1070
     2
1070
   178
1070
     7
1070
    78
1070
     8
1070
    41
1041
3.175
1070
   147
1041
2.25
1070
    42
1041
2.0
1070
    44
1041
2.0
1070
   140
1041
4.5
1070
   343
1005
166
1070
   344
1005
166
1002
}
0
DIMENSION
5
1A5
100
AcDbEntity
8
SK2
62
256
6
ByLayer
370
13
48
1
60
0
100
AcDbDimension
2
DimnDraft3D5
10
33.142165
20
35.423526
30
0
11
-58.933492
21
35.423526
31
0
70
32
71
5
72
1
41
1
210
0
220
0
230
1
3
Standard
100
AcDbAlignedDimension
13
-138.207835
23
14.4375
33
0
14
33.142165
24
21.9125
34
0
50
0
100
AcDbRotatedDimension
1001
ACAD
1000
DSTYLE
1002
{
1070
   279
1070
     0
1070
   172
1070
     1
1070
   173
1070
     1
1070
   340
1005
155
1070
    77
1070
     1
1070
    73
1070
     0
1070
   171
1070
     3
1070
   274
1070
     4
1070
   177
1070
     2
1070
   176
1070
     2
1070
   178
1070
     7
1070
    78
1070
     8
1070
    41
1041
3.175
1070
   147
1041
2.25
1070
    42
1041
2.0
1070
    44
1041
2.0
1070
   140
1041
4.5
1070
   343
1005
166
1070
   344
1005
166
1002
}
0
DIMENSION
5
1B3
100
AcDbEntity
8
SK2
62
256
6
ByLayer
370
13
48
1
60
0
100
AcDbDimension
2
DimnDraft3D6
10
-138.207835
20
45.423526
30
0
11
-53.814005
21
45.423526
31
0
70
32
71
5
72
1
41
1
210
0
220
0
230
1
3
Standard
100
AcDbAlignedDimension
13
43.38114
23
11.673526
33
0
14
-138.207835
24
14.4375
34
0
50
0
100
AcDbRotatedDimension
1001
ACAD
1000
DSTYLE
1002
{
1070
   279
1070
     0
1070
   172
1070
     1
1070
   173
1070
     1
1070
   340
1005
155
1070
    77
1070
     1
1070
    73
1070
     0
1070
   171
1070
     3
1070
   274
1070
     4
1070
   177
1070
     2
1070
   176
1070
     2
1070
   178
1070
     7
1070
    78
1070
     8
1070
    41
1041
3.175
1070
   147
1041
2.25
1070
    42
1041
2.0
1070
    44
1041
2.0
1070
   140
1041
4.5
1070
   343
1005
166
1070
   344
1005
166
1002
}
0
DIMENSION
5
1C1
100
AcDbEntity
8
2
62
256
6
ByLayer
370
13
48
1
60
0
100
AcDbDimension
2
DimnDraft3D7
10
43.38114
20
9.673526
30
0
11
55.347541
21
-19.215922
31
0
70
34
71
5
72
1
41
1
210
0
220
0
230
1
3
Standard
100
AcDb2LineAngularDimension
13
43.38114
23
9.673526
33
0
14
43.38114
24
8.482901
34
0
15
33.142165
25
19.9125
35
0
16
57.069616
26
-23.37338
36
0
40
0
0
ENDSEC
0
SECTION
2
OBJECTS
0
DICTIONARY
5
22b
330
0
100
AcDbDictionary
280
0
281
1
3
ACAD_GROUP
350
22c
3
ACAD_MLINESTYLE
350
22d
0
DICTIONARY
5
22c
330
0
100
AcDbDictionary
280
0
281
1
0
DICTIONARY
5
22d
330
0
100
AcDbDictionary
280
0
281
1
3
Standard
350
18
0
MLINESTYLE
5
18
330
22d
100
AcDbMlineStyle
2
Standard
70
0
3

62
256
51
90
52
90
71
2
49
-0.5
62
256
6
ByLayer
49
0.5
62
256
6
ByLayer
0
RASTERVARIABLES
5
21a
330

100
AcDbRasterVariables
90
0
70
1
71
1
72
1
0
ENDSEC
0
EOF
