0
SECTION
2
HEADER
9
$ACADVER
1
AC1015
9
$DWGCODEPAGE
3
ANSI_1252
9
$HANDSEED
5
226
9
$ANGBASE
50
0
9
$ANGDIR
70
0
9
$ATTMODE
70
1
9
$AUNITS
70
0
9
$AUPREC
70
0
9
$CECOLOR
62
256
9
$CELTSCALE
40
1
9
$CELTYPE
6
ByLayer
9
$CELWEIGHT
370
18
9
$CLAYER
8
0
9
$CMLJUST
70
0
9
$CMLSCALE
40
1
9
$CMLSTYLE
2
Standard
9
$DIMSTYLE
2
Standard
9
$TEXTSIZE
40
0.2
9
$TEXTSTYLE
7
Standard
9
$LUNITS
70
2
9
$LUPREC
70
4
9
$EXTNAMES
290
1
9
$INSUNITS
70
4
9
$LTSCALE
40
1
9
$LWDISPLAY
290
1
9
$PDMODE
70
0
9
$PDSIZE
40
0
9
$PLINEGEN
70
0
0
ENDSEC
0
SECTION
2
CLASSES
0
CLASS
1
RASTERVARIABLES
2
AcDbRasterVariables
3
ISM
90
0
280
0
281
0
0
ENDSEC
0
SECTION
2
TABLES
0
TABLE
2
VPORT
5
21c
100
AcDbSymbolTable
0
VPORT
5
1
100
AcDbSymbolTableRecord
100
AcDbViewportTableRecord
2
*Active
70
0
10
0
20
0
11
1
21
1
12
-1
22
1
13
0
23
0
14
0.5
24
0.5
15
10
25
10
16
0
26
0
36
1
17
0
27
0
37
0
0
ENDTAB
0
TABLE
2
LTYPE
5
21d
100
AcDbSymbolTable
0
LTYPE
5
14
100
AcDbSymbolTableRecord
100
AcDbLinetypeTableRecord
70
0
2
ByBlock
3

72
65
73
0
40
0
0
LTYPE
5
15
100
AcDbSymbolTableRecord
100
AcDbLinetypeTableRecord
70
0
2
ByLayer
3

72
65
73
0
40
0
0
LTYPE
5
16
100
AcDbSymbolTableRecord
100
AcDbLinetypeTableRecord
70
0
2
CONTINUOUS
3
Solid line
72
65
73
0
40
0
0
LTYPE
5
6A
100
AcDbSymbolTableRecord
100
AcDbLinetypeTableRecord
70
0
2
CENTER
3
____ _ ____ _ ____ _ ____
72
65
73
4
40
47.5
49
22
74
0
49
-8.5
74
0
49
8.5
74
0
49
-8.5
74
0
0
LTYPE
5
6B
100
AcDbSymbolTableRecord
100
AcDbLinetypeTableRecord
70
0
2
DASHED
3
__ __ __ __ __ __ __ __ __
72
65
73
2
40
25.72
49
12.86
74
0
49
-12.86
74
0
0
ENDTAB
0
TABLE
2
LAYER
5
21e
100
AcDbSymbolTable
0
LAYER
5
10
100
AcDbSymbolTableRecord
100
AcDbLayerTableRecord
2
0
70
0
62
7
6
CONTINUOUS
290
1
370
-3
390
0
0
LAYER
5
6D
100
AcDbSymbolTableRecord
100
AcDbLayerTableRecord
2
2
70
0
62
7
6
CONTINUOUS
290
1
370
-3
390
0
0
LAYER
5
6F
100
AcDbSymbolTableRecord
100
AcDbLayerTableRecord
2
80
70
0
62
-6
6
CONTINUOUS
290
1
370
-3
390
0
0
LAYER
5
71
100
AcDbSymbolTableRecord
100
AcDbLayerTableRecord
2
81
70
0
62
-3
6
CONTINUOUS
290
1
370
-3
390
0
0
LAYER
5
73
100
AcDbSymbolTableRecord
100
AcDbLayerTableRecord
2
1
70
0
62
4
6
CONTINUOUS
290
1
370
-3
390
0
0
LAYER
5
209
100
AcDbSymbolTableRecord
100
AcDbLayerTableRecord
2
SK1
70
0
62
4
6
CONTINUOUS
290
1
370
-3
390
0
0
LAYER
5
20a
100
AcDbSymbolTableRecord
100
AcDbLayerTableRecord
2
SK6
70
0
62
5
6
CONTINUOUS
290
1
370
-3
390
0
0
LAYER
5
20b
100
AcDbSymbolTableRecord
100
AcDbLayerTableRecord
2
SK2
70
0
62
7
6
CONTINUOUS
290
1
370
-3
390
0
0
ENDTAB
0
TABLE
2
STYLE
5
21f
100
AcDbSymbolTable
0
STYLE
5
11
100
AcDbSymbolTableRecord
100
AcDbTextStyleTableRecord
2
Standard
3
txt
70
0
71
0
40
0
41
1
42
0
50
0
0
STYLE
5
143
100
AcDbSymbolTableRecord
100
AcDbTextStyleTableRecord
2
iso_b_vert
3
simplex.shx
70
0
71
0
40
0
41
1
42
0
50
0
0
STYLE
5
144
100
AcDbSymbolTableRecord
100
AcDbTextStyleTableRecord
2
DWGDirectTextStyle
3
simplex
70
0
71
0
40
0
41
1
42
0
50
0
0
ENDTAB
0
TABLE
2
DIMSTYLE
5
220
100
AcDbSymbolTable
100
AcDbDimStyleTable
0
DIMSTYLE
105
27
100
AcDbSymbolTableRecord
100
AcDbDimStyleTableRecord
2
Standard
70
0
3
<>
41
0.18
42
0.0625
44
0.18
140
0.18
147
0.09
73
0
74
0
77
1
271
2
275
0
278
52
280
0
340
11
0
ENDTAB
0
TABLE
2
VIEW
5
221
100
AcDbSymbolTable
0
ENDTAB
0
TABLE
2
UCS
5
222
100
AcDbSymbolTable
0
ENDTAB
0
TABLE
2
APPID
5
223
100
AcDbSymbolTable
0
APPID
5
12
100
AcDbSymbolTableRecord
100
AcDbRegAppTableRecord
2
ACAD
70
0
0
ENDTAB
0
TABLE
2
BLOCK_RECORD
5
224
100
AcDbSymbolTable
0
BLOCK_RECORD
5
1F
100
AcDbSymbolTableRecord
100
AcDbBlockTableRecord
2
*Model_Space
340
0
70
0
0
BLOCK_RECORD
5
1B
100
AcDbSymbolTableRecord
100
AcDbBlockTableRecord
2
*Paper_Space
340
0
70
0
0
BLOCK_RECORD
5
23
100
AcDbSymbolTableRecord
100
AcDbBlockTableRecord
2
*Paper_Space0
340
0
70
0
0
BLOCK_RECORD
5
146
100
AcDbSymbolTableRecord
100
AcDbBlockTableRecord
2
DimnDraft3D1
340
0
70
0
0
BLOCK_RECORD
5
154
100
AcDbSymbolTableRecord
100
AcDbBlockTableRecord
2
_CLOSED
340
0
70
0
0
BLOCK_RECORD
5
15B
100
AcDbSymbolTableRecord
100
AcDbBlockTableRecord
2
DimnDraft3D2
340
0
70
0
0
BLOCK_RECORD
5
16A
100
AcDbSymbolTableRecord
100
AcDbBlockTableRecord
2
DimnDraft3D3
340
0
70
0
0
BLOCK_RECORD
5
178
100
AcDbSymbolTableRecord
100
AcDbBlockTableRecord
2
DimnDraft3D4
340
0
70
0
0
BLOCK_RECORD
5
186
100
AcDbSymbolTableRecord
100
AcDbBlockTableRecord
2
DimnDraft3D5
340
0
70
0
0
BLOCK_RECORD
5
194
100
AcDbSymbolTableRecord
100
AcDbBlockTableRecord
2
DimnDraft3D6
340
0
70
0
0
BLOCK_RECORD
5
1A2
100
AcDbSymbolTableRecord
100
AcDbBlockTableRecord
2
DimnDraft3D7
340
0
70
0
0
ENDTAB
0
ENDSEC
0
SECTION
2
BLOCKS
0
BLOCK
5
20
100
AcDbEntity
8
0
100
AcDbBlockBegin
2
*Model_Space
70
0
10
0
20
0
30
0
3
*Model_Space
0
ENDBLK
5
21
100
AcDbEntity
8
0
100
AcDbBlockEnd
0
BLOCK
5
1C
100
AcDbEntity
8
0
100
AcDbBlockBegin
2
*Paper_Space
70
0
10
0
20
0
30
0
3
*Paper_Space
0
ENDBLK
5
1D
100
AcDbEntity
8
0
100
AcDbBlockEnd
0
BLOCK
5
24
100
AcDbEntity
8
0
100
AcDbBlockBegin
2
*Paper_Space0
70
0
10
0
20
0
30
0
3
*Paper_Space0
0
ENDBLK
5
25
100
AcDbEntity
8
0
100
AcDbBlockEnd
0
BLOCK
5
151
100
AcDbEntity
8
0
100
AcDbBlockBegin
2
DimnDraft3D1
70
0
10
0
20
0
30
0
3
DimnDraft3D1
0
MTEXT
5
147
100
AcDbEntity
8
2
62
256
6
ByLayer
370
18
48
1
60
0
100
AcDbMText
10
70.825118
20
-4.580425
30
0
210
0
220
0
230
1
1
\W0.7346;23.7
40
4.5
41
0
44
1.084337
50
90
71
7
72
5
7
iso_b_vert
0
LINE
5
148
100
AcDbEntity
8
2
62
256
6
ByLayer
370
13
48
1
60
0
100
AcDbLine
10
37.67281
20
11.589808
30
0
11
73.950118
21
11.589808
31
0
39
0
210
0
220
0
230
1
0
LINE
5
149
100
AcDbEntity
8
2
62
256
6
ByLayer
370
13
48
1
60
0
100
AcDbLine
10
2
20
-12.4375
30
0
11
73.950118
21
-12.4375
31
0
39
0
210
0
220
0
230
1
0
LINE
5
14A
100
AcDbEntity
8
2
62
256
6
ByLayer
370
13
48
1
60
0
100
AcDbLine
10
71.950118
20
11.589808
30
0
11
71.950118
21
-12.4375
31
0
39
0
210
0
220
0
230
1
0
LINE
5
14B
100
AcDbEntity
8
2
62
256
6
ByLayer
370
13
48
1
60
0
100
AcDbLine
10
71.950118
20
11.589808
30
0
11
72.368115
21
8.414809
31
0
39
0
210
0
220
0
230
1
0
LINE
5
14C
100
AcDbEntity
8
2
62
256
6
ByLayer
370
13
48
1
60
0
100
AcDbLine
10
71.950118
20
11.589808
30
0
11
71.532122
21
8.414806
31
0
39
0
210
0
220
0
230
1
0
LINE
5
14D
100
AcDbEntity
8
2
62
256
6
ByLayer
370
13
48
1
60
0
100
AcDbLine
10
72.368115
20
8.414809
30
0
11
71.532122
21
8.414806
31
0
39
0
210
0
220
0
230
1
0
LINE
5
14E
100
AcDbEntity
8
2
62
256
6
ByLayer
370
13
48
1
60
0
100
AcDbLine
10
71.950118
20
-12.4375
30
0
11
71.532122
21
-9.262502
31
0
39
0
210
0
220
0
230
1
0
LINE
5
14F
100
AcDbEntity
8
2
62
256
6
ByLayer
370
13
48
1
60
0
100
AcDbLine
10
71.950118
20
-12.4375
30
0
11
72.368115
21
-9.262498
31
0
39
0
210
0
220
0
230
1
0
LINE
5
150
100
AcDbEntity
8
2
62
256
6
ByLayer
370
13
48
1
60
0
100
AcDbLine
10
71.532122
20
-9.262502
30
0
11
72.368115
21
-9.262498
31
0
39
0
210
0
220
0
230
1
0
ENDBLK
5
152
100
AcDbEntity
8
0
100
AcDbBlockEnd
0
BLOCK
5
155
100
AcDbEntity
8
0
100
AcDbBlockBegin
2
_CLOSED
70
0
10
0
20
0
30
0
3
_CLOSED
0
LINE
5
157
100
AcDbEntity
8
0
62
256
6
ByLayer
370
-2
48
1
60
0
100
AcDbLine
10
-1
20
0.166667
30
0
11
0
21
0
31
0
39
0
210
0
220
0
230
1
0
LINE
5
158
100
AcDbEntity
8
0
62
256
6
ByLayer
370
-2
48
1
60
0
100
AcDbLine
10
0
20
0
30
0
11
-1
21
-0.166667
31
0
39
0
210
0
220
0
230
1
0
LINE
5
159
100
AcDbEntity
8
0
62
256
6
ByLayer
370
-2
48
1
60
0
100
AcDbLine
10
-1
20
0.166667
30
0
11
-1
21
-0.166667
31
0
39
0
210
0
220
0
230
1
0
LINE
5
15A
100
AcDbEntity
8
0
62
256
6
ByLayer
370
-2
48
1
60
0
100
AcDbLine
10
0
20
0
30
0
11
-1
21
0
31
0
39
0
210
0
220
0
230
1
0
ENDBLK
5
156
100
AcDbEntity
8
0
100
AcDbBlockEnd
0
BLOCK
5
167
100
AcDbEntity
8
0
100
AcDbBlockBegin
2
DimnDraft3D2
70
0
10
0
20
0
30
0
3
DimnDraft3D2
0
MTEXT
5
15C
100
AcDbEntity
8
SK2
62
256
6
ByLayer
370
18
48
1
60
0
100
AcDbMText
10
-152.874882
20
-4.156579
30
0
210
0
220
0
230
1
1
\W0.7346;25.0
40
4.5
41
0
44
1.084337
50
90
71
7
72
5
7
iso_b_vert
0
LINE
5
15E
100
AcDbEntity
8
SK2
62
256
6
ByLayer
370
13
48
1
60
0
100
AcDbLine
10
-145.999882
20
-12.4375
30
0
11
-153.749882
21
-12.4375
31
0
39
0
210
0
220
0
230
1
0
LINE
5
15F
100
AcDbEntity
8
SK2
62
256
6
ByLayer
370
13
48
1
60
0
100
AcDbLine
10
-145.999882
20
12.4375
30
0
11
-153.749882
21
12.4375
31
0
39
0
210
0
220
0
230
1
0
LINE
5
160
100
AcDbEntity
8
SK2
62
256
6
ByLayer
370
13
48
1
60
0
100
AcDbLine
10
-151.749882
20
-12.4375
30
0
11
-151.749882
21
12.4375
31
0
39
0
210
0
220
0
230
1
0
LINE
5
161
100
AcDbEntity
8
SK2
62
256
6
ByLayer
370
13
48
1
60
0
100
AcDbLine
10
-151.749882
20
-12.4375
30
0
11
-152.167878
21
-9.262502
31
0
39
0
210
0
220
0
230
1
0
LINE
5
162
100
AcDbEntity
8
SK2
62
256
6
ByLayer
370
13
48
1
60
0
100
AcDbLine
10
-151.749882
20
-12.4375
30
0
11
-151.331885
21
-9.262498
31
0
39
0
210
0
220
0
230
1
0
LINE
5
163
100
AcDbEntity
8
SK2
62
256
6
ByLayer
370
13
48
1
60
0
100
AcDbLine
10
-152.167878
20
-9.262502
30
0
11
-151.331885
21
-9.262498
31
0
39
0
210
0
220
0
230
1
0
LINE
5
164
100
AcDbEntity
8
SK2
62
256
6
ByLayer
370
13
48
1
60
0
100
AcDbLine
10
-151.749882
20
12.4375
30
0
11
-151.331885
21
9.262502
31
0
39
0
210
0
220
0
230
1
0
LINE
5
165
100
AcDbEntity
8
SK2
62
256
6
ByLayer
370
13
48
1
60
0
100
AcDbLine
10
-151.749882
20
12.4375
30
0
11
-152.167878
21
9.262498
31
0
39
0
210
0
220
0
230
1
0
LINE
5
166
100
AcDbEntity
8
SK2
62
256
6
ByLayer
370
13
48
1
60
0
100
AcDbLine
10
-151.331885
20
9.262502
30
0
11
-152.167878
21
9.262498
31
0
39
0
210
0
220
0
230
1
0
ENDBLK
5
168
100
AcDbEntity
8
0
100
AcDbBlockEnd
0
BLOCK
5
175
100
AcDbEntity
8
0
100
AcDbBlockBegin
2
DimnDraft3D3
70
0
10
0
20
0
30
0
3
DimnDraft3D3
0
MTEXT
5
16B
100
AcDbEntity
8
2
62
256
6
ByLayer
370
18
48
1
60
0
100
AcDbMText
10
80.825118
20
-0.419079
30
0
210
0
220
0
230
1
1
\W0.7346;32.0
40
4.5
41
0
44
1.084337
50
90
71
7
72
5
7
iso_b_vert
0
LINE
5
16C
100
AcDbEntity
8
2
62
256
6
ByLayer
370
13
48
1
60
0
100
AcDbLine
10
2
20
-12.4375
30
0
11
83.950118
21
-12.4375
31
0
39
0
210
0
220
0
230
1
0
LINE
5
16D
100
AcDbEntity
8
2
62
256
6
ByLayer
370
13
48
1
60
0
100
AcDbLine
10
29.350118
20
19.9125
30
0
11
83.950118
21
19.9125
31
0
39
0
210
0
220
0
230
1
0
LINE
5
16E
100
AcDbEntity
8
2
62
256
6
ByLayer
370
13
48
1
60
0
100
AcDbLine
10
81.950118
20
-12.4375
30
0
11
81.950118
21
19.9125
31
0
39
0
210
0
220
0
230
1
0
LINE
5
16F
100
AcDbEntity
8
2
62
256
6
ByLayer
370
13
48
1
60
0
100
AcDbLine
10
81.950118
20
-12.4375
30
0
11
81.532122
21
-9.262502
31
0
39
0
210
0
220
0
230
1
0
LINE
5
170
100
AcDbEntity
8
2
62
256
6
ByLayer
370
13
48
1
60
0
100
AcDbLine
10
81.950118
20
-12.4375
30
0
11
82.368115
21
-9.262498
31
0
39
0
210
0
220
0
230
1
0
LINE
5
171
100
AcDbEntity
8
2
62
256
6
ByLayer
370
13
48
1
60
0
100
AcDbLine
10
81.532122
20
-9.262502
30
0
11
82.368115
21
-9.262498
31
0
39
0
210
0
220
0
230
1
0
LINE
5
172
100
AcDbEntity
8
2
62
256
6
ByLayer
370
13
48
1
60
0
100
AcDbLine
10
81.950118
20
19.9125
30
0
11
82.368115
21
16.737502
31
0
39
0
210
0
220
0
230
1
0
LINE
5
173
100
AcDbEntity
8
2
62
256
6
ByLayer
370
13
48
1
60
0
100
AcDbLine
10
81.950118
20
19.9125
30
0
11
81.532122
21
16.737498
31
0
39
0
210
0
220
0
230
1
0
LINE
5
174
100
AcDbEntity
8
2
62
256
6
ByLayer
370
13
48
1
60
0
100
AcDbLine
10
82.368115
20
16.737502
30
0
11
81.532122
21
16.737498
31
0
39
0
210
0
220
0
230
1
0
ENDBLK
5
176
100
AcDbEntity
8
0
100
AcDbBlockEnd
0
BLOCK
5
183
100
AcDbEntity
8
0
100
AcDbBlockBegin
2
DimnDraft3D4
70
0
10
0
20
0
30
0
3
DimnDraft3D4
0
MTEXT
5
179
100
AcDbEntity
8
2
62
256
6
ByLayer
370
18
48
1
60
0
100
AcDbMText
10
9.281638
20
28.464808
30
0
210
0
220
0
230
1
1
\W0.7528;27.4
40
4.5
41
0
44
1.084337
50
0
71
7
72
5
7
iso_b_vert
0
LINE
5
17A
100
AcDbEntity
8
2
62
256
6
ByLayer
370
13
48
1
60
0
100
AcDbLine
10
0
20
14.4375
30
0
11
0
21
29.339808
31
0
39
0
210
0
220
0
230
1
0
LINE
5
17B
100
AcDbEntity
8
2
62
256
6
ByLayer
370
13
48
1
60
0
100
AcDbLine
10
27.350118
20
21.9125
30
0
11
27.350118
21
29.339808
31
0
39
0
210
0
220
0
230
1
0
LINE
5
17C
100
AcDbEntity
8
2
62
256
6
ByLayer
370
13
48
1
60
0
100
AcDbLine
10
0
20
27.339808
30
0
11
27.350118
21
27.339808
31
0
39
0
210
0
220
0
230
1
0
LINE
5
17D
100
AcDbEntity
8
2
62
256
6
ByLayer
370
13
48
1
60
0
100
AcDbLine
10
0
20
27.339808
30
0
11
3.174998
21
27.757805
31
0
39
0
210
0
220
0
230
1
0
LINE
5
17E
100
AcDbEntity
8
2
62
256
6
ByLayer
370
13
48
1
60
0
100
AcDbLine
10
0
20
27.339808
30
0
11
3.175002
21
26.921811
31
0
39
0
210
0
220
0
230
1
0
LINE
5
17F
100
AcDbEntity
8
2
62
256
6
ByLayer
370
13
48
1
60
0
100
AcDbLine
10
3.174998
20
27.757805
30
0
11
3.175002
21
26.921811
31
0
39
0
210
0
220
0
230
1
0
LINE
5
180
100
AcDbEntity
8
2
62
256
6
ByLayer
370
13
48
1
60
0
100
AcDbLine
10
27.350118
20
27.339808
30
0
11
24.17512
21
26.921811
31
0
39
0
210
0
220
0
230
1
0
LINE
5
181
100
AcDbEntity
8
2
62
256
6
ByLayer
370
13
48
1
60
0
100
AcDbLine
10
27.350118
20
27.339808
30
0
11
24.175117
21
27.757805
31
0
39
0
210
0
220
0
230
1
0
LINE
5
182
100
AcDbEntity
8
2
62
256
6
ByLayer
370
13
48
1
60
0
100
AcDbLine
10
24.17512
20
26.921811
30
0
11
24.175117
21
27.757805
31
0
39
0
210
0
220
0
230
1
0
ENDBLK
5
184
100
AcDbEntity
8
0
100
AcDbBlockEnd
0
BLOCK
5
191
100
AcDbEntity
8
0
100
AcDbBlockBegin
2
DimnDraft3D5
70
0
10
0
20
0
30
0
3
DimnDraft3D5
0
MTEXT
5
187
100
AcDbEntity
8
SK2
62
256
6
ByLayer
370
18
48
1
60
0
100
AcDbMText
10
-63.60054
20
38.464808
30
0
210
0
220
0
230
1
1
\W0.6864;170.0
40
4.5
41
0
44
1.084337
50
0
71
7
72
5
7
iso_b_vert
0
LINE
5
188
100
AcDbEntity
8
SK2
62
256
6
ByLayer
370
13
48
1
60
0
100
AcDbLine
10
-143.999882
20
14.4375
30
0
11
-143.999882
21
39.339808
31
0
39
0
210
0
220
0
230
1
0
LINE
5
189
100
AcDbEntity
8
SK2
62
256
6
ByLayer
370
13
48
1
60
0
100
AcDbLine
10
27.350118
20
21.9125
30
0
11
27.350118
21
39.339808
31
0
39
0
210
0
220
0
230
1
0
LINE
5
18A
100
AcDbEntity
8
SK2
62
256
6
ByLayer
370
13
48
1
60
0
100
AcDbLine
10
-143.999882
20
37.339808
30
0
11
27.350118
21
37.339808
31
0
39
0
210
0
220
0
230
1
0
LINE
5
18B
100
AcDbEntity
8
SK2
62
256
6
ByLayer
370
13
48
1
60
0
100
AcDbLine
10
-143.999882
20
37.339808
30
0
11
-140.824883
21
37.757805
31
0
39
0
210
0
220
0
230
1
0
LINE
5
18C
100
AcDbEntity
8
SK2
62
256
6
ByLayer
370
13
48
1
60
0
100
AcDbLine
10
-143.999882
20
37.339808
30
0
11
-140.82488
21
36.921811
31
0
39
0
210
0
220
0
230
1
0
LINE
5
18D
100
AcDbEntity
8
SK2
62
256
6
ByLayer
370
13
48
1
60
0
100
AcDbLine
10
-140.824883
20
37.757805
30
0
11
-140.82488
21
36.921811
31
0
39
0
210
0
220
0
230
1
0
LINE
5
18E
100
AcDbEntity
8
SK2
62
256
6
ByLayer
370
13
48
1
60
0
100
AcDbLine
10
27.350118
20
37.339808
30
0
11
24.17512
21
36.921811
31
0
39
0
210
0
220
0
230
1
0
LINE
5
18F
100
AcDbEntity
8
SK2
62
256
6
ByLayer
370
13
48
1
60
0
100
AcDbLine
10
27.350118
20
37.339808
30
0
11
24.175117
21
37.757805
31
0
39
0
210
0
220
0
230
1
0
LINE
5
190
100
AcDbEntity
8
SK2
62
256
6
ByLayer
370
13
48
1
60
0
100
AcDbLine
10
24.17512
20
36.921811
30
0
11
24.175117
21
37.757805
31
0
39
0
210
0
220
0
230
1
0
ENDBLK
5
192
100
AcDbEntity
8
0
100
AcDbBlockEnd
0
BLOCK
5
19F
100
AcDbEntity
8
0
100
AcDbBlockBegin
2
DimnDraft3D6
70
0
10
0
20
0
30
0
3
DimnDraft3D6
0
MTEXT
5
195
100
AcDbEntity
8
SK2
62
256
6
ByLayer
370
18
48
1
60
0
100
AcDbMText
10
-59.439194
20
48.464808
30
0
210
0
220
0
230
1
1
\W0.6864;178.3
40
4.5
41
0
44
1.084337
50
0
71
7
72
5
7
iso_b_vert
0
LINE
5
196
100
AcDbEntity
8
SK2
62
256
6
ByLayer
370
13
48
1
60
0
100
AcDbLine
10
35.67281
20
13.589808
30
0
11
35.67281
21
49.339808
31
0
39
0
210
0
220
0
230
1
0
LINE
5
197
100
AcDbEntity
8
SK2
62
256
6
ByLayer
370
13
48
1
60
0
100
AcDbLine
10
-143.999882
20
14.4375
30
0
11
-143.999882
21
49.339808
31
0
39
0
210
0
220
0
230
1
0
LINE
5
198
100
AcDbEntity
8
SK2
62
256
6
ByLayer
370
13
48
1
60
0
100
AcDbLine
10
35.67281
20
47.339808
30
0
11
-143.999882
21
47.339808
31
0
39
0
210
0
220
0
230
1
0
LINE
5
199
100
AcDbEntity
8
SK2
62
256
6
ByLayer
370
13
48
1
60
0
100
AcDbLine
10
35.67281
20
47.339808
30
0
11
32.497812
21
46.921811
31
0
39
0
210
0
220
0
230
1
0
LINE
5
19A
100
AcDbEntity
8
SK2
62
256
6
ByLayer
370
13
48
1
60
0
100
AcDbLine
10
35.67281
20
47.339808
30
0
11
32.497809
21
47.757805
31
0
39
0
210
0
220
0
230
1
0
LINE
5
19B
100
AcDbEntity
8
SK2
62
256
6
ByLayer
370
13
48
1
60
0
100
AcDbLine
10
32.497812
20
46.921811
30
0
11
32.497809
21
47.757805
31
0
39
0
210
0
220
0
230
1
0
LINE
5
19C
100
AcDbEntity
8
SK2
62
256
6
ByLayer
370
13
48
1
60
0
100
AcDbLine
10
-143.999882
20
47.339808
30
0
11
-140.824883
21
47.757805
31
0
39
0
210
0
220
0
230
1
0
LINE
5
19D
100
AcDbEntity
8
SK2
62
256
6
ByLayer
370
13
48
1
60
0
100
AcDbLine
10
-143.999882
20
47.339808
30
0
11
-140.82488
21
46.921811
31
0
39
0
210
0
220
0
230
1
0
LINE
5
19E
100
AcDbEntity
8
SK2
62
256
6
ByLayer
370
13
48
1
60
0
100
AcDbLine
10
-140.824883
20
47.757805
30
0
11
-140.82488
21
46.921811
31
0
39
0
210
0
220
0
230
1
0
ENDBLK
5
1A0
100
AcDbEntity
8
0
100
AcDbBlockEnd
0
BLOCK
5
1AD
100
AcDbEntity
8
0
100
AcDbBlockBegin
2
DimnDraft3D7
70
0
10
0
20
0
30
0
3
DimnDraft3D7
0
MTEXT
5
1A3
100
AcDbEntity
8
2
62
256
6
ByLayer
370
18
48
1
60
0
100
AcDbMText
10
47.052161
20
-24.129195
30
0
210
0
220
0
230
1
1
\W0.7785;45%%d
40
4.5
41
0
44
1.084337
50
22.5
71
7
72
5
7
iso_b_vert
0
LINE
5
1A4
100
AcDbEntity
8
2
62
256
6
ByLayer
370
13
48
1
60
0
100
AcDbLine
10
35.67281
20
8.796058
30
0
11
35.67281
21
-28.889937
31
0
39
0
210
0
220
0
230
1
0
LINE
5
1A5
100
AcDbEntity
8
2
62
256
6
ByLayer
370
13
48
1
60
0
100
AcDbLine
10
37.087024
20
10.175594
30
0
11
64.296312
21
-17.033694
31
0
39
0
210
0
220
0
230
1
0
ARC
5
1A6
100
AcDbEntity
8
2
62
256
6
ByLayer
370
13
48
1
60
0
100
AcDbCircle
39
0
10
35.67281
20
11.589808
30
0
40
38.4797447124699
210
0
220
0
230
1
100
AcDbArc
50
270
51
315
0
LINE
5
1A7
100
AcDbEntity
8
2
62
256
6
ByLayer
370
13
48
1
60
0
100
AcDbLine
10
35.67281
20
-26.889937
30
0
11
38.838517
21
-26.406578
31
0
39
0
210
0
220
0
230
1
0
LINE
5
1A8
100
AcDbEntity
8
2
62
256
6
ByLayer
370
13
48
1
60
0
100
AcDbLine
10
35.67281
20
-26.889937
30
0
11
38.855754
21
-27.242393
31
0
39
0
210
0
220
0
230
1
0
LINE
5
1A9
100
AcDbEntity
8
2
62
256
6
ByLayer
370
13
48
1
60
0
100
AcDbLine
10
38.838517
20
-26.406578
30
0
11
38.855754
21
-27.242393
31
0
39
0
210
0
220
0
230
1
0
LINE
5
1AA
100
AcDbEntity
8
2
62
256
6
ByLayer
370
13
48
1
60
0
100
AcDbLine
10
62.882099
20
-15.619481
30
0
11
60.880644
21
-18.119384
31
0
39
0
210
0
220
0
230
1
0
LINE
5
1AB
100
AcDbEntity
8
2
62
256
6
ByLayer
370
13
48
1
60
0
100
AcDbLine
10
62.882099
20
-15.619481
30
0
11
60.301817
21
-17.516189
31
0
39
0
210
0
220
0
230
1
0
LINE
5
1AC
100
AcDbEntity
8
2
62
256
6
ByLayer
370
13
48
1
60
0
100
AcDbLine
10
60.880644
20
-18.119384
30
0
11
60.301817
21
-17.516189
31
0
39
0
210
0
220
0
230
1
0
ENDBLK
5
1AE
100
AcDbEntity
8
0
100
AcDbBlockEnd
0
ENDSEC
0
SECTION
2
ENTITIES
0
ELLIPSE
5
D0
100
AcDbEntity
8
1
62
256
6
ByLayer
370
18
48
1
60
0
100
AcDbEllipse
10
9.852933
20
12.623398
30
0
11
5.47670107840134
21
0.505712663315402
31
0
210
0
220
0
230
1
40
0.089459
41
2.01027168357028
42
2.4520394228563
0
ELLIPSE
5
D1
100
AcDbEntity
8
1
62
256
6
ByLayer
370
18
48
1
60
0
100
AcDbEllipse
10
6.832935
20
15.642523
30
0
11
1.95985733071549
21
-2.27133424295957
31
0
210
0
220
0
230
1
40
0.988257
41
-0.625434656542358
42
-0.251157406134171
0
ELLIPSE
5
D2
100
AcDbEntity
8
1
62
256
6
ByLayer
370
18
48
1
60
0
100
AcDbEllipse
10
11.6635
20
10.438517
30
0
11
-1.69854301995343
21
1.96848967723163
31
0
210
0
220
0
230
1
40
0.988257
41
0.886947527012682
42
1.01452556187566
0
ELLIPSE
5
D3
100
AcDbEntity
8
1
62
256
6
ByLayer
370
18
48
1
60
0
100
AcDbEllipse
10
10.771102
20
3.50253
30
0
11
3.4677072900015
21
0.500282489002505
31
0
210
0
220
0
230
-1
40
0.462487
41
3.01126145870544
42
-2.54870574207413
0
ELLIPSE
5
D4
100
AcDbEntity
8
1
62
256
6
ByLayer
370
18
48
1
60
0
100
AcDbEllipse
10
9.026883
20
14.80752
30
0
11
3.56214569749088
21
-1.28377502238544
31
0
210
0
220
0
230
-1
40
0.476491
41
-2.69452518778242
42
-2.33490945442679
0
ELLIPSE
5
D5
100
AcDbEntity
8
1
62
256
6
ByLayer
370
18
48
1
60
0
100
AcDbEllipse
10
7.234839
20
5.214326
30
0
11
2.74193925645449
21
-1.2500228546665
31
0
210
0
220
0
230
-1
40
0.988829
41
1.57491384796924
42
2.62660291103672
0
ELLIPSE
5
D6
100
AcDbEntity
8
1
62
256
6
ByLayer
370
18
48
1
60
0
100
AcDbEllipse
10
10.329144
20
7.466187
30
0
11
5.47670107840134
21
0.505712663315402
31
0
210
0
220
0
230
1
40
0.089459
41
2.01027168357028
42
2.45203942285631
0
ELLIPSE
5
D7
100
AcDbEntity
8
1
62
256
6
ByLayer
370
18
48
1
60
0
100
AcDbEllipse
10
6.754599
20
14.113661
30
0
11
-0.703536876446178
21
-1.87217410073966
31
0
210
0
220
0
230
1
40
0.823421
41
-2.65333561083588
42
-1.24066011657628
0
ELLIPSE
5
D8
100
AcDbEntity
8
1
62
256
6
ByLayer
370
18
48
1
60
0
100
AcDbEllipse
10
6.465575
20
13.545205
30
0
11
2.74193925661417
21
-1.25002285431832
31
0
210
0
220
0
230
-1
40
0.988829
41
2.62660291116129
42
-2.60489333295228
0
ELLIPSE
5
D9
100
AcDbEntity
8
1
62
256
6
ByLayer
370
18
48
1
60
0
100
AcDbEllipse
10
10.530218
20
5.288615
30
0
11
5.46194721676633
21
0.662846682823436
31
0
210
0
220
0
230
-1
40
0.327207
41
-2.61600531831852
42
-2.5630130091194
0
ELLIPSE
5
DA
100
AcDbEntity
8
1
62
256
6
ByLayer
370
18
48
1
60
0
100
AcDbEllipse
10
9.651857
20
14.80097
30
0
11
5.48990794933311
21
0.362222169217494
31
0
210
0
220
0
230
-1
40
0.148431
41
2.56851367707668
42
2.62150598804053
0
ELLIPSE
5
DB
100
AcDbEntity
8
1
62
256
6
ByLayer
370
18
48
1
60
0
100
AcDbEllipse
10
11.742625
20
10.44493
30
0
11
2.71113597415643
21
-3.14201236942741
31
0
210
0
220
0
230
1
40
0.988257
41
2.51615799704745
42
2.8629359141034
0
ELLIPSE
5
DC
100
AcDbEntity
8
1
62
256
6
ByLayer
370
18
48
1
60
0
100
AcDbEllipse
10
27.467625
20
11.604101
30
0
11
1.58058699404662
21
-1.53042442166875
31
0
210
0
220
0
230
-1
40
0.799391
41
-1.71498712955607
42
-0.859775796079543
0
ELLIPSE
5
DD
100
AcDbEntity
8
1
62
256
6
ByLayer
370
18
48
1
60
0
100
AcDbEllipse
10
9.796147
20
6.47664
30
0
11
2.66847802716249
21
3.53424837708397
31
0
210
0
220
0
230
-1
40
0.567379
41
2.67243907041276
42
3.0320548037584
0
ELLIPSE
5
DE
100
AcDbEntity
8
1
62
256
6
ByLayer
370
18
48
1
60
0
100
AcDbEllipse
10
7.525059
20
5.769834
30
0
11
1.35572226096165
21
-1.47037993427993
31
0
210
0
220
0
230
1
40
0.766119
41
-2.15307575414524
42
-0.740400259885633
0
ELLIPSE
5
DF
100
AcDbEntity
8
1
62
256
6
ByLayer
370
18
48
1
60
0
100
AcDbEllipse
10
13.770187
20
10.609246
30
0
11
-2.71113597415644
21
3.14201236942741
31
0
210
0
220
0
230
1
40
0.988257
41
2.94979594319127
42
-0.625434656542342
0
ELLIPSE
5
E0
100
AcDbEntity
8
1
62
256
6
ByLayer
370
18
48
1
60
0
100
AcDbEllipse
10
27.467625
20
11.604101
30
0
11
0.116783927427305
21
-2.3780459344874
31
0
210
0
220
0
230
-1
40
0.822101
41
-1.51304475630031
42
-0.657833422817554
0
ELLIPSE
5
E1
100
AcDbEntity
8
1
62
256
6
ByLayer
370
18
48
1
60
0
100
AcDbEllipse
10
2.871546
20
2.388393
30
0
11
6.97034682705626
21
0.643634298765057
31
0
210
0
220
0
230
1
40
0.089459
41
-0.785253590175561
42
-0.770472553435575
0
ELLIPSE
5
E2
100
AcDbEntity
8
1
62
256
6
ByLayer
370
18
48
1
60
0
100
AcDbEllipse
10
9.550049
20
16.72613
30
0
11
3.49899918409956
21
0.169143106453789
31
0
210
0
220
0
230
-1
40
0.284023
41
2.5599621278437
42
-3.00000507293794
0
ELLIPSE
5
E3
100
AcDbEntity
8
1
62
256
6
ByLayer
370
18
48
1
60
0
100
AcDbEllipse
10
12.989788
20
12.221961
30
0
11
0.300520382004278
21
-0.300520382004287
31
0
210
0
220
0
230
1
40
0.990268
41
-1.59200386979187
42
-1.69656586498225E-05
0
ELLIPSE
5
E4
100
AcDbEntity
8
1
62
256
6
ByLayer
370
18
48
1
60
0
100
AcDbEllipse
10
11.891892
20
10.541176
30
0
11
-0.268700576850887
21
0.268700576850889
31
0
210
0
220
0
230
1
40
0.990268
41
-0.544806318595409
42
-0.300336769489719
0
ELLIPSE
5
E5
100
AcDbEntity
8
1
62
256
6
ByLayer
370
18
48
1
60
0
100
AcDbEllipse
10
14.014295
20
9.774861
30
0
11
-0.268700576850887
21
0.268700576850889
31
0
210
0
220
0
230
1
40
0.990268
41
1.5495887837978
42
-1.89865463419673
0
ELLIPSE
5
E6
100
AcDbEntity
8
1
62
256
6
ByLayer
370
18
48
1
60
0
100
AcDbEllipse
10
12.049349
20
10.698633
30
0
11
-0.268700576850887
21
0.268700576850889
31
0
210
0
220
0
230
1
40
0.990268
41
-0.54480631859534
42
2.29013557058956
0
ELLIPSE
5
E7
100
AcDbEntity
8
1
62
256
6
ByLayer
370
18
48
1
60
0
100
AcDbEllipse
10
11.854664
20
11.477575
30
0
11
0.300520382004278
21
-0.300520382004287
31
0
210
0
220
0
230
1
40
0.990268
41
-0.544806318595227
42
1.24293801939309
0
ELLIPSE
5
E8
100
AcDbEntity
8
1
62
256
6
ByLayer
370
18
48
1
60
0
100
AcDbEllipse
10
13.22072
20
10.72916
30
0
11
-2.82842712474618
21
2.8284271247462
31
0
210
0
220
0
230
1
40
0.990268
41
0
42
6.28318530717959
0
ELLIPSE
5
E9
100
AcDbEntity
8
1
62
256
6
ByLayer
370
18
48
1
60
0
100
AcDbEllipse
10
13.135501
20
10.643941
30
0
11
0.813172798364518
21
-0.813172798364541
31
0
210
0
220
0
230
1
40
0.990268
41
-0.351983371493217
42
0
0
ELLIPSE
5
EA
100
AcDbEntity
8
1
62
256
6
ByLayer
370
18
48
1
60
0
100
AcDbEllipse
10
13.135501
20
10.643941
30
0
11
0.813172798364518
21
-0.813172798364541
31
0
210
0
220
0
230
1
40
0.990268
41
0
42
0.790287551908098
0
ELLIPSE
5
EB
100
AcDbEntity
8
1
62
256
6
ByLayer
370
18
48
1
60
0
100
AcDbEllipse
10
13.135501
20
10.643941
30
0
11
0.813172798364518
21
-0.813172798364541
31
0
210
0
220
0
230
1
40
0.990268
41
-1.48295713010815
42
-0.808889190464505
0
ELLIPSE
5
EC
100
AcDbEntity
8
1
62
256
6
ByLayer
370
18
48
1
60
0
100
AcDbEllipse
10
13.135501
20
10.643941
30
0
11
0.813172798364518
21
-0.813172798364541
31
0
210
0
220
0
230
1
40
0.990268
41
-2.76669009119861
42
-2.06434745593131
0
ELLIPSE
5
ED
100
AcDbEntity
8
1
62
256
6
ByLayer
370
18
48
1
60
0
100
AcDbEllipse
10
13.135501
20
10.643941
30
0
11
0.813172798364518
21
-0.813172798364541
31
0
210
0
220
0
230
1
40
0.990268
41
0.790287775403194
42
-3.07643147331956
0
ELLIPSE
5
EE
100
AcDbEntity
8
1
62
256
6
ByLayer
370
18
48
1
60
0
100
AcDbEllipse
10
12.571619
20
11.827933
30
0
11
-0.268700576850887
21
0.268700576850889
31
0
210
0
220
0
230
1
40
0.990268
41
-1.59200386979192
42
1.24293801939303
0
ELLIPSE
5
EF
100
AcDbEntity
8
1
62
256
6
ByLayer
370
18
48
1
60
0
100
AcDbEllipse
10
14.573794
20
9.967763
30
0
11
0.300520382004278
21
-0.300520382004287
31
0
210
0
220
0
230
1
40
0.990268
41
-3.14158432898251
42
-1.89865463419672
0
ELLIPSE
5
F0
100
AcDbEntity
8
1
62
256
6
ByLayer
370
18
48
1
60
0
100
AcDbEllipse
10
13.43867
20
9.223377
30
0
11
0.300520382004278
21
-0.300520382004287
31
0
210
0
220
0
230
1
40
0.990268
41
1.54958878379786
42
-2.94585218539337
0
ELLIPSE
5
F1
100
AcDbEntity
8
1
62
256
6
ByLayer
370
18
48
1
60
0
100
AcDbEllipse
10
14.428081
20
11.545783
30
0
11
0.300520382004278
21
-0.300520382004287
31
0
210
0
220
0
230
1
40
0.990268
41
-2.6392014209885
42
-0.851457082999996
0
ELLIPSE
5
F2
100
AcDbEntity
8
1
62
256
6
ByLayer
370
18
48
1
60
0
100
AcDbEllipse
10
13.657771
20
11.773242
30
0
11
-0.268700576850887
21
0.268700576850889
31
0
210
0
220
0
230
1
40
0.990268
41
-2.63920142098859
42
-0.27246907129546
0
ELLIPSE
5
F3
100
AcDbEntity
8
1
62
256
6
ByLayer
370
18
48
1
60
0
100
AcDbEllipse
10
14.536566
20
10.904162
30
0
11
-0.268700576850887
21
0.268700576850889
31
0
210
0
220
0
230
1
40
0.990268
41
2.59678633499442
42
-0.851457083000097
0
ELLIPSE
5
F4
100
AcDbEntity
8
1
62
256
6
ByLayer
370
18
48
1
60
0
100
AcDbEllipse
10
13.086296
20
10.594736
30
0
11
0.813172798364518
21
-0.813172798364541
31
0
210
0
220
0
230
1
40
0.990268
41
0.0305048268670896
42
0.790287775403192
0
ELLIPSE
5
F5
100
AcDbEntity
8
1
62
256
6
ByLayer
370
18
48
1
60
0
100
AcDbEllipse
10
13.086296
20
10.594736
30
0
11
0.813172798364518
21
-0.813172798364541
31
0
210
0
220
0
230
1
40
0.990268
41
0.790287775403194
42
3.11113119067067
0
ELLIPSE
5
F6
100
AcDbEntity
8
1
62
256
6
ByLayer
370
18
48
1
60
0
100
AcDbEllipse
10
12.770687
20
9.672096
30
0
11
-0.268700576850887
21
0.268700576850889
31
0
210
0
220
0
230
1
40
0.990268
41
0.502391232601254
42
-2.9458521853933
0
ELLIPSE
5
F7
100
AcDbEntity
8
1
62
256
6
ByLayer
370
18
48
1
60
0
100
AcDbEllipse
10
12.414163
20
11.670477
30
0
11
-0.268700576850887
21
0.268700576850889
31
0
210
0
220
0
230
1
40
0.990268
41
-1.59200386979189
42
-0.300332161097222
0
ELLIPSE
5
F8
100
AcDbEntity
8
1
62
256
6
ByLayer
370
18
48
1
60
0
100
AcDbEllipse
10
12.000377
20
9.899555
30
0
11
0.300520382004278
21
-0.300520382004287
31
0
210
0
220
0
230
1
40
0.990268
41
0.502391232601296
42
2.29013557058963
0
ELLIPSE
5
F9
100
AcDbEntity
8
1
62
256
6
ByLayer
370
18
48
1
60
0
100
AcDbEllipse
10
13.815228
20
11.930698
30
0
11
-0.268700576850887
21
0.268700576850889
31
0
210
0
220
0
230
1
40
0.990268
41
-2.63920142098854
42
0.195740468196548
0
ELLIPSE
5
FA
100
AcDbEntity
8
1
62
256
6
ByLayer
370
18
48
1
60
0
100
AcDbEllipse
10
14.585538
20
11.703239
30
0
11
0.300520382004278
21
-0.300520382004287
31
0
210
0
220
0
230
1
40
0.990268
41
-2.6392014209885
42
-0.85145708300002
0
ELLIPSE
5
FB
100
AcDbEntity
8
1
62
256
6
ByLayer
370
18
48
1
60
0
100
AcDbEllipse
10
14.379109
20
10.746705
30
0
11
-0.268700576850887
21
0.268700576850889
31
0
210
0
220
0
230
1
40
0.990268
41
-2.84118640681557
42
-0.851457083000253
0
ELLIPSE
5
FC
100
AcDbEntity
8
1
62
256
6
ByLayer
370
18
48
1
60
0
100
AcDbEllipse
10
13.056773
20
10.565213
30
0
11
2.82842712474615
21
-2.82842712474623
31
0
210
0
220
0
230
1
40
0.990268
41
-3.14152150211198
42
-2.70128875665014E-05
0
ELLIPSE
5
FD
100
AcDbEntity
8
1
62
256
6
ByLayer
370
18
48
1
60
0
100
AcDbEllipse
10
11.697208
20
11.320119
30
0
11
0.300520382004278
21
-0.300520382004287
31
0
210
0
220
0
230
1
40
0.990268
41
-0.544806318595331
42
8.87311462536597E-06
0
ELLIPSE
5
FE
100
AcDbEntity
8
1
62
256
6
ByLayer
370
18
48
1
60
0
100
AcDbEllipse
10
14.73125
20
10.125219
30
0
11
0.300520382004278
21
-0.300520382004287
31
0
210
0
220
0
230
1
40
0.990268
41
2.59678633499442
42
-1.89865463419672
0
ELLIPSE
5
FF
100
AcDbEntity
8
1
62
256
6
ByLayer
370
18
48
1
60
0
100
AcDbEllipse
10
13.281214
20
9.065921
30
0
11
0.300520382004278
21
-0.300520382004287
31
0
210
0
220
0
230
1
40
0.990268
41
3.14157462539907
42
-3.0616363946374
0
ELLIPSE
5
100
100
AcDbEntity
8
1
62
256
6
ByLayer
370
18
48
1
60
0
100
AcDbEllipse
10
13.292957
20
10.801397
30
0
11
-1.62634559672905
21
1.62634559672907
31
0
210
0
220
0
230
1
40
0.990268
41
0
42
6.28318530717959
0
ELLIPSE
5
101
100
AcDbEntity
8
1
62
256
6
ByLayer
370
18
48
1
60
0
100
AcDbEllipse
10
13.147245
20
12.379417
30
0
11
0.300520382004278
21
-0.300520382004287
31
0
210
0
220
0
230
1
40
0.990268
41
-1.59200386979187
42
0.195740468196481
0
ELLIPSE
5
102
100
AcDbEntity
8
1
62
256
6
ByLayer
370
18
48
1
60
0
100
AcDbEllipse
10
13.856839
20
9.617405
30
0
11
-0.268700576850887
21
0.268700576850889
31
0
210
0
220
0
230
1
40
0.990268
41
-2.84118531716537
42
-1.89865463419679
0
ELLIPSE
5
103
100
AcDbEntity
8
1
62
256
6
ByLayer
370
18
48
1
60
0
100
AcDbEllipse
10
26.106669
20
10.59314
30
0
11
1.92686597873331
21
-1.92686597873337
31
0
210
0
220
0
230
1
40
0.990268
41
0.197961384236415
42
0.453804688247316
0
ELLIPSE
5
104
100
AcDbEntity
8
1
62
256
6
ByLayer
370
18
48
1
60
0
100
AcDbEllipse
10
26.106669
20
10.59314
30
0
11
1.92686597873331
21
-1.92686597873337
31
0
210
0
220
0
230
1
40
0.990268
41
0.790288063986106
42
-0.770728962055106
0
ELLIPSE
5
105
100
AcDbEntity
8
1
62
256
6
ByLayer
370
18
48
1
60
0
100
AcDbEllipse
10
6.679391
20
-12.447711
30
0
11
0.803406090798771
21
-3.03757714507733E-05
31
0
210
0
220
0
230
-1
40
0.004364
41
-1.67844690210716
42
-0.107650575313463
0
ELLIPSE
5
106
100
AcDbEntity
8
1
62
256
6
ByLayer
370
18
48
1
60
0
100
AcDbEllipse
10
25.07512
20
5.998448
30
0
11
1.77017999000066
21
-1.77017999000066
31
0
210
0
220
0
230
-1
40
0.50533
41
1.22846584180574
42
1.5707963267949
0
ELLIPSE
5
107
100
AcDbEntity
8
1
62
256
6
ByLayer
370
18
48
1
60
0
100
AcDbEllipse
10
27.066643
20
11.303114
30
0
11
1.82433549546127
21
-1.82433549546132
31
0
210
0
220
0
230
1
40
0.990268
41
-0.475596622657098
42
0
0
ELLIPSE
5
108
100
AcDbEntity
8
1
62
256
6
ByLayer
370
18
48
1
60
0
100
AcDbEllipse
10
27.066643
20
11.303114
30
0
11
1.82433549546127
21
-1.82433549546132
31
0
210
0
220
0
230
1
40
0.990268
41
0
42
0.790287982017203
0
ELLIPSE
5
109
100
AcDbEntity
8
1
62
256
6
ByLayer
370
18
48
1
60
0
100
AcDbEllipse
10
27.066643
20
11.303114
30
0
11
1.82433549546127
21
-1.82433549546132
31
0
210
0
220
0
230
1
40
0.990268
41
2.1990769939954
42
-2.34641496610184
0
ELLIPSE
5
10A
100
AcDbEntity
8
1
62
256
6
ByLayer
370
18
48
1
60
0
100
AcDbEllipse
10
27.066643
20
11.303114
30
0
11
1.82433549546127
21
-1.82433549546132
31
0
210
0
220
0
230
1
40
0.990268
41
0.790288063271498
42
2.1990769939954
0
ELLIPSE
5
10B
100
AcDbEntity
8
1
62
256
6
ByLayer
370
18
48
1
60
0
100
AcDbEllipse
10
26.59821
20
10.834681
30
0
11
-1.82433549546128
21
1.8243354954613
31
0
210
0
220
0
230
1
40
0.990268
41
-3.01166631210181
42
-2.57577045458919
0
ELLIPSE
5
10C
100
AcDbEntity
8
1
62
256
6
ByLayer
370
18
48
1
60
0
100
AcDbEllipse
10
26.049367
20
2.98938
30
0
11
0.841899011350219
21
-0.841899011350243
31
0
210
0
220
0
230
1
40
0.990268
41
-1.14606795671738
42
4.78350463887959E-14
0
ELLIPSE
5
10D
100
AcDbEntity
8
1
62
256
6
ByLayer
370
18
48
1
60
0
100
AcDbEllipse
10
27.028409
20
19.122251
30
0
11
-0.561442784262116
21
0.561442784262122
31
0
210
0
220
0
230
1
40
0.990268
41
-1.5707963267949
42
0
0
ELLIPSE
5
10E
100
AcDbEntity
8
1
62
256
6
ByLayer
370
18
48
1
60
0
100
AcDbEllipse
10
34.88578
20
11.264881
30
0
11
-0.561442784262116
21
0.561442784262122
31
0
210
0
220
0
230
1
40
0.990268
41
3.14159265358979
42
-1.57079632679488
0
ELLIPSE
5
10F
100
AcDbEntity
8
1
62
256
6
ByLayer
370
18
48
1
60
0
100
AcDbEllipse
10
26.636444
20
3.015545
30
0
11
-0.561442784262116
21
0.561442784262122
31
0
210
0
220
0
230
1
40
0.990268
41
1.68946519553522
42
3.14159265358979
0
ELLIPSE
5
110
100
AcDbEntity
8
1
62
256
6
ByLayer
370
18
48
1
60
0
100
AcDbEllipse
10
27.104877
20
3.483977
30
0
11
-0.561442784262116
21
0.561442784262122
31
0
210
0
220
0
230
1
40
0.990268
41
1.57079632679493
42
3.14159265358979
0
POINT
5
6C
100
AcDbEntity
8
2
62
256
6
ByLayer
370
18
48
1
60
0
100
AcDbPoint
10
27.350118
20
19.9125
30
0
39
0
210
0
220
0
230
1
50
360
0
POINT
5
6E
100
AcDbEntity
8
80
62
256
6
ByLayer
370
18
48
1
60
0
100
AcDbPoint
10
0
20
0
30
0
39
0
210
0
220
0
230
1
50
360
0
POINT
5
70
100
AcDbEntity
8
81
62
256
6
ByLayer
370
18
48
1
60
0
100
AcDbPoint
10
27.350118
20
19.9125
30
0
39
0
210
0
220
0
230
1
50
360
0
SPLINE
5
111
100
AcDbEntity
8
1
62
256
6
ByLayer
370
18
48
1
60
0
100
AcDbSpline
70
4
71
3
72
8
73
4
40
0
40
0
40
0
40
0
40
1
40
1
40
1
40
1
41
1
10
28.2665737919995
20
13.2158615843468
30
2.9E-15
41
1
10
28.1943824653366
20
13.2652580639684
30
2.8E-15
41
1
10
28.1214263453162
20
13.31078868259
30
2.7E-15
41
1
10
28.0490627207407
20
13.351780805446
30
2.6E-15
0
SPLINE
5
112
100
AcDbEntity
8
1
62
256
6
ByLayer
370
18
48
1
60
0
100
AcDbSpline
70
4
71
3
72
15
73
11
40
0
40
0
40
0
40
0
40
0.227604479949748
40
0.227604479949748
40
0.479423709218439
40
0.479423709218439
40
0.785574270382832
40
0.785574270382832
40
0.785574270382832
40
1
40
1
40
1
40
1
41
1
10
18.3517192396114
20
9.99901763470211
30
-1.7E-15
41
1
10
18.2855475746003
20
9.666359749175
30
-1.7E-15
41
1
10
18.1687402725157
20
9.33611833673342
30
-1.9E-15
41
1
10
17.8412079115152
20
8.69145859121133
30
-2.3E-15
41
1
10
17.6187736057053
20
8.37453265099549
30
-2.5E-15
41
1
10
17.0516818414676
20
7.75478359638046
30
-3.2E-15
41
1
10
16.6831030975285
20
7.46052809545415
30
3.5E-15
41
1
10
16.2827646667402
20
7.23286643988919
30
3E-15
41
1
10
16.0006433165929
20
7.07243164596176
30
2.7E-15
41
1
10
15.6986850373892
20
6.94289882214369
30
2.3E-15
41
1
10
15.3879401809069
20
6.84933629011076
30
2E-15
0
SPLINE
5
113
100
AcDbEntity
8
1
62
256
6
ByLayer
370
18
48
1
60
0
100
AcDbSpline
70
4
71
3
72
10
73
6
40
0
40
0
40
0
40
0
40
0.5
40
0.5
40
1
40
1
40
1
40
1
41
1
10
27.0045079078191
20
14.1827228902578
30
1.4E-15
41
1
10
26.3014709634444
20
14.4975475419659
30
5E-16
41
1
10
25.7049916041694
20
14.4958255357644
30
-2E-16
41
1
10
24.8470882970485
20
14.1640589535995
30
-1.2E-15
41
1
10
24.5455290524042
20
13.8519874147285
30
-1.5E-15
41
1
10
24.2973149513252
20
13.4983212807327
30
-1.8E-15
0
SPLINE
5
114
100
AcDbEntity
8
1
62
256
6
ByLayer
370
18
48
1
60
0
100
AcDbSpline
70
4
71
3
72
10
73
6
40
0
40
0
40
0
40
0
40
0.655488757716274
40
0.655488757716274
40
1
40
1
40
1
40
1
41
1
10
7.8417459851479
20
2.40271782851582
30
2E-16
41
1
10
7.48892707527574
20
2.33803255821491
30
-2E-16
41
1
10
7.08676452934122
20
2.30756818721187
30
-6E-16
41
1
10
6.44340155948822
20
2.38278663696315
30
-1.4E-15
41
1
10
6.21385413777978
20
2.43141405056932
30
-1.7E-15
41
1
10
5.98750138431626
20
2.50818740914471
30
-1.9E-15
0
SPLINE
5
115
100
AcDbEntity
8
1
62
256
6
ByLayer
370
18
48
1
60
0
100
AcDbSpline
70
4
71
3
72
10
73
6
40
0
40
0
40
0
40
0
40
0.507860739409802
40
0.507860739409802
40
1
40
1
40
1
40
1
41
1
10
4.91456459520936
20
14.0816880687762
30
-3.2E-15
41
1
10
4.87715068193666
20
14.8081611434607
30
-3.2E-15
41
1
10
5.0338518381318
20
15.4478000939223
30
-3E-15
41
1
10
5.45431757523329
20
16.2662106576448
30
-2.6E-15
41
1
10
5.67802911559039
20
16.5034598708554
30
-2.3E-15
41
1
10
6.04379221161338
20
16.6819860950253
30
-1.9E-15
0
SPLINE
5
116
100
AcDbEntity
8
1
62
256
6
ByLayer
370
18
48
1
60
0
100
AcDbSpline
70
4
71
3
72
11
73
7
40
0
40
0
40
0
40
0
40
0.423407924939468
40
0.740963868644069
40
0.89974184049637
40
1
40
1
40
1
40
1
41
1.02805999725225
10
15.3298166453702
20
4.60878452974464
30
1.9E-15
41
1.02767136955277
10
16.1733276648106
20
4.79465731400092
30
2.9E-15
41
1.02349884684923
10
19.0585333272459
20
6.33355000165227
30
-8E-16
41
1.01876555595691
10
22.6223282817026
20
8.56275509734468
30
3.3E-15
41
1.01635405201137
10
23.9756169671557
20
9.37517010036112
30
-2.2E-15
41
1.01722454828226
10
24.4653940349816
20
9.44385471959401
30
-1.6E-15
41
1.01774327987904
10
24.669967262919
20
9.46261985426691
30
-1.4E-15
0
SPLINE
5
117
100
AcDbEntity
8
1
62
256
6
ByLayer
370
18
48
1
60
0
100
AcDbSpline
70
4
71
3
72
8
73
4
40
0
40
0
40
0
40
0
40
1
40
1
40
1
40
1
41
1
10
9.78383368176071
20
7.37550307416527
30
2.5E-15
41
1
10
9.84718656522011
20
7.33652091993375
30
2.6E-15
41
1
10
9.90869002301793
20
7.29489023571583
30
2.7E-15
41
1
10
9.9679308760692
20
7.25090210283616
30
2.7E-15
0
SPLINE
5
118
100
AcDbEntity
8
1
62
256
6
ByLayer
370
18
48
1
60
0
100
AcDbSpline
70
4
71
3
72
8
73
4
40
0
40
0
40
0
40
0
40
1
40
1
40
1
40
1
41
1
10
15.3879401727727
20
6.84933628765629
30
2E-15
41
1
10
15.1159973332982
20
6.76727862358865
30
1.7E-15
41
1
10
14.8310701835053
20
6.71135020805562
30
1.3E-15
41
1
10
14.5444214795816
20
6.68766320587238
30
1E-15
0
SPLINE
5
119
100
AcDbEntity
8
1
62
256
6
ByLayer
370
18
48
1
60
0
100
AcDbSpline
70
4
71
3
72
10
73
6
40
0
40
0
40
0
40
0
40
0.26471563914558
40
0.26471563914558
40
1
40
1
40
1
40
1
41
1
10
26.6716720235628
20
11.6209315600682
30
1E-15
41
1
10
26.5794819092262
20
11.5682080414139
30
9E-16
41
1
10
26.487256606231
20
11.5140034897302
30
8E-16
41
1
10
26.1389365484672
20
11.3045013933885
30
4E-16
41
1
10
25.8827823851685
20
11.1408418188368
30
1E-16
41
1
10
25.6271838901446
20
10.9701065600088
30
-2E-16
0
SPLINE
5
11A
100
AcDbEntity
8
1
62
256
6
ByLayer
370
18
48
1
60
0
100
AcDbSpline
70
4
71
3
72
12
73
8
40
0
40
0
40
0
40
0
40
0.108854002841678
40
0.502629245107339
40
0.69951686624017
40
0.896404487373
40
1
40
1
40
1
40
1
41
1.0244126255267
10
18.1307564339787
20
12.3919701904685
30
-1.9E-15
41
1.02394775696077
10
18.4736981876274
20
12.3885628358903
30
-1.5E-15
41
1.02173322391444
10
20.0984411982096
20
12.3629854895605
30
4E-16
41
1.01876555595691
10
22.3950495023069
20
12.2615515249113
30
3.1E-15
41
1.01610930227499
10
23.9411282984899
20
12.1516701009302
30
-2.2E-15
41
1.01814069306376
10
24.6486325511013
20
12.1906345122884
30
-1.4E-15
41
1.0200519600697
10
25.2815161507544
20
12.2025523763583
30
-6E-16
41
1.02076673234771
10
25.5132343354796
20
12.2041425928955
30
-4E-16
0
SPLINE
5
11B
100
AcDbEntity
8
1
62
256
6
ByLayer
370
18
48
1
60
0
100
AcDbSpline
70
4
71
3
72
20
73
16
40
0
40
0
40
0
40
0
40
0.110576036200128
40
0.110576036200128
40
0.197179369122803
40
0.197179369122803
40
0.284291117387361
40
0.284291117387361
40
0.365904217918076
40
0.365904217918076
40
0.497270233392074
40
0.497270233392074
40
0.733496364826722
40
0.733496364826722
40
1
40
1
40
1
40
1
41
1
10
24.2973149513265
20
13.4983212807327
30
-1.8E-15
41
1
10
24.2752178871804
20
13.4668430010987
30
-1.8E-15
41
1
10
24.2600464275756
20
13.4284352644183
30
-1.8E-15
41
1
10
24.2541586903599
20
13.3466286878168
30
-1.9E-15
41
1
10
24.2590660268874
20
13.3052080477389
30
-1.8E-15
41
1
10
24.2865605416661
20
13.2158589160325
30
-1.8E-15
41
1
10
24.3097016641979
20
13.1667429670374
30
-1.8E-15
41
1
10
24.3678686583565
20
13.071970563103
30
-1.7E-15
41
1
10
24.4025566208367
20
13.0252481979392
30
-1.7E-15
41
1
10
24.501206698403
20
12.9086716202385
30
-1.6E-15
41
1
10
24.5715659963706
20
12.8398804825515
30
-1.5E-15
41
1
10
24.7729376808012
20
12.6639567153605
30
-1.2E-15
41
1
10
24.9116188146065
20
12.56507941742
30
-1.1E-15
41
1
10
25.2032631942577
20
12.3757619579854
30
-7E-16
41
1
10
25.3590676356093
20
12.286361520388
30
-6E-16
41
1
10
25.5132343354982
20
12.2041425928957
30
-4E-16
0
SPLINE
5
11C
100
AcDbEntity
8
1
62
256
6
ByLayer
370
18
48
1
60
0
100
AcDbSpline
70
4
71
3
72
8
73
4
40
0
40
0
40
0
40
0
40
1
40
1
40
1
40
1
41
1
10
4.91957749530644
20
14.0118802827269
30
-3.2E-15
41
1
10
4.91742347597415
20
14.035207600502
30
-3.2E-15
41
1
10
4.91576004013336
20
14.0584758871686
30
-3.2E-15
41
1
10
4.91456459520941
20
14.0816880687762
30
-3.2E-15
0
SPLINE
5
11D
100
AcDbEntity
8
1
62
256
6
ByLayer
370
18
48
1
60
0
100
AcDbSpline
70
4
71
3
72
10
73
6
40
0
40
0
40
0
40
0
40
0.5
40
0.5
40
1
40
1
40
1
40
1
41
1
10
7.362874537685
20
2.79806062855991
30
-3E-16
41
1
10
6.938294908773
20
3.00591429103736
30
-8E-16
41
1
10
6.65636117768418
20
3.31329640773589
30
-1.1E-15
41
1
10
6.07235121207611
20
4.22644646447355
30
-1.8E-15
41
1
10
5.79181882737259
20
4.90183914503083
30
-2.2E-15
41
1
10
5.69665532277111
20
5.61190385778917
30
-2.3E-15
0
SPLINE
5
11E
100
AcDbEntity
8
1
62
256
6
ByLayer
370
18
48
1
60
0
100
AcDbSpline
70
4
71
1
72
4
73
2
40
0
40
0
40
1
40
1
41
1
10
14.2166644368926
20
16.6638552108432
30
6E-16
41
1
10
13.822130504213
20
17.4830292002151
30
1E-16
0
SPLINE
5
11F
100
AcDbEntity
8
1
62
256
6
ByLayer
370
18
48
1
60
0
100
AcDbSpline
70
4
71
3
72
20
73
16
40
0
40
0
40
0
40
0
40
0.332873226652392
40
0.332873226652392
40
0.501657261698215
40
0.501657261698215
40
0.631212321676512
40
0.631212321676512
40
0.722542323637664
40
0.722542323637664
40
0.814765347404181
40
0.814765347404181
40
0.896421359038788
40
0.896421359038788
40
1
40
1
40
1
40
1
41
1
10
25.6271838901446
20
10.9701065600088
30
-2E-16
41
1
10
25.4550242259655
20
10.8551639091552
30
-4E-16
41
1
10
25.2818469609377
20
10.7270050667178
30
-6E-16
41
1
10
25.031579575555
20
10.4976541588145
30
-9E-16
41
1
10
24.9483019905305
20
10.4131254843738
30
-1E-15
41
1
10
24.8128496848681
20
10.2478968174248
30
-1.2E-15
41
1
10
24.7569600504289
20
10.1693947090029
30
-1.3E-15
41
1
10
24.6783411257773
20
10.028581413397
30
-1.4E-15
41
1
10
24.6502040745378
20
9.96705230503156
30
-1.4E-15
41
1
10
24.6101436855647
20
9.84589723476881
30
-1.4E-15
41
1
10
24.5980445239928
20
9.78468178234718
30
-1.4E-15
41
1
10
24.5929949719985
20
9.68016540136745
30
-1.5E-15
41
1
10
24.5978133110329
20
9.63436262648062
30
-1.4E-15
41
1
10
24.6211951414709
20
9.54293663634971
30
-1.4E-15
41
1
10
24.6431311999509
20
9.49927354662464
30
-1.4E-15
41
1
10
24.6699672629186
20
9.46261985426688
30
-1.4E-15
0
SPLINE
5
120
100
AcDbEntity
8
1
62
256
6
ByLayer
370
18
48
1
60
0
100
AcDbSpline
70
4
71
3
72
8
73
4
40
0
40
0
40
0
40
0
40
1
40
1
40
1
40
1
41
1
10
26.0008952341012
20
14.8818160191586
30
2E-16
41
1
10
26.3346708642127
20
14.6522160994259
30
6E-16
41
1
10
26.6697918844996
20
14.4187917690742
30
1E-15
41
1
10
27.0045079078419
20
14.1827228902476
30
1.4E-15
0
SPLINE
5
121
100
AcDbEntity
8
1
62
256
6
ByLayer
370
18
48
1
60
0
100
AcDbSpline
70
4
71
3
72
8
73
4
40
0
40
0
40
0
40
0
40
1
40
1
40
1
40
1
41
1.02417048357497
10
26.0008159627872
20
14.8818627252779
30
2E-16
41
1.02233815524058
10
25.3734654580768
20
15.2514911985509
30
-5E-16
41
1.02059845272928
10
24.7344835255862
20
15.5762567115022
30
-1.3E-15
41
1.01923193651505
10
24.213990884168
20
15.8208356635409
30
-1.9E-15
0
SPLINE
5
122
100
AcDbEntity
8
1
62
256
6
ByLayer
370
18
48
1
60
0
100
AcDbSpline
70
4
71
3
72
8
73
4
40
0
40
0
40
0
40
0
40
1
40
1
40
1
40
1
41
1.01923193622652
10
25.0835450895376
20
6.40384974163638
30
-9E-16
41
1.02059843499303
10
25.551322557172
20
6.73008998955024
30
-3E-16
41
1.02233811057541
10
26.1210956570947
20
7.15473412495971
30
3E-16
41
1.02417041321379
10
26.6711930891981
20
7.62165365521484
30
1E-15
0
SPLINE
5
123
100
AcDbEntity
8
1
62
256
6
ByLayer
370
18
48
1
60
0
100
AcDbSpline
70
4
71
2
72
6
73
3
40
0
40
0
40
0
40
1
40
1
40
1
41
0.937301687603847
10
15.3879401816262
20
6.84933626455013
30
2E-15
41
0.930554446910518
10
15.4300811004637
20
5.35177584937272
30
2E-15
41
1.02805999725225
10
15.3298166453702
20
4.60878452974464
30
1.9E-15
0
SPLINE
5
124
100
AcDbEntity
8
1
62
256
6
ByLayer
370
18
48
1
60
0
100
AcDbSpline
70
4
71
3
72
12
73
8
40
0
40
0
40
0
40
0
40
0.471343086678515
40
0.471343086678515
40
0.89261972610822
40
0.89261972610822
40
1
40
1
40
1
40
1
41
1
10
8.68781792950153
20
7.71597240703602
30
1.2E-15
41
1
10
8.86239878414847
20
7.70206688680449
30
1.4E-15
41
1
10
9.04343944845851
20
7.67165312133486
30
1.6E-15
41
1
10
9.37667762701847
20
7.57630748486642
30
2E-15
41
1
10
9.53329738322918
20
7.51402314717248
30
2.2E-15
41
1
10
9.71269055460749
20
7.41782217264844
30
2.4E-15
41
1
10
9.74875984131205
20
7.39708463104463
30
2.5E-15
41
1
10
9.78383368176065
20
7.37550307416527
30
2.5E-15
0
SPLINE
5
125
100
AcDbEntity
8
1
62
256
6
ByLayer
370
18
48
1
60
0
100
AcDbSpline
70
4
71
2
72
6
73
3
40
0
40
0
40
0
40
1
40
1
40
1
41
1.02805999725224
10
14.2166644368926
20
16.6638552108432
30
6E-16
41
0.93055444607248
10
14.42559242962
20
16.230056332933
30
8E-16
41
0.937301687719828
10
14.643763318409
20
14.9085258675338
30
1.1E-15
0
SPLINE
5
126
100
AcDbEntity
8
1
62
256
6
ByLayer
370
18
48
1
60
0
100
AcDbSpline
70
4
71
3
72
10
73
6
40
0
40
0
40
0
40
0
40
0.5
40
0.5
40
1
40
1
40
1
40
1
41
1
10
13.8221305042131
20
17.4830292002151
30
1E-16
41
1
10
15.1569457431786
20
17.5807095592934
30
1.7E-15
41
1
10
16.4724674353762
20
17.468393157462
30
3.2E-15
41
1
10
19.0897888886491
20
17.0944067319001
30
-8E-16
41
1
10
20.394015799434
20
16.7826528354003
30
7E-16
41
1
10
21.6616505952626
20
16.3710709684486
30
2.2E-15
0
SPLINE
5
127
100
AcDbEntity
8
1
62
256
6
ByLayer
370
18
48
1
60
0
100
AcDbSpline
70
4
71
3
72
8
73
4
40
0
40
0
40
0
40
0
40
1
40
1
40
1
40
1
41
1
10
5.18485899563376
20
16.2585189993371
30
-2.1E-15
41
1
10
5.03564602228101
20
16.1854534975609
30
-1.2E-15
41
1
10
4.88641959146196
20
16.1015346972016
30
3E-16
41
1
10
4.74114886742399
20
16.0057734268298
30
2E-16
0
SPLINE
5
128
100
AcDbEntity
8
1
62
256
6
ByLayer
370
18
48
1
60
0
100
AcDbSpline
70
4
71
3
72
8
73
4
40
0
40
0
40
0
40
0
40
1
40
1
40
1
40
1
41
1
10
9.37260271685409
20
13.6981093967981
30
2E-15
41
1
10
9.98866091702575
20
14.3029084435074
30
2.8E-15
41
1
10
10.8242620399683
20
14.6747636046002
30
-3.4E-15
41
1
10
11.7488788771355
20
14.7511686283832
30
-2.3E-15
0
SPLINE
5
129
100
AcDbEntity
8
1
62
256
6
ByLayer
370
18
48
1
60
0
100
AcDbSpline
70
4
71
3
72
15
73
11
40
0
40
0
40
0
40
0
40
0.322163720426459
40
0.322163720426459
40
0.644833452600231
40
0.644833452600231
40
0.912233455904555
40
0.912233455904555
40
0.912233455904555
40
1
40
1
40
1
40
1
41
1
10
14.6437633184095
20
14.9085258675306
30
1.1E-15
41
1
10
15.1253304944906
20
14.8566500664607
30
1.7E-15
41
1
10
15.6042780361198
20
14.7207484151497
30
2.2E-15
41
1
10
16.479579839709
20
14.3170360679108
30
3.3E-15
41
1
10
16.8886731199524
20
14.0431410737914
30
-3.4E-15
41
1
10
17.5220427420754
20
13.4351229621274
30
-2.6E-15
41
1
10
17.7728768228218
20
13.111106507379
30
-2.3E-15
41
1
10
17.9620591438309
20
12.7562872455432
30
-2.1E-15
41
1
10
18.0249289365315
20
12.638372350965
30
-2E-15
41
1
10
18.081443967273
20
12.5165040033693
30
-2E-15
41
1
10
18.1307565848887
20
12.3919701889692
30
-1.9E-15
0
SPLINE
5
12A
100
AcDbEntity
8
1
62
256
6
ByLayer
370
18
48
1
60
0
100
AcDbSpline
70
4
71
3
72
8
73
4
40
0
40
0
40
0
40
0
40
1
40
1
40
1
40
1
41
1
10
25.0835020222876
20
6.40381970548623
30
-9E-16
41
1
10
24.9793168406237
20
6.38103152788011
30
-1E-15
41
1
10
24.8746136297871
20
6.36052445283806
30
-1.1E-15
41
1
10
24.7694557406826
20
6.34253492229388
30
-1.2E-15
0
SPLINE
5
12B
100
AcDbEntity
8
1
62
256
6
ByLayer
370
18
48
1
60
0
100
AcDbSpline
70
4
71
3
72
10
73
6
40
0
40
0
40
0
40
0
40
0.967465556419469
40
0.967465556419469
40
1
40
1
40
1
40
1
41
1
10
25.5132343354982
20
12.2041425928957
30
-4E-16
41
1
10
25.888729142195
20
12.0038040554843
30
1E-16
41
1
10
26.2633061647851
20
11.8133312420561
30
5E-16
41
1
10
26.6467146117841
20
11.6326436240432
30
1E-15
41
1
10
26.6591954415489
20
11.626778230761
30
1E-15
41
1
10
26.671672023578
20
11.6209315600611
30
1E-15
0
SPLINE
5
12C
100
AcDbEntity
8
1
62
256
6
ByLayer
370
18
48
1
60
0
100
AcDbSpline
70
4
71
3
72
8
73
4
40
0
40
0
40
0
40
0
40
1
40
1
40
1
40
1
41
1
10
6.65279019368433
20
16.0388200955248
30
-1.2E-15
41
1
10
7.27216074707167
20
15.6754622116486
30
-4E-16
41
1
10
8.22245275715898
20
14.7093549014899
30
7E-16
41
1
10
9.21327640021417
20
13.5544499464137
30
1.8E-15
0
SPLINE
5
12D
100
AcDbEntity
8
1
62
256
6
ByLayer
370
18
48
1
60
0
100
AcDbSpline
70
4
71
3
72
11
73
7
40
0
40
0
40
0
40
0
40
0.423407924946041
40
0.740963868655571
40
0.899741840510337
40
1
40
1
40
1
40
1
41
1.02805999725224
10
14.2166644368926
20
16.6638552108432
30
6E-16
41
1.02767136955277
10
15.0799637296425
20
16.6354275320092
30
1.6E-15
41
1.02349884684923
10
18.1916592219054
20
15.7215101845038
30
-1.8E-15
41
1.01876555595691
10
22.1078660494748
20
14.1342111163658
30
2.7E-15
41
1.01635405201144
10
23.5927031390132
20
13.522000360776
30
-2.6E-15
41
1.01722454828215
10
24.0908758270801
20
13.4997631861426
30
-2E-15
41
1.0177432798788
10
24.2973149512408
20
13.4983212807333
30
-1.8E-15
0
SPLINE
5
12E
100
AcDbEntity
8
1
62
256
6
ByLayer
370
18
48
1
60
0
100
AcDbSpline
70
4
71
3
72
8
73
4
40
0
40
0
40
0
40
0
40
1
40
1
40
1
40
1
41
1
10
9.78383368176065
20
7.37550307416527
30
2.5E-15
41
1
10
9.0267277149627
20
5.99056597073465
30
1.6E-15
41
1
10
8.2861667598537
20
4.7028855444199
30
8E-16
41
1
10
7.76594240216184
20
3.98374941442623
30
2E-16
0
SPLINE
5
12F
100
AcDbEntity
8
1
62
256
6
ByLayer
370
18
48
1
60
0
100
AcDbSpline
70
4
71
3
72
11
73
7
40
0
40
0
40
0
40
0
40
0.564783939443766
40
0.564783939443766
40
0.564783939443766
40
1
40
1
40
1
40
1
41
1
10
23.8901591373734
20
15.865026655064
30
-2.3E-15
41
1
10
23.517385332906
20
15.9073989791017
30
-2.7E-15
41
1
10
23.0970102499821
20
15.9704150347614
30
-3.2E-15
41
1
10
22.670940578139
20
16.0767481399735
30
3.4E-15
41
1
10
22.3399075847419
20
16.1593631873278
30
3E-15
41
1
10
21.999325560603
20
16.26143300875
30
2.6E-15
41
1
10
21.6616505952629
20
16.3710709684485
30
2.2E-15
0
SPLINE
5
130
100
AcDbEntity
8
1
62
256
6
ByLayer
370
18
48
1
60
0
100
AcDbSpline
70
4
71
3
72
8
73
4
40
0
40
0
40
0
40
0
40
1
40
1
40
1
40
1
41
1
10
22.6574703520954
20
5.58667197716531
30
3.4E-15
41
1
10
23.379109841262
20
5.96395538039076
30
-2.9E-15
41
1
10
24.1162183900038
20
6.23078454985179
30
-2E-15
41
1
10
24.7694557406826
20
6.34253492229388
30
-1.2E-15
0
SPLINE
5
131
100
AcDbEntity
8
1
62
256
6
ByLayer
370
18
48
1
60
0
100
AcDbSpline
70
4
71
3
72
8
73
4
40
0
40
0
40
0
40
0
40
1
40
1
40
1
40
1
41
1
10
12.5089853661333
20
6.519466458414
30
-1.4E-15
41
1
10
11.5871904928848
20
6.44329462551789
30
-2.5E-15
41
1
10
10.6866099220003
20
6.71726108077158
30
-3.5E-15
41
1
10
9.9679308760692
20
7.25090210283619
30
2.7E-15
0
SPLINE
5
132
100
AcDbEntity
8
1
62
256
6
ByLayer
370
18
48
1
60
0
100
AcDbSpline
70
4
71
3
72
8
73
4
40
0
40
0
40
0
40
0
40
1
40
1
40
1
40
1
41
1
10
28.4080074985661
20
9.46452744122601
30
3E-15
41
1
10
28.4723228885072
20
9.51069504067581
30
3.1E-15
41
1
10
28.5363077076665
20
9.56232064665224
30
3.2E-15
41
1
10
28.5987359971348
20
9.61865463456905
30
3.2E-15
0
SPLINE
5
133
100
AcDbEntity
8
1
62
256
6
ByLayer
370
18
48
1
60
0
100
AcDbSpline
70
4
71
3
72
8
73
4
40
0
40
0
40
0
40
0
40
1
40
1
40
1
40
1
41
1
10
8.19858888754715
20
13.0141613115642
30
7E-16
41
1
10
7.95698676790221
20
12.9350794705646
30
4E-16
41
1
10
7.71756811813952
20
12.8834214243499
30
1E-16
41
1
10
7.48184795885243
20
12.8516178217677
30
-2E-16
0
SPLINE
5
134
100
AcDbEntity
8
1
62
256
6
ByLayer
370
18
48
1
60
0
100
AcDbSpline
70
4
71
3
72
8
73
4
40
0
40
0
40
0
40
0
40
1
40
1
40
1
40
1
41
1
10
8.68781792950153
20
7.71597240703602
30
1.2E-15
41
1
10
8.43706925236739
20
7.73594476202285
30
9E-16
41
1
10
8.19377941245148
20
7.72621042629694
30
7E-16
41
1
10
7.95805925316427
20
7.6944068237147
30
4E-16
0
SPLINE
5
135
100
AcDbEntity
8
1
62
256
6
ByLayer
370
18
48
1
60
0
100
AcDbSpline
70
4
71
3
72
12
73
8
40
0
40
0
40
0
40
0
40
0.286978363858294
40
0.286978363858294
40
0.569998995185616
40
0.569998995185616
40
1
40
1
40
1
40
1
41
1
10
18.1307565848879
20
12.3919701889695
30
-1.9E-15
41
1
10
18.2169445130955
20
12.1742807334818
30
-1.8E-15
41
1
10
18.2854588086343
20
11.9487950414967
30
-1.7E-15
41
1
10
18.3837549069965
20
11.4949946277981
30
-1.6E-15
41
1
10
18.4143960247764
20
11.2652041022148
30
-1.6E-15
41
1
10
18.4441989289378
20
10.6885616462595
30
-1.6E-15
41
1
10
18.4190472640752
20
10.3375580927556
30
-1.6E-15
41
1
10
18.3517192396114
20
9.99901763470211
30
-1.7E-15
0
SPLINE
5
136
100
AcDbEntity
8
1
62
256
6
ByLayer
370
18
48
1
60
0
100
AcDbSpline
70
4
71
3
72
12
73
8
40
0
40
0
40
0
40
0
40
0.46693897235862
40
0.46693897235862
40
0.928803236876561
40
0.928803236876561
40
1
40
1
40
1
40
1
41
1
10
9.2132764002215
20
13.5544499464185
30
1.8E-15
41
1
10
9.08172020353453
20
13.445474981399
30
1.7E-15
41
1
10
8.92750813253178
20
13.3427651493288
30
1.5E-15
41
1
10
8.60919636401877
20
13.1707691416384
30
1.1E-15
41
1
10
8.44112015964379
20
13.09839297886
30
9E-16
41
1
10
8.25003816096489
20
13.0313000409485
30
7E-16
41
1
10
8.22429561154706
20
13.0225757040495
30
7E-16
41
1
10
8.19858888754715
20
13.0141613115642
30
7E-16
0
SPLINE
5
137
100
AcDbEntity
8
1
62
256
6
ByLayer
370
18
48
1
60
0
100
AcDbSpline
70
4
71
3
72
12
73
8
40
0
40
0
40
0
40
0
40
0.108853988607129
40
0.502629237162303
40
0.69951686143989
40
0.896404485717477
40
1
40
1
40
1
40
1
41
1.02441262532206
10
18.3517192396115
20
9.9990176347021
30
-1.7E-15
41
1.02394775682001
10
18.6896062731405
20
10.0503507107554
30
-1.3E-15
41
1.02173322384668
10
20.2892739993071
20
10.2963298605442
30
6E-16
41
1.01876555595691
10
22.5434972954328
20
10.6539109660364
30
3.3E-15
41
1.01610930227499
10
24.0565431858662
20
10.9017649986636
30
-2.1E-15
41
1.01814069306376
10
24.7657629730488
20
10.9221507373642
30
-1.3E-15
41
1.02005196006971
10
25.3966278176603
20
10.9559310516682
30
-5E-16
41
1.02076673234773
10
25.6271838901339
20
10.9701065600082
30
-2E-16
0
SPLINE
5
138
100
AcDbEntity
8
1
62
256
6
ByLayer
370
18
48
1
60
0
100
AcDbSpline
70
4
71
3
72
8
73
4
40
0
40
0
40
0
40
0
40
1
40
1
40
1
40
1
41
1
10
23.8901591373734
20
15.865026655064
30
-2.3E-15
41
1
10
23.9981112197942
20
15.8527559950497
30
-2.2E-15
41
1
10
24.1060746571576
20
15.837955893822
30
-2E-15
41
1
10
24.2139428540904
20
15.8208582327549
30
-1.9E-15
0
SPLINE
5
139
100
AcDbEntity
8
1
62
256
6
ByLayer
370
18
48
1
60
0
100
AcDbSpline
70
4
71
3
72
10
73
6
40
0
40
0
40
0
40
0
40
0.5
40
0.5
40
1
40
1
40
1
40
1
41
1
10
22.6574703520952
20
5.58667197716522
30
3.4E-15
41
1
10
21.4900092974834
20
4.97630670970216
30
2E-15
41
1
10
20.280244358307
20
4.46108054423664
30
6E-16
41
1
10
17.7598880252865
20
3.6573813461039
30
-2.4E-15
41
1
10
16.4690222612978
20
3.32810663957287
30
3.2E-15
41
1
10
15.1404799766202
20
3.20573993894311
30
1.7E-15
0
SPLINE
5
13A
100
AcDbEntity
8
1
62
256
6
ByLayer
370
18
48
1
60
0
100
AcDbSpline
70
4
71
3
72
8
73
4
40
0
40
0
40
0
40
0
40
1
40
1
40
1
40
1
41
1
10
5.68884189381026
20
5.6810009781797
30
-2.3E-15
41
1
10
5.69099591314261
20
5.65767366040461
30
-2.3E-15
41
1
10
5.6936073827045
20
5.63464613380077
30
-2.3E-15
41
1
10
5.69665532277111
20
5.61190385778917
30
-2.3E-15
0
SPLINE
5
13B
100
AcDbEntity
8
1
62
256
6
ByLayer
370
18
48
1
60
0
100
AcDbSpline
70
4
71
3
72
8
73
4
40
0
40
0
40
0
40
0
40
1
40
1
40
1
40
1
41
1
10
8.19858888754715
20
13.0141613115642
30
7E-16
41
1
10
6.96231966080535
20
13.5305110316324
30
-8E-16
41
1
10
5.82399339967753
20
13.9326564600567
30
-2.1E-15
41
1
10
5.06819392044781
20
14.0547776791526
30
-3E-15
0
SPLINE
5
13C
100
AcDbEntity
8
1
62
256
6
ByLayer
370
18
48
1
60
0
100
AcDbSpline
70
4
71
3
72
8
73
4
40
0
40
0
40
0
40
0
40
1
40
1
40
1
40
1
41
1
10
26.6712836863742
20
7.62173055410904
30
1E-15
41
1
10
26.9565938574201
20
7.9169955445721
30
1.3E-15
41
1
10
27.2428046766407
20
8.21325253334612
30
1.7E-15
41
1
10
27.5284178372137
20
8.50895143624257
30
2E-15
0
SPLINE
5
13D
100
AcDbEntity
8
1
62
256
6
ByLayer
370
18
48
1
60
0
100
AcDbSpline
70
4
71
3
72
8
73
4
40
0
40
0
40
0
40
0
40
1
40
1
40
1
40
1
41
1
10
5.83865383200151
20
5.71095136322046
30
-2.1E-15
41
1
10
6.53372892341815
20
6.17152051692159
30
-1.3E-15
41
1
10
7.57398630695286
20
6.91808521671791
30
-1E-16
41
1
10
8.68781792950159
20
7.71597240703602
30
1.2E-15
0
SPLINE
5
13E
100
AcDbEntity
8
1
62
256
6
ByLayer
370
18
48
1
60
0
100
AcDbSpline
70
4
71
3
72
8
73
4
40
0
40
0
40
0
40
0
40
1
40
1
40
1
40
1
41
1
10
14.6437633032548
20
14.9085258691332
30
1.1E-15
41
1
10
14.3558157818869
20
14.9389754541882
30
8E-16
41
1
10
14.069266724776
20
14.9429121501949
30
4E-16
41
1
10
13.7843149905838
20
14.9193653758417
30
1E-16
0
SPLINE
5
13F
100
AcDbEntity
8
1
62
256
6
ByLayer
370
18
48
1
60
0
100
AcDbSpline
70
4
71
3
72
10
73
6
40
0
40
0
40
0
40
0
40
0.5
40
0.5
40
1
40
1
40
1
40
1
41
1
10
24.6699672629186
20
9.46261985426688
30
-1.4E-15
41
1
10
24.9910022645584
20
9.024069768923
30
-1E-15
41
1
10
25.3484198107257
20
8.63895728378117
30
-6E-16
41
1
10
26.2827508992869
20
8.1911215098711
30
5E-16
41
1
10
26.8754119924755
20
8.15521923172508
30
1.2E-15
41
1
10
27.5284178372137
20
8.50895143624251
30
2E-15
0
SPLINE
5
140
100
AcDbEntity
8
1
62
256
6
ByLayer
370
18
48
1
60
0
100
AcDbSpline
70
4
71
2
72
6
73
3
40
0
40
0
40
0
40
1
40
1
40
1
41
1.02805999725224
10
15.3298166453702
20
4.60878452974464
30
1.9E-15
41
1.02805999725224
10
15.2351483109952
20
3.90726223434388
30
1.8E-15
41
1.02805999725224
10
15.1404799766202
20
3.20573993894309
30
1.7E-15
0
SPLINE
5
141
100
AcDbEntity
8
1
62
256
6
ByLayer
370
18
48
1
60
0
100
AcDbSpline
70
4
71
3
72
8
73
4
40
0
40
0
40
0
40
0
40
1
40
1
40
1
40
1
41
1
10
9.37260271685409
20
13.6981093967981
30
2E-15
41
1
10
9.32223578304456
20
13.6486629751041
30
2E-15
41
1
10
9.26914444815475
20
13.6007284093305
30
1.9E-15
41
1
10
9.2132764002215
20
13.5544499464185
30
1.8E-15
0
LINE
5
72
100
AcDbEntity
8
1
62
256
6
ByLayer
370
18
48
1
60
0
100
AcDbLine
10
6.045631
20
16.682791
30
0
11
5.178296
21
16.255333
31
0
39
0
210
0
220
0
230
1
0
LINE
5
74
100
AcDbEntity
8
1
62
256
6
ByLayer
370
18
48
1
60
0
100
AcDbLine
10
13.290309
20
11.92144
30
0
11
13.447765
21
12.078897
31
0
39
0
210
0
220
0
230
1
0
LINE
5
75
100
AcDbEntity
8
1
62
256
6
ByLayer
370
18
48
1
60
0
100
AcDbLine
10
15.8852
20
7.736785
30
0
11
16.049147
21
7.900733
31
0
39
0
210
0
220
0
230
1
0
LINE
5
76
100
AcDbEntity
8
1
62
256
6
ByLayer
370
18
48
1
60
0
100
AcDbLine
10
13.13815
20
9.523898
30
0
11
12.980693
21
9.366441
31
0
39
0
210
0
220
0
230
1
0
LINE
5
77
100
AcDbEntity
8
1
62
256
6
ByLayer
370
18
48
1
60
0
100
AcDbLine
10
11.997728
20
11.019598
30
0
11
12.155185
21
11.177055
31
0
39
0
210
0
220
0
230
1
0
LINE
5
78
100
AcDbEntity
8
1
62
256
6
ByLayer
370
18
48
1
60
0
100
AcDbLine
10
14.43073
20
10.425739
30
0
11
14.273273
21
10.268283
31
0
39
0
210
0
220
0
230
1
0
LINE
5
79
100
AcDbEntity
8
1
62
256
6
ByLayer
370
18
48
1
60
0
100
AcDbLine
10
10.392293
20
13.557587
30
0
11
10.228346
21
13.39364
31
0
39
0
210
0
220
0
230
1
0
LINE
5
7A
100
AcDbEntity
8
1
62
256
6
ByLayer
370
18
48
1
60
0
100
AcDbLine
10
8.173455
20
12.961101
30
0
11
8.659856
21
13.200818
31
0
39
0
210
0
220
0
230
1
0
LINE
5
7B
100
AcDbEntity
8
80
62
256
6
ByLayer
370
18
48
1
60
0
100
AcDbLine
10
0
20
0
30
0
11
-5
21
0
31
0
39
0
210
0
220
0
230
1
0
LINE
5
7C
100
AcDbEntity
8
81
62
256
6
ByLayer
370
18
48
1
60
0
100
AcDbLine
10
27.350118
20
19.9125
30
0
11
37.350118
21
19.9125
31
0
39
0
210
0
220
0
230
1
0
LINE
5
7D
100
AcDbEntity
8
1
62
256
6
ByLayer
370
18
48
1
60
0
100
AcDbLine
10
7.481848
20
12.851618
30
0
11
7.107673
21
12.667209
31
0
39
0
210
0
220
0
230
1
0
LINE
5
7E
100
AcDbEntity
8
1
62
256
6
ByLayer
370
18
48
1
60
0
100
AcDbLine
10
13.784315
20
14.919365
30
0
11
13.390133
21
14.725097
31
0
39
0
210
0
220
0
230
1
0
LINE
5
7F
100
AcDbEntity
8
1
62
256
6
ByLayer
370
18
48
1
60
0
100
AcDbLine
10
28.265655
20
9.273317
30
0
11
28.408007
21
9.464527
31
0
39
0
210
0
220
0
230
1
0
LINE
5
80
100
AcDbEntity
8
1
62
256
6
ByLayer
370
18
48
1
60
0
100
AcDbLine
10
9.749399
20
2.757619
30
0
11
9.754118
21
2.760642
31
0
39
0
210
0
220
0
230
1
0
LINE
5
81
100
AcDbEntity
8
1
62
256
6
ByLayer
370
18
48
1
60
0
100
AcDbLine
10
11.362571
20
14.560781
30
0
11
12.523794
21
14.654888
31
0
39
0
210
0
220
0
230
1
0
LINE
5
82
100
AcDbEntity
8
1
62
256
6
ByLayer
370
18
48
1
60
0
100
AcDbLine
10
13.200145
20
14.7097
30
0
11
13.390133
21
14.725097
31
0
39
0
210
0
220
0
230
1
0
LINE
5
83
100
AcDbEntity
8
1
62
256
6
ByLayer
370
18
48
1
60
0
100
AcDbLine
10
4.239745
20
4.966828
30
0
11
3.47048
21
13.297707
31
0
39
0
210
0
220
0
230
1
0
LINE
5
84
100
AcDbEntity
8
1
62
256
6
ByLayer
370
18
48
1
60
0
100
AcDbLine
10
4.919577
20
14.01188
30
0
11
3.47048
21
13.297707
31
0
39
0
210
0
220
0
230
1
0
LINE
5
85
100
AcDbEntity
8
1
62
256
6
ByLayer
370
18
48
1
60
0
100
AcDbLine
10
14.544421
20
6.687663
30
0
11
12.508985
21
6.519466
31
0
39
0
210
0
220
0
230
1
0
LINE
5
86
100
AcDbEntity
8
1
62
256
6
ByLayer
370
18
48
1
60
0
100
AcDbLine
10
26.671672
20
11.620932
30
0
11
29.426099
21
11.56269
31
0
39
0
210
0
220
0
230
1
0
LINE
5
87
100
AcDbEntity
8
1
62
256
6
ByLayer
370
18
48
1
60
0
100
AcDbLine
10
8.322634
20
2.639719
30
0
11
9.749399
21
2.757619
31
0
39
0
210
0
220
0
230
1
0
LINE
5
88
100
AcDbEntity
8
1
62
256
6
ByLayer
370
18
48
1
60
0
100
AcDbLine
10
5.59871
20
12.544921
30
0
11
6.074921
21
7.38771
31
0
39
0
210
0
220
0
230
1
0
LINE
5
89
100
AcDbEntity
8
1
62
256
6
ByLayer
370
18
48
1
60
0
100
AcDbLine
10
8.322634
20
2.639719
30
0
11
7.841746
21
2.402718
31
0
39
0
210
0
220
0
230
1
0
LINE
5
8A
100
AcDbEntity
8
1
62
256
6
ByLayer
370
18
48
1
60
0
100
AcDbLine
10
28.265655
20
9.273317
30
0
11
27.528418
21
8.508951
31
0
39
0
210
0
220
0
230
1
0
LINE
5
8B
100
AcDbEntity
8
1
62
256
6
ByLayer
370
18
48
1
60
0
100
AcDbLine
10
5.688842
20
5.681001
30
0
11
4.239745
21
4.966828
31
0
39
0
210
0
220
0
230
1
0
LINE
5
8C
100
AcDbEntity
8
1
62
256
6
ByLayer
370
18
48
1
60
0
100
AcDbLine
10
7.107673
20
12.667209
30
0
11
5.59871
21
12.544921
31
0
39
0
210
0
220
0
230
1
0
LINE
5
8D
100
AcDbEntity
8
1
62
256
6
ByLayer
370
18
48
1
60
0
100
AcDbLine
10
9.749399
20
2.757619
30
0
11
7.91344
21
2.41596
31
0
39
0
210
0
220
0
230
1
0
LINE
5
8E
100
AcDbEntity
8
1
62
256
6
ByLayer
370
18
48
1
60
0
100
AcDbLine
10
13.822131
20
17.483029
30
0
11
8.435769
21
17.037931
31
0
39
0
210
0
220
0
230
1
0
LINE
5
8F
100
AcDbEntity
8
1
62
256
6
ByLayer
370
18
48
1
60
0
100
AcDbLine
10
6.65279
20
16.03882
30
0
11
14.216664
21
16.663855
31
0
39
0
210
0
220
0
230
1
0
LINE
5
90
100
AcDbEntity
8
1
62
256
6
ByLayer
370
18
48
1
60
0
100
AcDbLine
10
28.755328
20
9.781009
30
0
11
28.598736
21
9.618655
31
0
39
0
210
0
220
0
230
1
0
LINE
5
91
100
AcDbEntity
8
1
62
256
6
ByLayer
370
18
48
1
60
0
100
AcDbLine
10
7.765942
20
3.983749
30
0
11
15.329817
21
4.608785
31
0
39
0
210
0
220
0
230
1
0
LINE
5
92
100
AcDbEntity
8
1
62
256
6
ByLayer
370
18
48
1
60
0
100
AcDbLine
10
8.43066
20
17.039126
30
0
11
8.435769
21
17.037931
31
0
39
0
210
0
220
0
230
1
0
LINE
5
93
100
AcDbEntity
8
1
62
256
6
ByLayer
370
18
48
1
60
0
100
AcDbLine
10
4.919577
20
14.01188
30
0
11
5.688842
21
5.681001
31
0
39
0
210
0
220
0
230
1
0
LINE
5
94
100
AcDbEntity
8
1
62
256
6
ByLayer
370
18
48
1
60
0
100
AcDbLine
10
15.14048
20
3.20574
30
0
11
9.754118
21
2.760642
31
0
39
0
210
0
220
0
230
1
0
LINE
5
95
100
AcDbEntity
8
1
62
256
6
ByLayer
370
18
48
1
60
0
100
AcDbLine
10
28.049063
20
13.351781
30
0
11
27.873821
21
13.516747
31
0
39
0
210
0
220
0
230
1
0
LINE
5
96
100
AcDbEntity
8
1
62
256
6
ByLayer
370
18
48
1
60
0
100
AcDbLine
10
11.748879
20
14.751169
30
0
11
11.362571
21
14.560781
31
0
39
0
210
0
220
0
230
1
0
LINE
5
97
100
AcDbEntity
8
1
62
256
6
ByLayer
370
18
48
1
60
0
100
AcDbLine
10
27.873821
20
13.516747
30
0
11
27.004508
21
14.182723
31
0
39
0
210
0
220
0
230
1
0
LINE
5
98
100
AcDbEntity
8
1
62
256
6
ByLayer
370
18
48
1
60
0
100
AcDbLine
10
8.43066
20
17.039126
30
0
11
7.003895
21
16.921226
31
0
39
0
210
0
220
0
230
1
0
LINE
5
99
100
AcDbEntity
8
1
62
256
6
ByLayer
370
18
48
1
60
0
100
AcDbLine
10
28.451219
20
13.074406
30
0
11
28.266574
21
13.215862
31
0
39
0
210
0
220
0
230
1
0
LINE
5
9A
100
AcDbEntity
8
1
62
256
6
ByLayer
370
18
48
1
60
0
100
AcDbLine
10
11.748879
20
14.751169
30
0
11
13.784315
21
14.919365
31
0
39
0
210
0
220
0
230
1
0
LINE
5
9B
100
AcDbEntity
8
1
62
256
6
ByLayer
370
18
48
1
60
0
100
AcDbLine
10
12.685887
20
11.930805
30
0
11
12.843343
21
12.088261
31
0
39
0
210
0
220
0
230
1
0
LINE
5
9C
100
AcDbEntity
8
1
62
256
6
ByLayer
370
18
48
1
60
0
100
AcDbLine
10
14.402227
20
11.12391
30
0
11
14.559683
21
11.281366
31
0
39
0
210
0
220
0
230
1
0
LINE
5
9D
100
AcDbEntity
8
1
62
256
6
ByLayer
370
18
48
1
60
0
100
AcDbLine
10
11.799992
20
10.908876
30
0
11
11.957448
21
11.066332
31
0
39
0
210
0
220
0
230
1
0
LINE
5
9E
100
AcDbEntity
8
1
62
256
6
ByLayer
370
18
48
1
60
0
100
AcDbLine
10
14.195277
20
9.782791
30
0
11
14.352734
21
9.940247
31
0
39
0
210
0
220
0
230
1
0
LINE
5
9F
100
AcDbEntity
8
1
62
256
6
ByLayer
370
18
48
1
60
0
100
AcDbLine
10
12.982505
20
9.356776
30
0
11
13.086008
21
9.460279
31
0
39
0
210
0
220
0
230
1
0
LINE
5
A0
100
AcDbEntity
8
1
62
256
6
ByLayer
370
18
48
1
60
0
100
AcDbLine
10
14.021396
20
11.66587
30
0
11
14.178852
21
11.823326
31
0
39
0
210
0
220
0
230
1
0
LINE
5
A1
100
AcDbEntity
8
1
62
256
6
ByLayer
370
18
48
1
60
0
100
AcDbLine
10
17.107792
20
-6.646043
30
0
11
9.587486
21
0.874264
31
0
39
0
210
0
220
0
230
1
0
LINE
5
A2
100
AcDbEntity
8
1
62
256
6
ByLayer
370
18
48
1
60
0
100
AcDbLine
10
26.571081
20
2.817246
30
0
11
24.826719
21
4.561608
31
0
39
0
210
0
220
0
230
1
0
LINE
5
A3
100
AcDbEntity
8
1
62
256
6
ByLayer
370
18
48
1
60
0
100
AcDbLine
10
9.340681
20
-12.454773
30
0
11
11.299063
21
-12.454773
31
0
39
0
210
0
220
0
230
1
0
LINE
5
A4
100
AcDbEntity
8
1
62
256
6
ByLayer
370
18
48
1
60
0
100
AcDbLine
10
0
20
12.4375
30
0
11
3.562303
21
15.999803
31
0
39
0
210
0
220
0
230
1
0
LINE
5
A5
100
AcDbEntity
8
1
62
256
6
ByLayer
370
18
48
1
60
0
100
AcDbLine
10
3.96334
20
16.034889
30
0
11
4.841035
21
16.111677
31
0
39
0
210
0
220
0
230
1
0
LINE
5
A6
100
AcDbEntity
8
1
62
256
6
ByLayer
370
18
48
1
60
0
100
AcDbLine
10
17.107792
20
-6.646043
30
0
11
26.509656
21
2.75582
31
0
39
0
210
0
220
0
230
1
0
LINE
5
A7
100
AcDbEntity
8
1
62
256
6
ByLayer
370
18
48
1
60
0
100
AcDbLine
10
1.997377
20
-12.446215
30
0
11
0
21
9.650072
31
0
39
0
210
0
220
0
230
1
0
LINE
5
A8
100
AcDbEntity
8
1
62
256
6
ByLayer
370
18
48
1
60
0
100
AcDbLine
10
24.625899
20
17.842629
30
0
11
24.377511
21
17.820897
31
0
39
0
210
0
220
0
230
1
0
LINE
5
A9
100
AcDbEntity
8
1
62
256
6
ByLayer
370
18
48
1
60
0
100
AcDbLine
10
9.587486
20
0.874264
30
0
11
9.340681
21
-12.454773
31
0
39
0
210
0
220
0
230
1
0
LINE
5
AA
100
AcDbEntity
8
1
62
256
6
ByLayer
370
18
48
1
60
0
100
AcDbLine
10
7.499726
20
-12.448236
30
0
11
6.121456
21
2.477971
31
0
39
0
210
0
220
0
230
1
0
LINE
5
AB
100
AcDbEntity
8
1
62
256
6
ByLayer
370
18
48
1
60
0
100
AcDbLine
10
4.866153
20
16.072486
30
0
11
4.862362
21
16.113543
31
0
39
0
210
0
220
0
230
1
0
LINE
5
AC
100
AcDbEntity
8
1
62
256
6
ByLayer
370
18
48
1
60
0
100
AcDbLine
10
6.593071
20
-12.444222
30
0
11
5.160525
21
3.069774
31
0
39
0
210
0
220
0
230
1
0
LINE
5
AD
100
AcDbEntity
8
1
62
256
6
ByLayer
370
18
48
1
60
0
100
AcDbLine
10
4.029659
20
15.316681
30
0
11
3.96334
21
16.034889
31
0
39
0
210
0
220
0
230
1
0
LINE
5
AE
100
AcDbEntity
8
1
62
256
6
ByLayer
370
18
48
1
60
0
100
AcDbLine
10
23.362759
20
5.921758
30
0
11
24.180595
21
5.103923
31
0
39
0
210
0
220
0
230
1
0
LINE
5
AF
100
AcDbEntity
8
1
62
256
6
ByLayer
370
18
48
1
60
0
100
AcDbLine
10
4.862362
20
16.113543
30
0
11
4.9574
21
16.121858
31
0
39
0
210
0
220
0
230
1
0
LINE
5
B0
100
AcDbEntity
8
1
62
256
6
ByLayer
370
18
48
1
60
0
100
AcDbLine
10
11.299063
20
-12.454773
30
0
11
17.107792
21
-6.646043
31
0
39
0
210
0
220
0
230
1
0
LINE
5
B1
100
AcDbEntity
8
1
62
256
6
ByLayer
370
18
48
1
60
0
100
AcDbLine
10
7.499726
20
-12.448236
30
0
11
7.478146
21
-12.447364
31
0
39
0
210
0
220
0
230
1
0
LINE
5
B2
100
AcDbEntity
8
1
62
256
6
ByLayer
370
18
48
1
60
0
100
AcDbLine
10
9.587486
20
0.874264
30
0
11
9.419242
21
2.696288
31
0
39
0
210
0
220
0
230
1
0
LINE
5
B3
100
AcDbEntity
8
1
62
256
6
ByLayer
370
18
48
1
60
0
100
AcDbLine
10
4.841035
20
16.111677
30
0
11
4.862362
21
16.113543
31
0
39
0
210
0
220
0
230
1
0
LINE
5
B4
100
AcDbEntity
8
1
62
256
6
ByLayer
370
18
48
1
60
0
100
AcDbLine
10
24.377511
20
17.820897
30
0
11
17.880896
21
17.252517
31
0
39
0
210
0
220
0
230
1
0
LINE
5
B5
100
AcDbEntity
8
1
62
256
6
ByLayer
370
18
48
1
60
0
100
AcDbLine
10
7.478146
20
-12.447364
30
0
11
6.099514
21
2.482767
31
0
39
0
210
0
220
0
230
1
0
LINE
5
B6
100
AcDbEntity
8
1
62
256
6
ByLayer
370
18
48
1
60
0
100
AcDbLine
10
4.84565
20
16.061699
30
0
11
4.841035
21
16.111677
31
0
39
0
210
0
220
0
230
1
0
LINE
5
B7
100
AcDbEntity
8
1
62
256
6
ByLayer
370
18
48
1
60
0
100
AcDbLine
10
6.593071
20
-12.444222
30
0
11
1.997377
21
-12.446215
31
0
39
0
210
0
220
0
230
1
0
LINE
5
B8
100
AcDbEntity
8
1
62
256
6
ByLayer
370
18
48
1
60
0
100
AcDbLine
10
26.509656
20
2.75582
30
0
11
23.348983
21
5.916493
31
0
39
0
210
0
220
0
230
1
0
LINE
5
B9
100
AcDbEntity
8
1
62
256
6
ByLayer
370
18
48
1
60
0
100
AcDbLine
10
0
20
-12.4375
30
0
11
1.997377
21
-12.446215
31
0
39
0
210
0
220
0
230
1
0
LINE
5
BA
100
AcDbEntity
8
1
62
256
6
ByLayer
370
18
48
1
60
0
100
AcDbLine
10
0
20
9.650072
30
0
11
0
21
-12.4375
31
0
39
0
210
0
220
0
230
1
0
LINE
5
BB
100
AcDbEntity
8
1
62
256
6
ByLayer
370
18
48
1
60
0
100
AcDbLine
10
0
20
9.650072
30
0
11
0
21
12.4375
31
0
39
0
210
0
220
0
230
1
0
LINE
5
BC
100
AcDbEntity
8
1
62
256
6
ByLayer
370
18
48
1
60
0
100
AcDbLine
10
9.340681
20
-12.454773
30
0
11
7.499726
21
-12.448236
31
0
39
0
210
0
220
0
230
1
0
LINE
5
BD
100
AcDbEntity
8
1
62
256
6
ByLayer
370
18
48
1
60
0
100
AcDbLine
10
24.377511
20
17.820897
30
0
11
22.629326
21
16.088051
31
0
39
0
210
0
220
0
230
1
0
LINE
5
BE
100
AcDbEntity
8
1
62
256
6
ByLayer
370
18
48
1
60
0
100
AcDbLine
10
3.562303
20
15.999803
30
0
11
3.96334
21
16.034889
31
0
39
0
210
0
220
0
230
1
0
LINE
5
BF
100
AcDbEntity
8
1
62
256
6
ByLayer
370
18
48
1
60
0
100
AcDbLine
10
26.571081
20
2.817246
30
0
11
26.509656
21
2.75582
31
0
39
0
210
0
220
0
230
1
0
LINE
5
C0
100
AcDbEntity
8
SK1
62
256
6
ByLayer
370
18
48
1
60
0
100
AcDbLine
10
0
20
9.650072
30
0
11
0
21
12.4375
31
0
39
0
210
0
220
0
230
1
0
LINE
5
C2
100
AcDbEntity
8
SK1
62
256
6
ByLayer
370
18
48
1
60
0
100
AcDbLine
10
-143.999882
20
12.4375
30
0
11
-143.999882
21
-12.4375
31
0
39
0
210
0
220
0
230
1
0
LINE
5
C3
100
AcDbEntity
8
SK1
62
256
6
ByLayer
370
18
48
1
60
0
100
AcDbLine
10
-143.999882
20
-12.4375
30
0
11
0
21
-12.4375
31
0
39
0
210
0
220
0
230
1
0
LINE
5
C4
100
AcDbEntity
8
SK1
62
256
6
ByLayer
370
18
48
1
60
0
100
AcDbLine
10
-2.787428
20
12.4375
30
0
11
-143.999882
21
12.4375
31
0
39
0
210
0
220
0
230
1
0
LINE
5
C5
100
AcDbEntity
8
SK1
62
256
6
ByLayer
370
18
48
1
60
0
100
AcDbLine
10
0
20
9.650072
30
0
11
0
21
-12.4375
31
0
39
0
210
0
220
0
230
1
0
LINE
5
C6
100
AcDbEntity
8
SK1
62
256
6
ByLayer
370
18
48
1
60
0
100
AcDbLine
10
0
20
9.650072
30
0
11
-2.787428
21
12.4375
31
0
39
0
210
0
220
0
230
1
0
LINE
5
C7
100
AcDbEntity
8
SK1
62
256
6
ByLayer
370
18
48
1
60
0
100
AcDbLine
10
-2.787428
20
12.4375
30
0
11
0
21
12.4375
31
0
39
0
210
0
220
0
230
1
0
LINE
5
C8
100
AcDbEntity
8
1
62
256
6
ByLayer
370
18
48
1
60
0
100
AcDbLine
10
27.197884
20
2.454099
30
0
11
26.891266
21
2.147481
31
0
39
0
210
0
220
0
230
1
0
LINE
5
C9
100
AcDbEntity
8
1
62
256
6
ByLayer
370
18
48
1
60
0
100
AcDbLine
10
35.441759
20
11.820859
30
0
11
27.584388
21
19.67823
31
0
39
0
210
0
220
0
230
1
0
LINE
5
CA
100
AcDbEntity
8
1
62
256
6
ByLayer
370
18
48
1
60
0
100
AcDbLine
10
27.66632
20
2.922535
30
0
11
35.447223
21
10.703438
31
0
39
0
210
0
220
0
230
1
0
LINE
5
CB
100
AcDbEntity
8
1
62
256
6
ByLayer
370
18
48
1
60
0
100
AcDbLine
10
23.50208
20
5.974817
30
0
11
26.548898
21
2.927999
31
0
39
0
210
0
220
0
230
1
0
LINE
5
CC
100
AcDbEntity
8
1
62
256
6
ByLayer
370
18
48
1
60
0
100
AcDbLine
10
27.197887
20
2.454102
30
0
11
27.66632
21
2.922535
31
0
39
0
210
0
220
0
230
1
0
LINE
5
CD
100
AcDbEntity
8
1
62
256
6
ByLayer
370
18
48
1
60
0
100
AcDbLine
10
26.466967
20
19.683694
30
0
11
22.827449
21
16.044176
31
0
39
0
210
0
220
0
230
1
0
LINE
5
CE
100
AcDbEntity
8
1
62
256
6
ByLayer
370
18
48
1
60
0
100
AcDbLine
10
26.504609
20
2.88371
30
0
11
26.548898
21
2.927999
31
0
39
0
210
0
220
0
230
1
0
LINE
5
CF
100
AcDbEntity
8
2
62
256
6
ByLayer
370
18
48
1
60
1
100
AcDbLine
10
27.350118
20
19.9125
30
0
11
27.350825
21
19.911793
31
0
39
0
210
0
220
0
230
1
0
MTEXT
5
142
100
AcDbEntity
8
SK6
62
256
6
ByLayer
370
18
48
1
60
0
100
AcDbMText
10
-72.449882
20
-23.321136
30
0
210
0
220
0
230
1
1
\W0.7579;DSSNR 3225P 12
40
3.5
41
0
44
1.084337
50
0
71
7
72
5
7
iso_b_vert
0
DIMENSION
5
153
100
AcDbEntity
8
2
62
256
6
ByLayer
370
13
48
1
60
0
100
AcDbDimension
2
DimnDraft3D1
10
71.950118
20
-12.4375
30
0
11
71.950118
21
-5.705425
31
0
70
32
71
5
72
1
41
1
210
0
220
0
230
1
3
Standard
100
AcDbAlignedDimension
13
37.67281
23
11.589808
33
0
14
2
24
-12.4375
34
0
50
90
100
AcDbRotatedDimension
1001
ACAD
1000
DSTYLE
1002
{
1070
    74
1070
     0
1070
   279
1070
     0
1070
   172
1070
     1
1070
   173
1070
     1
1070
   340
1005
143
1070
    77
1070
     1
1070
    73
1070
     0
1070
   171
1070
     3
1070
   274
1070
     4
1070
   177
1070
     2
1070
   176
1070
     2
1070
   178
1070
     7
1070
    78
1070
     8
1070
    41
1041
3.175
1070
   147
1041
2.25
1070
    42
1041
2.0
1070
    44
1041
2.0
1070
   140
1041
4.5
1070
   343
1005
154
1070
   344
1005
154
1002
}
0
DIMENSION
5
169
100
AcDbEntity
8
SK2
62
256
6
ByLayer
370
13
48
1
60
0
100
AcDbDimension
2
DimnDraft3D2
10
-151.749882
20
12.4375
30
0
11
-151.749882
21
-5.281579
31
0
70
32
71
5
72
1
41
1
210
0
220
0
230
1
3
Standard
100
AcDbAlignedDimension
13
-145.999882
23
-12.4375
33
0
14
-145.999882
24
12.4375
34
0
50
90
100
AcDbRotatedDimension
1001
ACAD
1000
DSTYLE
1002
{
1070
    74
1070
     0
1070
   279
1070
     0
1070
   172
1070
     1
1070
   173
1070
     1
1070
   340
1005
143
1070
    77
1070
     1
1070
    73
1070
     0
1070
   171
1070
     3
1070
   274
1070
     4
1070
   177
1070
     2
1070
   176
1070
     2
1070
   178
1070
     7
1070
    78
1070
     8
1070
    41
1041
3.175
1070
   147
1041
2.25
1070
    42
1041
2.0
1070
    44
1041
2.0
1070
   140
1041
4.5
1070
   343
1005
154
1070
   344
1005
154
1002
}
0
DIMENSION
5
177
100
AcDbEntity
8
2
62
256
6
ByLayer
370
13
48
1
60
0
100
AcDbDimension
2
DimnDraft3D3
10
81.950118
20
19.9125
30
0
11
81.950118
21
-1.544079
31
0
70
32
71
5
72
1
41
1
210
0
220
0
230
1
3
Standard
100
AcDbAlignedDimension
13
2
23
-12.4375
33
0
14
29.350118
24
19.9125
34
0
50
90
100
AcDbRotatedDimension
1001
ACAD
1000
DSTYLE
1002
{
1070
    74
1070
     0
1070
   279
1070
     0
1070
   172
1070
     1
1070
   173
1070
     1
1070
   340
1005
143
1070
    77
1070
     1
1070
    73
1070
     0
1070
   171
1070
     3
1070
   274
1070
     4
1070
   177
1070
     2
1070
   176
1070
     2
1070
   178
1070
     7
1070
    78
1070
     8
1070
    41
1041
3.175
1070
   147
1041
2.25
1070
    42
1041
2.0
1070
    44
1041
2.0
1070
   140
1041
4.5
1070
   343
1005
154
1070
   344
1005
154
1002
}
0
DIMENSION
5
185
100
AcDbEntity
8
2
62
256
6
ByLayer
370
13
48
1
60
0
100
AcDbDimension
2
DimnDraft3D4
10
27.350118
20
27.339808
30
0
11
8.156638
21
27.339808
31
0
70
32
71
5
72
1
41
1
210
0
220
0
230
1
3
Standard
100
AcDbAlignedDimension
13
0
23
14.4375
33
0
14
27.350118
24
21.9125
34
0
50
0
100
AcDbRotatedDimension
1001
ACAD
1000
DSTYLE
1002
{
1070
   279
1070
     0
1070
   172
1070
     1
1070
   173
1070
     1
1070
   340
1005
143
1070
    77
1070
     1
1070
    73
1070
     0
1070
   171
1070
     3
1070
   274
1070
     4
1070
   177
1070
     2
1070
   176
1070
     2
1070
   178
1070
     7
1070
    78
1070
     8
1070
    41
1041
3.175
1070
   147
1041
2.25
1070
    42
1041
2.0
1070
    44
1041
2.0
1070
   140
1041
4.5
1070
   343
1005
154
1070
   344
1005
154
1002
}
0
DIMENSION
5
193
100
AcDbEntity
8
SK2
62
256
6
ByLayer
370
13
48
1
60
0
100
AcDbDimension
2
DimnDraft3D5
10
27.350118
20
37.339808
30
0
11
-64.72554
21
37.339808
31
0
70
32
71
5
72
1
41
1
210
0
220
0
230
1
3
Standard
100
AcDbAlignedDimension
13
-143.999882
23
14.4375
33
0
14
27.350118
24
21.9125
34
0
50
0
100
AcDbRotatedDimension
1001
ACAD
1000
DSTYLE
1002
{
1070
   279
1070
     0
1070
   172
1070
     1
1070
   173
1070
     1
1070
   340
1005
143
1070
    77
1070
     1
1070
    73
1070
     0
1070
   171
1070
     3
1070
   274
1070
     4
1070
   177
1070
     2
1070
   176
1070
     2
1070
   178
1070
     7
1070
    78
1070
     8
1070
    41
1041
3.175
1070
   147
1041
2.25
1070
    42
1041
2.0
1070
    44
1041
2.0
1070
   140
1041
4.5
1070
   343
1005
154
1070
   344
1005
154
1002
}
0
DIMENSION
5
1A1
100
AcDbEntity
8
SK2
62
256
6
ByLayer
370
13
48
1
60
0
100
AcDbDimension
2
DimnDraft3D6
10
-143.999882
20
47.339808
30
0
11
-60.564194
21
47.339808
31
0
70
32
71
5
72
1
41
1
210
0
220
0
230
1
3
Standard
100
AcDbAlignedDimension
13
35.67281
23
13.589808
33
0
14
-143.999882
24
14.4375
34
0
50
0
100
AcDbRotatedDimension
1001
ACAD
1000
DSTYLE
1002
{
1070
   279
1070
     0
1070
   172
1070
     1
1070
   173
1070
     1
1070
   340
1005
143
1070
    77
1070
     1
1070
    73
1070
     0
1070
   171
1070
     3
1070
   274
1070
     4
1070
   177
1070
     2
1070
   176
1070
     2
1070
   178
1070
     7
1070
    78
1070
     8
1070
    41
1041
3.175
1070
   147
1041
2.25
1070
    42
1041
2.0
1070
    44
1041
2.0
1070
   140
1041
4.5
1070
   343
1005
154
1070
   344
1005
154
1002
}
0
DIMENSION
5
1AF
100
AcDbEntity
8
2
62
256
6
ByLayer
370
13
48
1
60
0
100
AcDbDimension
2
DimnDraft3D7
10
35.67281
20
11.589808
30
0
11
48.676296
21
-19.803383
31
0
70
34
71
5
72
1
41
1
210
0
220
0
230
1
3
Standard
100
AcDb2LineAngularDimension
13
35.67281
23
11.589808
33
0
14
35.67281
24
10.796058
34
0
15
27.350118
25
19.9125
35
0
16
50.398371
26
-23.960841
36
0
40
0
0
ENDSEC
0
SECTION
2
OBJECTS
0
DICTIONARY
5
219
330
0
100
AcDbDictionary
280
0
281
1
3
ACAD_GROUP
350
21a
3
ACAD_MLINESTYLE
350
21b
0
DICTIONARY
5
21a
330
0
100
AcDbDictionary
280
0
281
1
0
DICTIONARY
5
21b
330
0
100
AcDbDictionary
280
0
281
1
3
Standard
350
18
0
MLINESTYLE
5
18
330
21b
100
AcDbMlineStyle
2
Standard
70
0
3

62
256
51
90
52
90
71
2
49
-0.5
62
256
6
ByLayer
49
0.5
62
256
6
ByLayer
0
RASTERVARIABLES
5
208
330

100
AcDbRasterVariables
90
0
70
1
71
1
72
1
0
ENDSEC
0
EOF
