0
SECTION
2
HEADER
9
$ACADVER
1
AC1015
9
$DWGCODEPAGE
3
ANSI_1252
9
$HANDSEED
5
225
9
$ANGBASE
50
0
9
$ANGDIR
70
0
9
$ATTMODE
70
1
9
$AUNITS
70
0
9
$AUPREC
70
0
9
$CECOLOR
62
256
9
$CELTSCALE
40
1
9
$CELTYPE
6
ByLayer
9
$CELWEIGHT
370
18
9
$CLAYER
8
0
9
$CMLJUST
70
0
9
$CMLSCALE
40
1
9
$CMLSTYLE
2
Standard
9
$DIMSTYLE
2
Standard
9
$TEXTSIZE
40
0.2
9
$TEXTSTYLE
7
Standard
9
$LUNITS
70
2
9
$LUPREC
70
4
9
$EXTNAMES
290
1
9
$INSUNITS
70
4
9
$LTSCALE
40
1
9
$LWDISPLAY
290
1
9
$PDMODE
70
0
9
$PDSIZE
40
0
9
$PLINEGEN
70
0
0
ENDSEC
0
SECTION
2
CLASSES
0
CLASS
1
RASTERVARIABLES
2
AcDbRasterVariables
3
ISM
90
0
280
0
281
0
0
ENDSEC
0
SECTION
2
TABLES
0
TABLE
2
VPORT
5
21b
100
AcDbSymbolTable
0
VPORT
5
1
100
AcDbSymbolTableRecord
100
AcDbViewportTableRecord
2
*Active
70
0
10
0
20
0
11
1
21
1
12
-1
22
1
13
0
23
0
14
0.5
24
0.5
15
10
25
10
16
0
26
0
36
1
17
0
27
0
37
0
0
ENDTAB
0
TABLE
2
LTYPE
5
21c
100
AcDbSymbolTable
0
LTYPE
5
14
100
AcDbSymbolTableRecord
100
AcDbLinetypeTableRecord
70
0
2
ByBlock
3

72
65
73
0
40
0
0
LTYPE
5
15
100
AcDbSymbolTableRecord
100
AcDbLinetypeTableRecord
70
0
2
ByLayer
3

72
65
73
0
40
0
0
LTYPE
5
16
100
AcDbSymbolTableRecord
100
AcDbLinetypeTableRecord
70
0
2
CONTINUOUS
3
Solid line
72
65
73
0
40
0
0
LTYPE
5
6A
100
AcDbSymbolTableRecord
100
AcDbLinetypeTableRecord
70
0
2
CENTER
3
____ _ ____ _ ____ _ ____
72
65
73
4
40
47.5
49
22
74
0
49
-8.5
74
0
49
8.5
74
0
49
-8.5
74
0
0
LTYPE
5
6B
100
AcDbSymbolTableRecord
100
AcDbLinetypeTableRecord
70
0
2
DASHED
3
__ __ __ __ __ __ __ __ __
72
65
73
2
40
25.72
49
12.86
74
0
49
-12.86
74
0
0
ENDTAB
0
TABLE
2
LAYER
5
21d
100
AcDbSymbolTable
0
LAYER
5
10
100
AcDbSymbolTableRecord
100
AcDbLayerTableRecord
2
0
70
0
62
7
6
CONTINUOUS
290
1
370
-3
390
0
0
LAYER
5
6D
100
AcDbSymbolTableRecord
100
AcDbLayerTableRecord
2
2
70
0
62
7
6
CONTINUOUS
290
1
370
-3
390
0
0
LAYER
5
6F
100
AcDbSymbolTableRecord
100
AcDbLayerTableRecord
2
80
70
0
62
-6
6
CONTINUOUS
290
1
370
-3
390
0
0
LAYER
5
71
100
AcDbSymbolTableRecord
100
AcDbLayerTableRecord
2
81
70
0
62
-3
6
CONTINUOUS
290
1
370
-3
390
0
0
LAYER
5
73
100
AcDbSymbolTableRecord
100
AcDbLayerTableRecord
2
1
70
0
62
4
6
CONTINUOUS
290
1
370
-3
390
0
0
LAYER
5
208
100
AcDbSymbolTableRecord
100
AcDbLayerTableRecord
2
SK1
70
0
62
4
6
CONTINUOUS
290
1
370
-3
390
0
0
LAYER
5
209
100
AcDbSymbolTableRecord
100
AcDbLayerTableRecord
2
SK6
70
0
62
5
6
CONTINUOUS
290
1
370
-3
390
0
0
LAYER
5
20a
100
AcDbSymbolTableRecord
100
AcDbLayerTableRecord
2
SK2
70
0
62
7
6
CONTINUOUS
290
1
370
-3
390
0
0
ENDTAB
0
TABLE
2
STYLE
5
21e
100
AcDbSymbolTable
0
STYLE
5
11
100
AcDbSymbolTableRecord
100
AcDbTextStyleTableRecord
2
Standard
3
txt
70
0
71
0
40
0
41
1
42
0
50
0
0
STYLE
5
142
100
AcDbSymbolTableRecord
100
AcDbTextStyleTableRecord
2
iso_b_vert
3
simplex.shx
70
0
71
0
40
0
41
1
42
0
50
0
0
STYLE
5
143
100
AcDbSymbolTableRecord
100
AcDbTextStyleTableRecord
2
DWGDirectTextStyle
3
simplex
70
0
71
0
40
0
41
1
42
0
50
0
0
ENDTAB
0
TABLE
2
DIMSTYLE
5
21f
100
AcDbSymbolTable
100
AcDbDimStyleTable
0
DIMSTYLE
105
27
100
AcDbSymbolTableRecord
100
AcDbDimStyleTableRecord
2
Standard
70
0
3
<>
41
0.18
42
0.0625
44
0.18
140
0.18
147
0.09
73
0
74
0
77
1
271
2
275
0
278
52
280
0
340
11
0
ENDTAB
0
TABLE
2
VIEW
5
220
100
AcDbSymbolTable
0
ENDTAB
0
TABLE
2
UCS
5
221
100
AcDbSymbolTable
0
ENDTAB
0
TABLE
2
APPID
5
222
100
AcDbSymbolTable
0
APPID
5
12
100
AcDbSymbolTableRecord
100
AcDbRegAppTableRecord
2
ACAD
70
0
0
ENDTAB
0
TABLE
2
BLOCK_RECORD
5
223
100
AcDbSymbolTable
0
BLOCK_RECORD
5
1F
100
AcDbSymbolTableRecord
100
AcDbBlockTableRecord
2
*Model_Space
340
0
70
0
0
BLOCK_RECORD
5
1B
100
AcDbSymbolTableRecord
100
AcDbBlockTableRecord
2
*Paper_Space
340
0
70
0
0
BLOCK_RECORD
5
23
100
AcDbSymbolTableRecord
100
AcDbBlockTableRecord
2
*Paper_Space0
340
0
70
0
0
BLOCK_RECORD
5
145
100
AcDbSymbolTableRecord
100
AcDbBlockTableRecord
2
DimnDraft3D1
340
0
70
0
0
BLOCK_RECORD
5
153
100
AcDbSymbolTableRecord
100
AcDbBlockTableRecord
2
_CLOSED
340
0
70
0
0
BLOCK_RECORD
5
15A
100
AcDbSymbolTableRecord
100
AcDbBlockTableRecord
2
DimnDraft3D2
340
0
70
0
0
BLOCK_RECORD
5
169
100
AcDbSymbolTableRecord
100
AcDbBlockTableRecord
2
DimnDraft3D3
340
0
70
0
0
BLOCK_RECORD
5
177
100
AcDbSymbolTableRecord
100
AcDbBlockTableRecord
2
DimnDraft3D4
340
0
70
0
0
BLOCK_RECORD
5
185
100
AcDbSymbolTableRecord
100
AcDbBlockTableRecord
2
DimnDraft3D5
340
0
70
0
0
BLOCK_RECORD
5
193
100
AcDbSymbolTableRecord
100
AcDbBlockTableRecord
2
DimnDraft3D6
340
0
70
0
0
BLOCK_RECORD
5
1A1
100
AcDbSymbolTableRecord
100
AcDbBlockTableRecord
2
DimnDraft3D7
340
0
70
0
0
ENDTAB
0
ENDSEC
0
SECTION
2
BLOCKS
0
BLOCK
5
20
100
AcDbEntity
8
0
100
AcDbBlockBegin
2
*Model_Space
70
0
10
0
20
0
30
0
3
*Model_Space
0
ENDBLK
5
21
100
AcDbEntity
8
0
100
AcDbBlockEnd
0
BLOCK
5
1C
100
AcDbEntity
8
0
100
AcDbBlockBegin
2
*Paper_Space
70
0
10
0
20
0
30
0
3
*Paper_Space
0
ENDBLK
5
1D
100
AcDbEntity
8
0
100
AcDbBlockEnd
0
BLOCK
5
24
100
AcDbEntity
8
0
100
AcDbBlockBegin
2
*Paper_Space0
70
0
10
0
20
0
30
0
3
*Paper_Space0
0
ENDBLK
5
25
100
AcDbEntity
8
0
100
AcDbBlockEnd
0
BLOCK
5
150
100
AcDbEntity
8
0
100
AcDbBlockBegin
2
DimnDraft3D1
70
0
10
0
20
0
30
0
3
DimnDraft3D1
0
MTEXT
5
146
100
AcDbEntity
8
2
62
256
6
ByLayer
370
18
48
1
60
0
100
AcDbMText
10
63.800118
20
-5.017925
30
0
210
0
220
0
230
1
1
\W0.6562;16.7
40
4.5
41
0
44
1.084337
50
90
71
7
72
5
7
iso_b_vert
0
LINE
5
147
100
AcDbEntity
8
2
62
256
6
ByLayer
370
13
48
1
60
0
100
AcDbLine
10
37.64781
20
7.089808
30
0
11
66.925118
21
7.089808
31
0
39
0
210
0
220
0
230
1
0
LINE
5
148
100
AcDbEntity
8
2
62
256
6
ByLayer
370
13
48
1
60
0
100
AcDbLine
10
2
20
-9.9375
30
0
11
66.925118
21
-9.9375
31
0
39
0
210
0
220
0
230
1
0
LINE
5
149
100
AcDbEntity
8
2
62
256
6
ByLayer
370
13
48
1
60
0
100
AcDbLine
10
64.925118
20
18.339808
30
0
11
64.925118
21
-21.1875
31
0
39
0
210
0
220
0
230
1
0
LINE
5
14A
100
AcDbEntity
8
2
62
256
6
ByLayer
370
13
48
1
60
0
100
AcDbLine
10
64.925118
20
7.089808
30
0
11
64.507122
21
10.264806
31
0
39
0
210
0
220
0
230
1
0
LINE
5
14B
100
AcDbEntity
8
2
62
256
6
ByLayer
370
13
48
1
60
0
100
AcDbLine
10
64.925118
20
7.089808
30
0
11
65.343115
21
10.264809
31
0
39
0
210
0
220
0
230
1
0
LINE
5
14C
100
AcDbEntity
8
2
62
256
6
ByLayer
370
13
48
1
60
0
100
AcDbLine
10
64.507122
20
10.264806
30
0
11
65.343115
21
10.264809
31
0
39
0
210
0
220
0
230
1
0
LINE
5
14D
100
AcDbEntity
8
2
62
256
6
ByLayer
370
13
48
1
60
0
100
AcDbLine
10
64.925118
20
-9.9375
30
0
11
65.343115
21
-13.112498
31
0
39
0
210
0
220
0
230
1
0
LINE
5
14E
100
AcDbEntity
8
2
62
256
6
ByLayer
370
13
48
1
60
0
100
AcDbLine
10
64.925118
20
-9.9375
30
0
11
64.507122
21
-13.112502
31
0
39
0
210
0
220
0
230
1
0
LINE
5
14F
100
AcDbEntity
8
2
62
256
6
ByLayer
370
13
48
1
60
0
100
AcDbLine
10
65.343115
20
-13.112498
30
0
11
64.507122
21
-13.112502
31
0
39
0
210
0
220
0
230
1
0
ENDBLK
5
151
100
AcDbEntity
8
0
100
AcDbBlockEnd
0
BLOCK
5
154
100
AcDbEntity
8
0
100
AcDbBlockBegin
2
_CLOSED
70
0
10
0
20
0
30
0
3
_CLOSED
0
LINE
5
156
100
AcDbEntity
8
0
62
256
6
ByLayer
370
-2
48
1
60
0
100
AcDbLine
10
-1
20
0.166667
30
0
11
0
21
0
31
0
39
0
210
0
220
0
230
1
0
LINE
5
157
100
AcDbEntity
8
0
62
256
6
ByLayer
370
-2
48
1
60
0
100
AcDbLine
10
0
20
0
30
0
11
-1
21
-0.166667
31
0
39
0
210
0
220
0
230
1
0
LINE
5
158
100
AcDbEntity
8
0
62
256
6
ByLayer
370
-2
48
1
60
0
100
AcDbLine
10
-1
20
0.166667
30
0
11
-1
21
-0.166667
31
0
39
0
210
0
220
0
230
1
0
LINE
5
159
100
AcDbEntity
8
0
62
256
6
ByLayer
370
-2
48
1
60
0
100
AcDbLine
10
0
20
0
30
0
11
-1
21
0
31
0
39
0
210
0
220
0
230
1
0
ENDBLK
5
155
100
AcDbEntity
8
0
100
AcDbBlockEnd
0
BLOCK
5
166
100
AcDbEntity
8
0
100
AcDbBlockBegin
2
DimnDraft3D2
70
0
10
0
20
0
30
0
3
DimnDraft3D2
0
MTEXT
5
15B
100
AcDbEntity
8
SK2
62
256
6
ByLayer
370
18
48
1
60
0
100
AcDbMText
10
-107.899882
20
-4.156579
30
0
210
0
220
0
230
1
1
\W0.7346;20.0
40
4.5
41
0
44
1.084337
50
90
71
7
72
5
7
iso_b_vert
0
LINE
5
15D
100
AcDbEntity
8
SK2
62
256
6
ByLayer
370
13
48
1
60
0
100
AcDbLine
10
-101.024882
20
-9.9375
30
0
11
-108.774882
21
-9.9375
31
0
39
0
210
0
220
0
230
1
0
LINE
5
15E
100
AcDbEntity
8
SK2
62
256
6
ByLayer
370
13
48
1
60
0
100
AcDbLine
10
-101.024882
20
9.9375
30
0
11
-108.774882
21
9.9375
31
0
39
0
210
0
220
0
230
1
0
LINE
5
15F
100
AcDbEntity
8
SK2
62
256
6
ByLayer
370
13
48
1
60
0
100
AcDbLine
10
-106.774882
20
-21.1875
30
0
11
-106.774882
21
21.1875
31
0
39
0
210
0
220
0
230
1
0
LINE
5
160
100
AcDbEntity
8
SK2
62
256
6
ByLayer
370
13
48
1
60
0
100
AcDbLine
10
-106.774882
20
-9.9375
30
0
11
-106.356885
21
-13.112498
31
0
39
0
210
0
220
0
230
1
0
LINE
5
161
100
AcDbEntity
8
SK2
62
256
6
ByLayer
370
13
48
1
60
0
100
AcDbLine
10
-106.774882
20
-9.9375
30
0
11
-107.192878
21
-13.112502
31
0
39
0
210
0
220
0
230
1
0
LINE
5
162
100
AcDbEntity
8
SK2
62
256
6
ByLayer
370
13
48
1
60
0
100
AcDbLine
10
-106.356885
20
-13.112498
30
0
11
-107.192878
21
-13.112502
31
0
39
0
210
0
220
0
230
1
0
LINE
5
163
100
AcDbEntity
8
SK2
62
256
6
ByLayer
370
13
48
1
60
0
100
AcDbLine
10
-106.774882
20
9.9375
30
0
11
-107.192878
21
13.112498
31
0
39
0
210
0
220
0
230
1
0
LINE
5
164
100
AcDbEntity
8
SK2
62
256
6
ByLayer
370
13
48
1
60
0
100
AcDbLine
10
-106.774882
20
9.9375
30
0
11
-106.356885
21
13.112502
31
0
39
0
210
0
220
0
230
1
0
LINE
5
165
100
AcDbEntity
8
SK2
62
256
6
ByLayer
370
13
48
1
60
0
100
AcDbLine
10
-107.192878
20
13.112498
30
0
11
-106.356885
21
13.112502
31
0
39
0
210
0
220
0
230
1
0
ENDBLK
5
167
100
AcDbEntity
8
0
100
AcDbBlockEnd
0
BLOCK
5
174
100
AcDbEntity
8
0
100
AcDbBlockBegin
2
DimnDraft3D3
70
0
10
0
20
0
30
0
3
DimnDraft3D3
0
MTEXT
5
16A
100
AcDbEntity
8
2
62
256
6
ByLayer
370
18
48
1
60
0
100
AcDbMText
10
73.800118
20
-1.419079
30
0
210
0
220
0
230
1
1
\W0.7346;25.0
40
4.5
41
0
44
1.084337
50
90
71
7
72
5
7
iso_b_vert
0
LINE
5
16B
100
AcDbEntity
8
2
62
256
6
ByLayer
370
13
48
1
60
0
100
AcDbLine
10
2
20
-9.9375
30
0
11
76.925118
21
-9.9375
31
0
39
0
210
0
220
0
230
1
0
LINE
5
16C
100
AcDbEntity
8
2
62
256
6
ByLayer
370
13
48
1
60
0
100
AcDbLine
10
29.325118
20
15.4125
30
0
11
76.925118
21
15.4125
31
0
39
0
210
0
220
0
230
1
0
LINE
5
16D
100
AcDbEntity
8
2
62
256
6
ByLayer
370
13
48
1
60
0
100
AcDbLine
10
74.925118
20
-9.9375
30
0
11
74.925118
21
15.4125
31
0
39
0
210
0
220
0
230
1
0
LINE
5
16E
100
AcDbEntity
8
2
62
256
6
ByLayer
370
13
48
1
60
0
100
AcDbLine
10
74.925118
20
-9.9375
30
0
11
74.507122
21
-6.762502
31
0
39
0
210
0
220
0
230
1
0
LINE
5
16F
100
AcDbEntity
8
2
62
256
6
ByLayer
370
13
48
1
60
0
100
AcDbLine
10
74.925118
20
-9.9375
30
0
11
75.343115
21
-6.762498
31
0
39
0
210
0
220
0
230
1
0
LINE
5
170
100
AcDbEntity
8
2
62
256
6
ByLayer
370
13
48
1
60
0
100
AcDbLine
10
74.507122
20
-6.762502
30
0
11
75.343115
21
-6.762498
31
0
39
0
210
0
220
0
230
1
0
LINE
5
171
100
AcDbEntity
8
2
62
256
6
ByLayer
370
13
48
1
60
0
100
AcDbLine
10
74.925118
20
15.4125
30
0
11
75.343115
21
12.237502
31
0
39
0
210
0
220
0
230
1
0
LINE
5
172
100
AcDbEntity
8
2
62
256
6
ByLayer
370
13
48
1
60
0
100
AcDbLine
10
74.925118
20
15.4125
30
0
11
74.507122
21
12.237498
31
0
39
0
210
0
220
0
230
1
0
LINE
5
173
100
AcDbEntity
8
2
62
256
6
ByLayer
370
13
48
1
60
0
100
AcDbLine
10
75.343115
20
12.237502
30
0
11
74.507122
21
12.237498
31
0
39
0
210
0
220
0
230
1
0
ENDBLK
5
175
100
AcDbEntity
8
0
100
AcDbBlockEnd
0
BLOCK
5
182
100
AcDbEntity
8
0
100
AcDbBlockBegin
2
DimnDraft3D4
70
0
10
0
20
0
30
0
3
DimnDraft3D4
0
MTEXT
5
178
100
AcDbEntity
8
2
62
256
6
ByLayer
370
18
48
1
60
0
100
AcDbMText
10
9.50598
20
23.964808
30
0
210
0
220
0
230
1
1
\W0.7346;27.3
40
4.5
41
0
44
1.084337
50
0
71
7
72
5
7
iso_b_vert
0
LINE
5
179
100
AcDbEntity
8
2
62
256
6
ByLayer
370
13
48
1
60
0
100
AcDbLine
10
0
20
11.9375
30
0
11
0
21
24.839808
31
0
39
0
210
0
220
0
230
1
0
LINE
5
17A
100
AcDbEntity
8
2
62
256
6
ByLayer
370
13
48
1
60
0
100
AcDbLine
10
27.325118
20
17.4125
30
0
11
27.325118
21
24.839808
31
0
39
0
210
0
220
0
230
1
0
LINE
5
17B
100
AcDbEntity
8
2
62
256
6
ByLayer
370
13
48
1
60
0
100
AcDbLine
10
0
20
22.839808
30
0
11
27.325118
21
22.839808
31
0
39
0
210
0
220
0
230
1
0
LINE
5
17C
100
AcDbEntity
8
2
62
256
6
ByLayer
370
13
48
1
60
0
100
AcDbLine
10
0
20
22.839808
30
0
11
3.174998
21
23.257805
31
0
39
0
210
0
220
0
230
1
0
LINE
5
17D
100
AcDbEntity
8
2
62
256
6
ByLayer
370
13
48
1
60
0
100
AcDbLine
10
0
20
22.839808
30
0
11
3.175002
21
22.421811
31
0
39
0
210
0
220
0
230
1
0
LINE
5
17E
100
AcDbEntity
8
2
62
256
6
ByLayer
370
13
48
1
60
0
100
AcDbLine
10
3.174998
20
23.257805
30
0
11
3.175002
21
22.421811
31
0
39
0
210
0
220
0
230
1
0
LINE
5
17F
100
AcDbEntity
8
2
62
256
6
ByLayer
370
13
48
1
60
0
100
AcDbLine
10
27.325118
20
22.839808
30
0
11
24.15012
21
22.421811
31
0
39
0
210
0
220
0
230
1
0
LINE
5
180
100
AcDbEntity
8
2
62
256
6
ByLayer
370
13
48
1
60
0
100
AcDbLine
10
27.325118
20
22.839808
30
0
11
24.150117
21
23.257805
31
0
39
0
210
0
220
0
230
1
0
LINE
5
181
100
AcDbEntity
8
2
62
256
6
ByLayer
370
13
48
1
60
0
100
AcDbLine
10
24.15012
20
22.421811
30
0
11
24.150117
21
23.257805
31
0
39
0
210
0
220
0
230
1
0
ENDBLK
5
183
100
AcDbEntity
8
0
100
AcDbBlockEnd
0
BLOCK
5
190
100
AcDbEntity
8
0
100
AcDbBlockBegin
2
DimnDraft3D5
70
0
10
0
20
0
30
0
3
DimnDraft3D5
0
MTEXT
5
186
100
AcDbEntity
8
SK2
62
256
6
ByLayer
370
18
48
1
60
0
100
AcDbMText
10
-41.12554
20
33.964808
30
0
210
0
220
0
230
1
1
\W0.6864;125.0
40
4.5
41
0
44
1.084337
50
0
71
7
72
5
7
iso_b_vert
0
LINE
5
187
100
AcDbEntity
8
SK2
62
256
6
ByLayer
370
13
48
1
60
0
100
AcDbLine
10
-99.024882
20
11.9375
30
0
11
-99.024882
21
34.839808
31
0
39
0
210
0
220
0
230
1
0
LINE
5
188
100
AcDbEntity
8
SK2
62
256
6
ByLayer
370
13
48
1
60
0
100
AcDbLine
10
27.325118
20
17.4125
30
0
11
27.325118
21
34.839808
31
0
39
0
210
0
220
0
230
1
0
LINE
5
189
100
AcDbEntity
8
SK2
62
256
6
ByLayer
370
13
48
1
60
0
100
AcDbLine
10
-99.024882
20
32.839808
30
0
11
27.325118
21
32.839808
31
0
39
0
210
0
220
0
230
1
0
LINE
5
18A
100
AcDbEntity
8
SK2
62
256
6
ByLayer
370
13
48
1
60
0
100
AcDbLine
10
-99.024882
20
32.839808
30
0
11
-95.849883
21
33.257805
31
0
39
0
210
0
220
0
230
1
0
LINE
5
18B
100
AcDbEntity
8
SK2
62
256
6
ByLayer
370
13
48
1
60
0
100
AcDbLine
10
-99.024882
20
32.839808
30
0
11
-95.84988
21
32.421811
31
0
39
0
210
0
220
0
230
1
0
LINE
5
18C
100
AcDbEntity
8
SK2
62
256
6
ByLayer
370
13
48
1
60
0
100
AcDbLine
10
-95.849883
20
33.257805
30
0
11
-95.84988
21
32.421811
31
0
39
0
210
0
220
0
230
1
0
LINE
5
18D
100
AcDbEntity
8
SK2
62
256
6
ByLayer
370
13
48
1
60
0
100
AcDbLine
10
27.325118
20
32.839808
30
0
11
24.15012
21
32.421811
31
0
39
0
210
0
220
0
230
1
0
LINE
5
18E
100
AcDbEntity
8
SK2
62
256
6
ByLayer
370
13
48
1
60
0
100
AcDbLine
10
27.325118
20
32.839808
30
0
11
24.150117
21
33.257805
31
0
39
0
210
0
220
0
230
1
0
LINE
5
18F
100
AcDbEntity
8
SK2
62
256
6
ByLayer
370
13
48
1
60
0
100
AcDbLine
10
24.15012
20
32.421811
30
0
11
24.150117
21
33.257805
31
0
39
0
210
0
220
0
230
1
0
ENDBLK
5
191
100
AcDbEntity
8
0
100
AcDbBlockEnd
0
BLOCK
5
19E
100
AcDbEntity
8
0
100
AcDbBlockBegin
2
DimnDraft3D6
70
0
10
0
20
0
30
0
3
DimnDraft3D6
0
MTEXT
5
194
100
AcDbEntity
8
SK2
62
256
6
ByLayer
370
18
48
1
60
0
100
AcDbMText
10
-36.964194
20
43.964808
30
0
210
0
220
0
230
1
1
\W0.6864;133.3
40
4.5
41
0
44
1.084337
50
0
71
7
72
5
7
iso_b_vert
0
LINE
5
195
100
AcDbEntity
8
SK2
62
256
6
ByLayer
370
13
48
1
60
0
100
AcDbLine
10
35.64781
20
9.089808
30
0
11
35.64781
21
44.839808
31
0
39
0
210
0
220
0
230
1
0
LINE
5
196
100
AcDbEntity
8
SK2
62
256
6
ByLayer
370
13
48
1
60
0
100
AcDbLine
10
-99.024882
20
11.9375
30
0
11
-99.024882
21
44.839808
31
0
39
0
210
0
220
0
230
1
0
LINE
5
197
100
AcDbEntity
8
SK2
62
256
6
ByLayer
370
13
48
1
60
0
100
AcDbLine
10
35.64781
20
42.839808
30
0
11
-99.024882
21
42.839808
31
0
39
0
210
0
220
0
230
1
0
LINE
5
198
100
AcDbEntity
8
SK2
62
256
6
ByLayer
370
13
48
1
60
0
100
AcDbLine
10
35.64781
20
42.839808
30
0
11
32.472812
21
42.421811
31
0
39
0
210
0
220
0
230
1
0
LINE
5
199
100
AcDbEntity
8
SK2
62
256
6
ByLayer
370
13
48
1
60
0
100
AcDbLine
10
35.64781
20
42.839808
30
0
11
32.472809
21
43.257805
31
0
39
0
210
0
220
0
230
1
0
LINE
5
19A
100
AcDbEntity
8
SK2
62
256
6
ByLayer
370
13
48
1
60
0
100
AcDbLine
10
32.472812
20
42.421811
30
0
11
32.472809
21
43.257805
31
0
39
0
210
0
220
0
230
1
0
LINE
5
19B
100
AcDbEntity
8
SK2
62
256
6
ByLayer
370
13
48
1
60
0
100
AcDbLine
10
-99.024882
20
42.839808
30
0
11
-95.849883
21
43.257805
31
0
39
0
210
0
220
0
230
1
0
LINE
5
19C
100
AcDbEntity
8
SK2
62
256
6
ByLayer
370
13
48
1
60
0
100
AcDbLine
10
-99.024882
20
42.839808
30
0
11
-95.84988
21
42.421811
31
0
39
0
210
0
220
0
230
1
0
LINE
5
19D
100
AcDbEntity
8
SK2
62
256
6
ByLayer
370
13
48
1
60
0
100
AcDbLine
10
-95.849883
20
43.257805
30
0
11
-95.84988
21
42.421811
31
0
39
0
210
0
220
0
230
1
0
ENDBLK
5
19F
100
AcDbEntity
8
0
100
AcDbBlockEnd
0
BLOCK
5
1AC
100
AcDbEntity
8
0
100
AcDbBlockBegin
2
DimnDraft3D7
70
0
10
0
20
0
30
0
3
DimnDraft3D7
0
MTEXT
5
1A2
100
AcDbEntity
8
2
62
256
6
ByLayer
370
18
48
1
60
0
100
AcDbMText
10
43.238789
20
-19.483254
30
0
210
0
220
0
230
1
1
\W0.7785;45%%d
40
4.5
41
0
44
1.084337
50
22.5
71
7
72
5
7
iso_b_vert
0
LINE
5
1A3
100
AcDbEntity
8
2
62
256
6
ByLayer
370
13
48
1
60
0
100
AcDbLine
10
35.64781
20
4.296058
30
0
11
35.64781
21
-23.490442
31
0
39
0
210
0
220
0
230
1
0
LINE
5
1A4
100
AcDbEntity
8
2
62
256
6
ByLayer
370
13
48
1
60
0
100
AcDbLine
10
37.062024
20
5.675594
30
0
11
57.271312
21
-14.533694
31
0
39
0
210
0
220
0
230
1
0
ARC
5
1A5
100
AcDbEntity
8
2
62
256
6
ByLayer
370
13
48
1
60
0
100
AcDbCircle
39
0
10
35.64781
20
7.089808
30
0
40
28.5802497758583
210
0
220
0
230
1
100
AcDbArc
50
248.513989
51
336.486011
0
LINE
5
1A6
100
AcDbEntity
8
2
62
256
6
ByLayer
370
13
48
1
60
0
100
AcDbLine
10
35.64781
20
-21.490442
30
0
11
32.462438
21
-21.820201
31
0
39
0
210
0
220
0
230
1
0
LINE
5
1A7
100
AcDbEntity
8
2
62
256
6
ByLayer
370
13
48
1
60
0
100
AcDbLine
10
35.64781
20
-21.490442
30
0
11
32.485626
21
-20.98453
31
0
39
0
210
0
220
0
230
1
0
LINE
5
1A8
100
AcDbEntity
8
2
62
256
6
ByLayer
370
13
48
1
60
0
100
AcDbLine
10
32.462438
20
-21.820201
30
0
11
32.485626
21
-20.98453
31
0
39
0
210
0
220
0
230
1
0
LINE
5
1A9
100
AcDbEntity
8
2
62
256
6
ByLayer
370
13
48
1
60
0
100
AcDbLine
10
55.857099
20
-13.119481
30
0
11
57.735365
21
-10.525747
31
0
39
0
210
0
220
0
230
1
0
LINE
5
1AA
100
AcDbEntity
8
2
62
256
6
ByLayer
370
13
48
1
60
0
100
AcDbLine
10
55.857099
20
-13.119481
30
0
11
58.342674
21
-11.100255
31
0
39
0
210
0
220
0
230
1
0
LINE
5
1AB
100
AcDbEntity
8
2
62
256
6
ByLayer
370
13
48
1
60
0
100
AcDbLine
10
57.735365
20
-10.525747
30
0
11
58.342674
21
-11.100255
31
0
39
0
210
0
220
0
230
1
0
ENDBLK
5
1AD
100
AcDbEntity
8
0
100
AcDbBlockEnd
0
ENDSEC
0
SECTION
2
ENTITIES
0
ELLIPSE
5
D0
100
AcDbEntity
8
1
62
256
6
ByLayer
370
18
48
1
60
0
100
AcDbEllipse
10
9.827933
20
8.123398
30
0
11
5.47670107840134
21
0.505712663315402
31
0
210
0
220
0
230
1
40
0.089459
41
2.01027168357027
42
2.4520394228563
0
ELLIPSE
5
D1
100
AcDbEntity
8
1
62
256
6
ByLayer
370
18
48
1
60
0
100
AcDbEllipse
10
11.6385
20
5.938517
30
0
11
-1.69854301995343
21
1.96848967723163
31
0
210
0
220
0
230
1
40
0.988257
41
0.886947527012674
42
1.01452556187566
0
ELLIPSE
5
D2
100
AcDbEntity
8
1
62
256
6
ByLayer
370
18
48
1
60
0
100
AcDbEllipse
10
7.209839
20
0.714326
30
0
11
2.7419392565657
21
-1.25002285444036
31
0
210
0
220
0
230
-1
40
0.988829
41
1.57491384805388
42
2.62660291111912
0
ELLIPSE
5
D3
100
AcDbEntity
8
1
62
256
6
ByLayer
370
18
48
1
60
0
100
AcDbEllipse
10
10.304144
20
2.966187
30
0
11
5.47670107840134
21
0.505712663315402
31
0
210
0
220
0
230
1
40
0.089459
41
2.01027168357028
42
2.45203942285631
0
ELLIPSE
5
D4
100
AcDbEntity
8
1
62
256
6
ByLayer
370
18
48
1
60
0
100
AcDbEllipse
10
9.001883
20
10.30752
30
0
11
3.56214569758743
21
-1.2837750224654
31
0
210
0
220
0
230
-1
40
0.476491
41
-2.69452518779345
42
-2.33490945444459
0
ELLIPSE
5
D5
100
AcDbEntity
8
1
62
256
6
ByLayer
370
18
48
1
60
0
100
AcDbEllipse
10
13.745187
20
6.109246
30
0
11
-2.71113597415644
21
3.14201236942741
31
0
210
0
220
0
230
1
40
0.988257
41
2.94979594319126
42
-0.62543465654235
0
ELLIPSE
5
D6
100
AcDbEntity
8
1
62
256
6
ByLayer
370
18
48
1
60
0
100
AcDbEllipse
10
27.442625
20
7.104101
30
0
11
0.116783927457094
21
-2.37804593450128
31
0
210
0
220
0
230
-1
40
0.822101
41
-1.51304475628561
42
-0.657833422807632
0
ELLIPSE
5
D7
100
AcDbEntity
8
1
62
256
6
ByLayer
370
18
48
1
60
0
100
AcDbEllipse
10
6.807935
20
11.142523
30
0
11
1.95985733071549
21
-2.27133424295958
31
0
210
0
220
0
230
1
40
0.988257
41
-0.625434656542342
42
-0.25115740613415
0
ELLIPSE
5
D8
100
AcDbEntity
8
1
62
256
6
ByLayer
370
18
48
1
60
0
100
AcDbEllipse
10
11.717625
20
5.94493
30
0
11
2.71113597415643
21
-3.14201236942742
31
0
210
0
220
0
230
1
40
0.988257
41
2.51615799704745
42
2.86293591410341
0
ELLIPSE
5
D9
100
AcDbEntity
8
1
62
256
6
ByLayer
370
18
48
1
60
0
100
AcDbEllipse
10
6.729599
20
9.613661
30
0
11
-0.703536876446182
21
-1.87217410073966
31
0
210
0
220
0
230
1
40
0.823421
41
-2.65333561083587
42
-1.24066011657627
0
ELLIPSE
5
DA
100
AcDbEntity
8
1
62
256
6
ByLayer
370
18
48
1
60
0
100
AcDbEllipse
10
7.500059
20
1.269834
30
0
11
1.35572226096165
21
-1.47037993427992
31
0
210
0
220
0
230
1
40
0.766119
41
-2.15307575414524
42
-0.740400259885611
0
ELLIPSE
5
DB
100
AcDbEntity
8
1
62
256
6
ByLayer
370
18
48
1
60
0
100
AcDbEllipse
10
10.505219
20
0.788615
30
0
11
5.46194806619566
21
0.662846623591728
31
0
210
0
220
0
230
-1
40
0.327207
41
-2.61600536461411
42
-2.56301306010867
0
ELLIPSE
5
DC
100
AcDbEntity
8
1
62
256
6
ByLayer
370
18
48
1
60
0
100
AcDbEllipse
10
27.442625
20
7.104101
30
0
11
1.58058699403987
21
-1.53042442166998
31
0
210
0
220
0
230
-1
40
0.799391
41
-1.71498712955956
42
-0.859775796081553
0
ELLIPSE
5
DD
100
AcDbEntity
8
1
62
256
6
ByLayer
370
18
48
1
60
0
100
AcDbEllipse
10
6.440575
20
9.045205
30
0
11
2.7419392566228
21
-1.25002285434337
31
0
210
0
220
0
230
-1
40
0.988829
41
2.62660291115656
42
-2.60489333296024
0
ELLIPSE
5
DE
100
AcDbEntity
8
1
62
256
6
ByLayer
370
18
48
1
60
0
100
AcDbEllipse
10
9.525049
20
12.22613
30
0
11
3.49899918407636
21
0.169143106450997
31
0
210
0
220
0
230
-1
40
0.284023
41
2.55996212784155
42
-3.00000507293757
0
ELLIPSE
5
DF
100
AcDbEntity
8
1
62
256
6
ByLayer
370
18
48
1
60
0
100
AcDbEllipse
10
9.626858
20
10.30097
30
0
11
5.48990887559738
21
0.362222302939567
31
0
210
0
220
0
230
-1
40
0.148431
41
2.56851372523791
42
2.62150603101211
0
ELLIPSE
5
E0
100
AcDbEntity
8
1
62
256
6
ByLayer
370
18
48
1
60
0
100
AcDbEllipse
10
10.746102
20
-0.99747
30
0
11
3.46770729001482
21
0.500282489002058
31
0
210
0
220
0
230
-1
40
0.462487
41
3.01126145870541
42
-2.54870574207559
0
ELLIPSE
5
E1
100
AcDbEntity
8
1
62
256
6
ByLayer
370
18
48
1
60
0
100
AcDbEllipse
10
2.846546
20
-2.111607
30
0
11
6.97034682705626
21
0.643634298765057
31
0
210
0
220
0
230
1
40
0.089459
41
-0.785253590175566
42
-0.77047255343558
0
ELLIPSE
5
E2
100
AcDbEntity
8
1
62
256
6
ByLayer
370
18
48
1
60
0
100
AcDbEllipse
10
9.771147
20
1.97664
30
0
11
2.66847802698999
21
3.5342483766836
31
0
210
0
220
0
230
-1
40
0.567379
41
2.67243907037676
42
3.03205480374039
0
ELLIPSE
5
E3
100
AcDbEntity
8
1
62
256
6
ByLayer
370
18
48
1
60
0
100
AcDbEllipse
10
12.964788
20
7.721961
30
0
11
0.300520382004278
21
-0.300520382004287
31
0
210
0
220
0
230
1
40
0.990268
41
-1.59200386979194
42
-1.69656587110232E-05
0
ELLIPSE
5
E4
100
AcDbEntity
8
1
62
256
6
ByLayer
370
18
48
1
60
0
100
AcDbEllipse
10
11.866892
20
6.041176
30
0
11
-0.268700576850887
21
0.268700576850889
31
0
210
0
220
0
230
1
40
0.990268
41
-0.544806318595386
42
-0.300336769489702
0
ELLIPSE
5
E5
100
AcDbEntity
8
1
62
256
6
ByLayer
370
18
48
1
60
0
100
AcDbEllipse
10
13.831839
20
5.117405
30
0
11
-0.268700576850887
21
0.268700576850889
31
0
210
0
220
0
230
1
40
0.990268
41
-2.84122779950513
42
-1.89865463419672
0
ELLIPSE
5
E6
100
AcDbEntity
8
1
62
256
6
ByLayer
370
18
48
1
60
0
100
AcDbEllipse
10
13.19572
20
6.22916
30
0
11
-2.82842712474618
21
2.8284271247462
31
0
210
0
220
0
230
1
40
0.990268
41
0
42
6.28318530717959
0
ELLIPSE
5
E7
100
AcDbEntity
8
1
62
256
6
ByLayer
370
18
48
1
60
0
100
AcDbEllipse
10
14.548794
20
5.467763
30
0
11
0.300520382004278
21
-0.300520382004287
31
0
210
0
220
0
230
1
40
0.990268
41
-3.14158432898253
42
-1.89865463419673
0
ELLIPSE
5
E8
100
AcDbEntity
8
1
62
256
6
ByLayer
370
18
48
1
60
0
100
AcDbEllipse
10
13.122245
20
7.879417
30
0
11
0.300520382004278
21
-0.300520382004287
31
0
210
0
220
0
230
1
40
0.990268
41
-1.5920038697919
42
0.195740468196513
0
ELLIPSE
5
E9
100
AcDbEntity
8
1
62
256
6
ByLayer
370
18
48
1
60
0
100
AcDbEllipse
10
11.829664
20
6.977575
30
0
11
0.300520382004278
21
-0.300520382004287
31
0
210
0
220
0
230
1
40
0.990268
41
-0.544806318595331
42
1.24293801939306
0
ELLIPSE
5
EA
100
AcDbEntity
8
1
62
256
6
ByLayer
370
18
48
1
60
0
100
AcDbEllipse
10
13.632771
20
7.273242
30
0
11
-0.268700576850887
21
0.268700576850889
31
0
210
0
220
0
230
1
40
0.990268
41
-2.63920142098851
42
-0.272469071295379
0
ELLIPSE
5
EB
100
AcDbEntity
8
1
62
256
6
ByLayer
370
18
48
1
60
0
100
AcDbEllipse
10
12.745687
20
5.172096
30
0
11
-0.268700576850887
21
0.268700576850889
31
0
210
0
220
0
230
1
40
0.990268
41
0.502391232601205
42
-2.94585218539336
0
ELLIPSE
5
EC
100
AcDbEntity
8
1
62
256
6
ByLayer
370
18
48
1
60
0
100
AcDbEllipse
10
11.672208
20
6.820119
30
0
11
0.300520382004278
21
-0.300520382004287
31
0
210
0
220
0
230
1
40
0.990268
41
-0.544806318595314
42
8.87311464013856E-06
0
ELLIPSE
5
ED
100
AcDbEntity
8
1
62
256
6
ByLayer
370
18
48
1
60
0
100
AcDbEllipse
10
14.354109
20
6.246705
30
0
11
-0.268700576850887
21
0.268700576850889
31
0
210
0
220
0
230
1
40
0.990268
41
-2.84118640681546
42
-0.851457083000148
0
ELLIPSE
5
EE
100
AcDbEntity
8
1
62
256
6
ByLayer
370
18
48
1
60
0
100
AcDbEllipse
10
14.560538
20
7.203239
30
0
11
0.300520382004278
21
-0.300520382004287
31
0
210
0
220
0
230
1
40
0.990268
41
-2.63920142098851
42
-0.85145708300009
0
ELLIPSE
5
EF
100
AcDbEntity
8
1
62
256
6
ByLayer
370
18
48
1
60
0
100
AcDbEllipse
10
13.031773
20
6.065213
30
0
11
2.82842712474615
21
-2.82842712474623
31
0
210
0
220
0
230
1
40
0.990268
41
-3.14152150211198
42
-2.70128875665014E-05
0
ELLIPSE
5
F0
100
AcDbEntity
8
1
62
256
6
ByLayer
370
18
48
1
60
0
100
AcDbEllipse
10
12.546619
20
7.327933
30
0
11
-0.268700576850887
21
0.268700576850889
31
0
210
0
220
0
230
1
40
0.990268
41
-1.59200386979192
42
1.24293801939305
0
ELLIPSE
5
F1
100
AcDbEntity
8
1
62
256
6
ByLayer
370
18
48
1
60
0
100
AcDbEllipse
10
14.403081
20
7.045783
30
0
11
0.300520382004278
21
-0.300520382004287
31
0
210
0
220
0
230
1
40
0.990268
41
-2.6392014209885
42
-0.851457083000136
0
ELLIPSE
5
F2
100
AcDbEntity
8
1
62
256
6
ByLayer
370
18
48
1
60
0
100
AcDbEllipse
10
13.41367
20
4.723377
30
0
11
0.300520382004278
21
-0.300520382004287
31
0
210
0
220
0
230
1
40
0.990268
41
1.54958878379789
42
-2.94585218539335
0
ELLIPSE
5
F3
100
AcDbEntity
8
1
62
256
6
ByLayer
370
18
48
1
60
0
100
AcDbEllipse
10
13.267957
20
6.301397
30
0
11
-1.62634559672905
21
1.62634559672907
31
0
210
0
220
0
230
1
40
0.990268
41
0
42
6.28318530717959
0
ELLIPSE
5
F4
100
AcDbEntity
8
1
62
256
6
ByLayer
370
18
48
1
60
0
100
AcDbEllipse
10
13.110501
20
6.143941
30
0
11
0.813172798364518
21
-0.813172798364541
31
0
210
0
220
0
230
1
40
0.990268
41
-0.35198337149322
42
0
0
ELLIPSE
5
F5
100
AcDbEntity
8
1
62
256
6
ByLayer
370
18
48
1
60
0
100
AcDbEllipse
10
13.110501
20
6.143941
30
0
11
0.813172798364518
21
-0.813172798364541
31
0
210
0
220
0
230
1
40
0.990268
41
0
42
0.790287551908096
0
ELLIPSE
5
F6
100
AcDbEntity
8
1
62
256
6
ByLayer
370
18
48
1
60
0
100
AcDbEllipse
10
13.110501
20
6.143941
30
0
11
0.813172798364518
21
-0.813172798364541
31
0
210
0
220
0
230
1
40
0.990268
41
-1.48295713010815
42
-0.808889190464505
0
ELLIPSE
5
F7
100
AcDbEntity
8
1
62
256
6
ByLayer
370
18
48
1
60
0
100
AcDbEllipse
10
13.110501
20
6.143941
30
0
11
0.813172798364518
21
-0.813172798364541
31
0
210
0
220
0
230
1
40
0.990268
41
-2.76669009119861
42
-2.06434745593132
0
ELLIPSE
5
F8
100
AcDbEntity
8
1
62
256
6
ByLayer
370
18
48
1
60
0
100
AcDbEllipse
10
13.110501
20
6.143941
30
0
11
0.813172798364518
21
-0.813172798364541
31
0
210
0
220
0
230
1
40
0.990268
41
0.790287775403192
42
-3.07643147331956
0
ELLIPSE
5
F9
100
AcDbEntity
8
1
62
256
6
ByLayer
370
18
48
1
60
0
100
AcDbEllipse
10
14.70625
20
5.625219
30
0
11
0.300520382004278
21
-0.300520382004287
31
0
210
0
220
0
230
1
40
0.990268
41
2.59678633499442
42
-1.89865463419673
0
ELLIPSE
5
FA
100
AcDbEntity
8
1
62
256
6
ByLayer
370
18
48
1
60
0
100
AcDbEllipse
10
11.975377
20
5.399555
30
0
11
0.300520382004278
21
-0.300520382004287
31
0
210
0
220
0
230
1
40
0.990268
41
0.5023912326013
42
2.29013557058968
0
ELLIPSE
5
FB
100
AcDbEntity
8
1
62
256
6
ByLayer
370
18
48
1
60
0
100
AcDbEllipse
10
13.989295
20
5.274861
30
0
11
-0.268700576850887
21
0.268700576850889
31
0
210
0
220
0
230
1
40
0.990268
41
1.5495887837978
42
-1.89865463419678
0
ELLIPSE
5
FC
100
AcDbEntity
8
1
62
256
6
ByLayer
370
18
48
1
60
0
100
AcDbEllipse
10
13.061296
20
6.094736
30
0
11
0.813172798364518
21
-0.813172798364541
31
0
210
0
220
0
230
1
40
0.990268
41
0.0305048268670959
42
0.790287775403199
0
ELLIPSE
5
FD
100
AcDbEntity
8
1
62
256
6
ByLayer
370
18
48
1
60
0
100
AcDbEllipse
10
13.061296
20
6.094736
30
0
11
0.813172798364518
21
-0.813172798364541
31
0
210
0
220
0
230
1
40
0.990268
41
0.790287775403199
42
3.11113119067067
0
ELLIPSE
5
FE
100
AcDbEntity
8
1
62
256
6
ByLayer
370
18
48
1
60
0
100
AcDbEllipse
10
13.790228
20
7.430698
30
0
11
-0.268700576850887
21
0.268700576850889
31
0
210
0
220
0
230
1
40
0.990268
41
-2.63920142098851
42
0.195740468196377
0
ELLIPSE
5
FF
100
AcDbEntity
8
1
62
256
6
ByLayer
370
18
48
1
60
0
100
AcDbEllipse
10
13.256214
20
4.565921
30
0
11
0.300520382004278
21
-0.300520382004287
31
0
210
0
220
0
230
1
40
0.990268
41
3.14157462539906
42
-3.06163639463741
0
ELLIPSE
5
100
100
AcDbEntity
8
1
62
256
6
ByLayer
370
18
48
1
60
0
100
AcDbEllipse
10
12.024349
20
6.198633
30
0
11
-0.268700576850887
21
0.268700576850889
31
0
210
0
220
0
230
1
40
0.990268
41
-0.544806318595318
42
2.29013557058962
0
ELLIPSE
5
101
100
AcDbEntity
8
1
62
256
6
ByLayer
370
18
48
1
60
0
100
AcDbEllipse
10
12.389163
20
7.170477
30
0
11
-0.268700576850887
21
0.268700576850889
31
0
210
0
220
0
230
1
40
0.990268
41
-1.59200386979188
42
-0.300332161097222
0
ELLIPSE
5
102
100
AcDbEntity
8
1
62
256
6
ByLayer
370
18
48
1
60
0
100
AcDbEllipse
10
14.511566
20
6.404162
30
0
11
-0.268700576850887
21
0.268700576850889
31
0
210
0
220
0
230
1
40
0.990268
41
2.59678633499452
42
-0.851457083000204
0
ELLIPSE
5
103
100
AcDbEntity
8
1
62
256
6
ByLayer
370
18
48
1
60
0
100
AcDbEllipse
10
25.05012
20
1.498448
30
0
11
1.77017998985481
21
-1.77017998985481
31
0
210
0
220
0
230
-1
40
0.50533
41
1.22846584177719
42
1.5707963267949
0
ELLIPSE
5
104
100
AcDbEntity
8
1
62
256
6
ByLayer
370
18
48
1
60
0
100
AcDbEllipse
10
6.007754
20
-9.944845
30
0
11
0.80340609079846
21
-3.03757714511183E-05
31
0
210
0
220
0
230
-1
40
0.004364
41
-1.67844690210761
42
-0.107650575313504
0
ELLIPSE
5
105
100
AcDbEntity
8
1
62
256
6
ByLayer
370
18
48
1
60
0
100
AcDbEllipse
10
27.041643
20
6.803114
30
0
11
1.82433549546127
21
-1.82433549546132
31
0
210
0
220
0
230
1
40
0.990268
41
-0.475596622657101
42
-3.47638418523225E-16
0
ELLIPSE
5
106
100
AcDbEntity
8
1
62
256
6
ByLayer
370
18
48
1
60
0
100
AcDbEllipse
10
27.041643
20
6.803114
30
0
11
1.82433549546127
21
-1.82433549546132
31
0
210
0
220
0
230
1
40
0.990268
41
0
42
0.790287982017204
0
ELLIPSE
5
107
100
AcDbEntity
8
1
62
256
6
ByLayer
370
18
48
1
60
0
100
AcDbEllipse
10
27.041643
20
6.803114
30
0
11
1.82433549546127
21
-1.82433549546132
31
0
210
0
220
0
230
1
40
0.990268
41
2.19907699399541
42
-2.34641496610184
0
ELLIPSE
5
108
100
AcDbEntity
8
1
62
256
6
ByLayer
370
18
48
1
60
0
100
AcDbEllipse
10
27.041643
20
6.803114
30
0
11
1.82433549546127
21
-1.82433549546132
31
0
210
0
220
0
230
1
40
0.990268
41
0.790288063271501
42
2.19907699399541
0
ELLIPSE
5
109
100
AcDbEntity
8
1
62
256
6
ByLayer
370
18
48
1
60
0
100
AcDbEllipse
10
26.57321
20
6.334681
30
0
11
-1.82433549546128
21
1.8243354954613
31
0
210
0
220
0
230
1
40
0.990268
41
-3.01166631210181
42
-2.57577045458919
0
ELLIPSE
5
10A
100
AcDbEntity
8
1
62
256
6
ByLayer
370
18
48
1
60
0
100
AcDbEllipse
10
26.024367
20
-1.51062
30
0
11
0.841899011350251
21
-0.841899011350276
31
0
210
0
220
0
230
1
40
0.990268
41
-1.14606795671737
42
1.22412520286284E-14
0
ELLIPSE
5
10B
100
AcDbEntity
8
1
62
256
6
ByLayer
370
18
48
1
60
0
100
AcDbEllipse
10
27.003409
20
14.622251
30
0
11
-0.561442784262116
21
0.561442784262122
31
0
210
0
220
0
230
1
40
0.990268
41
-1.57079632679493
42
5.42210853273503E-14
0
ELLIPSE
5
10C
100
AcDbEntity
8
1
62
256
6
ByLayer
370
18
48
1
60
0
100
AcDbEllipse
10
34.86078
20
6.764881
30
0
11
-0.561442784262116
21
0.561442784262122
31
0
210
0
220
0
230
1
40
0.990268
41
3.14159265358976
42
-1.57079632679486
0
ELLIPSE
5
10D
100
AcDbEntity
8
1
62
256
6
ByLayer
370
18
48
1
60
0
100
AcDbEllipse
10
27.079877
20
-1.016023
30
0
11
-0.561442784262116
21
0.561442784262122
31
0
210
0
220
0
230
1
40
0.990268
41
1.57079632679484
42
3.14159265358974
0
ELLIPSE
5
10E
100
AcDbEntity
8
1
62
256
6
ByLayer
370
18
48
1
60
0
100
AcDbEllipse
10
26.611444
20
-1.484455
30
0
11
-0.561442784262116
21
0.561442784262122
31
0
210
0
220
0
230
1
40
0.990268
41
1.68946519553519
42
3.14159265358976
0
ELLIPSE
5
10F
100
AcDbEntity
8
1
62
256
6
ByLayer
370
18
48
1
60
0
100
AcDbEllipse
10
26.081669
20
6.09314
30
0
11
1.92686597873331
21
-1.92686597873337
31
0
210
0
220
0
230
1
40
0.990268
41
0.197999539290812
42
0.453843155508684
0
POINT
5
6C
100
AcDbEntity
8
2
62
256
6
ByLayer
370
18
48
1
60
0
100
AcDbPoint
10
27.325118
20
15.4125
30
0
39
0
210
0
220
0
230
1
50
360
0
POINT
5
6E
100
AcDbEntity
8
80
62
256
6
ByLayer
370
18
48
1
60
0
100
AcDbPoint
10
0
20
0
30
0
39
0
210
0
220
0
230
1
50
360
0
POINT
5
70
100
AcDbEntity
8
81
62
256
6
ByLayer
370
18
48
1
60
0
100
AcDbPoint
10
27.325118
20
15.4125
30
0
39
0
210
0
220
0
230
1
50
360
0
SPLINE
5
110
100
AcDbEntity
8
1
62
256
6
ByLayer
370
18
48
1
60
0
100
AcDbSpline
70
4
71
3
72
8
73
4
40
0
40
0
40
0
40
0
40
1
40
1
40
1
40
1
41
1
10
28.2415737919991
20
8.71586158434675
30
-1E-16
41
1
10
28.1693824653362
20
8.76525806396836
30
-2E-16
41
1
10
28.0964263453158
20
8.81078868258996
30
-3E-16
41
1
10
28.0240627207404
20
8.85178080544605
30
-4E-16
0
SPLINE
5
111
100
AcDbEntity
8
1
62
256
6
ByLayer
370
18
48
1
60
0
100
AcDbSpline
70
4
71
3
72
8
73
4
40
0
40
0
40
0
40
0
40
1
40
1
40
1
40
1
41
1
10
25.0585020222873
20
1.90381970548623
30
-3E-16
41
1
10
24.9543168406233
20
1.88103152788011
30
-4E-16
41
1
10
24.8496136297866
20
1.86052445283803
30
-5E-16
41
1
10
24.7444557406822
20
1.84253492229382
30
-7E-16
0
SPLINE
5
112
100
AcDbEntity
8
1
62
256
6
ByLayer
370
18
48
1
60
0
100
AcDbSpline
70
4
71
3
72
8
73
4
40
0
40
0
40
0
40
0
40
1
40
1
40
1
40
1
41
1
10
14.6187633032545
20
10.4085258691332
30
1.7E-15
41
1
10
14.3308157818866
20
10.4389754541882
30
1.3E-15
41
1
10
14.0442667247756
20
10.4429121501949
30
1E-15
41
1
10
13.7593149905834
20
10.4193653758417
30
7E-16
0
SPLINE
5
113
100
AcDbEntity
8
1
62
256
6
ByLayer
370
18
48
1
60
0
100
AcDbSpline
70
4
71
3
72
20
73
16
40
0
40
0
40
0
40
0
40
0.110576036200127
40
0.110576036200127
40
0.19717936912281
40
0.19717936912281
40
0.284291117387367
40
0.284291117387367
40
0.365904217918075
40
0.365904217918075
40
0.497270233392066
40
0.497270233392066
40
0.733496364826685
40
0.733496364826685
40
1
40
1
40
1
40
1
41
1
10
24.2723149513262
20
8.99832128073271
30
-1.2E-15
41
1
10
24.25021788718
20
8.96684300109874
30
-1.3E-15
41
1
10
24.2350464275753
20
8.92843526441828
30
-1.3E-15
41
1
10
24.2291586903595
20
8.84662868781683
30
-1.3E-15
41
1
10
24.234066026887
20
8.80520804773892
30
-1.3E-15
41
1
10
24.2615605416658
20
8.71585891603249
30
-1.2E-15
41
1
10
24.2847016641975
20
8.66674296703744
30
-1.2E-15
41
1
10
24.3428686583562
20
8.57197056310301
30
-1.1E-15
41
1
10
24.3775566208363
20
8.52524819793919
30
-1.1E-15
41
1
10
24.4762066984027
20
8.40867162023852
30
-1E-15
41
1
10
24.5465659963703
20
8.33988048255148
30
-9E-16
41
1
10
24.7479376808009
20
8.16395671536054
30
-7E-16
41
1
10
24.8866188146062
20
8.06507941742004
30
-5E-16
41
1
10
25.1782631942573
20
7.87576195798542
30
-2E-16
41
1
10
25.334067635609
20
7.78636152038797
30
0
41
1
10
25.4882343354978
20
7.70414259289566
30
2E-16
0
SPLINE
5
114
100
AcDbEntity
8
1
62
256
6
ByLayer
370
18
48
1
60
0
100
AcDbSpline
70
4
71
3
72
8
73
4
40
0
40
0
40
0
40
0
40
1
40
1
40
1
40
1
41
1.02417048357497
10
25.9758159627868
20
10.3818627252778
30
8E-16
41
1.02233815524058
10
25.3484654580764
20
10.7514911985509
30
0
41
1.02059845272928
10
24.7094835255859
20
11.0762567115022
30
-7E-16
41
1.01923193651505
10
24.1889908841676
20
11.3208356635409
30
-1.3E-15
0
SPLINE
5
115
100
AcDbEntity
8
1
62
256
6
ByLayer
370
18
48
1
60
0
100
AcDbSpline
70
4
71
3
72
20
73
16
40
0
40
0
40
0
40
0
40
0.332873226652388
40
0.332873226652388
40
0.501657261698201
40
0.501657261698201
40
0.631212321676501
40
0.631212321676501
40
0.722542323637655
40
0.722542323637655
40
0.814765347404175
40
0.814765347404175
40
0.896421359038785
40
0.896421359038785
40
1
40
1
40
1
40
1
41
1
10
25.6021838901443
20
6.47010656000884
30
3E-16
41
1
10
25.4300242259652
20
6.35516390915515
30
1E-16
41
1
10
25.2568469609373
20
6.22700506671779
30
-1E-16
41
1
10
25.0065795755547
20
5.99765415881453
30
-4E-16
41
1
10
24.9233019905301
20
5.91312548437375
30
-5E-16
41
1
10
24.7878496848677
20
5.74789681742479
30
-6E-16
41
1
10
24.7319600504285
20
5.66939470900292
30
-7E-16
41
1
10
24.653341125777
20
5.52858141339701
30
-8E-16
41
1
10
24.6252040745374
20
5.46705230503156
30
-8E-16
41
1
10
24.5851436855643
20
5.34589723476881
30
-9E-16
41
1
10
24.5730445239925
20
5.28468178234718
30
-9E-16
41
1
10
24.5679949719981
20
5.18016540136745
30
-9E-16
41
1
10
24.5728133110325
20
5.13436262648062
30
-9E-16
41
1
10
24.5961951414706
20
5.04293663634971
30
-8E-16
41
1
10
24.6181311999505
20
4.99927354662464
30
-8E-16
41
1
10
24.6449672629182
20
4.96261985426688
30
-8E-16
0
SPLINE
5
116
100
AcDbEntity
8
1
62
256
6
ByLayer
370
18
48
1
60
0
100
AcDbSpline
70
4
71
3
72
10
73
6
40
0
40
0
40
0
40
0
40
0.5
40
0.5
40
1
40
1
40
1
40
1
41
1
10
24.6449672629182
20
4.96261985426688
30
-8E-16
41
1
10
24.966002264558
20
4.52406976892306
30
-4E-16
41
1
10
25.3234198107254
20
4.1389572837812
30
0
41
1
10
26.2577508992866
20
3.69112150987112
30
1.1E-15
41
1
10
26.8504119924751
20
3.65521923172523
30
-1.8E-15
41
1
10
27.5034178372134
20
4.0089514362426
30
-1E-15
0
SPLINE
5
117
100
AcDbEntity
8
1
62
256
6
ByLayer
370
18
48
1
60
0
100
AcDbSpline
70
4
71
3
72
8
73
4
40
0
40
0
40
0
40
0
40
1
40
1
40
1
40
1
41
1
10
6.62779019368401
20
11.5388200955248
30
-6E-16
41
1
10
7.24716074707135
20
11.1754622116486
30
1E-16
41
1
10
8.19745275715866
20
10.2093549014899
30
1.3E-15
41
1
10
9.18827640021385
20
9.05444994641374
30
-1.1E-15
0
SPLINE
5
118
100
AcDbEntity
8
1
62
256
6
ByLayer
370
18
48
1
60
0
100
AcDbSpline
70
4
71
3
72
8
73
4
40
0
40
0
40
0
40
0
40
1
40
1
40
1
40
1
41
1
10
22.632470352095
20
1.08667197716531
30
4E-16
41
1
10
23.3541098412616
20
1.46395538039076
30
1.3E-15
41
1
10
24.0912183900034
20
1.73078454985173
30
-1.4E-15
41
1
10
24.7444557406823
20
1.84253492229388
30
-7E-16
0
SPLINE
5
119
100
AcDbEntity
8
1
62
256
6
ByLayer
370
18
48
1
60
0
100
AcDbSpline
70
4
71
3
72
8
73
4
40
0
40
0
40
0
40
0
40
1
40
1
40
1
40
1
41
1
10
8.17358888754683
20
8.51416131156418
30
1.2E-15
41
1
10
7.93198676790189
20
8.4350794705646
30
1E-15
41
1
10
7.69256811813921
20
8.38342142434993
30
7E-16
41
1
10
7.45684795885211
20
8.35161782176769
30
4E-16
0
SPLINE
5
11A
100
AcDbEntity
8
1
62
256
6
ByLayer
370
18
48
1
60
0
100
AcDbSpline
70
4
71
3
72
10
73
6
40
0
40
0
40
0
40
0
40
0.5
40
0.5
40
1
40
1
40
1
40
1
41
1
10
22.6324703520948
20
1.0866719771652
30
4E-16
41
1
10
21.465009297483
20
0.476306709702101
30
-1E-15
41
1
10
20.2552443583066
20
-0.0389194557633914
30
1.2E-15
41
1
10
17.7348880252862
20
-0.842618653896096
30
1.8E-15
41
1
10
16.4440222612975
20
-1.17189336042713
30
3E-16
41
1
10
15.1154799766198
20
-1.29426006105689
30
-1.3E-15
0
SPLINE
5
11B
100
AcDbEntity
8
1
62
256
6
ByLayer
370
18
48
1
60
0
100
AcDbSpline
70
4
71
3
72
12
73
8
40
0
40
0
40
0
40
0
40
0.108853988607128
40
0.502629237162302
40
0.699516861439889
40
0.896404485717476
40
1
40
1
40
1
40
1
41
1.02441262532206
10
18.3267192396112
20
5.49901763470211
30
-1.1E-15
41
1.02394775682001
10
18.6646062731402
20
5.55035071075539
30
-7E-16
41
1.02173322384668
10
20.2642739993068
20
5.79632986054418
30
1.2E-15
41
1.01876555595691
10
22.5184972954324
20
6.15391096603635
30
3E-16
41
1.01610930227499
10
24.0315431858658
20
6.4017649986636
30
-1.5E-15
41
1.01814069306376
10
24.7407629730486
20
6.42215073736416
30
-7E-16
41
1.02005196006971
10
25.3716278176599
20
6.45593105166823
30
1E-16
41
1.02076673234773
10
25.6021838901336
20
6.47010656000818
30
3E-16
0
SPLINE
5
11C
100
AcDbEntity
8
1
62
256
6
ByLayer
370
18
48
1
60
0
100
AcDbSpline
70
4
71
3
72
8
73
4
40
0
40
0
40
0
40
0
40
1
40
1
40
1
40
1
41
1
10
23.865159137373
20
11.365026655064
30
-1.7E-15
41
1
10
23.9731112197939
20
11.3527559950497
30
-1.6E-15
41
1
10
24.0810746571573
20
11.337955893822
30
-1.4E-15
41
1
10
24.1889428540901
20
11.3208582327549
30
-1.3E-15
0
SPLINE
5
11D
100
AcDbEntity
8
1
62
256
6
ByLayer
370
18
48
1
60
0
100
AcDbSpline
70
4
71
3
72
10
73
6
40
0
40
0
40
0
40
0
40
0.5
40
0.5
40
1
40
1
40
1
40
1
41
1
10
13.7971305042126
20
12.9830292002151
30
7E-16
41
1
10
15.1319457431783
20
13.0807095592934
30
-1.3E-15
41
1
10
16.4474674353758
20
12.968393157462
30
3E-16
41
1
10
19.0647888886487
20
12.5944067319001
30
-2E-16
41
1
10
20.3690157994335
20
12.2826528354003
30
1.3E-15
41
1
10
21.6366505952622
20
11.8710709684486
30
-8E-16
0
SPLINE
5
11E
100
AcDbEntity
8
1
62
256
6
ByLayer
370
18
48
1
60
0
100
AcDbSpline
70
4
71
3
72
8
73
4
40
0
40
0
40
0
40
0
40
1
40
1
40
1
40
1
41
1
10
4.89457749530612
20
9.51188028272691
30
9E-16
41
1
10
4.89242347597383
20
9.53520760050199
30
9E-16
41
1
10
4.89076004013299
20
9.55847588716861
30
9E-16
41
1
10
4.88956459520904
20
9.58168806877623
30
9E-16
0
SPLINE
5
11F
100
AcDbEntity
8
1
62
256
6
ByLayer
370
18
48
1
60
0
100
AcDbSpline
70
4
71
3
72
10
73
6
40
0
40
0
40
0
40
0
40
0.50786073940936
40
0.50786073940936
40
1
40
1
40
1
40
1
41
1
10
4.88956459520904
20
9.58168806877623
30
9E-16
41
1
10
4.85215068193628
20
10.3081611434607
30
9E-16
41
1
10
5.00885183813148
20
10.9478000939223
30
1.1E-15
41
1
10
5.42931757523331
20
11.7662106576455
30
1.6E-15
41
1
10
5.65302911559081
20
12.0034598708562
30
-1.5E-15
41
1
10
6.01879221161505
20
12.1819860950263
30
-1.3E-15
0
SPLINE
5
120
100
AcDbEntity
8
1
62
256
6
ByLayer
370
18
48
1
60
0
100
AcDbSpline
70
4
71
3
72
11
73
7
40
0
40
0
40
0
40
0
40
0.564783939443778
40
0.564783939443778
40
0.564783939443778
40
1
40
1
40
1
40
1
41
1
10
23.865159137373
20
11.365026655064
30
-1.7E-15
41
1
10
23.4923853329057
20
11.4073989791017
30
1.4E-15
41
1
10
23.0720102499817
20
11.4704150347614
30
9E-16
41
1
10
22.6459405781386
20
11.5767481399735
30
4E-16
41
1
10
22.3149075847415
20
11.6593631873278
30
0
41
1
10
21.9743255606027
20
11.76143300875
30
-4E-16
41
1
10
21.6366505952625
20
11.8710709684485
30
-8E-16
0
SPLINE
5
121
100
AcDbEntity
8
1
62
256
6
ByLayer
370
18
48
1
60
0
100
AcDbSpline
70
4
71
3
72
8
73
4
40
0
40
0
40
0
40
0
40
1
40
1
40
1
40
1
41
1
10
8.66281792950122
20
3.21597240703602
30
-1.7E-15
41
1
10
8.41206925236708
20
3.23594476202285
30
1.5E-15
41
1
10
8.1687794124511
20
3.22621042629692
30
1.2E-15
41
1
10
7.93305925316395
20
3.1944068237147
30
1E-15
0
SPLINE
5
122
100
AcDbEntity
8
1
62
256
6
ByLayer
370
18
48
1
60
0
100
AcDbSpline
70
4
71
3
72
10
73
6
40
0
40
0
40
0
40
0
40
0.655488757716277
40
0.655488757716277
40
1
40
1
40
1
40
1
41
1
10
7.81674598514752
20
-2.09728217148418
30
8E-16
41
1
10
7.46392707527536
20
-2.16196744178509
30
4E-16
41
1
10
7.06176452934085
20
-2.19243181278813
30
-1E-16
41
1
10
6.41840155948785
20
-2.11721336303685
30
-8E-16
41
1
10
6.1888541377794
20
-2.06858594943068
30
-1.1E-15
41
1
10
5.96250138431594
20
-1.99181259085529
30
-1.4E-15
0
SPLINE
5
123
100
AcDbEntity
8
1
62
256
6
ByLayer
370
18
48
1
60
0
100
AcDbSpline
70
4
71
3
72
10
73
6
40
0
40
0
40
0
40
0
40
0.5
40
0.5
40
1
40
1
40
1
40
1
41
1
10
7.33787453768468
20
-1.70193937144012
30
3E-16
41
1
10
6.91329490877263
20
-1.49408570896264
30
-2E-16
41
1
10
6.6313611776838
20
-1.18670359226408
30
-6E-16
41
1
10
6.04735121207585
20
-0.273553535526446
30
-1.3E-15
41
1
10
5.76681882737222
20
0.401839145030834
30
-1.6E-15
41
1
10
5.67165532277079
20
1.11190385778917
30
-1.7E-15
0
SPLINE
5
124
100
AcDbEntity
8
1
62
256
6
ByLayer
370
18
48
1
60
0
100
AcDbSpline
70
4
71
3
72
8
73
4
40
0
40
0
40
0
40
0
40
1
40
1
40
1
40
1
41
1
10
9.75883368176028
20
2.87550307416527
30
-5E-16
41
1
10
9.00172771496233
20
1.49056597073465
30
-1.3E-15
41
1
10
8.26116675985338
20
0.202885544419871
30
1.3E-15
41
1
10
7.74094240216152
20
-0.5162505855738
30
7E-16
0
SPLINE
5
125
100
AcDbEntity
8
1
62
256
6
ByLayer
370
18
48
1
60
0
100
AcDbSpline
70
4
71
3
72
8
73
4
40
0
40
0
40
0
40
0
40
1
40
1
40
1
40
1
41
1
10
26.6462836863738
20
3.12173055410904
30
1.6E-15
41
1
10
26.9315938574198
20
3.4169955445721
30
-1.7E-15
41
1
10
27.2178046766404
20
3.71325253334609
30
-1.3E-15
41
1
10
27.5034178372134
20
4.00895143624257
30
-1E-15
0
SPLINE
5
126
100
AcDbEntity
8
1
62
256
6
ByLayer
370
18
48
1
60
0
100
AcDbSpline
70
4
71
3
72
10
73
6
40
0
40
0
40
0
40
0
40
0.26471563914558
40
0.26471563914558
40
1
40
1
40
1
40
1
41
1
10
26.6466720235625
20
7.12093156006819
30
1.6E-15
41
1
10
26.5544819092258
20
7.06820804141395
30
1.4E-15
41
1
10
26.4622566062306
20
7.01400348973019
30
1.3E-15
41
1
10
26.1139365484668
20
6.80450139338848
30
9E-16
41
1
10
25.8577823851682
20
6.6408418188368
30
6E-16
41
1
10
25.6021838901443
20
6.47010656000884
30
3E-16
0
SPLINE
5
127
100
AcDbEntity
8
1
62
256
6
ByLayer
370
18
48
1
60
0
100
AcDbSpline
70
4
71
3
72
11
73
7
40
0
40
0
40
0
40
0
40
0.423407924946043
40
0.740963868655574
40
0.89974184051034
40
1
40
1
40
1
40
1
41
1.02805999725224
10
14.1916644368923
20
12.1638552108432
30
1.2E-15
41
1.02767136955277
10
15.0549637296422
20
12.1354275320092
30
-1.4E-15
41
1.02349884684923
10
18.1666592219051
20
11.2215101845038
30
-1.3E-15
41
1.01876555595691
10
22.0828660494745
20
9.63421111636584
30
-2E-16
41
1.01635405201144
10
23.5677031390128
20
9.02200036077599
30
1.5E-15
41
1.01722454828215
10
24.0658758270797
20
8.99976318614258
30
-1.5E-15
41
1.0177432798788
10
24.2723149512404
20
8.9983212807333
30
-1.2E-15
0
SPLINE
5
128
100
AcDbEntity
8
1
62
256
6
ByLayer
370
18
48
1
60
0
100
AcDbSpline
70
4
71
3
72
10
73
6
40
0
40
0
40
0
40
0
40
0.5
40
0.5
40
1
40
1
40
1
40
1
41
1
10
26.9795079078188
20
9.68272289025776
30
-1.6E-15
41
1
10
26.2764709634441
20
9.99754754196604
30
1.1E-15
41
1
10
25.6799916041691
20
9.99582553576451
30
4E-16
41
1
10
24.8220882970483
20
9.66405895359941
30
-6E-16
41
1
10
24.5205290524038
20
9.35198741472848
30
-9E-16
41
1
10
24.2723149513249
20
8.99832128073271
30
-1.2E-15
0
SPLINE
5
129
100
AcDbEntity
8
1
62
256
6
ByLayer
370
18
48
1
60
0
100
AcDbSpline
70
4
71
2
72
6
73
3
40
0
40
0
40
0
40
1
40
1
40
1
41
1.02805999725224
10
14.1916644368923
20
12.1638552108432
30
1.2E-15
41
0.93055444607248
10
14.4005924296197
20
11.730056332933
30
1.4E-15
41
0.937301687719828
10
14.6187633184087
20
10.4085258675338
30
1.7E-15
0
SPLINE
5
12A
100
AcDbEntity
8
1
62
256
6
ByLayer
370
18
48
1
60
0
100
AcDbSpline
70
4
71
3
72
8
73
4
40
0
40
0
40
0
40
0
40
1
40
1
40
1
40
1
41
1
10
12.483985366133
20
2.019466458414
30
-8E-16
41
1
10
11.5621904928844
20
1.94329462551789
30
1.6E-15
41
1
10
10.661609922
20
2.21726108077155
30
6E-16
41
1
10
9.94293087606883
20
2.75090210283616
30
-2E-16
0
SPLINE
5
12B
100
AcDbEntity
8
1
62
256
6
ByLayer
370
18
48
1
60
0
100
AcDbSpline
70
4
71
3
72
8
73
4
40
0
40
0
40
0
40
0
40
1
40
1
40
1
40
1
41
1
10
5.81365383200119
20
1.21095136322043
30
-1.5E-15
41
1
10
6.50872892341783
20
1.67152051692159
30
-7E-16
41
1
10
7.54898630695249
20
2.41808521671788
30
5E-16
41
1
10
8.66281792950122
20
3.21597240703599
30
-1.7E-15
0
SPLINE
5
12C
100
AcDbEntity
8
1
62
256
6
ByLayer
370
18
48
1
60
0
100
AcDbSpline
70
4
71
3
72
12
73
8
40
0
40
0
40
0
40
0
40
0.471343086678518
40
0.471343086678518
40
0.892619726108216
40
0.892619726108216
40
1
40
1
40
1
40
1
41
1
10
8.66281792950122
20
3.21597240703602
30
-1.7E-15
41
1
10
8.83739878414815
20
3.20206688680449
30
-1.5E-15
41
1
10
9.0184394484582
20
3.17165312133486
30
-1.3E-15
41
1
10
9.35167762701815
20
3.07630748486642
30
-9E-16
41
1
10
9.50829738322881
20
3.01402314717245
30
-8E-16
41
1
10
9.68769055460712
20
2.91782217264844
30
-5E-16
41
1
10
9.72375984131168
20
2.89708463104464
30
-5E-16
41
1
10
9.75883368176028
20
2.87550307416527
30
-5E-16
0
SPLINE
5
12D
100
AcDbEntity
8
1
62
256
6
ByLayer
370
18
48
1
60
0
100
AcDbSpline
70
4
71
3
72
8
73
4
40
0
40
0
40
0
40
0
40
1
40
1
40
1
40
1
41
1
10
9.34760271685377
20
9.19810939679815
30
-9E-16
41
1
10
9.29723578304419
20
9.14866297510417
30
-1E-15
41
1
10
9.24414444815437
20
9.10072840933051
30
-1.1E-15
41
1
10
9.18827640022118
20
9.05444994641849
30
-1.1E-15
0
SPLINE
5
12E
100
AcDbEntity
8
1
62
256
6
ByLayer
370
18
48
1
60
0
100
AcDbSpline
70
4
71
3
72
8
73
4
40
0
40
0
40
0
40
0
40
1
40
1
40
1
40
1
41
1
10
9.75883368176028
20
2.87550307416527
30
-5E-16
41
1
10
9.82218656521974
20
2.83652091993375
30
-4E-16
41
1
10
9.88369002301761
20
2.79489023571583
30
-3E-16
41
1
10
9.94293087606883
20
2.75090210283616
30
-2E-16
0
SPLINE
5
12F
100
AcDbEntity
8
1
62
256
6
ByLayer
370
18
48
1
60
0
100
AcDbSpline
70
4
71
3
72
8
73
4
40
0
40
0
40
0
40
0
40
1
40
1
40
1
40
1
41
1
10
5.66384189380994
20
1.1810009781797
30
-1.7E-15
41
1
10
5.66599591314224
20
1.15767366040458
30
-1.7E-15
41
1
10
5.66860738270418
20
1.13464613380077
30
-1.7E-15
41
1
10
5.67165532277079
20
1.11190385778917
30
-1.7E-15
0
SPLINE
5
130
100
AcDbEntity
8
1
62
256
6
ByLayer
370
18
48
1
60
0
100
AcDbSpline
70
4
71
3
72
12
73
8
40
0
40
0
40
0
40
0
40
0.286978363858295
40
0.286978363858295
40
0.569998995185616
40
0.569998995185616
40
1
40
1
40
1
40
1
41
1
10
18.1057565848876
20
7.89197018896942
30
-1.3E-15
41
1
10
18.1919445130952
20
7.67428073348182
30
-1.2E-15
41
1
10
18.260458808634
20
7.44879504149671
30
-1.2E-15
41
1
10
18.3587549069961
20
6.99499462779809
30
-1E-15
41
1
10
18.3893960247761
20
6.7652041022148
30
-1E-15
41
1
10
18.4191989289375
20
6.1885616462595
30
-1E-15
41
1
10
18.3940472640749
20
5.83755809275559
30
-1E-15
41
1
10
18.3267192396111
20
5.49901763470211
30
-1.1E-15
0
SPLINE
5
131
100
AcDbEntity
8
1
62
256
6
ByLayer
370
18
48
1
60
0
100
AcDbSpline
70
4
71
2
72
6
73
3
40
0
40
0
40
0
40
1
40
1
40
1
41
0.937301687603847
10
15.3629401816258
20
2.34933626455012
30
-1E-15
41
0.930554446910518
10
15.4050811004633
20
0.851775849372721
30
-1E-15
41
1.02805999725225
10
15.3048166453699
20
0.108784529744626
30
-1.1E-15
0
SPLINE
5
132
100
AcDbEntity
8
1
62
256
6
ByLayer
370
18
48
1
60
0
100
AcDbSpline
70
4
71
3
72
8
73
4
40
0
40
0
40
0
40
0
40
1
40
1
40
1
40
1
41
1
10
9.34760271685377
20
9.19810939679806
30
-9E-16
41
1
10
9.96366091702544
20
9.80290844350742
30
-2E-16
41
1
10
10.799262039968
20
10.1747636046002
30
8E-16
41
1
10
11.7238788771351
20
10.2511686283832
30
-1.7E-15
0
SPLINE
5
133
100
AcDbEntity
8
1
62
256
6
ByLayer
370
18
48
1
60
0
100
AcDbSpline
70
4
71
3
72
15
73
11
40
0
40
0
40
0
40
0
40
0.322163720426459
40
0.322163720426459
40
0.644833452600231
40
0.644833452600231
40
0.912233455904557
40
0.912233455904557
40
0.912233455904557
40
1
40
1
40
1
40
1
41
1
10
14.6187633184091
20
10.4085258675306
30
1.7E-15
41
1
10
15.1003304944903
20
10.3566500664607
30
-1.3E-15
41
1
10
15.5792780361195
20
10.2207484151497
30
-7E-16
41
1
10
16.4545798397086
20
9.81703606791072
30
3E-16
41
1
10
16.8636731199521
20
9.54314107379136
30
8E-16
41
1
10
17.4970427420751
20
8.93512296212737
30
1.5E-15
41
1
10
17.7478768228215
20
8.61110650737899
30
-1.8E-15
41
1
10
17.9370591438305
20
8.25628724554321
30
-1.5E-15
41
1
10
17.9999289365312
20
8.13837235096503
30
-1.5E-15
41
1
10
18.0564439672727
20
8.01650400336931
30
-1.4E-15
41
1
10
18.1057565848884
20
7.89197018896917
30
-1.3E-15
0
SPLINE
5
134
100
AcDbEntity
8
1
62
256
6
ByLayer
370
18
48
1
60
0
100
AcDbSpline
70
4
71
1
72
4
73
2
40
0
40
0
40
1
40
1
41
1
10
14.1916644368923
20
12.1638552108432
30
1.2E-15
41
1
10
13.7971305042126
20
12.9830292002151
30
7E-16
0
SPLINE
5
135
100
AcDbEntity
8
1
62
256
6
ByLayer
370
18
48
1
60
0
100
AcDbSpline
70
4
71
3
72
8
73
4
40
0
40
0
40
0
40
0
40
1
40
1
40
1
40
1
41
1.01923193622652
10
25.0585450895372
20
1.90384974163635
30
-3E-16
41
1.02059843499303
10
25.5263225571717
20
2.2300899895502
30
2E-16
41
1.02233811057541
10
26.0960956570943
20
2.65473412495974
30
9E-16
41
1.02417041321379
10
26.6461930891977
20
3.12165365521482
30
1.6E-15
0
SPLINE
5
136
100
AcDbEntity
8
1
62
256
6
ByLayer
370
18
48
1
60
0
100
AcDbSpline
70
4
71
3
72
12
73
8
40
0
40
0
40
0
40
0
40
0.108854002841675
40
0.502629245107335
40
0.699516866240164
40
0.896404487372994
40
1
40
1
40
1
40
1
41
1.0244126255267
10
18.1057564339784
20
7.89197019046856
30
-1.3E-15
41
1.02394775696077
10
18.4486981876271
20
7.88856283589033
30
-9E-16
41
1.02173322391444
10
20.0734411982093
20
7.86298548956047
30
1E-15
41
1.01876555595691
10
22.3700495023066
20
7.76155152491129
30
1E-16
41
1.01610930227499
10
23.9161282984896
20
7.65167010093014
30
-1.6E-15
41
1.01814069306376
10
24.623632551101
20
7.69063451228836
30
-8E-16
41
1.0200519600697
10
25.2565161507541
20
7.70255237635834
30
-1E-16
41
1.02076673234771
10
25.4882343354793
20
7.70414259289553
30
2E-16
0
SPLINE
5
137
100
AcDbEntity
8
1
62
256
6
ByLayer
370
18
48
1
60
0
100
AcDbSpline
70
4
71
3
72
8
73
4
40
0
40
0
40
0
40
0
40
1
40
1
40
1
40
1
41
1
10
5.15985899563333
20
11.7585189993371
30
1.3E-15
41
1
10
5.01064602228058
20
11.6854534975609
30
1.1E-15
41
1
10
4.86141959146153
20
11.6015346972015
30
9E-16
41
1
10
4.71614886742361
20
11.5057734268298
30
7E-16
0
SPLINE
5
138
100
AcDbEntity
8
1
62
256
6
ByLayer
370
18
48
1
60
0
100
AcDbSpline
70
4
71
3
72
12
73
8
40
0
40
0
40
0
40
0
40
0.466938972358618
40
0.466938972358618
40
0.928803236876549
40
0.928803236876549
40
1
40
1
40
1
40
1
41
1
10
9.18827640022118
20
9.05444994641849
30
-1.1E-15
41
1
10
9.05672020353421
20
8.94547498139897
30
-1.3E-15
41
1
10
8.90250813253147
20
8.84276514932884
30
-1.5E-15
41
1
10
8.58419636401845
20
8.67076914163835
30
1.7E-15
41
1
10
8.41612015964347
20
8.59839297885998
30
1.5E-15
41
1
10
8.22503816096457
20
8.53130004094854
30
1.3E-15
41
1
10
8.19929561154675
20
8.5225757040495
30
1.3E-15
41
1
10
8.17358888754683
20
8.51416131156418
30
1.2E-15
0
SPLINE
5
139
100
AcDbEntity
8
1
62
256
6
ByLayer
370
18
48
1
60
0
100
AcDbSpline
70
4
71
2
72
6
73
3
40
0
40
0
40
0
40
1
40
1
40
1
41
1.02805999725224
10
15.3048166453699
20
0.108784529744626
30
-1.1E-15
41
1.02805999725224
10
15.2101483109949
20
-0.592737765656133
30
-1.2E-15
41
1.02805999725224
10
15.1154799766198
20
-1.29426006105689
30
-1.3E-15
0
SPLINE
5
13A
100
AcDbEntity
8
1
62
256
6
ByLayer
370
18
48
1
60
0
100
AcDbSpline
70
4
71
3
72
8
73
4
40
0
40
0
40
0
40
0
40
1
40
1
40
1
40
1
41
1
10
25.9758952341009
20
10.3818160191586
30
8E-16
41
1
10
26.3096708642123
20
10.1522160994259
30
1.2E-15
41
1
10
26.6447918844992
20
9.91879176907418
30
1.6E-15
41
1
10
26.9795079078415
20
9.68272289024759
30
-1.6E-15
0
SPLINE
5
13B
100
AcDbEntity
8
1
62
256
6
ByLayer
370
18
48
1
60
0
100
AcDbSpline
70
4
71
3
72
10
73
6
40
0
40
0
40
0
40
0
40
0.967465556419478
40
0.967465556419478
40
1
40
1
40
1
40
1
41
1
10
25.4882343354978
20
7.70414259289566
30
2E-16
41
1
10
25.8637291421946
20
7.50380405548427
30
6E-16
41
1
10
26.2383061647848
20
7.31333124205614
30
1.1E-15
41
1
10
26.6217146117837
20
7.13264362404323
30
1.5E-15
41
1
10
26.6341954415486
20
7.12677823076095
30
1.5E-15
41
1
10
26.6466720235777
20
7.12093156006102
30
1.6E-15
0
SPLINE
5
13C
100
AcDbEntity
8
1
62
256
6
ByLayer
370
18
48
1
60
0
100
AcDbSpline
70
4
71
3
72
11
73
7
40
0
40
0
40
0
40
0
40
0.423407924939465
40
0.740963868644064
40
0.899741840496364
40
1
40
1
40
1
40
1
41
1.02805999725225
10
15.3048166453699
20
0.108784529744626
30
-1.1E-15
41
1.02767136955277
10
16.1483276648103
20
0.2946573140009
30
-1E-16
41
1.02349884684923
10
19.0335333272455
20
1.83355000165229
30
-3E-16
41
1.01876555595691
10
22.5973282817022
20
4.06275509734466
30
4E-16
41
1.01635405201137
10
23.9506169671554
20
4.8751701003611
30
-1.6E-15
41
1.01722454828226
10
24.4403940349814
20
4.94385471959402
30
-1E-15
41
1.01774327987904
10
24.6449672629187
20
4.96261985426695
30
-8E-16
0
SPLINE
5
13D
100
AcDbEntity
8
1
62
256
6
ByLayer
370
18
48
1
60
0
100
AcDbSpline
70
4
71
3
72
8
73
4
40
0
40
0
40
0
40
0
40
1
40
1
40
1
40
1
41
1
10
15.3629401727724
20
2.34933628765629
30
-1E-15
41
1
10
15.0909973332979
20
2.26727862358865
30
-1.3E-15
41
1
10
14.8060701835049
20
2.21135020805562
30
-1.7E-15
41
1
10
14.5194214795813
20
2.18766320587238
30
1.6E-15
0
SPLINE
5
13E
100
AcDbEntity
8
1
62
256
6
ByLayer
370
18
48
1
60
0
100
AcDbSpline
70
4
71
3
72
8
73
4
40
0
40
0
40
0
40
0
40
1
40
1
40
1
40
1
41
1
10
28.3830074985658
20
4.96452744122601
30
0
41
1
10
28.4473228885069
20
5.01069504067581
30
1E-16
41
1
10
28.5113077076662
20
5.06232064665221
30
2E-16
41
1
10
28.5737359971344
20
5.11865463456903
30
3E-16
0
SPLINE
5
13F
100
AcDbEntity
8
1
62
256
6
ByLayer
370
18
48
1
60
0
100
AcDbSpline
70
4
71
3
72
15
73
11
40
0
40
0
40
0
40
0
40
0.227604479949748
40
0.227604479949748
40
0.479423709218441
40
0.479423709218441
40
0.785574270382839
40
0.785574270382839
40
0.785574270382839
40
1
40
1
40
1
40
1
41
1
10
18.3267192396111
20
5.49901763470211
30
-1.1E-15
41
1
10
18.2605475746
20
5.166359749175
30
-1.2E-15
41
1
10
18.1437402725154
20
4.83611833673342
30
-1.3E-15
41
1
10
17.8162079115149
20
4.1914585912113
30
-1.7E-15
41
1
10
17.5937736057049
20
3.87453265099549
30
1.6E-15
41
1
10
17.0266818414672
20
3.25478359638046
30
9E-16
41
1
10
16.6581030975282
20
2.96052809545415
30
5E-16
41
1
10
16.2577646667398
20
2.73286643988919
30
0
41
1
10
15.9756433165925
20
2.57243164596176
30
-3E-16
41
1
10
15.6736850373889
20
2.44289882214366
30
-6E-16
41
1
10
15.3629401809066
20
2.34933629011073
30
-1E-15
0
SPLINE
5
140
100
AcDbEntity
8
1
62
256
6
ByLayer
370
18
48
1
60
0
100
AcDbSpline
70
4
71
3
72
8
73
4
40
0
40
0
40
0
40
0
40
1
40
1
40
1
40
1
41
1
10
8.17358888754683
20
8.51416131156418
30
1.2E-15
41
1
10
6.93731966080497
20
9.03051103163236
30
-2E-16
41
1
10
5.79899339967722
20
9.43265646005673
30
-1.5E-15
41
1
10
5.04319392044749
20
9.55477767915255
30
1.1E-15
0
LINE
5
72
100
AcDbEntity
8
1
62
256
6
ByLayer
370
18
48
1
60
0
100
AcDbLine
10
15.8602
20
3.236785
30
0
11
16.024147
21
3.400733
31
0
39
0
210
0
220
0
230
1
0
LINE
5
74
100
AcDbEntity
8
1
62
256
6
ByLayer
370
18
48
1
60
0
100
AcDbLine
10
10.367293
20
9.057587
30
0
11
10.203346
21
8.89364
31
0
39
0
210
0
220
0
230
1
0
LINE
5
75
100
AcDbEntity
8
1
62
256
6
ByLayer
370
18
48
1
60
0
100
AcDbLine
10
6.020631
20
12.182791
30
0
11
5.153296
21
11.755333
31
0
39
0
210
0
220
0
230
1
0
LINE
5
76
100
AcDbEntity
8
1
62
256
6
ByLayer
370
18
48
1
60
0
100
AcDbLine
10
13.11315
20
5.023898
30
0
11
12.955693
21
4.866441
31
0
39
0
210
0
220
0
230
1
0
LINE
5
77
100
AcDbEntity
8
1
62
256
6
ByLayer
370
18
48
1
60
0
100
AcDbLine
10
11.972728
20
6.519598
30
0
11
12.130185
21
6.677055
31
0
39
0
210
0
220
0
230
1
0
LINE
5
78
100
AcDbEntity
8
1
62
256
6
ByLayer
370
18
48
1
60
0
100
AcDbLine
10
14.40573
20
5.925739
30
0
11
14.248273
21
5.768283
31
0
39
0
210
0
220
0
230
1
0
LINE
5
79
100
AcDbEntity
8
1
62
256
6
ByLayer
370
18
48
1
60
0
100
AcDbLine
10
13.265309
20
7.42144
30
0
11
13.422765
21
7.578897
31
0
39
0
210
0
220
0
230
1
0
LINE
5
7A
100
AcDbEntity
8
1
62
256
6
ByLayer
370
18
48
1
60
0
100
AcDbLine
10
8.148455
20
8.461101
30
0
11
8.634856
21
8.700818
31
0
39
0
210
0
220
0
230
1
0
LINE
5
7B
100
AcDbEntity
8
80
62
256
6
ByLayer
370
18
48
1
60
0
100
AcDbLine
10
0
20
0
30
0
11
-5
21
0
31
0
39
0
210
0
220
0
230
1
0
LINE
5
7C
100
AcDbEntity
8
81
62
256
6
ByLayer
370
18
48
1
60
0
100
AcDbLine
10
27.325118
20
15.4125
30
0
11
37.325118
21
15.4125
31
0
39
0
210
0
220
0
230
1
0
LINE
5
7D
100
AcDbEntity
8
1
62
256
6
ByLayer
370
18
48
1
60
0
100
AcDbLine
10
8.297634
20
-1.860281
30
0
11
9.724399
21
-1.742381
31
0
39
0
210
0
220
0
230
1
0
LINE
5
7E
100
AcDbEntity
8
1
62
256
6
ByLayer
370
18
48
1
60
0
100
AcDbLine
10
28.240655
20
4.773317
30
0
11
28.383007
21
4.964527
31
0
39
0
210
0
220
0
230
1
0
LINE
5
7F
100
AcDbEntity
8
1
62
256
6
ByLayer
370
18
48
1
60
0
100
AcDbLine
10
4.894577
20
9.51188
30
0
11
3.44548
21
8.797707
31
0
39
0
210
0
220
0
230
1
0
LINE
5
80
100
AcDbEntity
8
1
62
256
6
ByLayer
370
18
48
1
60
0
100
AcDbLine
10
6.62779
20
11.53882
30
0
11
14.191664
21
12.163855
31
0
39
0
210
0
220
0
230
1
0
LINE
5
81
100
AcDbEntity
8
1
62
256
6
ByLayer
370
18
48
1
60
0
100
AcDbLine
10
5.57371
20
8.044921
30
0
11
6.049921
21
2.88771
31
0
39
0
210
0
220
0
230
1
0
LINE
5
82
100
AcDbEntity
8
1
62
256
6
ByLayer
370
18
48
1
60
0
100
AcDbLine
10
4.894577
20
9.51188
30
0
11
5.663842
21
1.181001
31
0
39
0
210
0
220
0
230
1
0
LINE
5
83
100
AcDbEntity
8
1
62
256
6
ByLayer
370
18
48
1
60
0
100
AcDbLine
10
7.082673
20
8.167209
30
0
11
5.57371
21
8.044921
31
0
39
0
210
0
220
0
230
1
0
LINE
5
84
100
AcDbEntity
8
1
62
256
6
ByLayer
370
18
48
1
60
0
100
AcDbLine
10
13.759315
20
10.419365
30
0
11
13.365133
21
10.225097
31
0
39
0
210
0
220
0
230
1
0
LINE
5
85
100
AcDbEntity
8
1
62
256
6
ByLayer
370
18
48
1
60
0
100
AcDbLine
10
11.723879
20
10.251169
30
0
11
13.759315
21
10.419365
31
0
39
0
210
0
220
0
230
1
0
LINE
5
86
100
AcDbEntity
8
1
62
256
6
ByLayer
370
18
48
1
60
0
100
AcDbLine
10
9.724399
20
-1.742381
30
0
11
9.729118
21
-1.739358
31
0
39
0
210
0
220
0
230
1
0
LINE
5
87
100
AcDbEntity
8
1
62
256
6
ByLayer
370
18
48
1
60
0
100
AcDbLine
10
15.11548
20
-1.29426
30
0
11
9.729118
21
-1.739358
31
0
39
0
210
0
220
0
230
1
0
LINE
5
88
100
AcDbEntity
8
1
62
256
6
ByLayer
370
18
48
1
60
0
100
AcDbLine
10
11.723879
20
10.251169
30
0
11
11.337571
21
10.060781
31
0
39
0
210
0
220
0
230
1
0
LINE
5
89
100
AcDbEntity
8
1
62
256
6
ByLayer
370
18
48
1
60
0
100
AcDbLine
10
5.663842
20
1.181001
30
0
11
4.214745
21
0.466828
31
0
39
0
210
0
220
0
230
1
0
LINE
5
8A
100
AcDbEntity
8
1
62
256
6
ByLayer
370
18
48
1
60
0
100
AcDbLine
10
28.024063
20
8.851781
30
0
11
27.848821
21
9.016747
31
0
39
0
210
0
220
0
230
1
0
LINE
5
8B
100
AcDbEntity
8
1
62
256
6
ByLayer
370
18
48
1
60
0
100
AcDbLine
10
28.426219
20
8.574406
30
0
11
28.241574
21
8.715862
31
0
39
0
210
0
220
0
230
1
0
LINE
5
8C
100
AcDbEntity
8
1
62
256
6
ByLayer
370
18
48
1
60
0
100
AcDbLine
10
26.646672
20
7.120932
30
0
11
29.401099
21
7.06269
31
0
39
0
210
0
220
0
230
1
0
LINE
5
8D
100
AcDbEntity
8
1
62
256
6
ByLayer
370
18
48
1
60
0
100
AcDbLine
10
7.740942
20
-0.516251
30
0
11
15.304817
21
0.108785
31
0
39
0
210
0
220
0
230
1
0
LINE
5
8E
100
AcDbEntity
8
1
62
256
6
ByLayer
370
18
48
1
60
0
100
AcDbLine
10
11.337571
20
10.060781
30
0
11
12.498794
21
10.154888
31
0
39
0
210
0
220
0
230
1
0
LINE
5
8F
100
AcDbEntity
8
1
62
256
6
ByLayer
370
18
48
1
60
0
100
AcDbLine
10
13.175145
20
10.2097
30
0
11
13.365133
21
10.225097
31
0
39
0
210
0
220
0
230
1
0
LINE
5
90
100
AcDbEntity
8
1
62
256
6
ByLayer
370
18
48
1
60
0
100
AcDbLine
10
9.724399
20
-1.742381
30
0
11
7.88844
21
-2.08404
31
0
39
0
210
0
220
0
230
1
0
LINE
5
91
100
AcDbEntity
8
1
62
256
6
ByLayer
370
18
48
1
60
0
100
AcDbLine
10
28.240655
20
4.773317
30
0
11
27.503418
21
4.008951
31
0
39
0
210
0
220
0
230
1
0
LINE
5
92
100
AcDbEntity
8
1
62
256
6
ByLayer
370
18
48
1
60
0
100
AcDbLine
10
4.214745
20
0.466828
30
0
11
3.44548
21
8.797707
31
0
39
0
210
0
220
0
230
1
0
LINE
5
93
100
AcDbEntity
8
1
62
256
6
ByLayer
370
18
48
1
60
0
100
AcDbLine
10
8.40566
20
12.539126
30
0
11
8.410769
21
12.537931
31
0
39
0
210
0
220
0
230
1
0
LINE
5
94
100
AcDbEntity
8
1
62
256
6
ByLayer
370
18
48
1
60
0
100
AcDbLine
10
14.519421
20
2.187663
30
0
11
12.483985
21
2.019466
31
0
39
0
210
0
220
0
230
1
0
LINE
5
95
100
AcDbEntity
8
1
62
256
6
ByLayer
370
18
48
1
60
0
100
AcDbLine
10
7.456848
20
8.351618
30
0
11
7.082673
21
8.167209
31
0
39
0
210
0
220
0
230
1
0
LINE
5
96
100
AcDbEntity
8
1
62
256
6
ByLayer
370
18
48
1
60
0
100
AcDbLine
10
28.730328
20
5.281009
30
0
11
28.573736
21
5.118655
31
0
39
0
210
0
220
0
230
1
0
LINE
5
97
100
AcDbEntity
8
1
62
256
6
ByLayer
370
18
48
1
60
0
100
AcDbLine
10
8.40566
20
12.539126
30
0
11
6.978895
21
12.421226
31
0
39
0
210
0
220
0
230
1
0
LINE
5
98
100
AcDbEntity
8
1
62
256
6
ByLayer
370
18
48
1
60
0
100
AcDbLine
10
13.797131
20
12.983029
30
0
11
8.410769
21
12.537931
31
0
39
0
210
0
220
0
230
1
0
LINE
5
99
100
AcDbEntity
8
1
62
256
6
ByLayer
370
18
48
1
60
0
100
AcDbLine
10
27.848821
20
9.016747
30
0
11
26.979508
21
9.682723
31
0
39
0
210
0
220
0
230
1
0
LINE
5
9A
100
AcDbEntity
8
1
62
256
6
ByLayer
370
18
48
1
60
0
100
AcDbLine
10
8.297634
20
-1.860281
30
0
11
7.816746
21
-2.097282
31
0
39
0
210
0
220
0
230
1
0
LINE
5
9B
100
AcDbEntity
8
1
62
256
6
ByLayer
370
18
48
1
60
0
100
AcDbLine
10
12.957505
20
4.856776
30
0
11
13.061008
21
4.960279
31
0
39
0
210
0
220
0
230
1
0
LINE
5
9C
100
AcDbEntity
8
1
62
256
6
ByLayer
370
18
48
1
60
0
100
AcDbLine
10
12.660887
20
7.430805
30
0
11
12.818343
21
7.588261
31
0
39
0
210
0
220
0
230
1
0
LINE
5
9D
100
AcDbEntity
8
1
62
256
6
ByLayer
370
18
48
1
60
0
100
AcDbLine
10
14.170277
20
5.282791
30
0
11
14.327734
21
5.440247
31
0
39
0
210
0
220
0
230
1
0
LINE
5
9E
100
AcDbEntity
8
1
62
256
6
ByLayer
370
18
48
1
60
0
100
AcDbLine
10
11.774992
20
6.408876
30
0
11
11.932448
21
6.566332
31
0
39
0
210
0
220
0
230
1
0
LINE
5
9F
100
AcDbEntity
8
1
62
256
6
ByLayer
370
18
48
1
60
0
100
AcDbLine
10
14.377227
20
6.62391
30
0
11
14.534683
21
6.781366
31
0
39
0
210
0
220
0
230
1
0
LINE
5
A0
100
AcDbEntity
8
1
62
256
6
ByLayer
370
18
48
1
60
0
100
AcDbLine
10
13.996396
20
7.16587
30
0
11
14.153852
21
7.323326
31
0
39
0
210
0
220
0
230
1
0
LINE
5
A1
100
AcDbEntity
8
1
62
256
6
ByLayer
370
18
48
1
60
0
100
AcDbLine
10
18.275206
20
-9.95363
30
0
11
26.484656
21
-1.74418
31
0
39
0
210
0
220
0
230
1
0
LINE
5
A2
100
AcDbEntity
8
1
62
256
6
ByLayer
370
18
48
1
60
0
100
AcDbLine
10
0
20
4.873506
30
0
11
0
21
-9.9375
31
0
39
0
210
0
220
0
230
1
0
LINE
5
A3
100
AcDbEntity
8
1
62
256
6
ByLayer
370
18
48
1
60
0
100
AcDbLine
10
0
20
-9.9375
30
0
11
1.339358
21
-9.943344
31
0
39
0
210
0
220
0
230
1
0
LINE
5
A4
100
AcDbEntity
8
1
62
256
6
ByLayer
370
18
48
1
60
0
100
AcDbLine
10
23.337759
20
1.421758
30
0
11
24.155595
21
0.603923
31
0
39
0
210
0
220
0
230
1
0
LINE
5
A5
100
AcDbEntity
8
1
62
256
6
ByLayer
370
18
48
1
60
0
100
AcDbLine
10
9.562486
20
-3.625736
30
0
11
9.394242
21
-1.803712
31
0
39
0
210
0
220
0
230
1
0
LINE
5
A6
100
AcDbEntity
8
1
62
256
6
ByLayer
370
18
48
1
60
0
100
AcDbLine
10
9.562486
20
-3.625736
30
0
11
9.445297
21
-9.954664
31
0
39
0
210
0
220
0
230
1
0
LINE
5
A7
100
AcDbEntity
8
1
62
256
6
ByLayer
370
18
48
1
60
0
100
AcDbLine
10
15.891413
20
-9.954664
30
0
11
9.562486
21
-3.625736
31
0
39
0
210
0
220
0
230
1
0
LINE
5
A8
100
AcDbEntity
8
1
62
256
6
ByLayer
370
18
48
1
60
0
100
AcDbLine
10
6.828089
20
-9.945371
30
0
11
6.096404
21
-2.02146
31
0
39
0
210
0
220
0
230
1
0
LINE
5
A9
100
AcDbEntity
8
1
62
256
6
ByLayer
370
18
48
1
60
0
100
AcDbLine
10
4.841126
20
11.572783
30
0
11
4.837362
21
11.613543
31
0
39
0
210
0
220
0
230
1
0
LINE
5
AA
100
AcDbEntity
8
1
62
256
6
ByLayer
370
18
48
1
60
0
100
AcDbLine
10
26.546081
20
-1.682754
30
0
11
24.801719
21
0.061608
31
0
39
0
210
0
220
0
230
1
0
LINE
5
AB
100
AcDbEntity
8
1
62
256
6
ByLayer
370
18
48
1
60
0
100
AcDbLine
10
9.445297
20
-9.954664
30
0
11
6.828089
21
-9.945371
31
0
39
0
210
0
220
0
230
1
0
LINE
5
AC
100
AcDbEntity
8
1
62
256
6
ByLayer
370
18
48
1
60
0
100
AcDbLine
10
1.339358
20
-9.943344
30
0
11
0
21
4.873506
31
0
39
0
210
0
220
0
230
1
0
LINE
5
AD
100
AcDbEntity
8
1
62
256
6
ByLayer
370
18
48
1
60
0
100
AcDbLine
10
24.352511
20
13.320897
30
0
11
22.604326
21
11.588051
31
0
39
0
210
0
220
0
230
1
0
LINE
5
AE
100
AcDbEntity
8
1
62
256
6
ByLayer
370
18
48
1
60
0
100
AcDbLine
10
6.828089
20
-9.945371
30
0
11
6.806509
21
-9.944499
31
0
39
0
210
0
220
0
230
1
0
LINE
5
AF
100
AcDbEntity
8
1
62
256
6
ByLayer
370
18
48
1
60
0
100
AcDbLine
10
4.837362
20
11.613543
30
0
11
4.9324
21
11.621858
31
0
39
0
210
0
220
0
230
1
0
LINE
5
B0
100
AcDbEntity
8
1
62
256
6
ByLayer
370
18
48
1
60
0
100
AcDbLine
10
18.275206
20
-9.95363
30
0
11
15.891413
21
-9.954664
31
0
39
0
210
0
220
0
230
1
0
LINE
5
B1
100
AcDbEntity
8
1
62
256
6
ByLayer
370
18
48
1
60
0
100
AcDbLine
10
24.600899
20
13.342629
30
0
11
24.352511
21
13.320897
31
0
39
0
210
0
220
0
230
1
0
LINE
5
B2
100
AcDbEntity
8
1
62
256
6
ByLayer
370
18
48
1
60
0
100
AcDbLine
10
24.352511
20
13.320897
30
0
11
17.855896
21
12.752517
31
0
39
0
210
0
220
0
230
1
0
LINE
5
B3
100
AcDbEntity
8
1
62
256
6
ByLayer
370
18
48
1
60
0
100
AcDbLine
10
3.93834
20
11.534889
30
0
11
4.816035
21
11.611677
31
0
39
0
210
0
220
0
230
1
0
LINE
5
B4
100
AcDbEntity
8
1
62
256
6
ByLayer
370
18
48
1
60
0
100
AcDbLine
10
26.484656
20
-1.74418
30
0
11
23.323983
21
1.416493
31
0
39
0
210
0
220
0
230
1
0
LINE
5
B5
100
AcDbEntity
8
1
62
256
6
ByLayer
370
18
48
1
60
0
100
AcDbLine
10
9.445297
20
-9.954664
30
0
11
15.891413
21
-9.954664
31
0
39
0
210
0
220
0
230
1
0
LINE
5
B6
100
AcDbEntity
8
1
62
256
6
ByLayer
370
18
48
1
60
0
100
AcDbLine
10
0
20
9.9375
30
0
11
1.372946
21
11.310446
31
0
39
0
210
0
220
0
230
1
0
LINE
5
B7
100
AcDbEntity
8
1
62
256
6
ByLayer
370
18
48
1
60
0
100
AcDbLine
10
5.921434
20
-9.941356
30
0
11
5.135478
21
-1.429716
31
0
39
0
210
0
220
0
230
1
0
LINE
5
B8
100
AcDbEntity
8
1
62
256
6
ByLayer
370
18
48
1
60
0
100
AcDbLine
10
4.00465
20
10.816777
30
0
11
3.93834
21
11.534889
31
0
39
0
210
0
220
0
230
1
0
LINE
5
B9
100
AcDbEntity
8
1
62
256
6
ByLayer
370
18
48
1
60
0
100
AcDbLine
10
0
20
4.873506
30
0
11
0
21
9.9375
31
0
39
0
210
0
220
0
230
1
0
LINE
5
BA
100
AcDbEntity
8
1
62
256
6
ByLayer
370
18
48
1
60
0
100
AcDbLine
10
4.816035
20
11.611677
30
0
11
4.837362
21
11.613543
31
0
39
0
210
0
220
0
230
1
0
LINE
5
BB
100
AcDbEntity
8
1
62
256
6
ByLayer
370
18
48
1
60
0
100
AcDbLine
10
1.372946
20
11.310446
30
0
11
3.93834
21
11.534889
31
0
39
0
210
0
220
0
230
1
0
LINE
5
BC
100
AcDbEntity
8
1
62
256
6
ByLayer
370
18
48
1
60
0
100
AcDbLine
10
6.806509
20
-9.944499
30
0
11
6.07445
21
-2.016541
31
0
39
0
210
0
220
0
230
1
0
LINE
5
BD
100
AcDbEntity
8
1
62
256
6
ByLayer
370
18
48
1
60
0
100
AcDbLine
10
4.820638
20
11.561829
30
0
11
4.816035
21
11.611677
31
0
39
0
210
0
220
0
230
1
0
LINE
5
BE
100
AcDbEntity
8
1
62
256
6
ByLayer
370
18
48
1
60
0
100
AcDbLine
10
5.921434
20
-9.941356
30
0
11
1.339358
21
-9.943344
31
0
39
0
210
0
220
0
230
1
0
LINE
5
BF
100
AcDbEntity
8
1
62
256
6
ByLayer
370
18
48
1
60
0
100
AcDbLine
10
26.546081
20
-1.682754
30
0
11
26.484656
21
-1.74418
31
0
39
0
210
0
220
0
230
1
0
LINE
5
C0
100
AcDbEntity
8
SK1
62
256
6
ByLayer
370
18
48
1
60
0
100
AcDbLine
10
-99.024882
20
9.9375
30
0
11
-99.024882
21
-9.9375
31
0
39
0
210
0
220
0
230
1
0
LINE
5
C2
100
AcDbEntity
8
SK1
62
256
6
ByLayer
370
18
48
1
60
0
100
AcDbLine
10
-5.063994
20
9.9375
30
0
11
0
21
9.9375
31
0
39
0
210
0
220
0
230
1
0
LINE
5
C3
100
AcDbEntity
8
SK1
62
256
6
ByLayer
370
18
48
1
60
0
100
AcDbLine
10
-5.063994
20
9.9375
30
0
11
-99.024882
21
9.9375
31
0
39
0
210
0
220
0
230
1
0
LINE
5
C4
100
AcDbEntity
8
SK1
62
256
6
ByLayer
370
18
48
1
60
0
100
AcDbLine
10
0
20
4.873506
30
0
11
0
21
-9.9375
31
0
39
0
210
0
220
0
230
1
0
LINE
5
C5
100
AcDbEntity
8
SK1
62
256
6
ByLayer
370
18
48
1
60
0
100
AcDbLine
10
0
20
4.873506
30
0
11
0
21
9.9375
31
0
39
0
210
0
220
0
230
1
0
LINE
5
C6
100
AcDbEntity
8
SK1
62
256
6
ByLayer
370
18
48
1
60
0
100
AcDbLine
10
-99.024882
20
-9.9375
30
0
11
0
21
-9.9375
31
0
39
0
210
0
220
0
230
1
0
LINE
5
C7
100
AcDbEntity
8
SK1
62
256
6
ByLayer
370
18
48
1
60
0
100
AcDbLine
10
0
20
4.873506
30
0
11
-5.063994
21
9.9375
31
0
39
0
210
0
220
0
230
1
0
LINE
5
C8
100
AcDbEntity
8
1
62
256
6
ByLayer
370
18
48
1
60
0
100
AcDbLine
10
27.172884
20
-2.045901
30
0
11
26.866266
21
-2.352519
31
0
39
0
210
0
220
0
230
1
0
LINE
5
C9
100
AcDbEntity
8
1
62
256
6
ByLayer
370
18
48
1
60
0
100
AcDbLine
10
27.64132
20
-1.577465
30
0
11
35.422223
21
6.203438
31
0
39
0
210
0
220
0
230
1
0
LINE
5
CA
100
AcDbEntity
8
1
62
256
6
ByLayer
370
18
48
1
60
0
100
AcDbLine
10
26.441967
20
15.183694
30
0
11
22.802449
21
11.544176
31
0
39
0
210
0
220
0
230
1
0
LINE
5
CB
100
AcDbEntity
8
1
62
256
6
ByLayer
370
18
48
1
60
0
100
AcDbLine
10
27.172887
20
-2.045898
30
0
11
27.64132
21
-1.577465
31
0
39
0
210
0
220
0
230
1
0
LINE
5
CC
100
AcDbEntity
8
1
62
256
6
ByLayer
370
18
48
1
60
0
100
AcDbLine
10
35.416759
20
7.320859
30
0
11
27.559388
21
15.17823
31
0
39
0
210
0
220
0
230
1
0
LINE
5
CD
100
AcDbEntity
8
1
62
256
6
ByLayer
370
18
48
1
60
0
100
AcDbLine
10
26.479609
20
-1.61629
30
0
11
26.523898
21
-1.572001
31
0
39
0
210
0
220
0
230
1
0
LINE
5
CE
100
AcDbEntity
8
1
62
256
6
ByLayer
370
18
48
1
60
0
100
AcDbLine
10
23.47708
20
1.474817
30
0
11
26.523898
21
-1.572001
31
0
39
0
210
0
220
0
230
1
0
LINE
5
CF
100
AcDbEntity
8
2
62
256
6
ByLayer
370
18
48
1
60
1
100
AcDbLine
10
27.325118
20
15.4125
30
0
11
27.325825
21
15.411793
31
0
39
0
210
0
220
0
230
1
0
MTEXT
5
141
100
AcDbEntity
8
SK6
62
256
6
ByLayer
370
18
48
1
60
0
100
AcDbMText
10
-49.974882
20
-20.821082
30
0
210
0
220
0
230
1
1
\W0.7579;DSSNR 2020K 12
40
3.5
41
0
44
1.084337
50
0
71
7
72
5
7
iso_b_vert
0
DIMENSION
5
152
100
AcDbEntity
8
2
62
256
6
ByLayer
370
13
48
1
60
0
100
AcDbDimension
2
DimnDraft3D1
10
64.925118
20
-9.9375
30
0
11
64.925118
21
-6.142925
31
0
70
32
71
5
72
1
41
1
210
0
220
0
230
1
3
Standard
100
AcDbAlignedDimension
13
37.64781
23
7.089808
33
0
14
2
24
-9.9375
34
0
50
90
100
AcDbRotatedDimension
1001
ACAD
1000
DSTYLE
1002
{
1070
    74
1070
     0
1070
   279
1070
     0
1070
   172
1070
     1
1070
   173
1070
     1
1070
   340
1005
142
1070
    77
1070
     1
1070
    73
1070
     0
1070
   171
1070
     3
1070
   274
1070
     4
1070
   177
1070
     2
1070
   176
1070
     2
1070
   178
1070
     7
1070
    78
1070
     8
1070
    41
1041
3.175
1070
   147
1041
2.25
1070
    42
1041
2.0
1070
    44
1041
2.0
1070
   140
1041
4.5
1070
   343
1005
153
1070
   344
1005
153
1002
}
0
DIMENSION
5
168
100
AcDbEntity
8
SK2
62
256
6
ByLayer
370
13
48
1
60
0
100
AcDbDimension
2
DimnDraft3D2
10
-106.774882
20
9.9375
30
0
11
-106.774882
21
-5.281579
31
0
70
32
71
5
72
1
41
1
210
0
220
0
230
1
3
Standard
100
AcDbAlignedDimension
13
-101.024882
23
-9.9375
33
0
14
-101.024882
24
9.9375
34
0
50
90
100
AcDbRotatedDimension
1001
ACAD
1000
DSTYLE
1002
{
1070
    74
1070
     0
1070
   279
1070
     0
1070
   172
1070
     1
1070
   173
1070
     1
1070
   340
1005
142
1070
    77
1070
     1
1070
    73
1070
     0
1070
   171
1070
     3
1070
   274
1070
     4
1070
   177
1070
     2
1070
   176
1070
     2
1070
   178
1070
     7
1070
    78
1070
     8
1070
    41
1041
3.175
1070
   147
1041
2.25
1070
    42
1041
2.0
1070
    44
1041
2.0
1070
   140
1041
4.5
1070
   343
1005
153
1070
   344
1005
153
1002
}
0
DIMENSION
5
176
100
AcDbEntity
8
2
62
256
6
ByLayer
370
13
48
1
60
0
100
AcDbDimension
2
DimnDraft3D3
10
74.925118
20
15.4125
30
0
11
74.925118
21
-2.544079
31
0
70
32
71
5
72
1
41
1
210
0
220
0
230
1
3
Standard
100
AcDbAlignedDimension
13
2
23
-9.9375
33
0
14
29.325118
24
15.4125
34
0
50
90
100
AcDbRotatedDimension
1001
ACAD
1000
DSTYLE
1002
{
1070
    74
1070
     0
1070
   279
1070
     0
1070
   172
1070
     1
1070
   173
1070
     1
1070
   340
1005
142
1070
    77
1070
     1
1070
    73
1070
     0
1070
   171
1070
     3
1070
   274
1070
     4
1070
   177
1070
     2
1070
   176
1070
     2
1070
   178
1070
     7
1070
    78
1070
     8
1070
    41
1041
3.175
1070
   147
1041
2.25
1070
    42
1041
2.0
1070
    44
1041
2.0
1070
   140
1041
4.5
1070
   343
1005
153
1070
   344
1005
153
1002
}
0
DIMENSION
5
184
100
AcDbEntity
8
2
62
256
6
ByLayer
370
13
48
1
60
0
100
AcDbDimension
2
DimnDraft3D4
10
27.325118
20
22.839808
30
0
11
8.38098
21
22.839808
31
0
70
32
71
5
72
1
41
1
210
0
220
0
230
1
3
Standard
100
AcDbAlignedDimension
13
0
23
11.9375
33
0
14
27.325118
24
17.4125
34
0
50
0
100
AcDbRotatedDimension
1001
ACAD
1000
DSTYLE
1002
{
1070
   279
1070
     0
1070
   172
1070
     1
1070
   173
1070
     1
1070
   340
1005
142
1070
    77
1070
     1
1070
    73
1070
     0
1070
   171
1070
     3
1070
   274
1070
     4
1070
   177
1070
     2
1070
   176
1070
     2
1070
   178
1070
     7
1070
    78
1070
     8
1070
    41
1041
3.175
1070
   147
1041
2.25
1070
    42
1041
2.0
1070
    44
1041
2.0
1070
   140
1041
4.5
1070
   343
1005
153
1070
   344
1005
153
1002
}
0
DIMENSION
5
192
100
AcDbEntity
8
SK2
62
256
6
ByLayer
370
13
48
1
60
0
100
AcDbDimension
2
DimnDraft3D5
10
27.325118
20
32.839808
30
0
11
-42.25054
21
32.839808
31
0
70
32
71
5
72
1
41
1
210
0
220
0
230
1
3
Standard
100
AcDbAlignedDimension
13
-99.024882
23
11.9375
33
0
14
27.325118
24
17.4125
34
0
50
0
100
AcDbRotatedDimension
1001
ACAD
1000
DSTYLE
1002
{
1070
   279
1070
     0
1070
   172
1070
     1
1070
   173
1070
     1
1070
   340
1005
142
1070
    77
1070
     1
1070
    73
1070
     0
1070
   171
1070
     3
1070
   274
1070
     4
1070
   177
1070
     2
1070
   176
1070
     2
1070
   178
1070
     7
1070
    78
1070
     8
1070
    41
1041
3.175
1070
   147
1041
2.25
1070
    42
1041
2.0
1070
    44
1041
2.0
1070
   140
1041
4.5
1070
   343
1005
153
1070
   344
1005
153
1002
}
0
DIMENSION
5
1A0
100
AcDbEntity
8
SK2
62
256
6
ByLayer
370
13
48
1
60
0
100
AcDbDimension
2
DimnDraft3D6
10
-99.024882
20
42.839808
30
0
11
-38.089194
21
42.839808
31
0
70
32
71
5
72
1
41
1
210
0
220
0
230
1
3
Standard
100
AcDbAlignedDimension
13
35.64781
23
9.089808
33
0
14
-99.024882
24
11.9375
34
0
50
0
100
AcDbRotatedDimension
1001
ACAD
1000
DSTYLE
1002
{
1070
   279
1070
     0
1070
   172
1070
     1
1070
   173
1070
     1
1070
   340
1005
142
1070
    77
1070
     1
1070
    73
1070
     0
1070
   171
1070
     3
1070
   274
1070
     4
1070
   177
1070
     2
1070
   176
1070
     2
1070
   178
1070
     7
1070
    78
1070
     8
1070
    41
1041
3.175
1070
   147
1041
2.25
1070
    42
1041
2.0
1070
    44
1041
2.0
1070
   140
1041
4.5
1070
   343
1005
153
1070
   344
1005
153
1002
}
0
DIMENSION
5
1AE
100
AcDbEntity
8
2
62
256
6
ByLayer
370
13
48
1
60
0
100
AcDbDimension
2
DimnDraft3D7
10
35.64781
20
7.089808
30
0
11
44.862923
21
-15.157442
31
0
70
34
71
5
72
1
41
1
210
0
220
0
230
1
3
Standard
100
AcDb2LineAngularDimension
13
35.64781
23
7.089808
33
0
14
35.64781
24
6.296058
34
0
15
27.325118
25
15.4125
35
0
16
46.584998
26
-19.3149
36
0
40
0
0
ENDSEC
0
SECTION
2
OBJECTS
0
DICTIONARY
5
218
330
0
100
AcDbDictionary
280
0
281
1
3
ACAD_GROUP
350
219
3
ACAD_MLINESTYLE
350
21a
0
DICTIONARY
5
219
330
0
100
AcDbDictionary
280
0
281
1
0
DICTIONARY
5
21a
330
0
100
AcDbDictionary
280
0
281
1
3
Standard
350
18
0
MLINESTYLE
5
18
330
21a
100
AcDbMlineStyle
2
Standard
70
0
3

62
256
51
90
52
90
71
2
49
-0.5
62
256
6
ByLayer
49
0.5
62
256
6
ByLayer
0
RASTERVARIABLES
5
207
330

100
AcDbRasterVariables
90
0
70
1
71
1
72
1
0
ENDSEC
0
EOF
