0
SECTION
2
HEADER
9
$ACADVER
1
AC1015
9
$DWGCODEPAGE
3
ANSI_1252
9
$HANDSEED
5
239
9
$ANGBASE
50
0
9
$ANGDIR
70
0
9
$ATTMODE
70
1
9
$AUNITS
70
0
9
$AUPREC
70
0
9
$CECOLOR
62
256
9
$CELTSCALE
40
1
9
$CELTYPE
6
ByLayer
9
$CELWEIGHT
370
18
9
$CLAYER
8
0
9
$CMLJUST
70
0
9
$CMLSCALE
40
1
9
$CMLSTYLE
2
Standard
9
$DIMSTYLE
2
Standard
9
$TEXTSIZE
40
0.2
9
$TEXTSTYLE
7
Standard
9
$LUNITS
70
2
9
$LUPREC
70
4
9
$EXTNAMES
290
1
9
$INSUNITS
70
4
9
$LTSCALE
40
1
9
$LWDISPLAY
290
1
9
$PDMODE
70
0
9
$PDSIZE
40
0
9
$PLINEGEN
70
0
0
ENDSEC
0
SECTION
2
CLASSES
0
CLASS
1
RASTERVARIABLES
2
AcDbRasterVariables
3
ISM
90
0
280
0
281
0
0
ENDSEC
0
SECTION
2
TABLES
0
TABLE
2
VPORT
5
22f
100
AcDbSymbolTable
0
VPORT
5
1
100
AcDbSymbolTableRecord
100
AcDbViewportTableRecord
2
*Active
70
0
10
0
20
0
11
1
21
1
12
-1
22
1
13
0
23
0
14
0.5
24
0.5
15
10
25
10
16
0
26
0
36
1
17
0
27
0
37
0
0
ENDTAB
0
TABLE
2
LTYPE
5
230
100
AcDbSymbolTable
0
LTYPE
5
14
100
AcDbSymbolTableRecord
100
AcDbLinetypeTableRecord
70
0
2
ByBlock
3

72
65
73
0
40
0
0
LTYPE
5
15
100
AcDbSymbolTableRecord
100
AcDbLinetypeTableRecord
70
0
2
ByLayer
3

72
65
73
0
40
0
0
LTYPE
5
16
100
AcDbSymbolTableRecord
100
AcDbLinetypeTableRecord
70
0
2
CONTINUOUS
3
Solid line
72
65
73
0
40
0
0
LTYPE
5
6A
100
AcDbSymbolTableRecord
100
AcDbLinetypeTableRecord
70
0
2
CENTER
3
____ _ ____ _ ____ _ ____
72
65
73
4
40
47.5
49
22
74
0
49
-8.5
74
0
49
8.5
74
0
49
-8.5
74
0
0
LTYPE
5
6B
100
AcDbSymbolTableRecord
100
AcDbLinetypeTableRecord
70
0
2
DASHED
3
__ __ __ __ __ __ __ __ __
72
65
73
2
40
25.72
49
12.86
74
0
49
-12.86
74
0
0
ENDTAB
0
TABLE
2
LAYER
5
231
100
AcDbSymbolTable
0
LAYER
5
10
100
AcDbSymbolTableRecord
100
AcDbLayerTableRecord
2
0
70
0
62
7
6
CONTINUOUS
290
1
370
-3
390
0
0
LAYER
5
6D
100
AcDbSymbolTableRecord
100
AcDbLayerTableRecord
2
2
70
0
62
7
6
CONTINUOUS
290
1
370
-3
390
0
0
LAYER
5
6F
100
AcDbSymbolTableRecord
100
AcDbLayerTableRecord
2
80
70
0
62
-6
6
CONTINUOUS
290
1
370
-3
390
0
0
LAYER
5
71
100
AcDbSymbolTableRecord
100
AcDbLayerTableRecord
2
81
70
0
62
-3
6
CONTINUOUS
290
1
370
-3
390
0
0
LAYER
5
73
100
AcDbSymbolTableRecord
100
AcDbLayerTableRecord
2
1
70
0
62
4
6
CONTINUOUS
290
1
370
-3
390
0
0
LAYER
5
21c
100
AcDbSymbolTableRecord
100
AcDbLayerTableRecord
2
SK1
70
0
62
4
6
CONTINUOUS
290
1
370
-3
390
0
0
LAYER
5
21d
100
AcDbSymbolTableRecord
100
AcDbLayerTableRecord
2
SK6
70
0
62
5
6
CONTINUOUS
290
1
370
-3
390
0
0
LAYER
5
21e
100
AcDbSymbolTableRecord
100
AcDbLayerTableRecord
2
SK2
70
0
62
7
6
CONTINUOUS
290
1
370
-3
390
0
0
ENDTAB
0
TABLE
2
STYLE
5
232
100
AcDbSymbolTable
0
STYLE
5
11
100
AcDbSymbolTableRecord
100
AcDbTextStyleTableRecord
2
Standard
3
txt
70
0
71
0
40
0
41
1
42
0
50
0
0
STYLE
5
156
100
AcDbSymbolTableRecord
100
AcDbTextStyleTableRecord
2
iso_b_vert
3
simplex.shx
70
0
71
0
40
0
41
1
42
0
50
0
0
STYLE
5
157
100
AcDbSymbolTableRecord
100
AcDbTextStyleTableRecord
2
DWGDirectTextStyle
3
simplex
70
0
71
0
40
0
41
1
42
0
50
0
0
ENDTAB
0
TABLE
2
DIMSTYLE
5
233
100
AcDbSymbolTable
100
AcDbDimStyleTable
0
DIMSTYLE
105
27
100
AcDbSymbolTableRecord
100
AcDbDimStyleTableRecord
2
Standard
70
0
3
<>
41
0.18
42
0.0625
44
0.18
140
0.18
147
0.09
73
0
74
0
77
1
271
2
275
0
278
52
280
0
340
11
0
ENDTAB
0
TABLE
2
VIEW
5
234
100
AcDbSymbolTable
0
ENDTAB
0
TABLE
2
UCS
5
235
100
AcDbSymbolTable
0
ENDTAB
0
TABLE
2
APPID
5
236
100
AcDbSymbolTable
0
APPID
5
12
100
AcDbSymbolTableRecord
100
AcDbRegAppTableRecord
2
ACAD
70
0
0
ENDTAB
0
TABLE
2
BLOCK_RECORD
5
237
100
AcDbSymbolTable
0
BLOCK_RECORD
5
1F
100
AcDbSymbolTableRecord
100
AcDbBlockTableRecord
2
*Model_Space
340
0
70
0
0
BLOCK_RECORD
5
1B
100
AcDbSymbolTableRecord
100
AcDbBlockTableRecord
2
*Paper_Space
340
0
70
0
0
BLOCK_RECORD
5
23
100
AcDbSymbolTableRecord
100
AcDbBlockTableRecord
2
*Paper_Space0
340
0
70
0
0
BLOCK_RECORD
5
159
100
AcDbSymbolTableRecord
100
AcDbBlockTableRecord
2
DimnDraft3D1
340
0
70
0
0
BLOCK_RECORD
5
167
100
AcDbSymbolTableRecord
100
AcDbBlockTableRecord
2
_CLOSED
340
0
70
0
0
BLOCK_RECORD
5
16E
100
AcDbSymbolTableRecord
100
AcDbBlockTableRecord
2
DimnDraft3D2
340
0
70
0
0
BLOCK_RECORD
5
17D
100
AcDbSymbolTableRecord
100
AcDbBlockTableRecord
2
DimnDraft3D3
340
0
70
0
0
BLOCK_RECORD
5
18B
100
AcDbSymbolTableRecord
100
AcDbBlockTableRecord
2
DimnDraft3D4
340
0
70
0
0
BLOCK_RECORD
5
199
100
AcDbSymbolTableRecord
100
AcDbBlockTableRecord
2
DimnDraft3D5
340
0
70
0
0
BLOCK_RECORD
5
1A7
100
AcDbSymbolTableRecord
100
AcDbBlockTableRecord
2
DimnDraft3D6
340
0
70
0
0
BLOCK_RECORD
5
1B5
100
AcDbSymbolTableRecord
100
AcDbBlockTableRecord
2
DimnDraft3D7
340
0
70
0
0
ENDTAB
0
ENDSEC
0
SECTION
2
BLOCKS
0
BLOCK
5
20
100
AcDbEntity
8
0
100
AcDbBlockBegin
2
*Model_Space
70
0
10
0
20
0
30
0
3
*Model_Space
0
ENDBLK
5
21
100
AcDbEntity
8
0
100
AcDbBlockEnd
0
BLOCK
5
1C
100
AcDbEntity
8
0
100
AcDbBlockBegin
2
*Paper_Space
70
0
10
0
20
0
30
0
3
*Paper_Space
0
ENDBLK
5
1D
100
AcDbEntity
8
0
100
AcDbBlockEnd
0
BLOCK
5
24
100
AcDbEntity
8
0
100
AcDbBlockBegin
2
*Paper_Space0
70
0
10
0
20
0
30
0
3
*Paper_Space0
0
ENDBLK
5
25
100
AcDbEntity
8
0
100
AcDbBlockEnd
0
BLOCK
5
164
100
AcDbEntity
8
0
100
AcDbBlockBegin
2
DimnDraft3D1
70
0
10
0
20
0
30
0
3
DimnDraft3D1
0
MTEXT
5
15A
100
AcDbEntity
8
2
62
256
6
ByLayer
370
18
48
1
60
0
100
AcDbMText
10
94.617165
20
-8.643421
30
0
210
0
220
0
230
1
1
\W0.7640;40.0
40
4.5
41
0
44
1.084337
50
90
71
7
72
5
7
iso_b_vert
0
LINE
5
15B
100
AcDbEntity
8
2
62
256
6
ByLayer
370
13
48
1
60
0
100
AcDbLine
10
35.142165
20
-24.425
30
0
11
97.742165
21
-24.425
31
0
39
0
210
0
220
0
230
1
0
LINE
5
15C
100
AcDbEntity
8
2
62
256
6
ByLayer
370
13
48
1
60
0
100
AcDbLine
10
2
20
15.925
30
0
11
97.742165
21
15.925
31
0
39
0
210
0
220
0
230
1
0
LINE
5
15D
100
AcDbEntity
8
2
62
256
6
ByLayer
370
13
48
1
60
0
100
AcDbLine
10
95.742165
20
-24.425
30
0
11
95.742165
21
15.925
31
0
39
0
210
0
220
0
230
1
0
LINE
5
15E
100
AcDbEntity
8
2
62
256
6
ByLayer
370
13
48
1
60
0
100
AcDbLine
10
95.742165
20
-24.425
30
0
11
95.324169
21
-21.250002
31
0
39
0
210
0
220
0
230
1
0
LINE
5
15F
100
AcDbEntity
8
2
62
256
6
ByLayer
370
13
48
1
60
0
100
AcDbLine
10
95.742165
20
-24.425
30
0
11
96.160162
21
-21.249998
31
0
39
0
210
0
220
0
230
1
0
LINE
5
160
100
AcDbEntity
8
2
62
256
6
ByLayer
370
13
48
1
60
0
100
AcDbLine
10
95.324169
20
-21.250002
30
0
11
96.160162
21
-21.249998
31
0
39
0
210
0
220
0
230
1
0
LINE
5
161
100
AcDbEntity
8
2
62
256
6
ByLayer
370
13
48
1
60
0
100
AcDbLine
10
95.742165
20
15.925
30
0
11
96.160162
21
12.750002
31
0
39
0
210
0
220
0
230
1
0
LINE
5
162
100
AcDbEntity
8
2
62
256
6
ByLayer
370
13
48
1
60
0
100
AcDbLine
10
95.742165
20
15.925
30
0
11
95.324169
21
12.749998
31
0
39
0
210
0
220
0
230
1
0
LINE
5
163
100
AcDbEntity
8
2
62
256
6
ByLayer
370
13
48
1
60
0
100
AcDbLine
10
96.160162
20
12.750002
30
0
11
95.324169
21
12.749998
31
0
39
0
210
0
220
0
230
1
0
ENDBLK
5
165
100
AcDbEntity
8
0
100
AcDbBlockEnd
0
BLOCK
5
168
100
AcDbEntity
8
0
100
AcDbBlockBegin
2
_CLOSED
70
0
10
0
20
0
30
0
3
_CLOSED
0
LINE
5
16A
100
AcDbEntity
8
0
62
256
6
ByLayer
370
-2
48
1
60
0
100
AcDbLine
10
-1
20
0.166667
30
0
11
0
21
0
31
0
39
0
210
0
220
0
230
1
0
LINE
5
16B
100
AcDbEntity
8
0
62
256
6
ByLayer
370
-2
48
1
60
0
100
AcDbLine
10
0
20
0
30
0
11
-1
21
-0.166667
31
0
39
0
210
0
220
0
230
1
0
LINE
5
16C
100
AcDbEntity
8
0
62
256
6
ByLayer
370
-2
48
1
60
0
100
AcDbLine
10
-1
20
0.166667
30
0
11
-1
21
-0.166667
31
0
39
0
210
0
220
0
230
1
0
LINE
5
16D
100
AcDbEntity
8
0
62
256
6
ByLayer
370
-2
48
1
60
0
100
AcDbLine
10
0
20
0
30
0
11
-1
21
0
31
0
39
0
210
0
220
0
230
1
0
ENDBLK
5
169
100
AcDbEntity
8
0
100
AcDbBlockEnd
0
BLOCK
5
17A
100
AcDbEntity
8
0
100
AcDbBlockBegin
2
DimnDraft3D2
70
0
10
0
20
0
30
0
3
DimnDraft3D2
0
MTEXT
5
16F
100
AcDbEntity
8
SK2
62
256
6
ByLayer
370
18
48
1
60
0
100
AcDbMText
10
-147.082835
20
-4.156579
30
0
210
0
220
0
230
1
1
\W0.7346;32.0
40
4.5
41
0
44
1.084337
50
90
71
7
72
5
7
iso_b_vert
0
LINE
5
171
100
AcDbEntity
8
SK2
62
256
6
ByLayer
370
13
48
1
60
0
100
AcDbLine
10
-140.207835
20
15.925
30
0
11
-147.957835
21
15.925
31
0
39
0
210
0
220
0
230
1
0
LINE
5
172
100
AcDbEntity
8
SK2
62
256
6
ByLayer
370
13
48
1
60
0
100
AcDbLine
10
-140.207835
20
-15.925
30
0
11
-147.957835
21
-15.925
31
0
39
0
210
0
220
0
230
1
0
LINE
5
173
100
AcDbEntity
8
SK2
62
256
6
ByLayer
370
13
48
1
60
0
100
AcDbLine
10
-145.957835
20
15.925
30
0
11
-145.957835
21
-15.925
31
0
39
0
210
0
220
0
230
1
0
LINE
5
174
100
AcDbEntity
8
SK2
62
256
6
ByLayer
370
13
48
1
60
0
100
AcDbLine
10
-145.957835
20
15.925
30
0
11
-145.539838
21
12.750002
31
0
39
0
210
0
220
0
230
1
0
LINE
5
175
100
AcDbEntity
8
SK2
62
256
6
ByLayer
370
13
48
1
60
0
100
AcDbLine
10
-145.957835
20
15.925
30
0
11
-146.375831
21
12.749998
31
0
39
0
210
0
220
0
230
1
0
LINE
5
176
100
AcDbEntity
8
SK2
62
256
6
ByLayer
370
13
48
1
60
0
100
AcDbLine
10
-145.539838
20
12.750002
30
0
11
-146.375831
21
12.749998
31
0
39
0
210
0
220
0
230
1
0
LINE
5
177
100
AcDbEntity
8
SK2
62
256
6
ByLayer
370
13
48
1
60
0
100
AcDbLine
10
-145.957835
20
-15.925
30
0
11
-146.375831
21
-12.750002
31
0
39
0
210
0
220
0
230
1
0
LINE
5
178
100
AcDbEntity
8
SK2
62
256
6
ByLayer
370
13
48
1
60
0
100
AcDbLine
10
-145.957835
20
-15.925
30
0
11
-145.539838
21
-12.749998
31
0
39
0
210
0
220
0
230
1
0
LINE
5
179
100
AcDbEntity
8
SK2
62
256
6
ByLayer
370
13
48
1
60
0
100
AcDbLine
10
-146.375831
20
-12.750002
30
0
11
-145.539838
21
-12.749998
31
0
39
0
210
0
220
0
230
1
0
ENDBLK
5
17B
100
AcDbEntity
8
0
100
AcDbBlockEnd
0
BLOCK
5
188
100
AcDbEntity
8
0
100
AcDbBlockBegin
2
DimnDraft3D3
70
0
10
0
20
0
30
0
3
DimnDraft3D3
0
MTEXT
5
17E
100
AcDbEntity
8
2
62
256
6
ByLayer
370
18
48
1
60
0
100
AcDbMText
10
84.617165
20
-3.287092
30
0
210
0
220
0
230
1
1
\W0.7346;29.8
40
4.5
41
0
44
1.084337
50
90
71
7
72
5
7
iso_b_vert
0
LINE
5
17F
100
AcDbEntity
8
2
62
256
6
ByLayer
370
13
48
1
60
0
100
AcDbLine
10
45.38114
20
-14.186026
30
0
11
87.742165
21
-14.186026
31
0
39
0
210
0
220
0
230
1
0
LINE
5
180
100
AcDbEntity
8
2
62
256
6
ByLayer
370
13
48
1
60
0
100
AcDbLine
10
2
20
15.925
30
0
11
87.742165
21
15.925
31
0
39
0
210
0
220
0
230
1
0
LINE
5
181
100
AcDbEntity
8
2
62
256
6
ByLayer
370
13
48
1
60
0
100
AcDbLine
10
85.742165
20
-14.186026
30
0
11
85.742165
21
15.925
31
0
39
0
210
0
220
0
230
1
0
LINE
5
182
100
AcDbEntity
8
2
62
256
6
ByLayer
370
13
48
1
60
0
100
AcDbLine
10
85.742165
20
-14.186026
30
0
11
85.324169
21
-11.011027
31
0
39
0
210
0
220
0
230
1
0
LINE
5
183
100
AcDbEntity
8
2
62
256
6
ByLayer
370
13
48
1
60
0
100
AcDbLine
10
85.742165
20
-14.186026
30
0
11
86.160162
21
-11.011024
31
0
39
0
210
0
220
0
230
1
0
LINE
5
184
100
AcDbEntity
8
2
62
256
6
ByLayer
370
13
48
1
60
0
100
AcDbLine
10
85.324169
20
-11.011027
30
0
11
86.160162
21
-11.011024
31
0
39
0
210
0
220
0
230
1
0
LINE
5
185
100
AcDbEntity
8
2
62
256
6
ByLayer
370
13
48
1
60
0
100
AcDbLine
10
85.742165
20
15.925
30
0
11
86.160162
21
12.750002
31
0
39
0
210
0
220
0
230
1
0
LINE
5
186
100
AcDbEntity
8
2
62
256
6
ByLayer
370
13
48
1
60
0
100
AcDbLine
10
85.742165
20
15.925
30
0
11
85.324169
21
12.749998
31
0
39
0
210
0
220
0
230
1
0
LINE
5
187
100
AcDbEntity
8
2
62
256
6
ByLayer
370
13
48
1
60
0
100
AcDbLine
10
86.160162
20
12.750002
30
0
11
85.324169
21
12.749998
31
0
39
0
210
0
220
0
230
1
0
ENDBLK
5
189
100
AcDbEntity
8
0
100
AcDbBlockEnd
0
BLOCK
5
196
100
AcDbEntity
8
0
100
AcDbBlockBegin
2
DimnDraft3D4
70
0
10
0
20
0
30
0
3
DimnDraft3D4
0
MTEXT
5
18C
100
AcDbEntity
8
2
62
256
6
ByLayer
370
18
48
1
60
0
100
AcDbMText
10
12.977004
20
-36.311026
30
0
210
0
220
0
230
1
1
\W0.7208;33.1
40
4.5
41
0
44
1.084337
50
0
71
7
72
5
7
iso_b_vert
0
LINE
5
18D
100
AcDbEntity
8
2
62
256
6
ByLayer
370
13
48
1
60
0
100
AcDbLine
10
0
20
-17.925
30
0
11
0
21
-39.436026
31
0
39
0
210
0
220
0
230
1
0
LINE
5
18E
100
AcDbEntity
8
2
62
256
6
ByLayer
370
13
48
1
60
0
100
AcDbLine
10
33.142165
20
-26.425
30
0
11
33.142165
21
-39.436026
31
0
39
0
210
0
220
0
230
1
0
LINE
5
18F
100
AcDbEntity
8
2
62
256
6
ByLayer
370
13
48
1
60
0
100
AcDbLine
10
0
20
-37.436026
30
0
11
33.142165
21
-37.436026
31
0
39
0
210
0
220
0
230
1
0
LINE
5
190
100
AcDbEntity
8
2
62
256
6
ByLayer
370
13
48
1
60
0
100
AcDbLine
10
0
20
-37.436026
30
0
11
3.174998
21
-37.018029
31
0
39
0
210
0
220
0
230
1
0
LINE
5
191
100
AcDbEntity
8
2
62
256
6
ByLayer
370
13
48
1
60
0
100
AcDbLine
10
0
20
-37.436026
30
0
11
3.175002
21
-37.854023
31
0
39
0
210
0
220
0
230
1
0
LINE
5
192
100
AcDbEntity
8
2
62
256
6
ByLayer
370
13
48
1
60
0
100
AcDbLine
10
3.174998
20
-37.018029
30
0
11
3.175002
21
-37.854023
31
0
39
0
210
0
220
0
230
1
0
LINE
5
193
100
AcDbEntity
8
2
62
256
6
ByLayer
370
13
48
1
60
0
100
AcDbLine
10
33.142165
20
-37.436026
30
0
11
29.967167
21
-37.854023
31
0
39
0
210
0
220
0
230
1
0
LINE
5
194
100
AcDbEntity
8
2
62
256
6
ByLayer
370
13
48
1
60
0
100
AcDbLine
10
33.142165
20
-37.436026
30
0
11
29.967164
21
-37.018029
31
0
39
0
210
0
220
0
230
1
0
LINE
5
195
100
AcDbEntity
8
2
62
256
6
ByLayer
370
13
48
1
60
0
100
AcDbLine
10
29.967167
20
-37.854023
30
0
11
29.967164
21
-37.018029
31
0
39
0
210
0
220
0
230
1
0
ENDBLK
5
197
100
AcDbEntity
8
0
100
AcDbBlockEnd
0
BLOCK
5
1A4
100
AcDbEntity
8
0
100
AcDbBlockBegin
2
DimnDraft3D5
70
0
10
0
20
0
30
0
3
DimnDraft3D5
0
MTEXT
5
19A
100
AcDbEntity
8
SK2
62
256
6
ByLayer
370
18
48
1
60
0
100
AcDbMText
10
-57.808492
20
-46.311026
30
0
210
0
220
0
230
1
1
\W0.6864;170.0
40
4.5
41
0
44
1.084337
50
0
71
7
72
5
7
iso_b_vert
0
LINE
5
19B
100
AcDbEntity
8
SK2
62
256
6
ByLayer
370
13
48
1
60
0
100
AcDbLine
10
-138.207835
20
-17.925
30
0
11
-138.207835
21
-49.436026
31
0
39
0
210
0
220
0
230
1
0
LINE
5
19C
100
AcDbEntity
8
SK2
62
256
6
ByLayer
370
13
48
1
60
0
100
AcDbLine
10
33.142165
20
-26.425
30
0
11
33.142165
21
-49.436026
31
0
39
0
210
0
220
0
230
1
0
LINE
5
19D
100
AcDbEntity
8
SK2
62
256
6
ByLayer
370
13
48
1
60
0
100
AcDbLine
10
-138.207835
20
-47.436026
30
0
11
33.142165
21
-47.436026
31
0
39
0
210
0
220
0
230
1
0
LINE
5
19E
100
AcDbEntity
8
SK2
62
256
6
ByLayer
370
13
48
1
60
0
100
AcDbLine
10
-138.207835
20
-47.436026
30
0
11
-135.032836
21
-47.018029
31
0
39
0
210
0
220
0
230
1
0
LINE
5
19F
100
AcDbEntity
8
SK2
62
256
6
ByLayer
370
13
48
1
60
0
100
AcDbLine
10
-138.207835
20
-47.436026
30
0
11
-135.032833
21
-47.854023
31
0
39
0
210
0
220
0
230
1
0
LINE
5
1A0
100
AcDbEntity
8
SK2
62
256
6
ByLayer
370
13
48
1
60
0
100
AcDbLine
10
-135.032836
20
-47.018029
30
0
11
-135.032833
21
-47.854023
31
0
39
0
210
0
220
0
230
1
0
LINE
5
1A1
100
AcDbEntity
8
SK2
62
256
6
ByLayer
370
13
48
1
60
0
100
AcDbLine
10
33.142165
20
-47.436026
30
0
11
29.967167
21
-47.854023
31
0
39
0
210
0
220
0
230
1
0
LINE
5
1A2
100
AcDbEntity
8
SK2
62
256
6
ByLayer
370
13
48
1
60
0
100
AcDbLine
10
33.142165
20
-47.436026
30
0
11
29.967164
21
-47.018029
31
0
39
0
210
0
220
0
230
1
0
LINE
5
1A3
100
AcDbEntity
8
SK2
62
256
6
ByLayer
370
13
48
1
60
0
100
AcDbLine
10
29.967167
20
-47.854023
30
0
11
29.967164
21
-47.018029
31
0
39
0
210
0
220
0
230
1
0
ENDBLK
5
1A5
100
AcDbEntity
8
0
100
AcDbBlockEnd
0
BLOCK
5
1B2
100
AcDbEntity
8
0
100
AcDbBlockBegin
2
DimnDraft3D6
70
0
10
0
20
0
30
0
3
DimnDraft3D6
0
MTEXT
5
1A8
100
AcDbEntity
8
SK2
62
256
6
ByLayer
370
18
48
1
60
0
100
AcDbMText
10
-52.689005
20
-56.311026
30
0
210
0
220
0
230
1
1
\W0.6864;180.2
40
4.5
41
0
44
1.084337
50
0
71
7
72
5
7
iso_b_vert
0
LINE
5
1A9
100
AcDbEntity
8
SK2
62
256
6
ByLayer
370
13
48
1
60
0
100
AcDbLine
10
43.38114
20
-16.186026
30
0
11
43.38114
21
-59.436026
31
0
39
0
210
0
220
0
230
1
0
LINE
5
1AA
100
AcDbEntity
8
SK2
62
256
6
ByLayer
370
13
48
1
60
0
100
AcDbLine
10
-138.207835
20
-17.925
30
0
11
-138.207835
21
-59.436026
31
0
39
0
210
0
220
0
230
1
0
LINE
5
1AB
100
AcDbEntity
8
SK2
62
256
6
ByLayer
370
13
48
1
60
0
100
AcDbLine
10
43.38114
20
-57.436026
30
0
11
-138.207835
21
-57.436026
31
0
39
0
210
0
220
0
230
1
0
LINE
5
1AC
100
AcDbEntity
8
SK2
62
256
6
ByLayer
370
13
48
1
60
0
100
AcDbLine
10
43.38114
20
-57.436026
30
0
11
40.206141
21
-57.854023
31
0
39
0
210
0
220
0
230
1
0
LINE
5
1AD
100
AcDbEntity
8
SK2
62
256
6
ByLayer
370
13
48
1
60
0
100
AcDbLine
10
43.38114
20
-57.436026
30
0
11
40.206138
21
-57.018029
31
0
39
0
210
0
220
0
230
1
0
LINE
5
1AE
100
AcDbEntity
8
SK2
62
256
6
ByLayer
370
13
48
1
60
0
100
AcDbLine
10
40.206141
20
-57.854023
30
0
11
40.206138
21
-57.018029
31
0
39
0
210
0
220
0
230
1
0
LINE
5
1AF
100
AcDbEntity
8
SK2
62
256
6
ByLayer
370
13
48
1
60
0
100
AcDbLine
10
-138.207835
20
-57.436026
30
0
11
-135.032836
21
-57.018029
31
0
39
0
210
0
220
0
230
1
0
LINE
5
1B0
100
AcDbEntity
8
SK2
62
256
6
ByLayer
370
13
48
1
60
0
100
AcDbLine
10
-138.207835
20
-57.436026
30
0
11
-135.032833
21
-57.854023
31
0
39
0
210
0
220
0
230
1
0
LINE
5
1B1
100
AcDbEntity
8
SK2
62
256
6
ByLayer
370
13
48
1
60
0
100
AcDbLine
10
-135.032836
20
-57.018029
30
0
11
-135.032833
21
-57.854023
31
0
39
0
210
0
220
0
230
1
0
ENDBLK
5
1B3
100
AcDbEntity
8
0
100
AcDbBlockEnd
0
BLOCK
5
1C0
100
AcDbEntity
8
0
100
AcDbBlockBegin
2
DimnDraft3D7
70
0
10
0
20
0
30
0
3
DimnDraft3D7
0
MTEXT
5
1B6
100
AcDbEntity
8
2
62
256
6
ByLayer
370
18
48
1
60
0
100
AcDbMText
10
55.469862
20
23.245551
30
0
210
0
220
0
230
1
1
\W0.7785;45%%d
40
4.5
41
0
44
1.084337
50
337.500000000001
71
7
72
5
7
iso_b_vert
0
LINE
5
1B7
100
AcDbEntity
8
2
62
256
6
ByLayer
370
13
48
1
60
0
100
AcDbLine
10
43.38114
20
-10.995401
30
0
11
43.38114
21
25.897395
31
0
39
0
210
0
220
0
230
1
0
LINE
5
1B8
100
AcDbEntity
8
2
62
256
6
ByLayer
370
13
48
1
60
0
100
AcDbLine
10
45.288526
20
-12.278639
30
0
11
71.724398
21
14.157233
31
0
39
0
210
0
220
0
230
1
0
ARC
5
1B9
100
AcDbEntity
8
2
62
256
6
ByLayer
370
13
48
1
60
0
100
AcDbCircle
39
0
10
43.38114
20
-14.186026
30
0
40
38.0834211963128
210
0
220
0
230
1
100
AcDbArc
50
45
51
90
0
LINE
5
1BA
100
AcDbEntity
8
2
62
256
6
ByLayer
370
13
48
1
60
0
100
AcDbLine
10
43.38114
20
23.897395
30
0
11
46.564156
21
24.24917
31
0
39
0
210
0
220
0
230
1
0
LINE
5
1BB
100
AcDbEntity
8
2
62
256
6
ByLayer
370
13
48
1
60
0
100
AcDbLine
10
43.38114
20
23.897395
30
0
11
46.546746
21
23.413358
31
0
39
0
210
0
220
0
230
1
0
LINE
5
1BC
100
AcDbEntity
8
2
62
256
6
ByLayer
370
13
48
1
60
0
100
AcDbLine
10
46.564156
20
24.24917
30
0
11
46.546746
21
23.413358
31
0
39
0
210
0
220
0
230
1
0
LINE
5
1BD
100
AcDbEntity
8
2
62
256
6
ByLayer
370
13
48
1
60
0
100
AcDbLine
10
70.310185
20
12.743019
30
0
11
67.729499
21
14.639173
31
0
39
0
210
0
220
0
230
1
0
LINE
5
1BE
100
AcDbEntity
8
2
62
256
6
ByLayer
370
13
48
1
60
0
100
AcDbLine
10
70.310185
20
12.743019
30
0
11
68.308193
21
15.242496
31
0
39
0
210
0
220
0
230
1
0
LINE
5
1BF
100
AcDbEntity
8
2
62
256
6
ByLayer
370
13
48
1
60
0
100
AcDbLine
10
67.729499
20
14.639173
30
0
11
68.308193
21
15.242496
31
0
39
0
210
0
220
0
230
1
0
ENDBLK
5
1C1
100
AcDbEntity
8
0
100
AcDbBlockEnd
0
ENDSEC
0
SECTION
2
ENTITIES
0
ELLIPSE
5
CD
100
AcDbEntity
8
1
62
256
6
ByLayer
370
18
48
1
60
0
100
AcDbEllipse
10
30.527591
20
-7.147489
30
0
11
2.50581301739146
21
2.50581301739146
31
0
210
0
220
0
230
-1
40
0.50533
41
-1.5707963267949
42
-1.28337423130017
0
ELLIPSE
5
CE
100
AcDbEntity
8
1
62
256
6
ByLayer
370
18
48
1
60
0
100
AcDbEllipse
10
8.868794
20
15.93804
30
0
11
0.80340609079816
21
3.03757714530877E-05
31
0
210
0
220
0
230
-1
40
0.004364
41
0.107650575313035
42
1.67844690210804
0
ELLIPSE
5
CF
100
AcDbEntity
8
1
62
256
6
ByLayer
370
18
48
1
60
0
100
AcDbEllipse
10
32.659602
20
-23.239627
30
0
11
-0.842164176393191
21
-0.842164176393166
31
0
210
0
220
0
230
1
40
0.990268
41
0
42
1.57079632679492
0
ELLIPSE
5
D0
100
AcDbEntity
8
1
62
256
6
ByLayer
370
18
48
1
60
0
100
AcDbEllipse
10
32.081123
20
-13.120156
30
0
11
2.24506403026732
21
2.24506403026726
31
0
210
0
220
0
230
1
40
0.990268
41
-0.45246835351102
42
-0.141057825650125
0
ELLIPSE
5
D1
100
AcDbEntity
8
1
62
256
6
ByLayer
370
18
48
1
60
0
100
AcDbEllipse
10
32.752454
20
-4.250495
30
0
11
-0.842164176393191
21
-0.842164176393166
31
0
210
0
220
0
230
1
40
0.990268
41
3.14159265358979
42
-1.5707963267949
0
ELLIPSE
5
D2
100
AcDbEntity
8
1
62
256
6
ByLayer
370
18
48
1
60
0
100
AcDbEllipse
10
32.127549
20
-3.62559
30
0
11
0.84216417639319
21
0.842164176393167
31
0
210
0
220
0
230
1
40
0.990268
41
0
42
1.14584676780898
0
ELLIPSE
5
D3
100
AcDbEntity
8
1
62
256
6
ByLayer
370
18
48
1
60
0
100
AcDbEllipse
10
42.200594
20
-13.698635
30
0
11
-0.842164176393191
21
-0.842164176393166
31
0
210
0
220
0
230
1
40
0.990268
41
1.5707963267949
42
3.14159265358979
0
ELLIPSE
5
D4
100
AcDbEntity
8
1
62
256
6
ByLayer
370
18
48
1
60
0
100
AcDbEllipse
10
32.706028
20
-13.745061
30
0
11
2.24506403026732
21
2.24506403026726
31
0
210
0
220
0
230
1
40
0.990268
41
-2.16610908926292
42
0
0
ELLIPSE
5
D5
100
AcDbEntity
8
1
62
256
6
ByLayer
370
18
48
1
60
0
100
AcDbEllipse
10
32.706028
20
-13.745061
30
0
11
2.24506403026732
21
2.24506403026726
31
0
210
0
220
0
230
1
40
0.990268
41
0
42
0.427668466404113
0
ELLIPSE
5
D6
100
AcDbEntity
8
1
62
256
6
ByLayer
370
18
48
1
60
0
100
AcDbEllipse
10
31.528897
20
-4.710206
30
0
11
-1.6837980227005
21
-1.68379802270045
31
0
210
0
220
0
230
1
40
0.990268
41
-2.65972625857208
42
-2.35469745094914
0
ELLIPSE
5
D7
100
AcDbEntity
8
1
62
256
6
ByLayer
370
18
48
1
60
0
100
AcDbEllipse
10
10.518586
20
-18.091683
30
0
11
3.98886380381841
21
1.54122884600561
31
0
210
0
220
0
230
-1
40
0.529671
41
2.31166997835744
42
-2.85354265465238
0
ELLIPSE
5
D8
100
AcDbEntity
8
1
62
256
6
ByLayer
370
18
48
1
60
0
100
AcDbEllipse
10
11.074442
20
-15.280569
30
0
11
5.47670107840134
21
-0.505712663315449
31
0
210
0
220
0
230
1
40
0.089459
41
-2.36517643487226
42
-1.959757262859
0
ELLIPSE
5
D9
100
AcDbEntity
8
1
62
256
6
ByLayer
370
18
48
1
60
0
100
AcDbEllipse
10
8.361525
20
-18.36003
30
0
11
1.95985733071549
21
2.27133424295958
31
0
210
0
220
0
230
1
40
0.988257
41
0.250976749617687
42
0.625434656542334
0
ELLIPSE
5
DA
100
AcDbEntity
8
1
62
256
6
ByLayer
370
18
48
1
60
0
100
AcDbEllipse
10
7.797886
20
-16.750813
30
0
11
3.19892913272679
21
1.45835999670892
31
0
210
0
220
0
230
-1
40
0.988829
41
2.48434756530558
42
-2.62660291116222
0
ELLIPSE
5
DB
100
AcDbEntity
8
1
62
256
6
ByLayer
370
18
48
1
60
0
100
AcDbEllipse
10
33.208176
20
-14.119944
30
0
11
2.00550535596239
21
1.95408191121973
31
0
210
0
220
0
230
-1
40
0.794373
41
0.862348417312098
42
1.3120583933606
0
ELLIPSE
5
DC
100
AcDbEntity
8
1
62
256
6
ByLayer
370
18
48
1
60
0
100
AcDbEllipse
10
16.532318
20
-13.027043
30
0
11
-3.36442175106161
21
-3.89912378374726
31
0
210
0
220
0
230
1
40
0.988257
41
0.625434656542337
42
-2.93929127739905
0
ELLIPSE
5
DD
100
AcDbEntity
8
1
62
256
6
ByLayer
370
18
48
1
60
0
100
AcDbEllipse
10
14.366288
20
-12.851505
30
0
11
3.36442175106158
21
3.89912378374728
31
0
210
0
220
0
230
1
40
0.988257
41
-2.89034876093077
42
-2.51615799704746
0
ELLIPSE
5
DE
100
AcDbEntity
8
1
62
256
6
ByLayer
370
18
48
1
60
0
100
AcDbEllipse
10
11.623916
20
-9.329941
30
0
11
5.47670107840134
21
-0.505712663315449
31
0
210
0
220
0
230
1
40
0.089459
41
-2.36517643487227
42
-1.95975726285901
0
ELLIPSE
5
DF
100
AcDbEntity
8
1
62
256
6
ByLayer
370
18
48
1
60
0
100
AcDbEllipse
10
33.208176
20
-14.119944
30
0
11
0.152207409392388
21
3.0315438116402
31
0
210
0
220
0
230
-1
40
0.817727
41
1.05972786623904
42
1.50943784227576
0
ELLIPSE
5
E0
100
AcDbEntity
8
1
62
256
6
ByLayer
370
18
48
1
60
0
100
AcDbEllipse
10
4.512309
20
-2.776853
30
0
11
6.97034682705625
21
-0.643634298765117
31
0
210
0
220
0
230
1
40
0.089459
41
0.770472553435579
42
0.801151610592848
0
ELLIPSE
5
E1
100
AcDbEntity
8
1
62
256
6
ByLayer
370
18
48
1
60
0
100
AcDbEllipse
10
8.781445
20
-6.099189
30
0
11
3.19892913273284
21
1.45835999669822
31
0
210
0
220
0
230
-1
40
0.988829
41
-2.62660291116574
42
-1.4543680804542
0
ELLIPSE
5
E2
100
AcDbEntity
8
1
62
256
6
ByLayer
370
18
48
1
60
0
100
AcDbEllipse
10
11.502146
20
-7.440059
30
0
11
2.91003459845869
21
-3.97747410859457
31
0
210
0
220
0
230
-1
40
0.60761
41
2.50831289362002
42
-2.65689973938886
0
ELLIPSE
5
E3
100
AcDbEntity
8
1
62
256
6
ByLayer
370
18
48
1
60
0
100
AcDbEllipse
10
15.935552
20
-13.246382
30
0
11
0.98994949366118
21
0.989949493661153
31
0
210
0
220
0
230
1
40
0.990268
41
-0.440667009574001
42
-0.257464691223763
0
ELLIPSE
5
E4
100
AcDbEntity
8
1
62
256
6
ByLayer
370
18
48
1
60
0
100
AcDbEllipse
10
17.263268
20
-14.113041
30
0
11
0.353553390593279
21
0.353553390593269
31
0
210
0
220
0
230
1
40
0.990268
41
2.00434030105202
42
2.63831471560352
0
ELLIPSE
5
E5
100
AcDbEntity
8
1
62
256
6
ByLayer
370
18
48
1
60
0
100
AcDbEllipse
10
14.473247
20
-13.129454
30
0
11
-0.318198051533951
21
-0.318198051533942
31
0
210
0
220
0
230
1
40
0.990268
41
-2.28924886520466
42
0.543919613210413
0
ELLIPSE
5
E6
100
AcDbEntity
8
1
62
256
6
ByLayer
370
18
48
1
60
0
100
AcDbEllipse
10
16.353977
20
-14.380667
30
0
11
-0.318198051533951
21
-0.318198051533942
31
0
210
0
220
0
230
1
40
0.990268
41
0.280322619946397
42
2.6383147156035
0
ELLIPSE
5
E7
100
AcDbEntity
8
1
62
256
6
ByLayer
370
18
48
1
60
0
100
AcDbEllipse
10
14.040941
20
-13.846766
30
0
11
0.353553390593279
21
0.353553390593269
31
0
210
0
220
0
230
1
40
0.990268
41
8.30718768973046E-06
42
0.543919613210293
0
ELLIPSE
5
E8
100
AcDbEntity
8
1
62
256
6
ByLayer
370
18
48
1
60
0
100
AcDbEllipse
10
15.738072
20
-13.048902
30
0
11
0.98994949366118
21
0.989949493661153
31
0
210
0
220
0
230
1
40
0.990268
41
0.836388479227074
42
1.45587279544627
0
ELLIPSE
5
E9
100
AcDbEntity
8
1
62
256
6
ByLayer
370
18
48
1
60
0
100
AcDbEllipse
10
15.738072
20
-13.048902
30
0
11
0.98994949366118
21
0.989949493661153
31
0
210
0
220
0
230
1
40
0.990268
41
-1.30466224242036
42
-0.440667009573984
0
ELLIPSE
5
EA
100
AcDbEntity
8
1
62
256
6
ByLayer
370
18
48
1
60
0
100
AcDbEllipse
10
17.435203
20
-12.251037
30
0
11
0.353553390593279
21
0.353553390593269
31
0
210
0
220
0
230
1
40
0.990268
41
1.89954133958171
42
2.5335157541332
0
ELLIPSE
5
EB
100
AcDbEntity
8
1
62
256
6
ByLayer
370
18
48
1
60
0
100
AcDbEllipse
10
15.910007
20
-11.186898
30
0
11
0.353553390593279
21
0.353553390593269
31
0
210
0
220
0
230
1
40
0.990268
41
3.10093377869503
42
-3.1415880129888
0
ELLIPSE
5
EC
100
AcDbEntity
8
1
62
256
6
ByLayer
370
18
48
1
60
0
100
AcDbEllipse
10
15.939813
20
-13.250643
30
0
11
1.00762716319084
21
1.00762716319082
31
0
210
0
220
0
230
1
40
0.990268
41
-0.479262754656685
42
-0.218868946141063
0
ELLIPSE
5
ED
100
AcDbEntity
8
1
62
256
6
ByLayer
370
18
48
1
60
0
100
AcDbEllipse
10
15.767878
20
-15.112646
30
0
11
0.353553390593279
21
0.353553390593269
31
0
210
0
220
0
230
1
40
0.990268
41
1.0771555123803
42
1.59111716440701
0
ELLIPSE
5
EE
100
AcDbEntity
8
1
62
256
6
ByLayer
370
18
48
1
60
0
100
AcDbEllipse
10
15.935552
20
-13.246382
30
0
11
0.98994949366118
21
0.989949493661153
31
0
210
0
220
0
230
1
40
0.990268
41
-2.53506211196764
42
-2.35185979361656
0
ELLIPSE
5
EF
100
AcDbEntity
8
1
62
256
6
ByLayer
370
18
48
1
60
0
100
AcDbEllipse
10
15.939813
20
-13.250643
30
0
11
1.00762716319084
21
1.00762716319082
31
0
210
0
220
0
230
1
40
0.990268
41
0.567934796539957
42
0.828328605055573
0
ELLIPSE
5
F0
100
AcDbEntity
8
1
62
256
6
ByLayer
370
18
48
1
60
0
100
AcDbEllipse
10
16.555718
20
-14.582408
30
0
11
-0.318198051533951
21
-0.318198051533942
31
0
210
0
220
0
230
1
40
0.990268
41
-0.194853762811478
42
2.63831471560358
0
ELLIPSE
5
F1
100
AcDbEntity
8
1
62
256
6
ByLayer
370
18
48
1
60
0
100
AcDbEllipse
10
15.935552
20
-13.246382
30
0
11
0.98994949366118
21
0.989949493661153
31
0
210
0
220
0
230
1
40
0.990268
41
0.606530541622596
42
0.789732859973275
0
ELLIPSE
5
F2
100
AcDbEntity
8
1
62
256
6
ByLayer
370
18
48
1
60
0
100
AcDbEllipse
10
15.939813
20
-13.250643
30
0
11
1.00762716319084
21
1.00762716319082
31
0
210
0
220
0
230
1
40
0.990268
41
-1.5264603058533
42
-1.26606649733768
0
ELLIPSE
5
F3
100
AcDbEntity
8
1
62
256
6
ByLayer
370
18
48
1
60
0
100
AcDbEllipse
10
17.465009
20
-14.314782
30
0
11
0.353553390593279
21
0.353553390593269
31
0
210
0
220
0
230
1
40
0.990268
41
0.85234378838509
42
1.3663054404118
0
ELLIPSE
5
F4
100
AcDbEntity
8
1
62
256
6
ByLayer
370
18
48
1
60
0
100
AcDbEllipse
10
16.588734
20
-11.838325
30
0
11
-0.318198051533951
21
-0.318198051533942
31
0
210
0
220
0
230
1
40
0.990268
41
1.89954133958165
42
2.81576256984676
0
ELLIPSE
5
F5
100
AcDbEntity
8
1
62
256
6
ByLayer
370
18
48
1
60
0
100
AcDbEllipse
10
17.636944
20
-12.452778
30
0
11
0.353553390593279
21
0.353553390593269
31
0
210
0
220
0
230
1
40
0.990268
41
-3.11163469240615
42
-2.59767304037945
0
ELLIPSE
5
F6
100
AcDbEntity
8
1
62
256
6
ByLayer
370
18
48
1
60
0
100
AcDbEllipse
10
15.939813
20
-13.250643
30
0
11
1.00762716319084
21
1.00762716319082
31
0
210
0
220
0
230
1
40
0.990268
41
-2.57365785704989
42
-2.3132640485343
0
ELLIPSE
5
F7
100
AcDbEntity
8
1
62
256
6
ByLayer
370
18
48
1
60
0
100
AcDbEllipse
10
15.939813
20
-13.250643
30
0
11
1.00762716319084
21
1.00762716319082
31
0
210
0
220
0
230
1
40
0.990268
41
1.61513234773651
42
1.87552615625214
0
ELLIPSE
5
F8
100
AcDbEntity
8
1
62
256
6
ByLayer
370
18
48
1
60
0
100
AcDbEllipse
10
15.644582
20
-12.955412
30
0
11
3.53553390593278
21
3.53553390593269
31
0
210
0
220
0
230
1
40
0.990268
41
0
42
0.738980428700048
0
ELLIPSE
5
F9
100
AcDbEntity
8
1
62
256
6
ByLayer
370
18
48
1
60
0
100
AcDbEllipse
10
15.089151
20
-14.461219
30
0
11
-0.318198051533951
21
-0.318198051533942
31
0
210
0
220
0
230
1
40
0.990268
41
-1.24205131400808
42
1.59111716440691
0
ELLIPSE
5
FA
100
AcDbEntity
8
1
62
256
6
ByLayer
370
18
48
1
60
0
100
AcDbEllipse
10
15.935552
20
-13.246382
30
0
11
0.98994949366118
21
0.989949493661153
31
0
210
0
220
0
230
1
40
0.990268
41
2.70092564401582
42
2.88412796236603
0
ELLIPSE
5
FB
100
AcDbEntity
8
1
62
256
6
ByLayer
370
18
48
1
60
0
100
AcDbEllipse
10
14.88741
20
-14.259478
30
0
11
-0.318198051533951
21
-0.318198051533942
31
0
210
0
220
0
230
1
40
0.990268
41
0.325841511063343
42
1.591117164407
0
ELLIPSE
5
FC
100
AcDbEntity
8
1
62
256
6
ByLayer
370
18
48
1
60
0
100
AcDbEllipse
10
14.271506
20
-12.927713
30
0
11
-0.318198051533951
21
-0.318198051533942
31
0
210
0
220
0
230
1
40
0.990268
41
0.325854365137305
42
0.543919613210324
0
ELLIPSE
5
FD
100
AcDbEntity
8
1
62
256
6
ByLayer
370
18
48
1
60
0
100
AcDbEllipse
10
17.636944
20
-12.452778
30
0
11
0.353553390593279
21
0.353553390593269
31
0
210
0
220
0
230
1
40
0.990268
41
1.89954133958169
42
2.41350299160838
0
ELLIPSE
5
FE
100
AcDbEntity
8
1
62
256
6
ByLayer
370
18
48
1
60
0
100
AcDbEllipse
10
17.263268
20
-14.113041
30
0
11
0.353553390593279
21
0.353553390593269
31
0
210
0
220
0
230
1
40
0.990268
41
0.8523437883851
42
1.48631820293655
0
ELLIPSE
5
FF
100
AcDbEntity
8
1
62
256
6
ByLayer
370
18
48
1
60
0
100
AcDbEllipse
10
14.242682
20
-14.048507
30
0
11
0.353553390593279
21
0.353553390593269
31
0
210
0
220
0
230
1
40
0.990268
41
0.0299579611836972
42
0.543919613210407
0
ELLIPSE
5
100
100
AcDbEntity
8
1
62
256
6
ByLayer
370
18
48
1
60
0
100
AcDbEllipse
10
17.465009
20
-14.314782
30
0
11
0.353553390593279
21
0.353553390593269
31
0
210
0
220
0
230
1
40
0.990268
41
2.12435306357684
42
2.63831471560356
0
ELLIPSE
5
101
100
AcDbEntity
8
1
62
256
6
ByLayer
370
18
48
1
60
0
100
AcDbEllipse
10
15.767878
20
-15.112646
30
0
11
0.353553390593279
21
0.353553390593269
31
0
210
0
220
0
230
1
40
0.990268
41
-0.194853762811495
42
0.319107889215208
0
ELLIPSE
5
102
100
AcDbEntity
8
1
62
256
6
ByLayer
370
18
48
1
60
0
100
AcDbEllipse
10
15.566137
20
-14.910905
30
0
11
0.353553390593279
21
0.353553390593269
31
0
210
0
220
0
230
1
40
0.990268
41
0.957142749855488
42
1.59111716440696
0
ELLIPSE
5
103
100
AcDbEntity
8
1
62
256
6
ByLayer
370
18
48
1
60
0
100
AcDbEllipse
10
14.414617
20
-12.186504
30
0
11
0.353553390593279
21
0.353553390593269
31
0
210
0
220
0
230
1
40
0.990268
41
-2.28924886520473
42
-1.77528721317799
0
ELLIPSE
5
104
100
AcDbEntity
8
1
62
256
6
ByLayer
370
18
48
1
60
0
100
AcDbEllipse
10
15.935552
20
-13.246382
30
0
11
0.98994949366118
21
0.989949493661153
31
0
210
0
220
0
230
1
40
0.990268
41
-1.48786456077059
42
-1.30466224242037
0
ELLIPSE
5
105
100
AcDbEntity
8
1
62
256
6
ByLayer
370
18
48
1
60
0
100
AcDbEllipse
10
16.111748
20
-11.388639
30
0
11
0.353553390593279
21
0.353553390593269
31
0
210
0
220
0
230
1
40
0.990268
41
-2.06443714120957
42
-1.55047548918286
0
ELLIPSE
5
106
100
AcDbEntity
8
1
62
256
6
ByLayer
370
18
48
1
60
0
100
AcDbEllipse
10
15.738072
20
-13.048902
30
0
11
0.98994949366118
21
0.989949493661153
31
0
210
0
220
0
230
1
40
0.990268
41
-2.35185979361697
42
-1.48786456077058
0
ELLIPSE
5
107
100
AcDbEntity
8
1
62
256
6
ByLayer
370
18
48
1
60
0
100
AcDbEllipse
10
14.242682
20
-14.048507
30
0
11
0.353553390593279
21
0.353553390593269
31
0
210
0
220
0
230
1
40
0.990268
41
-1.2420513140081
42
-0.728089661981377
0
ELLIPSE
5
108
100
AcDbEntity
8
1
62
256
6
ByLayer
370
18
48
1
60
0
100
AcDbEllipse
10
15.738072
20
-13.048902
30
0
11
0.98994949366118
21
0.989949493661153
31
0
210
0
220
0
230
1
40
0.990268
41
2.09016212308341
42
2.70092564401581
0
ELLIPSE
5
109
100
AcDbEntity
8
1
62
256
6
ByLayer
370
18
48
1
60
0
100
AcDbEllipse
10
15.738072
20
-13.048902
30
0
11
0.98994949366118
21
0.989949493661153
31
0
210
0
220
0
230
1
40
0.990268
41
-0.257464691223743
42
0.312204999338702
0
ELLIPSE
5
10A
100
AcDbEntity
8
1
62
256
6
ByLayer
370
18
48
1
60
0
100
AcDbEllipse
10
15.939813
20
-13.250643
30
0
11
-1.7677669529664
21
-1.76776695296634
31
0
210
0
220
0
230
1
40
0.990268
41
0
42
6.28318530717959
0
ELLIPSE
5
10B
100
AcDbEntity
8
1
62
256
6
ByLayer
370
18
48
1
60
0
100
AcDbEllipse
10
15.683946
20
-12.994776
30
0
11
0.98994949366118
21
0.989949493661153
31
0
210
0
220
0
230
1
40
0.990268
41
-3.10780161105813
42
-0.027666320564126
0
ELLIPSE
5
10C
100
AcDbEntity
8
1
62
256
6
ByLayer
370
18
48
1
60
0
100
AcDbEllipse
10
15.939813
20
-13.250643
30
0
11
1.00762716319084
21
1.00762716319082
31
0
210
0
220
0
230
1
40
0.990268
41
2.66232989893309
42
2.92272370744871
0
ELLIPSE
5
10D
100
AcDbEntity
8
1
62
256
6
ByLayer
370
18
48
1
60
0
100
AcDbEllipse
10
17.204638
20
-13.170091
30
0
11
-0.318198051533951
21
-0.318198051533942
31
0
210
0
220
0
230
1
40
0.990268
41
0.852343788385087
42
2.81572899735432
0
ELLIPSE
5
10E
100
AcDbEntity
8
1
62
256
6
ByLayer
370
18
48
1
60
0
100
AcDbEllipse
10
16.790475
20
-12.040066
30
0
11
-0.318198051533951
21
-0.318198051533942
31
0
210
0
220
0
230
1
40
0.990268
41
1.89954133958166
42
-1.55047548918285
0
ELLIPSE
5
10F
100
AcDbEntity
8
1
62
256
6
ByLayer
370
18
48
1
60
0
100
AcDbEllipse
10
14.414617
20
-12.186504
30
0
11
0.353553390593279
21
0.353553390593269
31
0
210
0
220
0
230
1
40
0.990268
41
-1.01723959001291
42
-0.503277937986219
0
ELLIPSE
5
110
100
AcDbEntity
8
1
62
256
6
ByLayer
370
18
48
1
60
0
100
AcDbEllipse
10
16.111748
20
-11.388639
30
0
11
0.353553390593279
21
0.353553390593269
31
0
210
0
220
0
230
1
40
0.990268
41
2.9467388907783
42
-2.82248476437464
0
ELLIPSE
5
111
100
AcDbEntity
8
1
62
256
6
ByLayer
370
18
48
1
60
0
100
AcDbEllipse
10
15.738072
20
-13.048902
30
0
11
0.98994949366118
21
0.989949493661153
31
0
210
0
220
0
230
1
40
0.990268
41
-3.14158687108403
42
-2.53506211196721
0
ELLIPSE
5
112
100
AcDbEntity
8
1
62
256
6
ByLayer
370
18
48
1
60
0
100
AcDbEllipse
10
15.935552
20
-13.246382
30
0
11
0.98994949366118
21
0.989949493661153
31
0
210
0
220
0
230
1
40
0.990268
41
1.65372809281918
42
1.83693041117009
0
ELLIPSE
5
113
100
AcDbEntity
8
1
62
256
6
ByLayer
370
18
48
1
60
0
100
AcDbEllipse
10
15.806532
20
-13.117362
30
0
11
-3.53553390593279
21
-3.53553390593268
31
0
210
0
220
0
230
1
40
0.990268
41
0
42
6.28318530717959
0
ELLIPSE
5
114
100
AcDbEntity
8
1
62
256
6
ByLayer
370
18
48
1
60
0
100
AcDbEllipse
10
17.406379
20
-13.371832
30
0
11
-0.318198051533951
21
-0.318198051533942
31
0
210
0
220
0
230
1
40
0.990268
41
0.852343788385022
42
-2.59767304037945
0
ELLIPSE
5
115
100
AcDbEntity
8
1
62
256
6
ByLayer
370
18
48
1
60
0
100
AcDbEllipse
10
15.323908
20
-11.918878
30
0
11
-0.318198051533951
21
-0.318198051533942
31
0
210
0
220
0
230
1
40
0.990268
41
2.94673889077825
42
-0.503277937986268
0
ELLIPSE
5
116
100
AcDbEntity
8
1
62
256
6
ByLayer
370
18
48
1
60
0
100
AcDbEllipse
10
17.435203
20
-12.251037
30
0
11
0.353553390593279
21
0.353553390593269
31
0
210
0
220
0
230
1
40
0.990268
41
3.05153785224869
42
-3.14158333400505
0
ELLIPSE
5
117
100
AcDbEntity
8
1
62
256
6
ByLayer
370
18
48
1
60
0
100
AcDbEllipse
10
15.566137
20
-14.910905
30
0
11
0.353553390593279
21
0.353553390593269
31
0
210
0
220
0
230
1
40
0.990268
41
4.64060095727325E-06
42
0.439120651739939
0
POINT
5
6C
100
AcDbEntity
8
2
62
256
6
ByLayer
370
18
48
1
60
0
100
AcDbPoint
10
33.142165
20
56.275
30
0
39
0
210
0
220
0
230
1
50
360
0
POINT
5
6E
100
AcDbEntity
8
80
62
256
6
ByLayer
370
18
48
1
60
0
100
AcDbPoint
10
0
20
0
30
0
39
0
210
0
220
0
230
1
50
360
0
POINT
5
70
100
AcDbEntity
8
81
62
256
6
ByLayer
370
18
48
1
60
0
100
AcDbPoint
10
33.142165
20
-24.425
30
0
39
0
210
0
220
0
230
1
50
360
0
SPLINE
5
118
100
AcDbEntity
8
1
62
256
6
ByLayer
370
18
48
1
60
0
100
AcDbSpline
70
4
71
3
72
11
73
7
40
0
40
0
40
0
40
0
40
0.0598016998854991
40
0.468392215040454
40
0.740785891810425
40
1
40
1
40
1
40
1
41
1.02298250505371
10
22.0152579062175
20
-12.3829530295354
30
3E-15
41
1.02281639303115
10
22.2581310083705
20
-12.4098103504485
30
3.2E-15
41
1.02150796927554
10
24.1794719556231
20
-12.6237429503807
30
-1.6E-15
41
1.01953314781965
10
27.304178798668
20
-12.9901276914427
30
2E-15
41
1.0172623798868
10
29.6146368444445
20
-13.2847313734833
30
-2.4E-15
41
1.01931548101
10
30.4885220707065
20
-13.3428485794697
30
-1.3E-15
41
1.02052415826788
10
31.1033912710316
20
-13.3979766722342
30
-6E-16
0
SPLINE
5
119
100
AcDbEntity
8
1
62
256
6
ByLayer
370
18
48
1
60
0
100
AcDbSpline
70
4
71
3
72
10
73
6
40
0
40
0
40
0
40
0
40
0.914968234315964
40
0.914968234315964
40
1
40
1
40
1
40
1
41
1
10
30.972499812973
20
-14.8154879240727
30
-8E-16
41
1
10
31.3769248335592
20
-14.6010397773501
30
-3E-16
41
1
10
31.780035826488
20
-14.3951251296699
30
2E-16
41
1
10
32.2184904424971
20
-14.1791673134336
30
7E-16
41
1
10
32.2557654861173
20
-14.1608763565024
30
7E-16
41
1
10
32.2930224903323
20
-14.1426651899936
30
8E-16
0
SPLINE
5
11A
100
AcDbEntity
8
1
62
256
6
ByLayer
370
18
48
1
60
0
100
AcDbSpline
70
4
71
3
72
12
73
8
40
0
40
0
40
0
40
0
40
0.274077856982877
40
0.274077856982877
40
0.548155363965173
40
0.548155363965173
40
1
40
1
40
1
40
1
41
1
10
21.7833023726802
20
-14.894954830708
30
2.7E-15
41
1
10
21.8592126340675
20
-14.6738106154524
30
2.8E-15
41
1
10
21.9207313208051
20
-14.4472625433383
30
2.8E-15
41
1
10
22.0134058241625
20
-13.9896352582273
30
3E-15
41
1
10
22.0447743149114
20
-13.7575076739636
30
3E-15
41
1
10
22.0870023230757
20
-13.1438850936634
30
3E-15
41
1
10
22.0717108080272
20
-12.7584052840893
30
3E-15
41
1
10
22.015257906301
20
-12.3829530295447
30
3E-15
0
SPLINE
5
11B
100
AcDbEntity
8
1
62
256
6
ByLayer
370
18
48
1
60
0
100
AcDbSpline
70
4
71
2
72
6
73
3
40
0
40
0
40
0
40
1
40
1
40
1
41
1.0258173342201
10
16.1060002396675
20
-19.7661181356877
30
3.1E-15
41
1.0258173342201
10
15.7952174073655
20
-20.5153449828795
30
2.8E-15
41
1.0258173342201
10
15.4844345750635
20
-21.2645718300714
30
2.4E-15
0
SPLINE
5
11C
100
AcDbEntity
8
1
62
256
6
ByLayer
370
18
48
1
60
0
100
AcDbSpline
70
4
71
3
72
8
73
4
40
0
40
0
40
0
40
0
40
1
40
1
40
1
40
1
41
1
10
10.6630947472747
20
-9.52809459659798
30
-3.2E-15
41
1
10
11.0260804953674
20
-9.41708204341026
30
-2.8E-15
41
1
10
11.3565758760375
20
-9.23258163812199
30
-2.4E-15
41
1
10
11.6300675951958
20
-8.99120805511365
30
-2.1E-15
0
SPLINE
5
11D
100
AcDbEntity
8
1
62
256
6
ByLayer
370
18
48
1
60
0
100
AcDbSpline
70
4
71
3
72
8
73
4
40
0
40
0
40
0
40
0
40
1
40
1
40
1
40
1
41
1
10
9.75149539601807
20
-15.7300502016249
30
2.8E-15
41
1
10
9.48723590180782
20
-15.6364797665807
30
2.5E-15
41
1
10
9.21816778795994
20
-15.576109684984
30
2.2E-15
41
1
10
8.95566671259621
20
-15.542131286871
30
1.9E-15
0
SPLINE
5
11E
100
AcDbEntity
8
1
62
256
6
ByLayer
370
18
48
1
60
0
100
AcDbSpline
70
4
71
3
72
8
73
4
40
0
40
0
40
0
40
0
40
1
40
1
40
1
40
1
41
1
10
7.43643891759291
20
-6.8696882462398
30
1E-16
41
1
10
7.44897389200889
20
-6.73393861432112
30
1E-16
41
1
10
7.47289102513105
20
-6.60458763586519
30
1E-16
41
1
10
7.5064603167956
20
-6.48044093505408
30
2E-16
0
SPLINE
5
11F
100
AcDbEntity
8
1
62
256
6
ByLayer
370
18
48
1
60
0
100
AcDbSpline
70
4
71
3
72
8
73
4
40
0
40
0
40
0
40
0
40
1
40
1
40
1
40
1
41
1
10
6.4665150844661
20
-18.9374145488611
30
-1.1E-15
41
1
10
7.28088919149036
20
-18.3738100900465
30
-1E-16
41
1
10
8.67552407220944
20
-17.1784179081114
30
1.5E-15
41
1
10
10.0780289764544
20
-15.8641636144839
30
3.2E-15
0
SPLINE
5
120
100
AcDbEntity
8
1
62
256
6
ByLayer
370
18
48
1
60
0
100
AcDbSpline
70
4
71
3
72
8
73
4
40
0
40
0
40
0
40
0
40
1
40
1
40
1
40
1
41
1
10
7.5064603167956
20
-6.48044093505411
30
2E-16
41
1
10
8.27274733564536
20
-7.35855038780332
30
1.1E-15
41
1
10
9.27929889401048
20
-8.46268730936578
30
2.2E-15
41
1
10
10.3176346863148
20
-9.59894871532657
30
3.5E-15
0
SPLINE
5
121
100
AcDbEntity
8
1
62
256
6
ByLayer
370
18
48
1
60
0
100
AcDbSpline
70
4
71
3
72
8
73
4
40
0
40
0
40
0
40
0
40
1
40
1
40
1
40
1
41
1
10
7.726179909964
20
-5.28023813707182
30
4E-16
41
1
10
7.72523238103241
20
-5.29608350538493
30
4E-16
41
1
10
7.72421683755306
20
-5.31219294056203
30
4E-16
41
1
10
7.72314680502768
20
-5.32850815123288
30
4E-16
0
SPLINE
5
122
100
AcDbEntity
8
1
62
256
6
ByLayer
370
18
48
1
60
0
100
AcDbSpline
70
4
71
3
72
8
73
4
40
0
40
0
40
0
40
0
40
1
40
1
40
1
40
1
41
1
10
30.2551423335825
20
-7.85586676255519
30
-1.6E-15
41
1
10
30.0981022474139
20
-7.82193464928514
30
-1.8E-15
41
1
10
29.940082784924
20
-7.79244272697988
30
-2E-15
41
1
10
29.7815434753196
20
-7.76598911018934
30
-2.2E-15
0
SPLINE
5
123
100
AcDbEntity
8
1
62
256
6
ByLayer
370
18
48
1
60
0
100
AcDbSpline
70
4
71
3
72
8
73
4
40
0
40
0
40
0
40
0
40
1
40
1
40
1
40
1
41
1
10
6.4665150844661
20
-18.9374145488611
30
-1.1E-15
41
1
10
6.46507559900704
20
-18.9482734781673
30
-1.1E-15
41
1
10
6.46362564849983
20
-18.9588708513564
30
-1.1E-15
41
1
10
6.46215538191018
20
-18.9692061975768
30
-1.1E-15
0
SPLINE
5
124
100
AcDbEntity
8
1
62
256
6
ByLayer
370
18
48
1
60
0
100
AcDbSpline
70
4
71
3
72
10
73
6
40
0
40
0
40
0
40
0
40
0.5
40
0.5
40
1
40
1
40
1
40
1
41
1
10
29.9287490016117
20
-11.5572925701655
30
-2E-15
41
1
10
30.4121164701204
20
-11.1134196835138
30
-1.4E-15
41
1
10
30.9143763820899
20
-10.6803064757685
30
-8E-16
41
1
10
32.156037697405
20
-10.2806724455265
30
6E-16
41
1
10
32.8691013446205
20
-10.2062434792685
30
1.5E-15
41
1
10
33.6884603985975
20
-10.5921354744667
30
2.4E-15
0
SPLINE
5
125
100
AcDbEntity
8
1
62
256
6
ByLayer
370
18
48
1
60
0
100
AcDbSpline
70
4
71
3
72
10
73
6
40
0
40
0
40
0
40
0
40
0.731297369966837
40
0.731297369966837
40
1
40
1
40
1
40
1
41
1
10
10.3176346863148
20
-9.59894871532657
30
3.5E-15
41
1
10
10.4006976856909
20
-9.58929800136539
30
-3.5E-15
41
1
10
10.4873402874647
20
-9.57423647936693
30
-3.4E-15
41
1
10
10.6020461340615
20
-9.54583224395333
30
-3.3E-15
41
1
10
10.6329154985148
20
-9.5373243679478
30
-3.3E-15
41
1
10
10.6630947472747
20
-9.52809459659798
30
-3.2E-15
0
SPLINE
5
126
100
AcDbEntity
8
1
62
256
6
ByLayer
370
18
48
1
60
0
100
AcDbSpline
70
4
71
3
72
10
73
6
40
0
40
0
40
0
40
0
40
0.5
40
0.5
40
1
40
1
40
1
40
1
41
1
10
16.4924673206692
20
-18.2499332560082
30
-3.5E-15
41
1
10
17.6222855711195
20
-18.2951399628158
30
-2.2E-15
41
1
10
18.7519472674824
20
-17.9825183184612
30
-9E-16
41
1
10
20.6399080763989
20
-16.8317630751163
30
1.3E-15
41
1
10
21.4138449978432
20
-15.9710988599509
30
2.2E-15
41
1
10
21.7833023726802
20
-14.894954830708
30
2.7E-15
0
SPLINE
5
127
100
AcDbEntity
8
1
62
256
6
ByLayer
370
18
48
1
60
0
100
AcDbSpline
70
4
71
3
72
20
73
16
40
0
40
0
40
0
40
0
40
0.118962056339782
40
0.118962056339782
40
0.191173230286448
40
0.191173230286448
40
0.263712164126316
40
0.263712164126316
40
0.333306822588756
40
0.333306822588756
40
0.451479822004399
40
0.451479822004399
40
0.654414534009047
40
0.654414534009047
40
1
40
1
40
1
40
1
41
1
10
29.4817385652382
20
-16.3982679231771
30
-2.5E-15
41
1
10
29.4439829784023
20
-16.3653372748001
30
-2.6E-15
41
1
10
29.4153633114612
20
-16.3215908218683
30
-2.6E-15
41
1
10
29.4019189222528
20
-16.2286661803691
30
-2.6E-15
41
1
10
29.4046028285073
20
-16.1873250377817
30
-2.6E-15
41
1
10
29.4285151705711
20
-16.0968203457302
30
-2.6E-15
41
1
10
29.4501865814623
20
-16.0465148442857
30
-2.5E-15
41
1
10
29.5066253375318
20
-15.9471177412071
30
-2.5E-15
41
1
10
29.5412602515097
20
-15.8970043403242
30
-2.4E-15
41
1
10
29.644005806882
20
-15.7662250750382
30
-2.3E-15
41
1
10
29.7201147296129
20
-15.6860810573193
30
-2.2E-15
41
1
10
29.9335884907791
20
-15.4846534343346
30
-2E-15
41
1
10
30.0802614902479
20
-15.3699294630041
30
-1.8E-15
41
1
10
30.4736341030989
20
-15.0924051460363
30
-1.3E-15
41
1
10
30.7257684021614
20
-14.9462720504936
30
-1.1E-15
41
1
10
30.972499812973
20
-14.8154879240727
30
-8E-16
0
SPLINE
5
128
100
AcDbEntity
8
1
62
256
6
ByLayer
370
18
48
1
60
0
100
AcDbSpline
70
4
71
3
72
10
73
6
40
0
40
0
40
0
40
0
40
0.579529299651686
40
0.579529299651686
40
1
40
1
40
1
40
1
41
1
10
27.6726189091324
20
-6.97697846963115
30
2.5E-15
41
1
10
28.0853229624296
20
-7.19791675172496
30
3E-15
41
1
10
28.5098894470283
20
-7.39318128448636
30
3.5E-15
41
1
10
29.214659599697
20
-7.64267466768897
30
-2.8E-15
41
1
10
29.5083408696683
20
-7.72040295837556
30
-2.5E-15
41
1
10
29.7815434753196
20
-7.76598911018934
30
-2.2E-15
0
SPLINE
5
129
100
AcDbEntity
8
1
62
256
6
ByLayer
370
18
48
1
60
0
100
AcDbSpline
70
4
71
3
72
8
73
4
40
0
40
0
40
0
40
0
40
1
40
1
40
1
40
1
41
1
10
6.45287943664869
20
-17.5213124999109
30
-1.1E-15
41
1
10
6.4403444622327
20
-17.6570621318295
30
-1.1E-15
41
1
10
6.43990778152272
20
-17.791454911742
30
-1.1E-15
41
1
10
6.44970463665118
20
-17.924755845246
30
-1.1E-15
0
SPLINE
5
12A
100
AcDbEntity
8
1
62
256
6
ByLayer
370
18
48
1
60
0
100
AcDbSpline
70
4
71
3
72
10
73
6
40
0
40
0
40
0
40
0
40
0.5
40
0.5
40
1
40
1
40
1
40
1
41
1
10
33.0940605568731
20
-17.0292893872335
30
1.7E-15
41
1
10
32.2048386934941
20
-17.3876416228138
30
7E-16
41
1
10
31.5035019218045
20
-17.3579062211895
30
-1E-16
41
1
10
30.3227900900794
20
-17.0820809534787
30
-1.5E-15
41
1
10
29.8922097451082
20
-16.7451980366233
30
-2E-15
41
1
10
29.4817385652382
20
-16.3982679231771
30
-2.5E-15
0
SPLINE
5
12B
100
AcDbEntity
8
1
62
256
6
ByLayer
370
18
48
1
60
0
100
AcDbSpline
70
4
71
3
72
12
73
8
40
0
40
0
40
0
40
0
40
0.500000000000001
40
0.500000000000001
40
0.75
40
0.75
40
1
40
1
40
1
40
1
41
1
10
31.103391271213
20
-13.3979766722504
30
-6E-16
41
1
10
30.7828211572853
20
-13.1874382926075
30
-1E-15
41
1
10
30.4600758736228
20
-12.9487779697255
30
-1.4E-15
41
1
10
30.0285292936857
20
-12.4314025979407
30
-1.9E-15
41
1
10
29.8912730669898
20
-12.2234159487161
30
-2E-15
41
1
10
29.7788811667969
20
-11.8101667661226
30
-2.2E-15
41
1
10
29.8329253256788
20
-11.6475323657251
30
-2.1E-15
41
1
10
29.9287490016117
20
-11.5572925701655
30
-2E-15
0
SPLINE
5
12C
100
AcDbEntity
8
1
62
256
6
ByLayer
370
18
48
1
60
0
100
AcDbSpline
70
4
71
3
72
10
73
6
40
0
40
0
40
0
40
0
40
0.5
40
0.5
40
1
40
1
40
1
40
1
41
1
10
22.015257906301
20
-12.3829530295446
30
3E-15
41
1
10
21.8477022149551
20
-11.2688972845941
30
2.8E-15
41
1
10
21.2438389410248
20
-10.2415564198607
30
2E-15
41
1
10
19.6049173271299
20
-8.71194010063979
30
1E-16
41
1
10
18.5574093992155
20
-8.18877515896784
30
-1.1E-15
41
1
10
17.4348172765721
20
-8.04459454471461
30
-2.4E-15
0
SPLINE
5
12D
100
AcDbEntity
8
1
62
256
6
ByLayer
370
18
48
1
60
0
100
AcDbSpline
70
4
71
3
72
14
73
10
40
0
40
0
40
0
40
0
40
0.26499896415096
40
0.26499896415096
40
0.633007150607451
40
0.633007150607451
40
0.984533813617854
40
0.984533813617854
40
1
40
1
40
1
40
1
41
1
10
34.203523946432
20
-11.2928419919575
30
3E-15
41
1
10
34.3296201392723
20
-11.3696172583341
30
3.2E-15
41
1
10
34.4568341188494
20
-11.4636641506158
30
3.3E-15
41
1
10
34.7494676200282
20
-11.7231590643016
30
-3.4E-15
41
1
10
34.9145318456937
20
-11.906495490979
30
-3.3E-15
41
1
10
35.1997806069369
20
-12.2961764175597
30
-2.9E-15
41
1
10
35.3251799130857
20
-12.5054465043767
30
-2.8E-15
41
1
10
35.4355545827282
20
-12.7268744067918
30
-2.6E-15
41
1
10
35.4402155759501
20
-12.7363060436513
30
-2.6E-15
41
1
10
35.4448413811373
20
-12.7457472945184
30
-2.6E-15
0
SPLINE
5
12E
100
AcDbEntity
8
1
62
256
6
ByLayer
370
18
48
1
60
0
100
AcDbSpline
70
4
71
3
72
10
73
6
40
0
40
0
40
0
40
0
40
0.731096563947358
40
0.731096563947358
40
1
40
1
40
1
40
1
41
1
10
10.0780289764544
20
-15.8641636144839
30
3.2E-15
41
1
10
10.0025534327571
20
-15.8281605917167
30
3.1E-15
41
1
10
9.92091288667564
20
-15.7935298545783
30
3E-15
41
1
10
9.81097328480359
20
-15.7515028130959
30
2.9E-15
41
1
10
9.78110742802448
20
-15.7405353905323
30
2.8E-15
41
1
10
9.75149539601807
20
-15.7300502016249
30
2.8E-15
0
SPLINE
5
12F
100
AcDbEntity
8
1
62
256
6
ByLayer
370
18
48
1
60
0
100
AcDbSpline
70
4
71
3
72
8
73
4
40
0
40
0
40
0
40
0
40
1
40
1
40
1
40
1
41
1
10
10.3176346863148
20
-9.59894871532657
30
3.5E-15
41
1
10
10.0417754596841
20
-9.63099955035244
30
3.1E-15
41
1
10
9.76764235831979
20
-9.6254816103075
30
2.8E-15
41
1
10
9.50514128295612
20
-9.59150321219445
30
2.5E-15
0
SPLINE
5
130
100
AcDbEntity
8
1
62
256
6
ByLayer
370
18
48
1
60
0
100
AcDbSpline
70
4
71
1
72
4
73
2
40
0
40
0
40
1
40
1
41
1
10
17.3700247677213
20
-6.07715007518269
30
-2.5E-15
41
1
10
17.1068832050271
20
-3.69398915350084
30
-2.8E-15
0
SPLINE
5
131
100
AcDbEntity
8
1
62
256
6
ByLayer
370
18
48
1
60
0
100
AcDbSpline
70
4
71
3
72
11
73
7
40
0
40
0
40
0
40
0
40
0.425230898251463
40
0.744154071940061
40
0.956769521065793
40
1
40
1
40
1
40
1
41
1.0258173342201
10
16.1060002396675
20
-19.7661181356877
30
3.1E-15
41
1.02559001729416
10
17.2497709914716
20
-19.7634322902788
30
-2.6E-15
41
1.0228008665691
10
21.2453059449753
20
-18.9895535158038
30
2.1E-15
41
1.01953314781965
10
26.7772230755916
20
-17.1921987739264
30
1.4E-15
41
1.01775466813745
10
28.7039449245141
20
-16.5320671483024
30
-3.4E-15
41
1.01823166218985
10
29.3713481298487
20
-16.4149509254851
30
-2.6E-15
41
1.01834276704992
10
29.4817385652383
20
-16.3982679231771
30
-2.5E-15
0
SPLINE
5
132
100
AcDbEntity
8
1
62
256
6
ByLayer
370
18
48
1
60
0
100
AcDbSpline
70
4
71
3
72
8
73
4
40
0
40
0
40
0
40
0
40
1
40
1
40
1
40
1
41
1
10
28.7234241196152
20
-19.2250721761978
30
-3.4E-15
41
1
10
28.8860529896366
20
-19.2072372046458
30
-3.2E-15
41
1
10
29.048724303223
20
-19.1863511163114
30
-3E-15
41
1
10
29.211239060143
20
-19.1609943539067
30
-2.8E-15
0
SPLINE
5
133
100
AcDbEntity
8
1
62
256
6
ByLayer
370
18
48
1
60
0
100
AcDbSpline
70
4
71
2
72
6
73
3
40
0
40
0
40
0
40
1
40
1
40
1
41
0.943993461863076
10
16.4924673206692
20
-18.2499332560082
30
-3.5E-15
41
0.955129617927099
10
16.2946299385619
20
-19.3113747589621
30
3.4E-15
41
1.0258173342201
10
16.1060002396675
20
-19.7661181356877
30
3.1E-15
0
SPLINE
5
134
100
AcDbEntity
8
1
62
256
6
ByLayer
370
18
48
1
60
0
100
AcDbSpline
70
4
71
3
72
8
73
4
40
0
40
0
40
0
40
0
40
1
40
1
40
1
40
1
41
1
10
16.4924673208257
20
-18.249933256015
30
-3.5E-15
41
1
10
16.4166798362269
20
-18.2467531607339
30
3.5E-15
41
1
10
16.3411872287152
20
-18.2420626206242
30
3.4E-15
41
1
10
16.2659930304851
20
-18.2358490040501
30
3.3E-15
0
SPLINE
5
135
100
AcDbEntity
8
1
62
256
6
ByLayer
370
18
48
1
60
0
100
AcDbSpline
70
4
71
3
72
8
73
4
40
0
40
0
40
0
40
0
40
1
40
1
40
1
40
1
41
1
10
15.0348162030413
20
-7.84092078792011
30
1.9E-15
41
1
10
13.7671467513722
20
-7.7361678668068
30
4E-16
41
1
10
12.5435980579701
20
-8.18496016700317
30
-1E-15
41
1
10
11.6300675951958
20
-8.99120805511367
30
-2.1E-15
0
SPLINE
5
136
100
AcDbEntity
8
1
62
256
6
ByLayer
370
18
48
1
60
0
100
AcDbSpline
70
4
71
3
72
8
73
4
40
0
40
0
40
0
40
0
40
1
40
1
40
1
40
1
41
1
10
15.4844345750635
20
-21.2645718300714
30
2.4E-15
41
1
10
19.2278563638335
20
-21.5515348974307
30
-3E-16
41
1
10
22.9372686186449
20
-20.9564376068273
30
-3.1E-15
41
1
10
26.4918547551214
20
-19.7642641848324
30
1.1E-15
0
SPLINE
5
137
100
AcDbEntity
8
1
62
256
6
ByLayer
370
18
48
1
60
0
100
AcDbSpline
70
4
71
3
72
16
73
12
40
0
40
0
40
0
40
0
40
0.474320436274419
40
0.474320436274419
40
0.658954025821058
40
0.658954025821058
40
0.845504004041774
40
0.845504004041774
40
0.957858191960718
40
0.957858191960718
40
1
40
1
40
1
40
1
41
1
10
7.72314680502791
20
-5.32850815123291
30
4E-16
41
1
10
7.71552079716457
20
-5.4447849203176
30
4E-16
41
1
10
7.69429487725097
20
-5.58881194711256
30
4E-16
41
1
10
7.64776104857452
20
-5.83613396993943
30
3E-16
41
1
10
7.63265322772924
20
-5.91209212222395
30
3E-16
41
1
10
7.59931591308759
20
-6.07445604686527
30
3E-16
41
1
10
7.58078164239737
20
-6.16278422295053
30
3E-16
41
1
10
7.54868795532184
20
-6.30810362069425
30
2E-16
41
1
10
7.53579084356557
20
-6.36483406352508
30
2E-16
41
1
10
7.51710093639542
20
-6.44008376094789
30
2E-16
41
1
10
7.51183044319544
20
-6.4605810142034
30
2E-16
41
1
10
7.5064603167956
20
-6.48044093505411
30
2E-16
0
SPLINE
5
138
100
AcDbEntity
8
1
62
256
6
ByLayer
370
18
48
1
60
0
100
AcDbSpline
70
4
71
3
72
10
73
6
40
0
40
0
40
0
40
0
40
0.311681797709781
40
0.311681797709781
40
1
40
1
40
1
40
1
41
1
10
32.2930224903506
20
-14.1426651899847
30
8E-16
41
1
10
32.1694375964419
20
-14.0691008904243
30
6E-16
41
1
10
32.0458256158241
20
-13.9942537952436
30
5E-16
41
1
10
31.649244358819
20
-13.7504336807072
30
0
41
1
10
31.3762038004901
20
-13.5772266765978
30
-3E-16
41
1
10
31.103391271213
20
-13.3979766722504
30
-6E-16
0
SPLINE
5
139
100
AcDbEntity
8
1
62
256
6
ByLayer
370
18
48
1
60
0
100
AcDbSpline
70
4
71
3
72
14
73
10
40
0
40
0
40
0
40
0
40
0.0560617400824661
40
0.0560617400824661
40
0.432699965147821
40
0.432699965147821
40
0.811345304670916
40
0.811345304670916
40
1
40
1
40
1
40
1
41
1
10
35.22190632011
20
-15.1600603574711
30
-2.9E-15
41
1
10
35.1993481127593
20
-15.1891728578225
30
-2.9E-15
41
1
10
35.1763451086356
20
-15.218207307457
30
-2.9E-15
41
1
10
34.9970043299917
20
-15.4395051441436
30
-3.2E-15
41
1
10
34.8188082726546
20
-15.6294975998636
30
-3.4E-15
41
1
10
34.4404019479795
20
-15.9712907187958
30
3.3E-15
41
1
10
34.2348892628672
20
-16.1272460007317
30
3.1E-15
41
1
10
33.9314122273089
20
-16.316972605579
30
2.7E-15
41
1
10
33.8296415738506
20
-16.3739279395948
30
2.6E-15
41
1
10
33.7297484267715
20
-16.4236743552093
30
2.5E-15
0
SPLINE
5
13A
100
AcDbEntity
8
1
62
256
6
ByLayer
370
18
48
1
60
0
100
AcDbSpline
70
4
71
3
72
8
73
4
40
0
40
0
40
0
40
0
40
1
40
1
40
1
40
1
41
1
10
6.23004175462859
20
-19.8801335894493
30
-1.3E-15
41
1
10
6.20218588130354
20
-19.8663971561764
30
-1.4E-15
41
1
10
6.17429584218416
20
-19.8523163368946
30
-1.4E-15
41
1
10
6.14637746867095
20
-19.8378803821013
30
-1.4E-15
0
SPLINE
5
13B
100
AcDbEntity
8
1
62
256
6
ByLayer
370
18
48
1
60
0
100
AcDbSpline
70
4
71
2
72
10
73
7
40
0
40
0
40
0
40
0.030364284240822
40
0.030364284240822
40
0.440077053271163
40
0.440077053271163
40
1
40
1
40
1
41
1
10
30.2551331134843
20
-7.85589381290015
30
-1.6E-15
41
1
10
30.2894552443324
20
-7.87920086545086
30
-1.6E-15
41
1
10
30.3228526167195
20
-7.9021103568904
30
-1.5E-15
41
1
10
30.8878386617188
20
-8.28967207316373
30
-9E-16
41
1
10
31.5849816625671
20
-8.82732746558236
30
0
41
1
10
32.7868031245386
20
-9.75420443195378
30
1.4E-15
41
1
10
33.6900854484367
20
-10.5954240082414
30
2.4E-15
0
SPLINE
5
13C
100
AcDbEntity
8
1
62
256
6
ByLayer
370
18
48
1
60
0
100
AcDbSpline
70
4
71
3
72
8
73
4
40
0
40
0
40
0
40
0
40
1
40
1
40
1
40
1
41
1
10
17.4348172774316
20
-8.04459447372199
30
-2.4E-15
41
1
10
17.444661650801
20
-7.23151777310048
30
-2.4E-15
41
1
10
17.4222101384085
20
-6.54977072405256
30
-2.4E-15
41
1
10
17.3700247677213
20
-6.07715007518266
30
-2.5E-15
0
SPLINE
5
13D
100
AcDbEntity
8
1
62
256
6
ByLayer
370
18
48
1
60
0
100
AcDbSpline
70
4
71
3
72
16
73
12
40
0
40
0
40
0
40
0
40
0.107738294188996
40
0.107738294188996
40
0.260376815889418
40
0.260376815889418
40
0.501548994683957
40
0.501548994683957
40
0.879664328740044
40
0.879664328740044
40
1
40
1
40
1
40
1
41
1
10
6.44970463665118
20
-17.924755845246
30
-1.1E-15
41
1
10
6.45365798097686
20
-17.9785470345778
30
-1.1E-15
41
1
10
6.45647699856215
20
-18.0343383628945
30
-1.1E-15
41
1
10
6.46212772660522
20
-18.1622572300818
30
-1.1E-15
41
1
10
6.46463260383359
20
-18.2343461785488
30
-1.1E-15
41
1
10
6.47042279003568
20
-18.4041780306322
30
-1E-15
41
1
10
6.47335706094066
20
-18.4965624308991
30
-1E-15
41
1
10
6.47806611231351
20
-18.7002677770997
30
-1E-15
41
1
10
6.47798856919303
20
-18.7972002875863
30
-1E-15
41
1
10
6.47128014047314
20
-18.8957210516129
30
-1E-15
41
1
10
6.46915093285452
20
-18.917530713943
30
-1E-15
41
1
10
6.46651508447167
20
-18.937414548873
30
-1.1E-15
0
SPLINE
5
13E
100
AcDbEntity
8
1
62
256
6
ByLayer
370
18
48
1
60
0
100
AcDbSpline
70
4
71
3
72
11
73
7
40
0
40
0
40
0
40
0
40
0.425230898249526
40
0.744154071936671
40
0.956769521061435
40
1
40
1
40
1
40
1
41
1.0258173342201
10
17.3700247677213
20
-6.07715007518267
30
-2.5E-15
41
1.02559001729416
10
18.4945364128775
20
-6.28303399346549
30
-1.2E-15
41
1.0228008665691
10
22.2767263329328
20
-7.8196114529366
30
3.3E-15
41
1.01953314781965
10
27.3989779041651
20
-10.4587993817456
30
2.2E-15
41
1.01775466813744
10
29.1825421241825
20
-11.3490175837183
30
-2.9E-15
41
1.01823166218986
10
29.8223770003265
20
-11.5304572585502
30
-2.1E-15
41
1.01834276704995
10
29.9287490016115
20
-11.5572925701655
30
-2E-15
0
SPLINE
5
13F
100
AcDbEntity
8
1
62
256
6
ByLayer
370
18
48
1
60
0
100
AcDbSpline
70
4
71
3
72
11
73
7
40
0
40
0
40
0
40
0
40
0.0598016998824416
40
0.46839221502871
40
0.740785891792889
40
1
40
1
40
1
40
1
41
1.0229825050537
10
21.7833023725964
20
-14.8949548307058
30
2.7E-15
41
1.02281639303114
10
22.0280759968316
20
-14.9012301252409
30
3E-15
41
1.02150796927553
10
23.9651759536161
20
-14.9444978579731
30
-1.9E-15
41
1.01953314781965
10
27.1254079652885
20
-14.9261567588736
30
1.8E-15
41
1.01726237988674
10
29.4723633258881
20
-14.8255065791072
30
-2.5E-15
41
1.01931548101018
10
30.350993652986
20
-14.8322359109259
30
-1.5E-15
41
1.02052415826821
10
30.972499812973
20
-14.8154879240727
30
-8E-16
0
SPLINE
5
140
100
AcDbEntity
8
1
62
256
6
ByLayer
370
18
48
1
60
0
100
AcDbSpline
70
4
71
3
72
8
73
4
40
0
40
0
40
0
40
0
40
1
40
1
40
1
40
1
41
1
10
17.4348172765721
20
-8.04459454471461
30
-2.4E-15
41
1
10
17.3599686973384
20
-8.03486303073205
30
-2.5E-15
41
1
10
17.2847861666256
20
-8.02684538032258
30
-2.6E-15
41
1
10
17.209257709603
20
-8.0206041425221
30
-2.7E-15
0
SPLINE
5
141
100
AcDbEntity
8
1
62
256
6
ByLayer
370
18
48
1
60
0
100
AcDbSpline
70
4
71
3
72
10
73
6
40
0
40
0
40
0
40
0
40
0.5
40
0.5
40
1
40
1
40
1
40
1
41
1
10
27.6726189091324
20
-6.97697846963115
30
2.5E-15
41
1
10
26.0367480941862
20
-6.10122625761846
30
6E-16
41
1
10
24.3403821227226
20
-5.37878389639775
30
-1.4E-15
41
1
10
20.816665242256
20
-4.26584775275595
30
1.5E-15
41
1
10
18.9763823196586
20
-3.85965875573538
30
-6E-16
41
1
10
17.1068832050271
20
-3.69398915350084
30
-2.8E-15
0
SPLINE
5
142
100
AcDbEntity
8
1
62
256
6
ByLayer
370
18
48
1
60
0
100
AcDbSpline
70
4
71
3
72
8
73
4
40
0
40
0
40
0
40
0
40
1
40
1
40
1
40
1
41
1
10
10.9356396105691
20
-16.5116337200423
30
-2.9E-15
41
1
10
11.6957181233649
20
-17.3917639812214
30
-2E-15
41
1
10
12.8097313945817
20
-17.9502433976234
30
-7E-16
41
1
10
14.0915515239233
20
-18.0561656494482
30
8E-16
0
SPLINE
5
143
100
AcDbEntity
8
1
62
256
6
ByLayer
370
18
48
1
60
0
100
AcDbSpline
70
4
71
3
72
8
73
4
40
0
40
0
40
0
40
0
40
1
40
1
40
1
40
1
41
1
10
10.9356396105691
20
-16.5116337200423
30
-2.9E-15
41
1
10
10.7077893047826
20
-16.2477952536662
30
-3.2E-15
41
1
10
10.4118412917872
20
-16.0233973450429
30
-3.5E-15
41
1
10
10.0780289764544
20
-15.8641636144839
30
3.2E-15
0
SPLINE
5
144
100
AcDbEntity
8
1
62
256
6
ByLayer
370
18
48
1
60
0
100
AcDbSpline
70
4
71
2
72
8
73
5
40
0
40
0
40
0
40
0.210534309729082
40
0.210534309729082
40
1
40
1
40
1
41
1
10
33.0963672465564
20
-17.026191675555
30
1.7E-15
41
1
10
32.6731099083666
20
-17.3035905053046
30
1.2E-15
41
1
10
32.2379270351171
20
-17.5620534792599
30
7E-16
41
1
10
30.662245336507
20
-18.4978793190698
30
-1.1E-15
41
1
10
29.2109881856689
20
-19.159287799387
30
-2.8E-15
0
SPLINE
5
145
100
AcDbEntity
8
1
62
256
6
ByLayer
370
18
48
1
60
0
100
AcDbSpline
70
4
71
3
72
8
73
4
40
0
40
0
40
0
40
0
40
1
40
1
40
1
40
1
41
1
10
10.6630947472747
20
-9.52809459659798
30
-3.2E-15
41
1
10
9.53174561986509
20
-7.92299142992462
30
2.5E-15
41
1
10
8.39155423288753
20
-6.32468113759541
30
1.2E-15
41
1
10
7.72314680502791
20
-5.32850815123291
30
4E-16
0
SPLINE
5
146
100
AcDbEntity
8
1
62
256
6
ByLayer
370
18
48
1
60
0
100
AcDbSpline
70
4
71
3
72
8
73
4
40
0
40
0
40
0
40
0
40
1
40
1
40
1
40
1
41
1
10
9.40418558040301
20
-2.77693209240056
30
2.4E-15
41
1
10
8.90503123884002
20
-2.6868511590651
30
1.8E-15
41
1
10
8.3282187381198
20
-2.65739002567611
30
1.1E-15
41
1
10
7.72074497018662
20
-2.78800044272475
30
4E-16
0
SPLINE
5
147
100
AcDbEntity
8
1
62
256
6
ByLayer
370
18
48
1
60
0
100
AcDbSpline
70
4
71
3
72
8
73
4
40
0
40
0
40
0
40
0
40
1
40
1
40
1
40
1
41
1
10
28.7234241196152
20
-19.2250721761978
30
-3.4E-15
41
1
10
28.0500264644496
20
-19.2989214750428
30
2.9E-15
41
1
10
27.2729317478156
20
-19.5022986013665
30
2E-15
41
1
10
26.4918547551214
20
-19.7642641848324
30
1.1E-15
0
SPLINE
5
148
100
AcDbEntity
8
1
62
256
6
ByLayer
370
18
48
1
60
0
100
AcDbSpline
70
4
71
3
72
8
73
4
40
0
40
0
40
0
40
0
40
1
40
1
40
1
40
1
41
1
10
9.75149539601807
20
-15.7300502016249
30
2.8E-15
41
1
10
8.52743878994028
20
-16.608355765772
30
1.4E-15
41
1
10
7.34524028170949
20
-17.3978562085442
30
0
41
1
10
6.44970463665118
20
-17.924755845246
30
-1.1E-15
0
SPLINE
5
149
100
AcDbEntity
8
1
62
256
6
ByLayer
370
18
48
1
60
0
100
AcDbSpline
70
4
71
3
72
10
73
6
40
0
40
0
40
0
40
0
40
0.537616842495196
40
0.537616842495196
40
1
40
1
40
1
40
1
41
1
10
14.7286149882045
20
-13.9540837386879
30
1.5E-15
41
1
10
14.7312293970159
20
-13.9659102399729
30
1.5E-15
41
1
10
14.7334628901564
20
-13.9775190486126
30
1.5E-15
41
1
10
14.7369990091594
20
-13.9986128683514
30
1.5E-15
41
1
10
14.7383919511466
20
-14.0081905471155
30
1.5E-15
41
1
10
14.7395716040468
20
-14.0175792333374
30
1.5E-15
0
SPLINE
5
14A
100
AcDbEntity
8
1
62
256
6
ByLayer
370
18
48
1
60
0
100
AcDbSpline
70
4
71
3
72
10
73
6
40
0
40
0
40
0
40
0
40
0.769561481283194
40
0.769561481283194
40
1
40
1
40
1
40
1
41
1
10
15.6270897472627
20
-14.6368065166012
30
2.6E-15
41
1
10
15.6397279523837
20
-14.6313823031957
30
2.6E-15
41
1
10
15.6532378496402
20
-14.6264327211221
30
2.6E-15
41
1
10
15.672034244624
20
-14.620909190192
30
2.6E-15
41
1
10
15.6764618068805
20
-14.6196966044115
30
2.6E-15
41
1
10
15.6809785822617
20
-14.618554122233
30
2.6E-15
0
SPLINE
5
14B
100
AcDbEntity
8
1
62
256
6
ByLayer
370
18
48
1
60
0
100
AcDbSpline
70
4
71
3
72
10
73
6
40
0
40
0
40
0
40
0
40
0.355593196477787
40
0.355593196477787
40
1
40
1
40
1
40
1
41
1
10
14.5855897369271
20
-13.6846255953904
30
1.4E-15
41
1
10
14.5898781136909
20
-13.6886292398493
30
1.4E-15
41
1
10
14.5941862110072
20
-13.692838287916
30
1.4E-15
41
1
10
14.6063077689123
20
-13.7052707570268
30
1.4E-15
41
1
10
14.614175588552
20
-13.7140233192895
30
1.4E-15
41
1
10
14.6220282393972
20
-13.7236121485237
30
1.4E-15
0
SPLINE
5
14C
100
AcDbEntity
8
1
62
256
6
ByLayer
370
18
48
1
60
0
100
AcDbSpline
70
4
71
3
72
10
73
6
40
0
40
0
40
0
40
0
40
0.355593196478025
40
0.355593196478025
40
1
40
1
40
1
40
1
41
1
10
17.2940363447583
20
-12.8166602990299
30
-2.6E-15
41
1
10
17.2886309058955
20
-12.811539592472
30
-2.6E-15
41
1
10
17.2832359092616
20
-12.8062436450877
30
-2.6E-15
41
1
10
17.268171259479
20
-12.7908680840993
30
-2.6E-15
41
1
10
17.2585263068495
20
-12.7803383888468
30
-2.6E-15
41
1
10
17.2490752652086
20
-12.7691511688168
30
-2.6E-15
0
SPLINE
5
14D
100
AcDbEntity
8
1
62
256
6
ByLayer
370
18
48
1
60
0
100
AcDbSpline
70
4
71
3
72
10
73
6
40
0
40
0
40
0
40
0
40
0.201157530231803
40
0.201157530231803
40
1
40
1
40
1
40
1
41
1
10
14.898313030508
20
-12.2984620260079
30
1.7E-15
41
1
10
14.8971081433689
20
-12.3018371638103
30
1.7E-15
41
1
10
14.8958560853742
20
-12.3052490312927
30
1.7E-15
41
1
10
14.889411168017
20
-12.3223268580488
30
1.7E-15
41
1
10
14.8834730928293
20
-12.3365938656656
30
1.7E-15
41
1
10
14.8766014094378
20
-12.3514396849604
30
1.7E-15
0
SPLINE
5
14E
100
AcDbEntity
8
1
62
256
6
ByLayer
370
18
48
1
60
0
100
AcDbSpline
70
4
71
3
72
10
73
6
40
0
40
0
40
0
40
0
40
0.276054056492469
40
0.276054056492469
40
1
40
1
40
1
40
1
41
1
10
17.1417152553362
20
-13.9318246086898
30
-2.8E-15
41
1
10
17.1465472025602
20
-13.9283752125768
30
-2.8E-15
41
1
10
17.1513880782339
20
-13.9250830605673
30
-2.7E-15
41
1
10
17.1688458647074
20
-13.9137417392533
30
-2.7E-15
41
1
10
17.1814764141988
20
-13.9065360104825
30
-2.7E-15
41
1
10
17.1939863667733
20
-13.9001685084555
30
-2.7E-15
0
SPLINE
5
14F
100
AcDbEntity
8
1
62
256
6
ByLayer
370
18
48
1
60
0
100
AcDbSpline
70
4
71
3
72
10
73
6
40
0
40
0
40
0
40
0
40
0.276054056492022
40
0.276054056492022
40
1
40
1
40
1
40
1
41
1
10
14.7293882492693
20
-12.5609387086505
30
1.5E-15
41
1
10
14.7252444164448
20
-12.565076219163
30
1.5E-15
41
1
10
14.7211246502978
20
-12.5690894806993
30
1.5E-15
41
1
10
14.7063689261669
20
-12.5831328643558
30
1.5E-15
41
1
10
14.6958841071151
20
-12.5924843235661
30
1.5E-15
41
1
10
14.6856397149143
20
-12.6011173859669
30
1.5E-15
0
SPLINE
5
150
100
AcDbEntity
8
1
62
256
6
ByLayer
370
18
48
1
60
0
100
AcDbSpline
70
4
71
3
72
10
73
6
40
0
40
0
40
0
40
0
40
0.537616842494914
40
0.537616842494914
40
1
40
1
40
1
40
1
41
1
10
17.1424885164013
20
-12.5386795786526
30
-2.8E-15
41
1
10
17.1412091955798
20
-12.5281881653576
30
-2.8E-15
41
1
10
17.1404354497244
20
-12.5180391040031
30
-2.8E-15
41
1
10
17.1397781152871
20
-12.4998240688299
30
-2.8E-15
41
1
10
17.1397844650811
20
-12.4916456818469
30
-2.8E-15
41
1
10
17.1400544776408
20
-12.483706661085
30
-2.8E-15
0
SPLINE
5
151
100
AcDbEntity
8
1
62
256
6
ByLayer
370
18
48
1
60
0
100
AcDbSpline
70
4
71
3
72
10
73
6
40
0
40
0
40
0
40
0
40
0.769561481283283
40
0.769561481283283
40
1
40
1
40
1
40
1
41
1
10
16.2525363344235
20
-11.8644793778199
30
3.3E-15
41
1
10
16.237487788795
20
-11.867493250718
30
3.3E-15
41
1
10
16.2217024257293
20
-11.8701673669822
30
3.3E-15
41
1
10
16.2002383863904
20
-11.8730232535572
30
3.2E-15
41
1
10
16.1952148284734
20
-11.8736398436772
30
3.2E-15
41
1
10
16.1901249223439
20
-11.8742091951073
30
3.2E-15
0
SPLINE
5
152
100
AcDbEntity
8
1
62
256
6
ByLayer
370
18
48
1
60
0
100
AcDbSpline
70
4
71
3
72
10
73
6
40
0
40
0
40
0
40
0
40
0.201157530231516
40
0.201157530231516
40
1
40
1
40
1
40
1
41
1
10
16.9813130511788
20
-14.2028238684138
30
-2.9E-15
41
1
10
16.9818852356618
20
-14.1988160279553
30
-2.9E-15
41
1
10
16.9825143655602
20
-14.1947812323765
30
-2.9E-15
41
1
10
16.9859297339967
20
-14.1746738566998
30
-2.9E-15
41
1
10
16.9896118469677
20
-14.1581508868662
30
-2.9E-15
41
1
10
16.9945020951679
20
-14.1413236323801
30
-2.9E-15
0
SPLINE
5
153
100
AcDbEntity
8
1
62
256
6
ByLayer
370
18
48
1
60
0
100
AcDbSpline
70
4
71
3
72
10
73
6
40
0
40
0
40
0
40
0
40
0.230438518716907
40
0.230438518716907
40
1
40
1
40
1
40
1
41
1
10
15.9363250133672
20
-11.8532366286322
30
2.9E-15
41
1
10
15.9320378571942
20
-11.8518924106418
30
2.9E-15
41
1
10
15.9278494893556
20
-11.850514599897
30
2.9E-15
41
1
10
15.9101258566978
20
-11.8444204692294
30
2.9E-15
41
1
10
15.8975364332892
20
-11.8394016236153
30
2.9E-15
41
1
10
15.8858811517041
20
-11.8341810998417
30
2.9E-15
0
SPLINE
5
154
100
AcDbEntity
8
1
62
256
6
ByLayer
370
18
48
1
60
0
100
AcDbSpline
70
4
71
3
72
10
73
6
40
0
40
0
40
0
40
0
40
0.230438518716874
40
0.230438518716874
40
1
40
1
40
1
40
1
41
1
10
15.9347784912383
20
-14.6395266887082
30
2.9E-15
41
1
10
15.9396387781596
20
-14.6414440374469
30
2.9E-15
41
1
10
15.9444231416588
20
-14.6434178438523
30
2.9E-15
41
1
10
15.9648144186716
20
-14.6521796188749
30
3E-15
41
1
10
15.9796793078896
20
-14.6594739302983
30
3E-15
41
1
10
15.9937449299822
20
-14.6671047945795
30
3E-15
0
LINE
5
72
100
AcDbEntity
8
1
62
256
6
ByLayer
370
18
48
1
60
0
100
AcDbLine
10
6.228393
20
-19.87928
30
0
11
7.291241
21
-20.403094
31
0
39
0
210
0
220
0
230
1
0
LINE
5
74
100
AcDbEntity
8
1
62
256
6
ByLayer
370
18
48
1
60
0
100
AcDbLine
10
15.556454
20
-11.540452
30
0
11
15.758195
21
-11.742193
31
0
39
0
210
0
220
0
230
1
0
LINE
5
75
100
AcDbEntity
8
1
62
256
6
ByLayer
370
18
48
1
60
0
100
AcDbLine
10
14.595051
20
-13.69377
30
0
11
14.394494
21
-13.493213
31
0
39
0
210
0
220
0
230
1
0
LINE
5
76
100
AcDbEntity
8
1
62
256
6
ByLayer
370
18
48
1
60
0
100
AcDbLine
10
17.08165
20
-12.604591
30
0
11
17.283183
21
-12.806125
31
0
39
0
210
0
220
0
230
1
0
LINE
5
77
100
AcDbEntity
8
1
62
256
6
ByLayer
370
18
48
1
60
0
100
AcDbLine
10
16.121431
20
-14.759093
30
0
11
15.91969
21
-14.557352
31
0
39
0
210
0
220
0
230
1
0
LINE
5
78
100
AcDbEntity
8
1
62
256
6
ByLayer
370
18
48
1
60
0
100
AcDbLine
10
12.114231
20
-16.496129
30
0
11
12.270998
21
-16.652896
31
0
39
0
210
0
220
0
230
1
0
LINE
5
79
100
AcDbEntity
8
1
62
256
6
ByLayer
370
18
48
1
60
0
100
AcDbLine
10
19.342066
20
-9.581828
30
0
11
19.180116
21
-9.419878
31
0
39
0
210
0
220
0
230
1
0
LINE
5
7A
100
AcDbEntity
8
1
62
256
6
ByLayer
370
18
48
1
60
0
100
AcDbLine
10
10.105305
20
-15.87735
30
0
11
9.70188
21
-15.678526
31
0
39
0
210
0
220
0
230
1
0
LINE
5
7B
100
AcDbEntity
8
1
62
256
6
ByLayer
370
18
48
1
60
0
100
AcDbLine
10
10.110102
20
-15.879714
30
0
11
10.105305
21
-15.87735
31
0
39
0
210
0
220
0
230
1
0
LINE
5
7C
100
AcDbEntity
8
80
62
256
6
ByLayer
370
18
48
1
60
0
100
AcDbLine
10
0
20
0
30
0
11
-5
21
0
31
0
39
0
210
0
220
0
230
1
0
LINE
5
7D
100
AcDbEntity
8
81
62
256
6
ByLayer
370
18
48
1
60
0
100
AcDbLine
10
33.142165
20
-24.425
30
0
11
43.142165
21
-24.425
31
0
39
0
210
0
220
0
230
1
0
LINE
5
7E
100
AcDbEntity
8
1
62
256
6
ByLayer
370
18
48
1
60
0
100
AcDbLine
10
0
20
-14.873848
30
0
11
0
21
15.925
31
0
39
0
210
0
220
0
230
1
0
LINE
5
7F
100
AcDbEntity
8
1
62
256
6
ByLayer
370
18
48
1
60
0
100
AcDbLine
10
2.785137
20
15.937153
30
0
11
0
21
-14.873848
31
0
39
0
210
0
220
0
230
1
0
LINE
5
80
100
AcDbEntity
8
1
62
256
6
ByLayer
370
18
48
1
60
0
100
AcDbLine
10
29.316752
20
-21.80408
30
0
11
27.079736
21
-19.58669
31
0
39
0
210
0
220
0
230
1
0
LINE
5
81
100
AcDbEntity
8
1
62
256
6
ByLayer
370
18
48
1
60
0
100
AcDbLine
10
0
20
15.925
30
0
11
2.785137
21
15.937153
31
0
39
0
210
0
220
0
230
1
0
LINE
5
82
100
AcDbEntity
8
1
62
256
6
ByLayer
370
18
48
1
60
0
100
AcDbLine
10
32.159965
20
-2.963627
30
0
11
27.989687
21
-7.133906
31
0
39
0
210
0
220
0
230
1
0
LINE
5
83
100
AcDbEntity
8
1
62
256
6
ByLayer
370
18
48
1
60
0
100
AcDbLine
10
29.316752
20
-21.80408
30
0
11
20.821279
21
-21.060822
31
0
39
0
210
0
220
0
230
1
0
LINE
5
84
100
AcDbEntity
8
1
62
256
6
ByLayer
370
18
48
1
60
0
100
AcDbLine
10
0
20
-15.925
30
0
11
3.631951
21
-19.556951
31
0
39
0
210
0
220
0
230
1
0
LINE
5
85
100
AcDbEntity
8
1
62
256
6
ByLayer
370
18
48
1
60
0
100
AcDbLine
10
8.782474
20
15.934551
30
0
11
2.785137
21
15.937153
31
0
39
0
210
0
220
0
230
1
0
LINE
5
86
100
AcDbEntity
8
1
62
256
6
ByLayer
370
18
48
1
60
0
100
AcDbLine
10
12.032522
20
-0.604227
30
0
11
11.790914
21
-3.220763
31
0
39
0
210
0
220
0
230
1
0
LINE
5
87
100
AcDbEntity
8
1
62
256
6
ByLayer
370
18
48
1
60
0
100
AcDbLine
10
20.916544
20
8.279794
30
0
11
12.032522
21
-0.604227
31
0
39
0
210
0
220
0
230
1
0
LINE
5
88
100
AcDbEntity
8
1
62
256
6
ByLayer
370
18
48
1
60
0
100
AcDbLine
10
28.002292
20
-7.140263
30
0
11
29.261328
21
-5.881226
31
0
39
0
210
0
220
0
230
1
0
LINE
5
89
100
AcDbEntity
8
1
62
256
6
ByLayer
370
18
48
1
60
0
100
AcDbLine
10
9.68913
20
15.938566
30
0
11
9.66755
21
15.937693
31
0
39
0
210
0
220
0
230
1
0
LINE
5
8A
100
AcDbEntity
8
1
62
256
6
ByLayer
370
18
48
1
60
0
100
AcDbLine
10
32.221391
20
-3.025053
30
0
11
32.159965
21
-2.963627
31
0
39
0
210
0
220
0
230
1
0
LINE
5
8B
100
AcDbEntity
8
1
62
256
6
ByLayer
370
18
48
1
60
0
100
AcDbLine
10
9.68913
20
15.938566
30
0
11
7.963956
21
-2.744494
31
0
39
0
210
0
220
0
230
1
0
LINE
5
8C
100
AcDbEntity
8
1
62
256
6
ByLayer
370
18
48
1
60
0
100
AcDbLine
10
11.726076
20
15.945798
30
0
11
9.68913
21
15.938566
31
0
39
0
210
0
220
0
230
1
0
LINE
5
8D
100
AcDbEntity
8
1
62
256
6
ByLayer
370
18
48
1
60
0
100
AcDbLine
10
0
20
-15.925
30
0
11
0
21
-14.873848
31
0
39
0
210
0
220
0
230
1
0
LINE
5
8E
100
AcDbEntity
8
1
62
256
6
ByLayer
370
18
48
1
60
0
100
AcDbLine
10
20.916544
20
8.279794
30
0
11
32.159965
21
-2.963627
31
0
39
0
210
0
220
0
230
1
0
LINE
5
8F
100
AcDbEntity
8
1
62
256
6
ByLayer
370
18
48
1
60
0
100
AcDbLine
10
9.66755
20
15.937693
30
0
11
7.942096
21
-2.748402
31
0
39
0
210
0
220
0
230
1
0
LINE
5
90
100
AcDbEntity
8
1
62
256
6
ByLayer
370
18
48
1
60
0
100
AcDbLine
10
11.726076
20
15.945798
30
0
11
13.25054
21
15.945798
31
0
39
0
210
0
220
0
230
1
0
LINE
5
91
100
AcDbEntity
8
1
62
256
6
ByLayer
370
18
48
1
60
0
100
AcDbLine
10
3.631951
20
-19.556951
30
0
11
5.490215
21
-19.719528
31
0
39
0
210
0
220
0
230
1
0
LINE
5
92
100
AcDbEntity
8
1
62
256
6
ByLayer
370
18
48
1
60
0
100
AcDbLine
10
8.782474
20
15.934551
30
0
11
7.024974
21
-3.098599
31
0
39
0
210
0
220
0
230
1
0
LINE
5
93
100
AcDbEntity
8
1
62
256
6
ByLayer
370
18
48
1
60
0
100
AcDbLine
10
5.518097
20
-19.417582
30
0
11
5.490215
21
-19.719528
31
0
39
0
210
0
220
0
230
1
0
LINE
5
94
100
AcDbEntity
8
1
62
256
6
ByLayer
370
18
48
1
60
0
100
AcDbLine
10
12.032522
20
-0.604227
30
0
11
11.726076
21
15.945798
31
0
39
0
210
0
220
0
230
1
0
LINE
5
95
100
AcDbEntity
8
1
62
256
6
ByLayer
370
18
48
1
60
0
100
AcDbLine
10
13.25054
20
15.945798
30
0
11
20.916544
21
8.279794
31
0
39
0
210
0
220
0
230
1
0
LINE
5
96
100
AcDbEntity
8
1
62
256
6
ByLayer
370
18
48
1
60
0
100
AcDbLine
10
32.221391
20
-3.025053
30
0
11
30.023624
21
-5.22282
31
0
39
0
210
0
220
0
230
1
0
LINE
5
97
100
AcDbEntity
8
1
62
256
6
ByLayer
370
18
48
1
60
0
100
AcDbLine
10
29.561102
20
-21.825458
30
0
11
29.316752
21
-21.80408
31
0
39
0
210
0
220
0
230
1
0
LINE
5
98
100
AcDbEntity
8
1
62
256
6
ByLayer
370
18
48
1
60
0
100
AcDbLine
10
5.490215
20
-19.719528
30
0
11
6.014307
21
-19.76538
31
0
39
0
210
0
220
0
230
1
0
LINE
5
99
100
AcDbEntity
8
SK1
62
256
6
ByLayer
370
18
48
1
60
0
100
AcDbLine
10
-138.207835
20
-15.925
30
0
11
-138.207835
21
15.925
31
0
39
0
210
0
220
0
230
1
0
LINE
5
9B
100
AcDbEntity
8
SK1
62
256
6
ByLayer
370
18
48
1
60
0
100
AcDbLine
10
0
20
-15.925
30
0
11
0
21
-14.873848
31
0
39
0
210
0
220
0
230
1
0
LINE
5
9C
100
AcDbEntity
8
SK1
62
256
6
ByLayer
370
18
48
1
60
0
100
AcDbLine
10
0
20
-14.873848
30
0
11
0
21
15.925
31
0
39
0
210
0
220
0
230
1
0
LINE
5
9D
100
AcDbEntity
8
SK1
62
256
6
ByLayer
370
18
48
1
60
0
100
AcDbLine
10
0
20
-14.873848
30
0
11
-1.051152
21
-15.925
31
0
39
0
210
0
220
0
230
1
0
LINE
5
9E
100
AcDbEntity
8
SK1
62
256
6
ByLayer
370
18
48
1
60
0
100
AcDbLine
10
-1.051152
20
-15.925
30
0
11
0
21
-15.925
31
0
39
0
210
0
220
0
230
1
0
LINE
5
9F
100
AcDbEntity
8
SK1
62
256
6
ByLayer
370
18
48
1
60
0
100
AcDbLine
10
-138.207835
20
15.925
30
0
11
0
21
15.925
31
0
39
0
210
0
220
0
230
1
0
LINE
5
A0
100
AcDbEntity
8
SK1
62
256
6
ByLayer
370
18
48
1
60
0
100
AcDbLine
10
-1.051152
20
-15.925
30
0
11
-138.207835
21
-15.925
31
0
39
0
210
0
220
0
230
1
0
LINE
5
A1
100
AcDbEntity
8
1
62
256
6
ByLayer
370
18
48
1
60
0
100
AcDbLine
10
33.594619
20
-3.408331
30
0
11
43.042758
21
-12.856471
31
0
39
0
210
0
220
0
230
1
0
LINE
5
A2
100
AcDbEntity
8
1
62
256
6
ByLayer
370
18
48
1
60
0
100
AcDbLine
10
28.130862
20
-7.204152
30
0
11
31.918486
21
-3.416527
31
0
39
0
210
0
220
0
230
1
0
LINE
5
A3
100
AcDbEntity
8
1
62
256
6
ByLayer
370
18
48
1
60
0
100
AcDbLine
10
43.034562
20
-14.532603
30
0
11
33.493571
21
-24.073595
31
0
39
0
210
0
220
0
230
1
0
LINE
5
A4
100
AcDbEntity
8
1
62
256
6
ByLayer
370
18
48
1
60
0
100
AcDbLine
10
31.817438
20
-24.081791
30
0
11
27.265944
21
-19.530297
31
0
39
0
210
0
220
0
230
1
0
LINE
5
A5
100
AcDbEntity
8
1
62
256
6
ByLayer
370
18
48
1
60
0
100
AcDbLine
10
31.874196
20
-3.372237
30
0
11
31.918486
21
-3.416527
31
0
39
0
210
0
220
0
230
1
0
LINE
5
A6
100
AcDbEntity
8
1
62
256
6
ByLayer
370
18
48
1
60
0
100
AcDbLine
10
33.594619
20
-3.408331
30
0
11
32.969714
21
-2.783426
31
0
39
0
210
0
220
0
230
1
0
LINE
5
A7
100
AcDbEntity
8
1
62
256
6
ByLayer
370
18
48
1
60
0
100
AcDbLine
10
10.053347
20
-3.096865
30
0
11
9.404186
21
-2.776932
31
0
39
0
210
0
220
0
230
1
0
LINE
5
A8
100
AcDbEntity
8
1
62
256
6
ByLayer
370
18
48
1
60
0
100
AcDbLine
10
17.209258
20
-8.020604
30
0
11
15.034816
21
-7.840921
31
0
39
0
210
0
220
0
230
1
0
LINE
5
A9
100
AcDbEntity
8
1
62
256
6
ByLayer
370
18
48
1
60
0
100
AcDbLine
10
33.729748
20
-16.423674
30
0
11
33.099396
21
-17.024206
31
0
39
0
210
0
220
0
230
1
0
LINE
5
AA
100
AcDbEntity
8
1
62
256
6
ByLayer
370
18
48
1
60
0
100
AcDbLine
10
15.484435
20
-21.264572
30
0
11
10.382369
21
-20.842966
31
0
39
0
210
0
220
0
230
1
0
LINE
5
AB
100
AcDbEntity
8
1
62
256
6
ByLayer
370
18
48
1
60
0
100
AcDbLine
10
8.955667
20
-15.542131
30
0
11
8.636262
21
-15.384716
31
0
39
0
210
0
220
0
230
1
0
LINE
5
AC
100
AcDbEntity
8
1
62
256
6
ByLayer
370
18
48
1
60
0
100
AcDbLine
10
13.894656
20
-17.959128
30
0
11
16.060686
21
-18.134665
31
0
39
0
210
0
220
0
230
1
0
LINE
5
AD
100
AcDbEntity
8
1
62
256
6
ByLayer
370
18
48
1
60
0
100
AcDbLine
10
32.293022
20
-14.142665
30
0
11
35.691821
21
-14.058279
31
0
39
0
210
0
220
0
230
1
0
LINE
5
AE
100
AcDbEntity
8
1
62
256
6
ByLayer
370
18
48
1
60
0
100
AcDbLine
10
11.982212
20
-3.256255
30
0
11
9.554204
21
-2.804421
31
0
39
0
210
0
220
0
230
1
0
LINE
5
AF
100
AcDbEntity
8
1
62
256
6
ByLayer
370
18
48
1
60
0
100
AcDbLine
10
6.452879
20
-17.521312
30
0
11
4.303609
21
-16.462066
31
0
39
0
210
0
220
0
230
1
0
LINE
5
B0
100
AcDbEntity
8
1
62
256
6
ByLayer
370
18
48
1
60
0
100
AcDbLine
10
33.692598
20
-10.597764
30
0
11
34.203524
21
-11.292842
31
0
39
0
210
0
220
0
230
1
0
LINE
5
B1
100
AcDbEntity
8
1
62
256
6
ByLayer
370
18
48
1
60
0
100
AcDbLine
10
10.053347
20
-3.096865
30
0
11
11.982212
21
-3.256255
31
0
39
0
210
0
220
0
230
1
0
LINE
5
B2
100
AcDbEntity
8
1
62
256
6
ByLayer
370
18
48
1
60
0
100
AcDbLine
10
5.287168
20
-5.810442
30
0
11
4.303609
21
-16.462066
31
0
39
0
210
0
220
0
230
1
0
LINE
5
B3
100
AcDbEntity
8
1
62
256
6
ByLayer
370
18
48
1
60
0
100
AcDbLine
10
16.265993
20
-18.235849
30
0
11
16.060686
21
-18.134665
31
0
39
0
210
0
220
0
230
1
0
LINE
5
B4
100
AcDbEntity
8
1
62
256
6
ByLayer
370
18
48
1
60
0
100
AcDbLine
10
8.636262
20
-15.384716
30
0
11
7.135501
21
-15.263092
31
0
39
0
210
0
220
0
230
1
0
LINE
5
B5
100
AcDbEntity
8
1
62
256
6
ByLayer
370
18
48
1
60
0
100
AcDbLine
10
7.135501
20
-15.263092
30
0
11
7.684976
21
-9.312464
31
0
39
0
210
0
220
0
230
1
0
LINE
5
B6
100
AcDbEntity
8
1
62
256
6
ByLayer
370
18
48
1
60
0
100
AcDbLine
10
10.357599
20
-20.850279
30
0
11
10.382369
21
-20.842966
31
0
39
0
210
0
220
0
230
1
0
LINE
5
B7
100
AcDbEntity
8
1
62
256
6
ByLayer
370
18
48
1
60
0
100
AcDbLine
10
11.982212
20
-3.256255
30
0
11
12.004817
21
-3.272384
31
0
39
0
210
0
220
0
230
1
0
LINE
5
B8
100
AcDbEntity
8
1
62
256
6
ByLayer
370
18
48
1
60
0
100
AcDbLine
10
14.091552
20
-18.056166
30
0
11
16.265993
21
-18.235849
31
0
39
0
210
0
220
0
230
1
0
LINE
5
B9
100
AcDbEntity
8
1
62
256
6
ByLayer
370
18
48
1
60
0
100
AcDbLine
10
14.091552
20
-18.056166
30
0
11
13.894656
21
-17.959128
31
0
39
0
210
0
220
0
230
1
0
LINE
5
BA
100
AcDbEntity
8
1
62
256
6
ByLayer
370
18
48
1
60
0
100
AcDbLine
10
17.106883
20
-3.693989
30
0
11
12.004817
21
-3.272384
31
0
39
0
210
0
220
0
230
1
0
LINE
5
BB
100
AcDbEntity
8
1
62
256
6
ByLayer
370
18
48
1
60
0
100
AcDbLine
10
6.452879
20
-17.521312
30
0
11
7.436439
21
-6.869688
31
0
39
0
210
0
220
0
230
1
0
LINE
5
BC
100
AcDbEntity
8
1
62
256
6
ByLayer
370
18
48
1
60
0
100
AcDbLine
10
7.436439
20
-6.869688
30
0
11
5.287168
21
-5.810442
31
0
39
0
210
0
220
0
230
1
0
LINE
5
BD
100
AcDbEntity
8
1
62
256
6
ByLayer
370
18
48
1
60
0
100
AcDbLine
10
6.462155
20
-18.969206
30
0
11
16.106
21
-19.766118
31
0
39
0
210
0
220
0
230
1
0
LINE
5
BE
100
AcDbEntity
8
1
62
256
6
ByLayer
370
18
48
1
60
0
100
AcDbLine
10
10.357599
20
-20.850279
30
0
11
8.428734
21
-20.690889
31
0
39
0
210
0
220
0
230
1
0
LINE
5
BF
100
AcDbEntity
8
1
62
256
6
ByLayer
370
18
48
1
60
0
100
AcDbLine
10
7.72618
20
-5.280238
30
0
11
17.370025
21
-6.07715
31
0
39
0
210
0
220
0
230
1
0
LINE
5
C0
100
AcDbEntity
8
1
62
256
6
ByLayer
370
18
48
1
60
0
100
AcDbLine
10
17.23241
20
-13.616751
30
0
11
17.434151
21
-13.818492
31
0
39
0
210
0
220
0
230
1
0
LINE
5
C1
100
AcDbEntity
8
1
62
256
6
ByLayer
370
18
48
1
60
0
100
AcDbLine
10
16.944236
20
-13.734345
30
0
11
17.141715
21
-13.931825
31
0
39
0
210
0
220
0
230
1
0
LINE
5
C2
100
AcDbEntity
8
1
62
256
6
ByLayer
370
18
48
1
60
0
100
AcDbLine
10
15.575074
20
-11.54569
30
0
11
15.697096
21
-11.667712
31
0
39
0
210
0
220
0
230
1
0
LINE
5
C3
100
AcDbEntity
8
1
62
256
6
ByLayer
370
18
48
1
60
0
100
AcDbLine
10
16.784693
20
-14.253897
30
0
11
16.986434
21
-14.455638
31
0
39
0
210
0
220
0
230
1
0
LINE
5
C4
100
AcDbEntity
8
1
62
256
6
ByLayer
370
18
48
1
60
0
100
AcDbLine
10
16.989693
20
-12.033821
30
0
11
17.191434
21
-12.235562
31
0
39
0
210
0
220
0
230
1
0
LINE
5
C5
100
AcDbEntity
8
1
62
256
6
ByLayer
370
18
48
1
60
0
100
AcDbLine
10
16.994502
20
-14.141324
30
0
11
16.797022
21
-13.943844
31
0
39
0
210
0
220
0
230
1
0
LINE
5
C6
100
AcDbEntity
8
1
62
256
6
ByLayer
370
18
48
1
60
0
100
AcDbLine
10
15.737299
20
-14.442047
30
0
11
15.934778
21
-14.639527
31
0
39
0
210
0
220
0
230
1
0
LINE
5
C7
100
AcDbEntity
8
1
62
256
6
ByLayer
370
18
48
1
60
0
100
AcDbLine
10
19.180393
20
-9.420155
30
0
11
19.180116
21
-9.419878
31
0
39
0
210
0
220
0
230
1
0
LINE
5
C8
100
AcDbEntity
8
1
62
256
6
ByLayer
370
18
48
1
60
0
100
AcDbLine
10
15.208912
20
-14.568049
30
0
11
15.410653
21
-14.76979
31
0
39
0
210
0
220
0
230
1
0
LINE
5
C9
100
AcDbEntity
8
1
62
256
6
ByLayer
370
18
48
1
60
0
100
AcDbLine
10
17.249075
20
-12.769151
30
0
11
17.051596
21
-12.571671
31
0
39
0
210
0
220
0
230
1
0
LINE
5
CA
100
AcDbEntity
8
1
62
256
6
ByLayer
370
18
48
1
60
0
100
AcDbLine
10
14.162291
20
-13.363054
30
0
11
14.364032
21
-13.564795
31
0
39
0
210
0
220
0
230
1
0
LINE
5
CB
100
AcDbEntity
8
1
62
256
6
ByLayer
370
18
48
1
60
0
100
AcDbLine
10
15.680979
20
-14.618554
30
0
11
15.483499
21
-14.421074
31
0
39
0
210
0
220
0
230
1
0
LINE
5
CC
100
AcDbEntity
8
1
62
256
6
ByLayer
370
18
48
1
60
0
100
AcDbLine
10
16.945009
20
-12.3412
30
0
11
17.142489
21
-12.53868
31
0
39
0
210
0
220
0
230
1
0
MTEXT
5
155
100
AcDbEntity
8
SK6
62
256
6
ByLayer
370
18
48
1
60
0
100
AcDbMText
10
-66.536011
20
25.060399
30
0
210
0
220
0
230
1
1
\W0.7605;DSSNL 3232P 15
40
3.5
41
0
44
1.084337
50
0
71
7
72
5
7
iso_b_vert
0
DIMENSION
5
166
100
AcDbEntity
8
2
62
256
6
ByLayer
370
13
48
1
60
0
100
AcDbDimension
2
DimnDraft3D1
10
95.742165
20
15.925
30
0
11
95.742165
21
-9.768421
31
0
70
32
71
5
72
1
41
1
210
0
220
0
230
1
3
Standard
100
AcDbAlignedDimension
13
35.142165
23
-24.425
33
0
14
2
24
15.925
34
0
50
90
100
AcDbRotatedDimension
1001
ACAD
1000
DSTYLE
1002
{
1070
    74
1070
     0
1070
   279
1070
     0
1070
   172
1070
     1
1070
   173
1070
     1
1070
   340
1005
156
1070
    77
1070
     1
1070
    73
1070
     0
1070
   171
1070
     3
1070
   274
1070
     4
1070
   177
1070
     2
1070
   176
1070
     2
1070
   178
1070
     7
1070
    78
1070
     8
1070
    41
1041
3.175
1070
   147
1041
2.25
1070
    42
1041
2.0
1070
    44
1041
2.0
1070
   140
1041
4.5
1070
   343
1005
167
1070
   344
1005
167
1002
}
0
DIMENSION
5
17C
100
AcDbEntity
8
SK2
62
256
6
ByLayer
370
13
48
1
60
0
100
AcDbDimension
2
DimnDraft3D2
10
-145.957835
20
-15.925
30
0
11
-145.957835
21
-5.281579
31
0
70
32
71
5
72
1
41
1
210
0
220
0
230
1
3
Standard
100
AcDbAlignedDimension
13
-140.207835
23
15.925
33
0
14
-140.207835
24
-15.925
34
0
50
90
100
AcDbRotatedDimension
1001
ACAD
1000
DSTYLE
1002
{
1070
    74
1070
     0
1070
   279
1070
     0
1070
   172
1070
     1
1070
   173
1070
     1
1070
   340
1005
156
1070
    77
1070
     1
1070
    73
1070
     0
1070
   171
1070
     3
1070
   274
1070
     4
1070
   177
1070
     2
1070
   176
1070
     2
1070
   178
1070
     7
1070
    78
1070
     8
1070
    41
1041
3.175
1070
   147
1041
2.25
1070
    42
1041
2.0
1070
    44
1041
2.0
1070
   140
1041
4.5
1070
   343
1005
167
1070
   344
1005
167
1002
}
0
DIMENSION
5
18A
100
AcDbEntity
8
2
62
256
6
ByLayer
370
13
48
1
60
0
100
AcDbDimension
2
DimnDraft3D3
10
85.742165
20
15.925
30
0
11
85.742165
21
-4.412092
31
0
70
32
71
5
72
1
41
1
210
0
220
0
230
1
3
Standard
100
AcDbAlignedDimension
13
45.38114
23
-14.186026
33
0
14
2
24
15.925
34
0
50
90
100
AcDbRotatedDimension
1001
ACAD
1000
DSTYLE
1002
{
1070
    74
1070
     0
1070
   279
1070
     0
1070
   172
1070
     1
1070
   173
1070
     1
1070
   340
1005
156
1070
    77
1070
     1
1070
    73
1070
     0
1070
   171
1070
     3
1070
   274
1070
     4
1070
   177
1070
     2
1070
   176
1070
     2
1070
   178
1070
     7
1070
    78
1070
     8
1070
    41
1041
3.175
1070
   147
1041
2.25
1070
    42
1041
2.0
1070
    44
1041
2.0
1070
   140
1041
4.5
1070
   343
1005
167
1070
   344
1005
167
1002
}
0
DIMENSION
5
198
100
AcDbEntity
8
2
62
256
6
ByLayer
370
13
48
1
60
0
100
AcDbDimension
2
DimnDraft3D4
10
33.142165
20
-37.436026
30
0
11
11.852004
21
-37.436026
31
0
70
32
71
5
72
1
41
1
210
0
220
0
230
1
3
Standard
100
AcDbAlignedDimension
13
0
23
-17.925
33
0
14
33.142165
24
-26.425
34
0
50
0
100
AcDbRotatedDimension
1001
ACAD
1000
DSTYLE
1002
{
1070
   279
1070
     0
1070
   172
1070
     1
1070
   173
1070
     1
1070
   340
1005
156
1070
    77
1070
     1
1070
    73
1070
     0
1070
   171
1070
     3
1070
   274
1070
     4
1070
   177
1070
     2
1070
   176
1070
     2
1070
   178
1070
     7
1070
    78
1070
     8
1070
    41
1041
3.175
1070
   147
1041
2.25
1070
    42
1041
2.0
1070
    44
1041
2.0
1070
   140
1041
4.5
1070
   343
1005
167
1070
   344
1005
167
1002
}
0
DIMENSION
5
1A6
100
AcDbEntity
8
SK2
62
256
6
ByLayer
370
13
48
1
60
0
100
AcDbDimension
2
DimnDraft3D5
10
33.142165
20
-47.436026
30
0
11
-58.933492
21
-47.436026
31
0
70
32
71
5
72
1
41
1
210
0
220
0
230
1
3
Standard
100
AcDbAlignedDimension
13
-138.207835
23
-17.925
33
0
14
33.142165
24
-26.425
34
0
50
0
100
AcDbRotatedDimension
1001
ACAD
1000
DSTYLE
1002
{
1070
   279
1070
     0
1070
   172
1070
     1
1070
   173
1070
     1
1070
   340
1005
156
1070
    77
1070
     1
1070
    73
1070
     0
1070
   171
1070
     3
1070
   274
1070
     4
1070
   177
1070
     2
1070
   176
1070
     2
1070
   178
1070
     7
1070
    78
1070
     8
1070
    41
1041
3.175
1070
   147
1041
2.25
1070
    42
1041
2.0
1070
    44
1041
2.0
1070
   140
1041
4.5
1070
   343
1005
167
1070
   344
1005
167
1002
}
0
DIMENSION
5
1B4
100
AcDbEntity
8
SK2
62
256
6
ByLayer
370
13
48
1
60
0
100
AcDbDimension
2
DimnDraft3D6
10
-138.207835
20
-57.436026
30
0
11
-53.814005
21
-57.436026
31
0
70
32
71
5
72
1
41
1
210
0
220
0
230
1
3
Standard
100
AcDbAlignedDimension
13
43.38114
23
-16.186026
33
0
14
-138.207835
24
-17.925
34
0
50
0
100
AcDbRotatedDimension
1001
ACAD
1000
DSTYLE
1002
{
1070
   279
1070
     0
1070
   172
1070
     1
1070
   173
1070
     1
1070
   340
1005
156
1070
    77
1070
     1
1070
    73
1070
     0
1070
   171
1070
     3
1070
   274
1070
     4
1070
   177
1070
     2
1070
   176
1070
     2
1070
   178
1070
     7
1070
    78
1070
     8
1070
    41
1041
3.175
1070
   147
1041
2.25
1070
    42
1041
2.0
1070
    44
1041
2.0
1070
   140
1041
4.5
1070
   343
1005
167
1070
   344
1005
167
1002
}
0
DIMENSION
5
1C2
100
AcDbEntity
8
2
62
256
6
ByLayer
370
13
48
1
60
0
100
AcDbDimension
2
DimnDraft3D7
10
43.032414
20
-14.534752
30
0
11
59.677109
21
25.155925
31
0
70
34
71
5
72
1
41
1
210
0
220
0
230
1
3
Standard
100
AcDb2LineAngularDimension
13
43.38114
23
-14.186026
33
0
14
43.38114
24
-12.995401
34
0
15
43.874313
25
-13.692853
35
0
16
57.955034
26
20.998467
36
0
40
0
0
ENDSEC
0
SECTION
2
OBJECTS
0
DICTIONARY
5
22c
330
0
100
AcDbDictionary
280
0
281
1
3
ACAD_GROUP
350
22d
3
ACAD_MLINESTYLE
350
22e
0
DICTIONARY
5
22d
330
0
100
AcDbDictionary
280
0
281
1
0
DICTIONARY
5
22e
330
0
100
AcDbDictionary
280
0
281
1
3
Standard
350
18
0
MLINESTYLE
5
18
330
22e
100
AcDbMlineStyle
2
Standard
70
0
3

62
256
51
90
52
90
71
2
49
-0.5
62
256
6
ByLayer
49
0.5
62
256
6
ByLayer
0
RASTERVARIABLES
5
21b
330

100
AcDbRasterVariables
90
0
70
1
71
1
72
1
0
ENDSEC
0
EOF
