0
SECTION
2
HEADER
9
$ACADVER
1
AC1015
9
$DWGCODEPAGE
3
ANSI_1252
9
$HANDSEED
5
239
9
$ANGBASE
50
0
9
$ANGDIR
70
0
9
$ATTMODE
70
1
9
$AUNITS
70
0
9
$AUPREC
70
0
9
$CECOLOR
62
256
9
$CELTSCALE
40
1
9
$CELTYPE
6
ByLayer
9
$CELWEIGHT
370
18
9
$CLAYER
8
0
9
$CMLJUST
70
0
9
$CMLSCALE
40
1
9
$CMLSTYLE
2
Standard
9
$DIMSTYLE
2
Standard
9
$TEXTSIZE
40
0.2
9
$TEXTSTYLE
7
Standard
9
$LUNITS
70
2
9
$LUPREC
70
4
9
$EXTNAMES
290
1
9
$INSUNITS
70
4
9
$LTSCALE
40
1
9
$LWDISPLAY
290
1
9
$PDMODE
70
0
9
$PDSIZE
40
0
9
$PLINEGEN
70
0
0
ENDSEC
0
SECTION
2
CLASSES
0
CLASS
1
RASTERVARIABLES
2
AcDbRasterVariables
3
ISM
90
0
280
0
281
0
0
ENDSEC
0
SECTION
2
TABLES
0
TABLE
2
VPORT
5
22f
100
AcDbSymbolTable
0
VPORT
5
1
100
AcDbSymbolTableRecord
100
AcDbViewportTableRecord
2
*Active
70
0
10
0
20
0
11
1
21
1
12
-1
22
1
13
0
23
0
14
0.5
24
0.5
15
10
25
10
16
0
26
0
36
1
17
0
27
0
37
0
0
ENDTAB
0
TABLE
2
LTYPE
5
230
100
AcDbSymbolTable
0
LTYPE
5
14
100
AcDbSymbolTableRecord
100
AcDbLinetypeTableRecord
70
0
2
ByBlock
3

72
65
73
0
40
0
0
LTYPE
5
15
100
AcDbSymbolTableRecord
100
AcDbLinetypeTableRecord
70
0
2
ByLayer
3

72
65
73
0
40
0
0
LTYPE
5
16
100
AcDbSymbolTableRecord
100
AcDbLinetypeTableRecord
70
0
2
CONTINUOUS
3
Solid line
72
65
73
0
40
0
0
LTYPE
5
6A
100
AcDbSymbolTableRecord
100
AcDbLinetypeTableRecord
70
0
2
CENTER
3
____ _ ____ _ ____ _ ____
72
65
73
4
40
47.5
49
22
74
0
49
-8.5
74
0
49
8.5
74
0
49
-8.5
74
0
0
LTYPE
5
6B
100
AcDbSymbolTableRecord
100
AcDbLinetypeTableRecord
70
0
2
DASHED
3
__ __ __ __ __ __ __ __ __
72
65
73
2
40
25.72
49
12.86
74
0
49
-12.86
74
0
0
ENDTAB
0
TABLE
2
LAYER
5
231
100
AcDbSymbolTable
0
LAYER
5
10
100
AcDbSymbolTableRecord
100
AcDbLayerTableRecord
2
0
70
0
62
7
6
CONTINUOUS
290
1
370
-3
390
0
0
LAYER
5
6D
100
AcDbSymbolTableRecord
100
AcDbLayerTableRecord
2
2
70
0
62
7
6
CONTINUOUS
290
1
370
-3
390
0
0
LAYER
5
6F
100
AcDbSymbolTableRecord
100
AcDbLayerTableRecord
2
80
70
0
62
-6
6
CONTINUOUS
290
1
370
-3
390
0
0
LAYER
5
71
100
AcDbSymbolTableRecord
100
AcDbLayerTableRecord
2
81
70
0
62
-3
6
CONTINUOUS
290
1
370
-3
390
0
0
LAYER
5
73
100
AcDbSymbolTableRecord
100
AcDbLayerTableRecord
2
1
70
0
62
4
6
CONTINUOUS
290
1
370
-3
390
0
0
LAYER
5
21c
100
AcDbSymbolTableRecord
100
AcDbLayerTableRecord
2
SK1
70
0
62
4
6
CONTINUOUS
290
1
370
-3
390
0
0
LAYER
5
21d
100
AcDbSymbolTableRecord
100
AcDbLayerTableRecord
2
SK6
70
0
62
5
6
CONTINUOUS
290
1
370
-3
390
0
0
LAYER
5
21e
100
AcDbSymbolTableRecord
100
AcDbLayerTableRecord
2
SK2
70
0
62
7
6
CONTINUOUS
290
1
370
-3
390
0
0
ENDTAB
0
TABLE
2
STYLE
5
232
100
AcDbSymbolTable
0
STYLE
5
11
100
AcDbSymbolTableRecord
100
AcDbTextStyleTableRecord
2
Standard
3
txt
70
0
71
0
40
0
41
1
42
0
50
0
0
STYLE
5
156
100
AcDbSymbolTableRecord
100
AcDbTextStyleTableRecord
2
iso_b_vert
3
simplex.shx
70
0
71
0
40
0
41
1
42
0
50
0
0
STYLE
5
157
100
AcDbSymbolTableRecord
100
AcDbTextStyleTableRecord
2
DWGDirectTextStyle
3
simplex
70
0
71
0
40
0
41
1
42
0
50
0
0
ENDTAB
0
TABLE
2
DIMSTYLE
5
233
100
AcDbSymbolTable
100
AcDbDimStyleTable
0
DIMSTYLE
105
27
100
AcDbSymbolTableRecord
100
AcDbDimStyleTableRecord
2
Standard
70
0
3
<>
41
0.18
42
0.0625
44
0.18
140
0.18
147
0.09
73
0
74
0
77
1
271
2
275
0
278
52
280
0
340
11
0
ENDTAB
0
TABLE
2
VIEW
5
234
100
AcDbSymbolTable
0
ENDTAB
0
TABLE
2
UCS
5
235
100
AcDbSymbolTable
0
ENDTAB
0
TABLE
2
APPID
5
236
100
AcDbSymbolTable
0
APPID
5
12
100
AcDbSymbolTableRecord
100
AcDbRegAppTableRecord
2
ACAD
70
0
0
ENDTAB
0
TABLE
2
BLOCK_RECORD
5
237
100
AcDbSymbolTable
0
BLOCK_RECORD
5
1F
100
AcDbSymbolTableRecord
100
AcDbBlockTableRecord
2
*Model_Space
340
0
70
0
0
BLOCK_RECORD
5
1B
100
AcDbSymbolTableRecord
100
AcDbBlockTableRecord
2
*Paper_Space
340
0
70
0
0
BLOCK_RECORD
5
23
100
AcDbSymbolTableRecord
100
AcDbBlockTableRecord
2
*Paper_Space0
340
0
70
0
0
BLOCK_RECORD
5
159
100
AcDbSymbolTableRecord
100
AcDbBlockTableRecord
2
DimnDraft3D1
340
0
70
0
0
BLOCK_RECORD
5
167
100
AcDbSymbolTableRecord
100
AcDbBlockTableRecord
2
_CLOSED
340
0
70
0
0
BLOCK_RECORD
5
16E
100
AcDbSymbolTableRecord
100
AcDbBlockTableRecord
2
DimnDraft3D2
340
0
70
0
0
BLOCK_RECORD
5
17D
100
AcDbSymbolTableRecord
100
AcDbBlockTableRecord
2
DimnDraft3D3
340
0
70
0
0
BLOCK_RECORD
5
18B
100
AcDbSymbolTableRecord
100
AcDbBlockTableRecord
2
DimnDraft3D4
340
0
70
0
0
BLOCK_RECORD
5
199
100
AcDbSymbolTableRecord
100
AcDbBlockTableRecord
2
DimnDraft3D5
340
0
70
0
0
BLOCK_RECORD
5
1A7
100
AcDbSymbolTableRecord
100
AcDbBlockTableRecord
2
DimnDraft3D6
340
0
70
0
0
BLOCK_RECORD
5
1B5
100
AcDbSymbolTableRecord
100
AcDbBlockTableRecord
2
DimnDraft3D7
340
0
70
0
0
ENDTAB
0
ENDSEC
0
SECTION
2
BLOCKS
0
BLOCK
5
20
100
AcDbEntity
8
0
100
AcDbBlockBegin
2
*Model_Space
70
0
10
0
20
0
30
0
3
*Model_Space
0
ENDBLK
5
21
100
AcDbEntity
8
0
100
AcDbBlockEnd
0
BLOCK
5
1C
100
AcDbEntity
8
0
100
AcDbBlockBegin
2
*Paper_Space
70
0
10
0
20
0
30
0
3
*Paper_Space
0
ENDBLK
5
1D
100
AcDbEntity
8
0
100
AcDbBlockEnd
0
BLOCK
5
24
100
AcDbEntity
8
0
100
AcDbBlockBegin
2
*Paper_Space0
70
0
10
0
20
0
30
0
3
*Paper_Space0
0
ENDBLK
5
25
100
AcDbEntity
8
0
100
AcDbBlockEnd
0
BLOCK
5
164
100
AcDbEntity
8
0
100
AcDbBlockBegin
2
DimnDraft3D1
70
0
10
0
20
0
30
0
3
DimnDraft3D1
0
MTEXT
5
15A
100
AcDbEntity
8
2
62
256
6
ByLayer
370
18
48
1
60
0
100
AcDbMText
10
86.592165
20
-7.894079
30
0
210
0
220
0
230
1
1
\W0.7346;32.0
40
4.5
41
0
44
1.084337
50
90
71
7
72
5
7
iso_b_vert
0
LINE
5
15B
100
AcDbEntity
8
2
62
256
6
ByLayer
370
13
48
1
60
0
100
AcDbLine
10
35.117165
20
-19.9125
30
0
11
89.717165
21
-19.9125
31
0
39
0
210
0
220
0
230
1
0
LINE
5
15C
100
AcDbEntity
8
2
62
256
6
ByLayer
370
13
48
1
60
0
100
AcDbLine
10
2
20
12.4375
30
0
11
89.717165
21
12.4375
31
0
39
0
210
0
220
0
230
1
0
LINE
5
15D
100
AcDbEntity
8
2
62
256
6
ByLayer
370
13
48
1
60
0
100
AcDbLine
10
87.717165
20
-19.9125
30
0
11
87.717165
21
12.4375
31
0
39
0
210
0
220
0
230
1
0
LINE
5
15E
100
AcDbEntity
8
2
62
256
6
ByLayer
370
13
48
1
60
0
100
AcDbLine
10
87.717165
20
-19.9125
30
0
11
87.299169
21
-16.737502
31
0
39
0
210
0
220
0
230
1
0
LINE
5
15F
100
AcDbEntity
8
2
62
256
6
ByLayer
370
13
48
1
60
0
100
AcDbLine
10
87.717165
20
-19.9125
30
0
11
88.135162
21
-16.737498
31
0
39
0
210
0
220
0
230
1
0
LINE
5
160
100
AcDbEntity
8
2
62
256
6
ByLayer
370
13
48
1
60
0
100
AcDbLine
10
87.299169
20
-16.737502
30
0
11
88.135162
21
-16.737498
31
0
39
0
210
0
220
0
230
1
0
LINE
5
161
100
AcDbEntity
8
2
62
256
6
ByLayer
370
13
48
1
60
0
100
AcDbLine
10
87.717165
20
12.4375
30
0
11
88.135162
21
9.262502
31
0
39
0
210
0
220
0
230
1
0
LINE
5
162
100
AcDbEntity
8
2
62
256
6
ByLayer
370
13
48
1
60
0
100
AcDbLine
10
87.717165
20
12.4375
30
0
11
87.299169
21
9.262498
31
0
39
0
210
0
220
0
230
1
0
LINE
5
163
100
AcDbEntity
8
2
62
256
6
ByLayer
370
13
48
1
60
0
100
AcDbLine
10
88.135162
20
9.262502
30
0
11
87.299169
21
9.262498
31
0
39
0
210
0
220
0
230
1
0
ENDBLK
5
165
100
AcDbEntity
8
0
100
AcDbBlockEnd
0
BLOCK
5
168
100
AcDbEntity
8
0
100
AcDbBlockBegin
2
_CLOSED
70
0
10
0
20
0
30
0
3
_CLOSED
0
LINE
5
16A
100
AcDbEntity
8
0
62
256
6
ByLayer
370
-2
48
1
60
0
100
AcDbLine
10
-1
20
0.166667
30
0
11
0
21
0
31
0
39
0
210
0
220
0
230
1
0
LINE
5
16B
100
AcDbEntity
8
0
62
256
6
ByLayer
370
-2
48
1
60
0
100
AcDbLine
10
0
20
0
30
0
11
-1
21
-0.166667
31
0
39
0
210
0
220
0
230
1
0
LINE
5
16C
100
AcDbEntity
8
0
62
256
6
ByLayer
370
-2
48
1
60
0
100
AcDbLine
10
-1
20
0.166667
30
0
11
-1
21
-0.166667
31
0
39
0
210
0
220
0
230
1
0
LINE
5
16D
100
AcDbEntity
8
0
62
256
6
ByLayer
370
-2
48
1
60
0
100
AcDbLine
10
0
20
0
30
0
11
-1
21
0
31
0
39
0
210
0
220
0
230
1
0
ENDBLK
5
169
100
AcDbEntity
8
0
100
AcDbBlockEnd
0
BLOCK
5
17A
100
AcDbEntity
8
0
100
AcDbBlockBegin
2
DimnDraft3D2
70
0
10
0
20
0
30
0
3
DimnDraft3D2
0
MTEXT
5
16F
100
AcDbEntity
8
SK2
62
256
6
ByLayer
370
18
48
1
60
0
100
AcDbMText
10
-127.107835
20
-4.156579
30
0
210
0
220
0
230
1
1
\W0.7346;25.0
40
4.5
41
0
44
1.084337
50
90
71
7
72
5
7
iso_b_vert
0
LINE
5
171
100
AcDbEntity
8
SK2
62
256
6
ByLayer
370
13
48
1
60
0
100
AcDbLine
10
-120.232835
20
12.4375
30
0
11
-127.982835
21
12.4375
31
0
39
0
210
0
220
0
230
1
0
LINE
5
172
100
AcDbEntity
8
SK2
62
256
6
ByLayer
370
13
48
1
60
0
100
AcDbLine
10
-120.232835
20
-12.4375
30
0
11
-127.982835
21
-12.4375
31
0
39
0
210
0
220
0
230
1
0
LINE
5
173
100
AcDbEntity
8
SK2
62
256
6
ByLayer
370
13
48
1
60
0
100
AcDbLine
10
-125.982835
20
12.4375
30
0
11
-125.982835
21
-12.4375
31
0
39
0
210
0
220
0
230
1
0
LINE
5
174
100
AcDbEntity
8
SK2
62
256
6
ByLayer
370
13
48
1
60
0
100
AcDbLine
10
-125.982835
20
12.4375
30
0
11
-125.564838
21
9.262502
31
0
39
0
210
0
220
0
230
1
0
LINE
5
175
100
AcDbEntity
8
SK2
62
256
6
ByLayer
370
13
48
1
60
0
100
AcDbLine
10
-125.982835
20
12.4375
30
0
11
-126.400831
21
9.262498
31
0
39
0
210
0
220
0
230
1
0
LINE
5
176
100
AcDbEntity
8
SK2
62
256
6
ByLayer
370
13
48
1
60
0
100
AcDbLine
10
-125.564838
20
9.262502
30
0
11
-126.400831
21
9.262498
31
0
39
0
210
0
220
0
230
1
0
LINE
5
177
100
AcDbEntity
8
SK2
62
256
6
ByLayer
370
13
48
1
60
0
100
AcDbLine
10
-125.982835
20
-12.4375
30
0
11
-126.400831
21
-9.262502
31
0
39
0
210
0
220
0
230
1
0
LINE
5
178
100
AcDbEntity
8
SK2
62
256
6
ByLayer
370
13
48
1
60
0
100
AcDbLine
10
-125.982835
20
-12.4375
30
0
11
-125.564838
21
-9.262498
31
0
39
0
210
0
220
0
230
1
0
LINE
5
179
100
AcDbEntity
8
SK2
62
256
6
ByLayer
370
13
48
1
60
0
100
AcDbLine
10
-126.400831
20
-9.262502
30
0
11
-125.564838
21
-9.262498
31
0
39
0
210
0
220
0
230
1
0
ENDBLK
5
17B
100
AcDbEntity
8
0
100
AcDbBlockEnd
0
BLOCK
5
188
100
AcDbEntity
8
0
100
AcDbBlockBegin
2
DimnDraft3D3
70
0
10
0
20
0
30
0
3
DimnDraft3D3
0
MTEXT
5
17E
100
AcDbEntity
8
2
62
256
6
ByLayer
370
18
48
1
60
0
100
AcDbMText
10
76.592165
20
-2.212092
30
0
210
0
220
0
230
1
1
\W0.6562;21.8
40
4.5
41
0
44
1.084337
50
90
71
7
72
5
7
iso_b_vert
0
LINE
5
17F
100
AcDbEntity
8
2
62
256
6
ByLayer
370
13
48
1
60
0
100
AcDbLine
10
45.35614
20
-9.673526
30
0
11
79.717165
21
-9.673526
31
0
39
0
210
0
220
0
230
1
0
LINE
5
180
100
AcDbEntity
8
2
62
256
6
ByLayer
370
13
48
1
60
0
100
AcDbLine
10
2
20
12.4375
30
0
11
79.717165
21
12.4375
31
0
39
0
210
0
220
0
230
1
0
LINE
5
181
100
AcDbEntity
8
2
62
256
6
ByLayer
370
13
48
1
60
0
100
AcDbLine
10
77.717165
20
-9.673526
30
0
11
77.717165
21
12.4375
31
0
39
0
210
0
220
0
230
1
0
LINE
5
182
100
AcDbEntity
8
2
62
256
6
ByLayer
370
13
48
1
60
0
100
AcDbLine
10
77.717165
20
-9.673526
30
0
11
77.299169
21
-6.498527
31
0
39
0
210
0
220
0
230
1
0
LINE
5
183
100
AcDbEntity
8
2
62
256
6
ByLayer
370
13
48
1
60
0
100
AcDbLine
10
77.717165
20
-9.673526
30
0
11
78.135162
21
-6.498524
31
0
39
0
210
0
220
0
230
1
0
LINE
5
184
100
AcDbEntity
8
2
62
256
6
ByLayer
370
13
48
1
60
0
100
AcDbLine
10
77.299169
20
-6.498527
30
0
11
78.135162
21
-6.498524
31
0
39
0
210
0
220
0
230
1
0
LINE
5
185
100
AcDbEntity
8
2
62
256
6
ByLayer
370
13
48
1
60
0
100
AcDbLine
10
77.717165
20
12.4375
30
0
11
78.135162
21
9.262502
31
0
39
0
210
0
220
0
230
1
0
LINE
5
186
100
AcDbEntity
8
2
62
256
6
ByLayer
370
13
48
1
60
0
100
AcDbLine
10
77.717165
20
12.4375
30
0
11
77.299169
21
9.262498
31
0
39
0
210
0
220
0
230
1
0
LINE
5
187
100
AcDbEntity
8
2
62
256
6
ByLayer
370
13
48
1
60
0
100
AcDbLine
10
78.135162
20
9.262502
30
0
11
77.299169
21
9.262498
31
0
39
0
210
0
220
0
230
1
0
ENDBLK
5
189
100
AcDbEntity
8
0
100
AcDbBlockEnd
0
BLOCK
5
196
100
AcDbEntity
8
0
100
AcDbBlockBegin
2
DimnDraft3D4
70
0
10
0
20
0
30
0
3
DimnDraft3D4
0
MTEXT
5
18C
100
AcDbEntity
8
2
62
256
6
ByLayer
370
18
48
1
60
0
100
AcDbMText
10
12.964504
20
-31.798526
30
0
210
0
220
0
230
1
1
\W0.7208;33.1
40
4.5
41
0
44
1.084337
50
0
71
7
72
5
7
iso_b_vert
0
LINE
5
18D
100
AcDbEntity
8
2
62
256
6
ByLayer
370
13
48
1
60
0
100
AcDbLine
10
0
20
-14.4375
30
0
11
0
21
-34.923526
31
0
39
0
210
0
220
0
230
1
0
LINE
5
18E
100
AcDbEntity
8
2
62
256
6
ByLayer
370
13
48
1
60
0
100
AcDbLine
10
33.117165
20
-21.9125
30
0
11
33.117165
21
-34.923526
31
0
39
0
210
0
220
0
230
1
0
LINE
5
18F
100
AcDbEntity
8
2
62
256
6
ByLayer
370
13
48
1
60
0
100
AcDbLine
10
0
20
-32.923526
30
0
11
33.117165
21
-32.923526
31
0
39
0
210
0
220
0
230
1
0
LINE
5
190
100
AcDbEntity
8
2
62
256
6
ByLayer
370
13
48
1
60
0
100
AcDbLine
10
0
20
-32.923526
30
0
11
3.174998
21
-32.505529
31
0
39
0
210
0
220
0
230
1
0
LINE
5
191
100
AcDbEntity
8
2
62
256
6
ByLayer
370
13
48
1
60
0
100
AcDbLine
10
0
20
-32.923526
30
0
11
3.175002
21
-33.341523
31
0
39
0
210
0
220
0
230
1
0
LINE
5
192
100
AcDbEntity
8
2
62
256
6
ByLayer
370
13
48
1
60
0
100
AcDbLine
10
3.174998
20
-32.505529
30
0
11
3.175002
21
-33.341523
31
0
39
0
210
0
220
0
230
1
0
LINE
5
193
100
AcDbEntity
8
2
62
256
6
ByLayer
370
13
48
1
60
0
100
AcDbLine
10
33.117165
20
-32.923526
30
0
11
29.942167
21
-33.341523
31
0
39
0
210
0
220
0
230
1
0
LINE
5
194
100
AcDbEntity
8
2
62
256
6
ByLayer
370
13
48
1
60
0
100
AcDbLine
10
33.117165
20
-32.923526
30
0
11
29.942164
21
-32.505529
31
0
39
0
210
0
220
0
230
1
0
LINE
5
195
100
AcDbEntity
8
2
62
256
6
ByLayer
370
13
48
1
60
0
100
AcDbLine
10
29.942167
20
-33.341523
30
0
11
29.942164
21
-32.505529
31
0
39
0
210
0
220
0
230
1
0
ENDBLK
5
197
100
AcDbEntity
8
0
100
AcDbBlockEnd
0
BLOCK
5
1A4
100
AcDbEntity
8
0
100
AcDbBlockBegin
2
DimnDraft3D5
70
0
10
0
20
0
30
0
3
DimnDraft3D5
0
MTEXT
5
19A
100
AcDbEntity
8
SK2
62
256
6
ByLayer
370
18
48
1
60
0
100
AcDbMText
10
-47.833492
20
-41.798526
30
0
210
0
220
0
230
1
1
\W0.6864;150.0
40
4.5
41
0
44
1.084337
50
0
71
7
72
5
7
iso_b_vert
0
LINE
5
19B
100
AcDbEntity
8
SK2
62
256
6
ByLayer
370
13
48
1
60
0
100
AcDbLine
10
-118.232835
20
-14.4375
30
0
11
-118.232835
21
-44.923526
31
0
39
0
210
0
220
0
230
1
0
LINE
5
19C
100
AcDbEntity
8
SK2
62
256
6
ByLayer
370
13
48
1
60
0
100
AcDbLine
10
33.117165
20
-21.9125
30
0
11
33.117165
21
-44.923526
31
0
39
0
210
0
220
0
230
1
0
LINE
5
19D
100
AcDbEntity
8
SK2
62
256
6
ByLayer
370
13
48
1
60
0
100
AcDbLine
10
-118.232835
20
-42.923526
30
0
11
33.117165
21
-42.923526
31
0
39
0
210
0
220
0
230
1
0
LINE
5
19E
100
AcDbEntity
8
SK2
62
256
6
ByLayer
370
13
48
1
60
0
100
AcDbLine
10
-118.232835
20
-42.923526
30
0
11
-115.057836
21
-42.505529
31
0
39
0
210
0
220
0
230
1
0
LINE
5
19F
100
AcDbEntity
8
SK2
62
256
6
ByLayer
370
13
48
1
60
0
100
AcDbLine
10
-118.232835
20
-42.923526
30
0
11
-115.057833
21
-43.341523
31
0
39
0
210
0
220
0
230
1
0
LINE
5
1A0
100
AcDbEntity
8
SK2
62
256
6
ByLayer
370
13
48
1
60
0
100
AcDbLine
10
-115.057836
20
-42.505529
30
0
11
-115.057833
21
-43.341523
31
0
39
0
210
0
220
0
230
1
0
LINE
5
1A1
100
AcDbEntity
8
SK2
62
256
6
ByLayer
370
13
48
1
60
0
100
AcDbLine
10
33.117165
20
-42.923526
30
0
11
29.942167
21
-43.341523
31
0
39
0
210
0
220
0
230
1
0
LINE
5
1A2
100
AcDbEntity
8
SK2
62
256
6
ByLayer
370
13
48
1
60
0
100
AcDbLine
10
33.117165
20
-42.923526
30
0
11
29.942164
21
-42.505529
31
0
39
0
210
0
220
0
230
1
0
LINE
5
1A3
100
AcDbEntity
8
SK2
62
256
6
ByLayer
370
13
48
1
60
0
100
AcDbLine
10
29.942167
20
-43.341523
30
0
11
29.942164
21
-42.505529
31
0
39
0
210
0
220
0
230
1
0
ENDBLK
5
1A5
100
AcDbEntity
8
0
100
AcDbBlockEnd
0
BLOCK
5
1B2
100
AcDbEntity
8
0
100
AcDbBlockBegin
2
DimnDraft3D6
70
0
10
0
20
0
30
0
3
DimnDraft3D6
0
MTEXT
5
1A8
100
AcDbEntity
8
SK2
62
256
6
ByLayer
370
18
48
1
60
0
100
AcDbMText
10
-42.714005
20
-51.798526
30
0
210
0
220
0
230
1
1
\W0.6864;160.2
40
4.5
41
0
44
1.084337
50
0
71
7
72
5
7
iso_b_vert
0
LINE
5
1A9
100
AcDbEntity
8
SK2
62
256
6
ByLayer
370
13
48
1
60
0
100
AcDbLine
10
43.35614
20
-11.673526
30
0
11
43.35614
21
-54.923526
31
0
39
0
210
0
220
0
230
1
0
LINE
5
1AA
100
AcDbEntity
8
SK2
62
256
6
ByLayer
370
13
48
1
60
0
100
AcDbLine
10
-118.232835
20
-14.4375
30
0
11
-118.232835
21
-54.923526
31
0
39
0
210
0
220
0
230
1
0
LINE
5
1AB
100
AcDbEntity
8
SK2
62
256
6
ByLayer
370
13
48
1
60
0
100
AcDbLine
10
43.35614
20
-52.923526
30
0
11
-118.232835
21
-52.923526
31
0
39
0
210
0
220
0
230
1
0
LINE
5
1AC
100
AcDbEntity
8
SK2
62
256
6
ByLayer
370
13
48
1
60
0
100
AcDbLine
10
43.35614
20
-52.923526
30
0
11
40.181141
21
-53.341523
31
0
39
0
210
0
220
0
230
1
0
LINE
5
1AD
100
AcDbEntity
8
SK2
62
256
6
ByLayer
370
13
48
1
60
0
100
AcDbLine
10
43.35614
20
-52.923526
30
0
11
40.181138
21
-52.505529
31
0
39
0
210
0
220
0
230
1
0
LINE
5
1AE
100
AcDbEntity
8
SK2
62
256
6
ByLayer
370
13
48
1
60
0
100
AcDbLine
10
40.181141
20
-53.341523
30
0
11
40.181138
21
-52.505529
31
0
39
0
210
0
220
0
230
1
0
LINE
5
1AF
100
AcDbEntity
8
SK2
62
256
6
ByLayer
370
13
48
1
60
0
100
AcDbLine
10
-118.232835
20
-52.923526
30
0
11
-115.057836
21
-52.505529
31
0
39
0
210
0
220
0
230
1
0
LINE
5
1B0
100
AcDbEntity
8
SK2
62
256
6
ByLayer
370
13
48
1
60
0
100
AcDbLine
10
-118.232835
20
-52.923526
30
0
11
-115.057833
21
-53.341523
31
0
39
0
210
0
220
0
230
1
0
LINE
5
1B1
100
AcDbEntity
8
SK2
62
256
6
ByLayer
370
13
48
1
60
0
100
AcDbLine
10
-115.057836
20
-52.505529
30
0
11
-115.057833
21
-53.341523
31
0
39
0
210
0
220
0
230
1
0
ENDBLK
5
1B3
100
AcDbEntity
8
0
100
AcDbBlockEnd
0
BLOCK
5
1C0
100
AcDbEntity
8
0
100
AcDbBlockBegin
2
DimnDraft3D7
70
0
10
0
20
0
30
0
3
DimnDraft3D7
0
MTEXT
5
1B6
100
AcDbEntity
8
2
62
256
6
ByLayer
370
18
48
1
60
0
100
AcDbMText
10
51.115293
20
17.305547
30
0
210
0
220
0
230
1
1
\W0.7785;45%%d
40
4.5
41
0
44
1.084337
50
337.500000000001
71
7
72
5
7
iso_b_vert
0
LINE
5
1B7
100
AcDbEntity
8
2
62
256
6
ByLayer
370
13
48
1
60
0
100
AcDbLine
10
43.35614
20
-6.482901
30
0
11
43.35614
21
19.096187
31
0
39
0
210
0
220
0
230
1
0
LINE
5
1B8
100
AcDbEntity
8
2
62
256
6
ByLayer
370
13
48
1
60
0
100
AcDbLine
10
45.263526
20
-7.766139
30
0
11
63.699398
21
10.669733
31
0
39
0
210
0
220
0
230
1
0
ARC
5
1B9
100
AcDbEntity
8
2
62
256
6
ByLayer
370
13
48
1
60
0
100
AcDbCircle
39
0
10
43.35614
20
-9.673526
30
0
40
26.7697126973281
210
0
220
0
230
1
100
AcDbArc
50
45
51
90
0
LINE
5
1BA
100
AcDbEntity
8
2
62
256
6
ByLayer
370
13
48
1
60
0
100
AcDbLine
10
43.35614
20
17.096187
30
0
11
46.542123
21
17.419982
31
0
39
0
210
0
220
0
230
1
0
LINE
5
1BB
100
AcDbEntity
8
2
62
256
6
ByLayer
370
13
48
1
60
0
100
AcDbLine
10
43.35614
20
17.096187
30
0
11
46.517371
21
16.584355
31
0
39
0
210
0
220
0
230
1
0
LINE
5
1BC
100
AcDbEntity
8
2
62
256
6
ByLayer
370
13
48
1
60
0
100
AcDbLine
10
46.542123
20
17.419982
30
0
11
46.517371
21
16.584355
31
0
39
0
210
0
220
0
230
1
0
LINE
5
1BD
100
AcDbEntity
8
2
62
256
6
ByLayer
370
13
48
1
60
0
100
AcDbLine
10
62.285185
20
9.255519
30
0
11
59.687939
21
11.128926
31
0
39
0
210
0
220
0
230
1
0
LINE
5
1BE
100
AcDbEntity
8
2
62
256
6
ByLayer
370
13
48
1
60
0
100
AcDbLine
10
62.285185
20
9.255519
30
0
11
60.26131
21
11.73731
31
0
39
0
210
0
220
0
230
1
0
LINE
5
1BF
100
AcDbEntity
8
2
62
256
6
ByLayer
370
13
48
1
60
0
100
AcDbLine
10
59.687939
20
11.128926
30
0
11
60.26131
21
11.73731
31
0
39
0
210
0
220
0
230
1
0
ENDBLK
5
1C1
100
AcDbEntity
8
0
100
AcDbBlockEnd
0
ENDSEC
0
SECTION
2
ENTITIES
0
ELLIPSE
5
CD
100
AcDbEntity
8
1
62
256
6
ByLayer
370
18
48
1
60
0
100
AcDbEllipse
10
8.104782
20
12.447281
30
0
11
0.803406090798154
21
3.03757714530875E-05
31
0
210
0
220
0
230
-1
40
0.004364
41
0.107650575313036
42
1.67844690210802
0
ELLIPSE
5
CE
100
AcDbEntity
8
1
62
256
6
ByLayer
370
18
48
1
60
0
100
AcDbEllipse
10
30.502591
20
-2.634989
30
0
11
2.5058130175084
21
2.5058130175084
31
0
210
0
220
0
230
-1
40
0.50533
41
-1.5707963267949
42
-1.28337423131325
0
ELLIPSE
5
CF
100
AcDbEntity
8
1
62
256
6
ByLayer
370
18
48
1
60
0
100
AcDbEllipse
10
32.056123
20
-8.607656
30
0
11
2.24506403026732
21
2.24506403026726
31
0
210
0
220
0
230
1
40
0.990268
41
-0.45246835351102
42
-0.141057825650124
0
ELLIPSE
5
D0
100
AcDbEntity
8
1
62
256
6
ByLayer
370
18
48
1
60
0
100
AcDbEllipse
10
32.727454
20
0.262005
30
0
11
-0.842164176393191
21
-0.842164176393166
31
0
210
0
220
0
230
1
40
0.990268
41
-3.14159265358978
42
-1.57079632679487
0
ELLIPSE
5
D1
100
AcDbEntity
8
1
62
256
6
ByLayer
370
18
48
1
60
0
100
AcDbEllipse
10
42.175594
20
-9.186135
30
0
11
-0.842164176393191
21
-0.842164176393166
31
0
210
0
220
0
230
1
40
0.990268
41
1.57079632679491
42
3.14159265358979
0
ELLIPSE
5
D2
100
AcDbEntity
8
1
62
256
6
ByLayer
370
18
48
1
60
0
100
AcDbEllipse
10
32.634602
20
-18.727127
30
0
11
-0.842164176393191
21
-0.842164176393166
31
0
210
0
220
0
230
1
40
0.990268
41
0
42
1.57079632679491
0
ELLIPSE
5
D3
100
AcDbEntity
8
1
62
256
6
ByLayer
370
18
48
1
60
0
100
AcDbEllipse
10
32.681028
20
-9.232561
30
0
11
2.24506403026732
21
2.24506403026726
31
0
210
0
220
0
230
1
40
0.990268
41
-2.16610908926291
42
0
0
ELLIPSE
5
D4
100
AcDbEntity
8
1
62
256
6
ByLayer
370
18
48
1
60
0
100
AcDbEllipse
10
32.681028
20
-9.232561
30
0
11
2.24506403026732
21
2.24506403026726
31
0
210
0
220
0
230
1
40
0.990268
41
0
42
0.427668466404113
0
ELLIPSE
5
D5
100
AcDbEntity
8
1
62
256
6
ByLayer
370
18
48
1
60
0
100
AcDbEllipse
10
32.102549
20
0.88691
30
0
11
0.84216417639319
21
0.842164176393167
31
0
210
0
220
0
230
1
40
0.990268
41
0
42
1.14584676780898
0
ELLIPSE
5
D6
100
AcDbEntity
8
1
62
256
6
ByLayer
370
18
48
1
60
0
100
AcDbEllipse
10
31.503897
20
-0.197706
30
0
11
-1.6837980227005
21
-1.68379802270045
31
0
210
0
220
0
230
1
40
0.990268
41
-2.65972625857208
42
-2.35469745094914
0
ELLIPSE
5
D7
100
AcDbEntity
8
1
62
256
6
ByLayer
370
18
48
1
60
0
100
AcDbEllipse
10
11.049442
20
-10.768069
30
0
11
5.47670107840134
21
-0.505712663315444
31
0
210
0
220
0
230
1
40
0.089459
41
-2.36517643487227
42
-1.95975726285901
0
ELLIPSE
5
D8
100
AcDbEntity
8
1
62
256
6
ByLayer
370
18
48
1
60
0
100
AcDbEllipse
10
8.336525
20
-13.84753
30
0
11
1.95985733071549
21
2.27133424295958
31
0
210
0
220
0
230
1
40
0.988257
41
0.250976749617686
42
0.625434656542332
0
ELLIPSE
5
D9
100
AcDbEntity
8
1
62
256
6
ByLayer
370
18
48
1
60
0
100
AcDbEllipse
10
4.487309
20
1.735647
30
0
11
6.97034682705625
21
-0.643634298765111
31
0
210
0
220
0
230
1
40
0.089459
41
0.770472553435579
42
0.801151610592846
0
ELLIPSE
5
DA
100
AcDbEntity
8
1
62
256
6
ByLayer
370
18
48
1
60
0
100
AcDbEllipse
10
8.756445
20
-1.586689
30
0
11
3.19892913271631
21
1.45835999673217
31
0
210
0
220
0
230
-1
40
0.988829
41
-2.62660291115509
42
-1.45436808044329
0
ELLIPSE
5
DB
100
AcDbEntity
8
1
62
256
6
ByLayer
370
18
48
1
60
0
100
AcDbEllipse
10
33.183176
20
-9.607444
30
0
11
2.00550535597507
21
1.95408191121971
31
0
210
0
220
0
230
-1
40
0.794373
41
0.862348417310252
42
1.31205839335728
0
ELLIPSE
5
DC
100
AcDbEntity
8
1
62
256
6
ByLayer
370
18
48
1
60
0
100
AcDbEllipse
10
7.772886
20
-12.238313
30
0
11
3.19892913272279
21
1.45835999671254
31
0
210
0
220
0
230
-1
40
0.988829
41
2.48434756530678
42
-2.62660291116068
0
ELLIPSE
5
DD
100
AcDbEntity
8
1
62
256
6
ByLayer
370
18
48
1
60
0
100
AcDbEllipse
10
16.507318
20
-8.514543
30
0
11
-3.36442175106161
21
-3.89912378374726
31
0
210
0
220
0
230
1
40
0.988257
41
0.625434656542342
42
-2.93929127739905
0
ELLIPSE
5
DE
100
AcDbEntity
8
1
62
256
6
ByLayer
370
18
48
1
60
0
100
AcDbEllipse
10
14.341288
20
-8.339005
30
0
11
3.36442175106158
21
3.89912378374728
31
0
210
0
220
0
230
1
40
0.988257
41
-2.89034876093076
42
-2.51615799704745
0
ELLIPSE
5
DF
100
AcDbEntity
8
1
62
256
6
ByLayer
370
18
48
1
60
0
100
AcDbEllipse
10
11.598916
20
-4.817441
30
0
11
5.47670107840134
21
-0.505712663315444
31
0
210
0
220
0
230
1
40
0.089459
41
-2.36517643487227
42
-1.959757262859
0
ELLIPSE
5
E0
100
AcDbEntity
8
1
62
256
6
ByLayer
370
18
48
1
60
0
100
AcDbEllipse
10
10.493586
20
-13.579183
30
0
11
3.98886380381242
21
1.54122884600192
31
0
210
0
220
0
230
-1
40
0.529671
41
2.31166997835658
42
-2.85354265465232
0
ELLIPSE
5
E1
100
AcDbEntity
8
1
62
256
6
ByLayer
370
18
48
1
60
0
100
AcDbEllipse
10
33.183176
20
-9.607444
30
0
11
0.152207409686562
21
3.03154381184794
31
0
210
0
220
0
230
-1
40
0.817727
41
1.05972786615925
42
1.50943784216503
0
ELLIPSE
5
E2
100
AcDbEntity
8
1
62
256
6
ByLayer
370
18
48
1
60
0
100
AcDbEllipse
10
11.477146
20
-2.927559
30
0
11
2.91003459846078
21
-3.97747410859693
31
0
210
0
220
0
230
-1
40
0.60761
41
2.50831289362026
42
-2.65689973938898
0
ELLIPSE
5
E3
100
AcDbEntity
8
1
62
256
6
ByLayer
370
18
48
1
60
0
100
AcDbEllipse
10
14.217682
20
-9.536007
30
0
11
0.353553390593279
21
0.353553390593269
31
0
210
0
220
0
230
1
40
0.990268
41
0.0299579611837259
42
0.543919613210369
0
ELLIPSE
5
E4
100
AcDbEntity
8
1
62
256
6
ByLayer
370
18
48
1
60
0
100
AcDbEllipse
10
14.389617
20
-7.674004
30
0
11
0.353553390593279
21
0.353553390593269
31
0
210
0
220
0
230
1
40
0.990268
41
-2.28924886520465
42
-1.775287213178
0
ELLIPSE
5
E5
100
AcDbEntity
8
1
62
256
6
ByLayer
370
18
48
1
60
0
100
AcDbEllipse
10
15.910552
20
-8.733882
30
0
11
0.98994949366118
21
0.989949493661153
31
0
210
0
220
0
230
1
40
0.990268
41
-2.53506211196761
42
-2.35185979361654
0
ELLIPSE
5
E6
100
AcDbEntity
8
1
62
256
6
ByLayer
370
18
48
1
60
0
100
AcDbEllipse
10
16.086748
20
-6.876139
30
0
11
0.353553390593279
21
0.353553390593269
31
0
210
0
220
0
230
1
40
0.990268
41
2.94673889077833
42
-2.82248476437461
0
ELLIPSE
5
E7
100
AcDbEntity
8
1
62
256
6
ByLayer
370
18
48
1
60
0
100
AcDbEllipse
10
15.910552
20
-8.733882
30
0
11
0.98994949366118
21
0.989949493661153
31
0
210
0
220
0
230
1
40
0.990268
41
0.606530541622612
42
0.789732859973262
0
ELLIPSE
5
E8
100
AcDbEntity
8
1
62
256
6
ByLayer
370
18
48
1
60
0
100
AcDbEllipse
10
17.611944
20
-7.940278
30
0
11
0.353553390593279
21
0.353553390593269
31
0
210
0
220
0
230
1
40
0.990268
41
1.89954133958167
42
2.41350299160834
0
ELLIPSE
5
E9
100
AcDbEntity
8
1
62
256
6
ByLayer
370
18
48
1
60
0
100
AcDbEllipse
10
15.910552
20
-8.733882
30
0
11
0.98994949366118
21
0.989949493661153
31
0
210
0
220
0
230
1
40
0.990268
41
-1.4878645607706
42
-1.30466224242037
0
ELLIPSE
5
EA
100
AcDbEntity
8
1
62
256
6
ByLayer
370
18
48
1
60
0
100
AcDbEllipse
10
15.541137
20
-10.398405
30
0
11
0.353553390593279
21
0.353553390593269
31
0
210
0
220
0
230
1
40
0.990268
41
4.64060096803613E-06
42
0.439120651739954
0
ELLIPSE
5
EB
100
AcDbEntity
8
1
62
256
6
ByLayer
370
18
48
1
60
0
100
AcDbEllipse
10
14.86241
20
-9.746978
30
0
11
-0.318198051533951
21
-0.318198051533942
31
0
210
0
220
0
230
1
40
0.990268
41
0.325841511063347
42
1.591117164407
0
ELLIPSE
5
EC
100
AcDbEntity
8
1
62
256
6
ByLayer
370
18
48
1
60
0
100
AcDbEllipse
10
15.713072
20
-8.536402
30
0
11
0.98994949366118
21
0.989949493661153
31
0
210
0
220
0
230
1
40
0.990268
41
0.836388479227084
42
1.45587279544628
0
ELLIPSE
5
ED
100
AcDbEntity
8
1
62
256
6
ByLayer
370
18
48
1
60
0
100
AcDbEllipse
10
14.015941
20
-9.334266
30
0
11
0.353553390593279
21
0.353553390593269
31
0
210
0
220
0
230
1
40
0.990268
41
8.30718776507065E-06
42
0.543919613210374
0
ELLIPSE
5
EE
100
AcDbEntity
8
1
62
256
6
ByLayer
370
18
48
1
60
0
100
AcDbEllipse
10
15.742878
20
-10.600146
30
0
11
0.353553390593279
21
0.353553390593269
31
0
210
0
220
0
230
1
40
0.990268
41
1.0771555123803
42
1.59111716440701
0
ELLIPSE
5
EF
100
AcDbEntity
8
1
62
256
6
ByLayer
370
18
48
1
60
0
100
AcDbEllipse
10
16.086748
20
-6.876139
30
0
11
0.353553390593279
21
0.353553390593269
31
0
210
0
220
0
230
1
40
0.990268
41
-2.06443714120957
42
-1.55047548918286
0
ELLIPSE
5
F0
100
AcDbEntity
8
1
62
256
6
ByLayer
370
18
48
1
60
0
100
AcDbEllipse
10
17.179638
20
-8.657591
30
0
11
-0.318198051533951
21
-0.318198051533942
31
0
210
0
220
0
230
1
40
0.990268
41
0.852343788385095
42
2.81572899735433
0
ELLIPSE
5
F1
100
AcDbEntity
8
1
62
256
6
ByLayer
370
18
48
1
60
0
100
AcDbEllipse
10
17.440009
20
-9.802282
30
0
11
0.353553390593279
21
0.353553390593269
31
0
210
0
220
0
230
1
40
0.990268
41
0.8523437883851
42
1.3663054404118
0
ELLIPSE
5
F2
100
AcDbEntity
8
1
62
256
6
ByLayer
370
18
48
1
60
0
100
AcDbEllipse
10
14.217682
20
-9.536007
30
0
11
0.353553390593279
21
0.353553390593269
31
0
210
0
220
0
230
1
40
0.990268
41
-1.24205131400809
42
-0.728089661981398
0
ELLIPSE
5
F3
100
AcDbEntity
8
1
62
256
6
ByLayer
370
18
48
1
60
0
100
AcDbEllipse
10
15.713072
20
-8.536402
30
0
11
0.98994949366118
21
0.989949493661153
31
0
210
0
220
0
230
1
40
0.990268
41
2.09016212308342
42
2.70092564401581
0
ELLIPSE
5
F4
100
AcDbEntity
8
1
62
256
6
ByLayer
370
18
48
1
60
0
100
AcDbEllipse
10
14.246506
20
-8.415213
30
0
11
-0.318198051533951
21
-0.318198051533942
31
0
210
0
220
0
230
1
40
0.990268
41
0.325854365137346
42
0.543919613210367
0
ELLIPSE
5
F5
100
AcDbEntity
8
1
62
256
6
ByLayer
370
18
48
1
60
0
100
AcDbEllipse
10
15.658946
20
-8.482276
30
0
11
0.98994949366118
21
0.989949493661153
31
0
210
0
220
0
230
1
40
0.990268
41
-3.10780161105813
42
-0.0276663205641285
0
ELLIPSE
5
F6
100
AcDbEntity
8
1
62
256
6
ByLayer
370
18
48
1
60
0
100
AcDbEllipse
10
15.914813
20
-8.738143
30
0
11
1.00762716319084
21
1.00762716319082
31
0
210
0
220
0
230
1
40
0.990268
41
-1.52646030585329
42
-1.26606649733769
0
ELLIPSE
5
F7
100
AcDbEntity
8
1
62
256
6
ByLayer
370
18
48
1
60
0
100
AcDbEllipse
10
15.781532
20
-8.604862
30
0
11
-3.53553390593279
21
-3.53553390593268
31
0
210
0
220
0
230
1
40
0.990268
41
0
42
6.28318530717959
0
ELLIPSE
5
F8
100
AcDbEntity
8
1
62
256
6
ByLayer
370
18
48
1
60
0
100
AcDbEllipse
10
15.914813
20
-8.738143
30
0
11
-1.7677669529664
21
-1.76776695296634
31
0
210
0
220
0
230
1
40
0.990268
41
0
42
6.28318530717959
0
ELLIPSE
5
F9
100
AcDbEntity
8
1
62
256
6
ByLayer
370
18
48
1
60
0
100
AcDbEllipse
10
15.713072
20
-8.536402
30
0
11
0.98994949366118
21
0.989949493661153
31
0
210
0
220
0
230
1
40
0.990268
41
-1.30466224242034
42
-0.440667009573998
0
ELLIPSE
5
FA
100
AcDbEntity
8
1
62
256
6
ByLayer
370
18
48
1
60
0
100
AcDbEllipse
10
15.914813
20
-8.738143
30
0
11
1.00762716319084
21
1.00762716319082
31
0
210
0
220
0
230
1
40
0.990268
41
2.66232989893311
42
2.92272370744872
0
ELLIPSE
5
FB
100
AcDbEntity
8
1
62
256
6
ByLayer
370
18
48
1
60
0
100
AcDbEllipse
10
17.381379
20
-8.859332
30
0
11
-0.318198051533951
21
-0.318198051533942
31
0
210
0
220
0
230
1
40
0.990268
41
0.852343788385095
42
-2.59767304037943
0
ELLIPSE
5
FC
100
AcDbEntity
8
1
62
256
6
ByLayer
370
18
48
1
60
0
100
AcDbEllipse
10
15.742878
20
-10.600146
30
0
11
0.353553390593279
21
0.353553390593269
31
0
210
0
220
0
230
1
40
0.990268
41
-0.194853762811553
42
0.31910788921519
0
ELLIPSE
5
FD
100
AcDbEntity
8
1
62
256
6
ByLayer
370
18
48
1
60
0
100
AcDbEllipse
10
16.328977
20
-9.868167
30
0
11
-0.318198051533951
21
-0.318198051533942
31
0
210
0
220
0
230
1
40
0.990268
41
0.280322619946451
42
2.63831471560355
0
ELLIPSE
5
FE
100
AcDbEntity
8
1
62
256
6
ByLayer
370
18
48
1
60
0
100
AcDbEllipse
10
17.611944
20
-7.940278
30
0
11
0.353553390593279
21
0.353553390593269
31
0
210
0
220
0
230
1
40
0.990268
41
-3.11163469240621
42
-2.59767304037952
0
ELLIPSE
5
FF
100
AcDbEntity
8
1
62
256
6
ByLayer
370
18
48
1
60
0
100
AcDbEllipse
10
17.410203
20
-7.738537
30
0
11
0.353553390593279
21
0.353553390593269
31
0
210
0
220
0
230
1
40
0.990268
41
3.05153785224871
42
-3.14158333400503
0
ELLIPSE
5
100
100
AcDbEntity
8
1
62
256
6
ByLayer
370
18
48
1
60
0
100
AcDbEllipse
10
15.064151
20
-9.948719
30
0
11
-0.318198051533951
21
-0.318198051533942
31
0
210
0
220
0
230
1
40
0.990268
41
-1.24205131400807
42
1.59111716440691
0
ELLIPSE
5
101
100
AcDbEntity
8
1
62
256
6
ByLayer
370
18
48
1
60
0
100
AcDbEllipse
10
15.541137
20
-10.398405
30
0
11
0.353553390593279
21
0.353553390593269
31
0
210
0
220
0
230
1
40
0.990268
41
0.957142749855464
42
1.59111716440693
0
ELLIPSE
5
102
100
AcDbEntity
8
1
62
256
6
ByLayer
370
18
48
1
60
0
100
AcDbEllipse
10
15.885007
20
-6.674398
30
0
11
0.353553390593279
21
0.353553390593269
31
0
210
0
220
0
230
1
40
0.990268
41
3.10092368058419
42
-3.14158801298872
0
ELLIPSE
5
103
100
AcDbEntity
8
1
62
256
6
ByLayer
370
18
48
1
60
0
100
AcDbEllipse
10
14.448247
20
-8.616954
30
0
11
-0.318198051533951
21
-0.318198051533942
31
0
210
0
220
0
230
1
40
0.990268
41
-2.28924886520471
42
0.543919613210384
0
ELLIPSE
5
104
100
AcDbEntity
8
1
62
256
6
ByLayer
370
18
48
1
60
0
100
AcDbEllipse
10
15.914813
20
-8.738143
30
0
11
1.00762716319084
21
1.00762716319082
31
0
210
0
220
0
230
1
40
0.990268
41
-2.5736578570499
42
-2.31326404853428
0
ELLIPSE
5
105
100
AcDbEntity
8
1
62
256
6
ByLayer
370
18
48
1
60
0
100
AcDbEllipse
10
15.713072
20
-8.536402
30
0
11
0.98994949366118
21
0.989949493661153
31
0
210
0
220
0
230
1
40
0.990268
41
-3.14158687108402
42
-2.53506211196719
0
ELLIPSE
5
106
100
AcDbEntity
8
1
62
256
6
ByLayer
370
18
48
1
60
0
100
AcDbEllipse
10
17.238268
20
-9.600541
30
0
11
0.353553390593279
21
0.353553390593269
31
0
210
0
220
0
230
1
40
0.990268
41
2.00434030105203
42
2.6383147156035
0
ELLIPSE
5
107
100
AcDbEntity
8
1
62
256
6
ByLayer
370
18
48
1
60
0
100
AcDbEllipse
10
15.619582
20
-8.442912
30
0
11
3.53553390593278
21
3.53553390593269
31
0
210
0
220
0
230
1
40
0.990268
41
0
42
0.738980428700048
0
ELLIPSE
5
108
100
AcDbEntity
8
1
62
256
6
ByLayer
370
18
48
1
60
0
100
AcDbEllipse
10
15.914813
20
-8.738143
30
0
11
1.00762716319084
21
1.00762716319082
31
0
210
0
220
0
230
1
40
0.990268
41
-0.479262754656689
42
-0.218868946141063
0
ELLIPSE
5
109
100
AcDbEntity
8
1
62
256
6
ByLayer
370
18
48
1
60
0
100
AcDbEllipse
10
16.563734
20
-7.325825
30
0
11
-0.318198051533951
21
-0.318198051533942
31
0
210
0
220
0
230
1
40
0.990268
41
1.89954133958162
42
2.81576256984673
0
ELLIPSE
5
10A
100
AcDbEntity
8
1
62
256
6
ByLayer
370
18
48
1
60
0
100
AcDbEllipse
10
15.914813
20
-8.738143
30
0
11
1.00762716319084
21
1.00762716319082
31
0
210
0
220
0
230
1
40
0.990268
41
0.567934796539918
42
0.828328605055566
0
ELLIPSE
5
10B
100
AcDbEntity
8
1
62
256
6
ByLayer
370
18
48
1
60
0
100
AcDbEllipse
10
15.298908
20
-7.406378
30
0
11
-0.318198051533951
21
-0.318198051533942
31
0
210
0
220
0
230
1
40
0.990268
41
2.94673889077825
42
-0.50327793798628
0
ELLIPSE
5
10C
100
AcDbEntity
8
1
62
256
6
ByLayer
370
18
48
1
60
0
100
AcDbEllipse
10
15.910552
20
-8.733882
30
0
11
0.98994949366118
21
0.989949493661153
31
0
210
0
220
0
230
1
40
0.990268
41
2.70092564401583
42
2.88412796236602
0
ELLIPSE
5
10D
100
AcDbEntity
8
1
62
256
6
ByLayer
370
18
48
1
60
0
100
AcDbEllipse
10
15.910552
20
-8.733882
30
0
11
0.98994949366118
21
0.989949493661153
31
0
210
0
220
0
230
1
40
0.990268
41
-0.440667009573998
42
-0.257464691223754
0
ELLIPSE
5
10E
100
AcDbEntity
8
1
62
256
6
ByLayer
370
18
48
1
60
0
100
AcDbEllipse
10
16.765475
20
-7.527566
30
0
11
-0.318198051533951
21
-0.318198051533942
31
0
210
0
220
0
230
1
40
0.990268
41
1.8995413395817
42
-1.55047548918292
0
ELLIPSE
5
10F
100
AcDbEntity
8
1
62
256
6
ByLayer
370
18
48
1
60
0
100
AcDbEllipse
10
16.530718
20
-10.069908
30
0
11
-0.318198051533951
21
-0.318198051533942
31
0
210
0
220
0
230
1
40
0.990268
41
-0.194853762811581
42
2.63831471560357
0
ELLIPSE
5
110
100
AcDbEntity
8
1
62
256
6
ByLayer
370
18
48
1
60
0
100
AcDbEllipse
10
15.914813
20
-8.738143
30
0
11
1.00762716319084
21
1.00762716319082
31
0
210
0
220
0
230
1
40
0.990268
41
1.61513234773653
42
1.87552615625214
0
ELLIPSE
5
111
100
AcDbEntity
8
1
62
256
6
ByLayer
370
18
48
1
60
0
100
AcDbEllipse
10
14.389617
20
-7.674004
30
0
11
0.353553390593279
21
0.353553390593269
31
0
210
0
220
0
230
1
40
0.990268
41
-1.01723959001292
42
-0.503277937986248
0
ELLIPSE
5
112
100
AcDbEntity
8
1
62
256
6
ByLayer
370
18
48
1
60
0
100
AcDbEllipse
10
17.410203
20
-7.738537
30
0
11
0.353553390593279
21
0.353553390593269
31
0
210
0
220
0
230
1
40
0.990268
41
1.89954133958167
42
2.53351575413316
0
ELLIPSE
5
113
100
AcDbEntity
8
1
62
256
6
ByLayer
370
18
48
1
60
0
100
AcDbEllipse
10
15.713072
20
-8.536402
30
0
11
0.98994949366118
21
0.989949493661153
31
0
210
0
220
0
230
1
40
0.990268
41
-0.257464691223761
42
0.312204999338686
0
ELLIPSE
5
114
100
AcDbEntity
8
1
62
256
6
ByLayer
370
18
48
1
60
0
100
AcDbEllipse
10
15.713072
20
-8.536402
30
0
11
0.98994949366118
21
0.989949493661153
31
0
210
0
220
0
230
1
40
0.990268
41
-2.35185979361694
42
-1.48786456077057
0
ELLIPSE
5
115
100
AcDbEntity
8
1
62
256
6
ByLayer
370
18
48
1
60
0
100
AcDbEllipse
10
17.238268
20
-9.600541
30
0
11
0.353553390593279
21
0.353553390593269
31
0
210
0
220
0
230
1
40
0.990268
41
0.852343788385062
42
1.48631820293655
0
ELLIPSE
5
116
100
AcDbEntity
8
1
62
256
6
ByLayer
370
18
48
1
60
0
100
AcDbEllipse
10
17.440009
20
-9.802282
30
0
11
0.353553390593279
21
0.353553390593269
31
0
210
0
220
0
230
1
40
0.990268
41
2.12435306357682
42
2.63831471560354
0
ELLIPSE
5
117
100
AcDbEntity
8
1
62
256
6
ByLayer
370
18
48
1
60
0
100
AcDbEllipse
10
15.910552
20
-8.733882
30
0
11
0.98994949366118
21
0.989949493661153
31
0
210
0
220
0
230
1
40
0.990268
41
1.65372809281921
42
1.8369304111701
0
POINT
5
6C
100
AcDbEntity
8
2
62
256
6
ByLayer
370
18
48
1
60
0
100
AcDbPoint
10
33.117165
20
44.7875
30
0
39
0
210
0
220
0
230
1
50
360
0
POINT
5
6E
100
AcDbEntity
8
80
62
256
6
ByLayer
370
18
48
1
60
0
100
AcDbPoint
10
0
20
0
30
0
39
0
210
0
220
0
230
1
50
360
0
POINT
5
70
100
AcDbEntity
8
81
62
256
6
ByLayer
370
18
48
1
60
0
100
AcDbPoint
10
33.117165
20
-19.9125
30
0
39
0
210
0
220
0
230
1
50
360
0
SPLINE
5
118
100
AcDbEntity
8
1
62
256
6
ByLayer
370
18
48
1
60
0
100
AcDbSpline
70
4
71
3
72
10
73
6
40
0
40
0
40
0
40
0
40
0.731297369966844
40
0.731297369966844
40
1
40
1
40
1
40
1
41
1
10
10.2926346863144
20
-5.08644871532655
30
1.3E-15
41
1
10
10.3756976856905
20
-5.07679800136538
30
1.4E-15
41
1
10
10.4623402874643
20
-5.06173647936691
30
1.5E-15
41
1
10
10.5770461340611
20
-5.03333224395331
30
1.7E-15
41
1
10
10.6079154985144
20
-5.02482436794779
30
1.7E-15
41
1
10
10.6380947472743
20
-5.01559459659796
30
1.8E-15
0
SPLINE
5
119
100
AcDbEntity
8
1
62
256
6
ByLayer
370
18
48
1
60
0
100
AcDbSpline
70
4
71
3
72
10
73
6
40
0
40
0
40
0
40
0
40
0.311681797709781
40
0.311681797709781
40
1
40
1
40
1
40
1
41
1
10
32.2680224903502
20
-9.63016518998467
30
-1.3E-15
41
1
10
32.1444375964415
20
-9.55660089042428
30
-1.5E-15
41
1
10
32.0208256158237
20
-9.48175379524366
30
-1.6E-15
41
1
10
31.6242443588186
20
-9.2379336807071
30
1.5E-15
41
1
10
31.3512038004897
20
-9.06472667659779
30
1.1E-15
41
1
10
31.0783912712126
20
-8.88547667225041
30
8E-16
0
SPLINE
5
11A
100
AcDbEntity
8
1
62
256
6
ByLayer
370
18
48
1
60
0
100
AcDbSpline
70
4
71
3
72
10
73
6
40
0
40
0
40
0
40
0
40
0.731096563947361
40
0.731096563947361
40
1
40
1
40
1
40
1
41
1
10
10.053028976454
20
-11.3516636144839
30
1.1E-15
41
1
10
9.97755343275662
20
-11.3156605917167
30
1E-15
41
1
10
9.89591288667526
20
-11.2810298545783
30
9E-16
41
1
10
9.78597328480316
20
-11.2390028130959
30
8E-16
41
1
10
9.75610742802405
20
-11.2280353905323
30
7E-16
41
1
10
9.7264953960177
20
-11.2175502016248
30
7E-16
0
SPLINE
5
11B
100
AcDbEntity
8
1
62
256
6
ByLayer
370
18
48
1
60
0
100
AcDbSpline
70
4
71
3
72
10
73
6
40
0
40
0
40
0
40
0
40
0.914968234315953
40
0.914968234315953
40
1
40
1
40
1
40
1
41
1
10
30.9474998129725
20
-10.3029879240727
30
7E-16
41
1
10
31.3519248335588
20
-10.0885397773501
30
1.1E-15
41
1
10
31.7550358264876
20
-9.88262512966986
30
1.6E-15
41
1
10
32.1934904424967
20
-9.66666731343361
30
-1.4E-15
41
1
10
32.230765486117
20
-9.64837635650244
30
-1.4E-15
41
1
10
32.268022490332
20
-9.63016518999365
30
-1.3E-15
0
SPLINE
5
11C
100
AcDbEntity
8
1
62
256
6
ByLayer
370
18
48
1
60
0
100
AcDbSpline
70
4
71
3
72
20
73
16
40
0
40
0
40
0
40
0
40
0.118962056339782
40
0.118962056339782
40
0.191173230286449
40
0.191173230286449
40
0.263712164126316
40
0.263712164126316
40
0.333306822588754
40
0.333306822588754
40
0.451479822004395
40
0.451479822004395
40
0.65441453400903
40
0.65441453400903
40
1
40
1
40
1
40
1
41
1
10
29.4567385652377
20
-11.8857679231771
30
-1.1E-15
41
1
10
29.418982978402
20
-11.8528372748001
30
-1.1E-15
41
1
10
29.3903633114608
20
-11.8090908218683
30
-1.1E-15
41
1
10
29.3769189222524
20
-11.7161661803691
30
-1.2E-15
41
1
10
29.3796028285069
20
-11.6748250377817
30
-1.2E-15
41
1
10
29.4035151705707
20
-11.5843203457302
30
2.4E-15
41
1
10
29.4251865814619
20
-11.5340148442857
30
2.4E-15
41
1
10
29.4816253375315
20
-11.4346177412072
30
2.5E-15
41
1
10
29.5162602515094
20
-11.3845043403242
30
2.6E-15
41
1
10
29.6190058068817
20
-11.2537250750382
30
2.7E-15
41
1
10
29.6951147296126
20
-11.1735810573193
30
2.8E-15
41
1
10
29.9085884907788
20
-10.9721534343346
30
3E-15
41
1
10
30.0552614902475
20
-10.8574294630041
30
3.2E-15
41
1
10
30.4486341030985
20
-10.5799051460363
30
-3.5E-15
41
1
10
30.700768402161
20
-10.4337720504936
30
4E-16
41
1
10
30.9474998129726
20
-10.3029879240727
30
7E-16
0
SPLINE
5
11D
100
AcDbEntity
8
1
62
256
6
ByLayer
370
18
48
1
60
0
100
AcDbSpline
70
4
71
3
72
8
73
4
40
0
40
0
40
0
40
0
40
1
40
1
40
1
40
1
41
1
10
7.48146031679522
20
-1.96794093505409
30
-1.9E-15
41
1
10
8.24774733564499
20
-2.8460503878033
30
-1E-15
41
1
10
9.25429889401011
20
-3.95018730936576
30
1E-16
41
1
10
10.2926346863144
20
-5.08644871532655
30
1.3E-15
0
SPLINE
5
11E
100
AcDbEntity
8
1
62
256
6
ByLayer
370
18
48
1
60
0
100
AcDbSpline
70
4
71
3
72
8
73
4
40
0
40
0
40
0
40
0
40
1
40
1
40
1
40
1
41
1
10
17.4098172765717
20
-3.53209454471462
30
2.6E-15
41
1
10
17.334968697338
20
-3.52236303073204
30
2.5E-15
41
1
10
17.2597861666252
20
-3.51434538032259
30
2.4E-15
41
1
10
17.1842577096026
20
-3.50810414252209
30
2.3E-15
0
SPLINE
5
11F
100
AcDbEntity
8
1
62
256
6
ByLayer
370
18
48
1
60
0
100
AcDbSpline
70
4
71
3
72
12
73
8
40
0
40
0
40
0
40
0
40
0.499999999999988
40
0.499999999999988
40
0.749999999999994
40
0.749999999999994
40
1
40
1
40
1
40
1
41
1
10
31.0783912712126
20
-8.88547667225041
30
8E-16
41
1
10
30.7578211572849
20
-8.67493829260749
30
-3.1E-15
41
1
10
30.4350758736225
20
-8.43627796972538
30
-3.5E-15
41
1
10
30.0035292936855
20
-7.91890259794059
30
3.1E-15
41
1
10
29.8662730669895
20
-7.71091594871609
30
3E-15
41
1
10
29.7538811667965
20
-7.29766676612263
30
2.8E-15
41
1
10
29.8079253256784
20
-7.13503236572504
30
2.9E-15
41
1
10
29.9037490016112
20
-7.04479257016553
30
-5E-16
0
SPLINE
5
120
100
AcDbEntity
8
1
62
256
6
ByLayer
370
18
48
1
60
0
100
AcDbSpline
70
4
71
3
72
8
73
4
40
0
40
0
40
0
40
0
40
1
40
1
40
1
40
1
41
1
10
10.6380947472743
20
-5.01559459659796
30
1.8E-15
41
1
10
9.50674561986472
20
-3.41049142992461
30
4E-16
41
1
10
8.3665542328871
20
-1.81218113759539
30
-9E-16
41
1
10
7.69814680502753
20
-0.816008151232893
30
-1.7E-15
0
SPLINE
5
121
100
AcDbEntity
8
1
62
256
6
ByLayer
370
18
48
1
60
0
100
AcDbSpline
70
4
71
2
72
10
73
7
40
0
40
0
40
0
40
0.030364284240822
40
0.030364284240822
40
0.440077053271163
40
0.440077053271163
40
1
40
1
40
1
41
1
10
30.2301331134839
20
-3.34339381290013
30
-2E-16
41
1
10
30.264455244332
20
-3.36670086545084
30
-1E-16
41
1
10
30.2978526167191
20
-3.38961035689039
30
-1E-16
41
1
10
30.8628386617184
20
-3.77717207316371
30
6E-16
41
1
10
31.5599816625667
20
-4.31482746558234
30
1.4E-15
41
1
10
32.7618031245381
20
-5.24170443195376
30
-8E-16
41
1
10
33.6650854484362
20
-6.08292400824143
30
3E-16
0
SPLINE
5
122
100
AcDbEntity
8
1
62
256
6
ByLayer
370
18
48
1
60
0
100
AcDbSpline
70
4
71
2
72
6
73
3
40
0
40
0
40
0
40
1
40
1
40
1
41
0.943993461863076
10
16.4674673206688
20
-13.7374332560082
30
1.5E-15
41
0.955129617927099
10
16.2696299385615
20
-14.7988747589621
30
1.2E-15
41
1.0258173342201
10
16.0810002396671
20
-15.2536181356877
30
1E-15
0
SPLINE
5
123
100
AcDbEntity
8
1
62
256
6
ByLayer
370
18
48
1
60
0
100
AcDbSpline
70
4
71
3
72
10
73
6
40
0
40
0
40
0
40
0
40
0.5
40
0.5
40
1
40
1
40
1
40
1
41
1
10
21.9902579063006
20
-7.87045302954465
30
8E-16
41
1
10
21.8227022149548
20
-6.75639728459413
30
6E-16
41
1
10
21.2188389410244
20
-5.72905641986071
30
-1E-16
41
1
10
19.5799173271295
20
-4.19944010063978
30
-2E-15
41
1
10
18.5324093992152
20
-3.67627515896783
30
-3.2E-15
41
1
10
17.4098172765716
20
-3.53209454471462
30
2.6E-15
0
SPLINE
5
124
100
AcDbEntity
8
1
62
256
6
ByLayer
370
18
48
1
60
0
100
AcDbSpline
70
4
71
3
72
8
73
4
40
0
40
0
40
0
40
0
40
1
40
1
40
1
40
1
41
1
10
9.7264953960177
20
-11.2175502016248
30
7E-16
41
1
10
9.46223590180745
20
-11.1239797665807
30
4E-16
41
1
10
9.19316778795945
20
-11.063609684984
30
1E-16
41
1
10
8.93066671259578
20
-11.029631286871
30
-2E-16
0
SPLINE
5
125
100
AcDbEntity
8
1
62
256
6
ByLayer
370
18
48
1
60
0
100
AcDbSpline
70
4
71
3
72
10
73
6
40
0
40
0
40
0
40
0
40
0.5
40
0.5
40
1
40
1
40
1
40
1
41
1
10
33.0690605568726
20
-12.5167893872335
30
-4E-16
41
1
10
32.1798386934938
20
-12.8751416228136
30
-1.4E-15
41
1
10
31.4785019218039
20
-12.8454062211896
30
1.3E-15
41
1
10
30.2977900900789
20
-12.5695809534787
30
-1E-16
41
1
10
29.8672097451078
20
-12.2326980366233
30
-6E-16
41
1
10
29.4567385652377
20
-11.8857679231771
30
-1.1E-15
0
SPLINE
5
126
100
AcDbEntity
8
1
62
256
6
ByLayer
370
18
48
1
60
0
100
AcDbSpline
70
4
71
3
72
12
73
8
40
0
40
0
40
0
40
0
40
0.274077856982877
40
0.274077856982877
40
0.548155363965173
40
0.548155363965173
40
1
40
1
40
1
40
1
41
1
10
21.7583023726797
20
-10.3824548307079
30
6E-16
41
1
10
21.8342126340671
20
-10.1613106154524
30
7E-16
41
1
10
21.8957313208047
20
-9.93476254333831
30
7E-16
41
1
10
21.9884058241621
20
-9.47713525822726
30
8E-16
41
1
10
22.0197743149111
20
-9.24500767396361
30
9E-16
41
1
10
22.0620023230753
20
-8.63138509366334
30
9E-16
41
1
10
22.0467108080268
20
-8.2459052840893
30
9E-16
41
1
10
21.9902579063007
20
-7.87045302954465
30
8E-16
0
SPLINE
5
127
100
AcDbEntity
8
1
62
256
6
ByLayer
370
18
48
1
60
0
100
AcDbSpline
70
4
71
3
72
16
73
12
40
0
40
0
40
0
40
0
40
0.107738294188995
40
0.107738294188995
40
0.260376815889412
40
0.260376815889412
40
0.501548994683952
40
0.501548994683952
40
0.879664328740044
40
0.879664328740044
40
1
40
1
40
1
40
1
41
1
10
6.42470463665074
20
-13.4122558452459
30
-3.2E-15
41
1
10
6.42865798097642
20
-13.4660470345778
30
-3.2E-15
41
1
10
6.43147699856172
20
-13.5218383628945
30
-3.2E-15
41
1
10
6.43712772660478
20
-13.6497572300818
30
-3.2E-15
41
1
10
6.43963260383316
20
-13.7218461785487
30
-3.2E-15
41
1
10
6.44542279003525
20
-13.8916780306322
30
-3.2E-15
41
1
10
6.44835706094028
20
-13.984062430899
30
-3.2E-15
41
1
10
6.45306611231308
20
-14.1877677770997
30
-3.2E-15
41
1
10
6.4529885691926
20
-14.2847002875863
30
-3.2E-15
41
1
10
6.44628014047271
20
-14.3832210516128
30
-3.2E-15
41
1
10
6.44415093285414
20
-14.405030713943
30
-3.2E-15
41
1
10
6.44151508447123
20
-14.424914548873
30
-3.2E-15
0
SPLINE
5
128
100
AcDbEntity
8
1
62
256
6
ByLayer
370
18
48
1
60
0
100
AcDbSpline
70
4
71
3
72
8
73
4
40
0
40
0
40
0
40
0
40
1
40
1
40
1
40
1
41
1
10
10.2926346863144
20
-5.08644871532655
30
1.3E-15
41
1
10
10.0167754596837
20
-5.11849955035242
30
1E-15
41
1
10
9.74264235831942
20
-5.11298161030749
30
7E-16
41
1
10
9.48014128295574
20
-5.07900321219444
30
4E-16
0
SPLINE
5
129
100
AcDbEntity
8
1
62
256
6
ByLayer
370
18
48
1
60
0
100
AcDbSpline
70
4
71
3
72
10
73
6
40
0
40
0
40
0
40
0
40
0.5
40
0.5
40
1
40
1
40
1
40
1
41
1
10
29.9037490016112
20
-7.04479257016553
30
-5E-16
41
1
10
30.3871164701201
20
-6.60091968351389
30
0
41
1
10
30.8893763820896
20
-6.16780647576843
30
6E-16
41
1
10
32.1310376974047
20
-5.76817244552652
30
-1.5E-15
41
1
10
32.8441013446201
20
-5.69374347926851
30
-7E-16
41
1
10
33.6634603985971
20
-6.07963547446667
30
3E-16
0
SPLINE
5
12A
100
AcDbEntity
8
1
62
256
6
ByLayer
370
18
48
1
60
0
100
AcDbSpline
70
4
71
1
72
4
73
2
40
0
40
0
40
1
40
1
41
1
10
17.3450247677209
20
-1.56465007518267
30
2.5E-15
41
1
10
17.0818832050268
20
0.81851084649918
30
-1.4E-15
0
SPLINE
5
12B
100
AcDbEntity
8
1
62
256
6
ByLayer
370
18
48
1
60
0
100
AcDbSpline
70
4
71
2
72
6
73
3
40
0
40
0
40
0
40
1
40
1
40
1
41
1.0258173342201
10
16.0810002396671
20
-15.2536181356877
30
1E-15
41
1.0258173342201
10
15.7702174073651
20
-16.0028449828795
30
7E-16
41
1.0258173342201
10
15.4594345750632
20
-16.7520718300714
30
3E-16
0
SPLINE
5
12C
100
AcDbEntity
8
1
62
256
6
ByLayer
370
18
48
1
60
0
100
AcDbSpline
70
4
71
3
72
8
73
4
40
0
40
0
40
0
40
0
40
1
40
1
40
1
40
1
41
1
10
6.44151508446572
20
-14.4249145488611
30
-3.2E-15
41
1
10
6.44007559900661
20
-14.4357734781673
30
-3.2E-15
41
1
10
6.4386256484994
20
-14.4463708513564
30
-3.2E-15
41
1
10
6.43715538190975
20
-14.4567061975768
30
-3.2E-15
0
SPLINE
5
12D
100
AcDbEntity
8
1
62
256
6
ByLayer
370
18
48
1
60
0
100
AcDbSpline
70
4
71
3
72
8
73
4
40
0
40
0
40
0
40
0
40
1
40
1
40
1
40
1
41
1
10
7.41143891759253
20
-2.35718824623979
30
-2E-15
41
1
10
7.42397389200852
20
-2.2214386143211
30
-2E-15
41
1
10
7.44789102513062
20
-2.09208763586517
30
-2E-15
41
1
10
7.48146031679522
20
-1.96794093505406
30
-1.9E-15
0
SPLINE
5
12E
100
AcDbEntity
8
1
62
256
6
ByLayer
370
18
48
1
60
0
100
AcDbSpline
70
4
71
3
72
8
73
4
40
0
40
0
40
0
40
0
40
1
40
1
40
1
40
1
41
1
10
6.42787943664825
20
-13.0088124999108
30
-3.2E-15
41
1
10
6.41534446223227
20
-13.1445621318295
30
-3.2E-15
41
1
10
6.41490778152229
20
-13.278954911742
30
-3.2E-15
41
1
10
6.42470463665074
20
-13.4122558452459
30
-3.2E-15
0
SPLINE
5
12F
100
AcDbEntity
8
1
62
256
6
ByLayer
370
18
48
1
60
0
100
AcDbSpline
70
4
71
3
72
8
73
4
40
0
40
0
40
0
40
0
40
1
40
1
40
1
40
1
41
1
10
7.70117990996363
20
-0.767738137071802
30
-1.7E-15
41
1
10
7.70023238103204
20
-0.783583505384911
30
-1.7E-15
41
1
10
7.69921683755268
20
-0.799692940562011
30
-1.7E-15
41
1
10
7.69814680502731
20
-0.816008151232865
30
-1.7E-15
0
SPLINE
5
130
100
AcDbEntity
8
1
62
256
6
ByLayer
370
18
48
1
60
0
100
AcDbSpline
70
4
71
3
72
8
73
4
40
0
40
0
40
0
40
0
40
1
40
1
40
1
40
1
41
1
10
10.9106396105686
20
-11.9991337200423
30
2.1E-15
41
1
10
10.6827893047822
20
-11.7352952536662
30
1.8E-15
41
1
10
10.3868412917868
20
-11.5108973450429
30
1.5E-15
41
1
10
10.053028976454
20
-11.3516636144839
30
1.1E-15
0
SPLINE
5
131
100
AcDbEntity
8
1
62
256
6
ByLayer
370
18
48
1
60
0
100
AcDbSpline
70
4
71
3
72
14
73
10
40
0
40
0
40
0
40
0
40
0.26499896415096
40
0.26499896415096
40
0.633007150607449
40
0.633007150607449
40
0.984533813617855
40
0.984533813617855
40
1
40
1
40
1
40
1
41
1
10
34.1785239464316
20
-6.78034199195753
30
9E-16
41
1
10
34.3046201392718
20
-6.85711725833409
30
1.1E-15
41
1
10
34.4318341188489
20
-6.95116415061582
30
1.2E-15
41
1
10
34.7244676200278
20
-7.21065906430164
30
1.5E-15
41
1
10
34.8895318456932
20
-7.39399549097902
30
1.7E-15
41
1
10
35.1747806069365
20
-7.78367641755969
30
-1.5E-15
41
1
10
35.3001799130852
20
-7.99294650437668
30
-1.3E-15
41
1
10
35.4105545827278
20
-8.21437440679182
30
-1.2E-15
41
1
10
35.4152155759497
20
-8.22380604365131
30
-1.2E-15
41
1
10
35.4198413811368
20
-8.23324729451838
30
-1.2E-15
0
SPLINE
5
132
100
AcDbEntity
8
1
62
256
6
ByLayer
370
18
48
1
60
0
100
AcDbSpline
70
4
71
3
72
16
73
12
40
0
40
0
40
0
40
0
40
0.474320436274418
40
0.474320436274418
40
0.658954025821055
40
0.658954025821055
40
0.845504004041772
40
0.845504004041772
40
0.957858191960716
40
0.957858191960716
40
1
40
1
40
1
40
1
41
1
10
7.69814680502753
20
-0.816008151232893
30
-1.7E-15
41
1
10
7.6905207971642
20
-0.932284920317585
30
-1.7E-15
41
1
10
7.66929487725054
20
-1.07631194711254
30
-1.7E-15
41
1
10
7.62276104857415
20
-1.32363396993941
30
-1.8E-15
41
1
10
7.60765322772886
20
-1.39959212222394
30
-1.8E-15
41
1
10
7.57431591308716
20
-1.56195604686525
30
-1.8E-15
41
1
10
7.55578164239699
20
-1.65028422295052
30
-1.9E-15
41
1
10
7.52368795532146
20
-1.79560362069424
30
-1.9E-15
41
1
10
7.51079084356519
20
-1.85233406352506
30
-1.9E-15
41
1
10
7.49210093639499
20
-1.92758376094787
30
-1.9E-15
41
1
10
7.48683044319506
20
-1.94808101420338
30
-1.9E-15
41
1
10
7.48146031679522
20
-1.96794093505409
30
-1.9E-15
0
SPLINE
5
133
100
AcDbEntity
8
1
62
256
6
ByLayer
370
18
48
1
60
0
100
AcDbSpline
70
4
71
3
72
11
73
7
40
0
40
0
40
0
40
0
40
0.425230898251467
40
0.744154071940068
40
0.956769521065801
40
1
40
1
40
1
40
1
41
1.0258173342201
10
16.0810002396671
20
-15.2536181356877
30
1E-15
41
1.02559001729416
10
17.2247709914713
20
-15.2509322902789
30
2.4E-15
41
1.0228008665691
10
21.2203059449749
20
-14.4770535158038
30
-1E-16
41
1.01953314781965
10
26.7522230755911
20
-12.6796987739264
30
-7E-16
41
1.01775466813745
10
28.6789449245136
20
-12.0195671483024
30
1.6E-15
41
1.01823166218985
10
29.3463481298482
20
-11.9024509254852
30
-1.2E-15
41
1.01834276704992
10
29.4567385652378
20
-11.8857679231771
30
-1.1E-15
0
SPLINE
5
134
100
AcDbEntity
8
1
62
256
6
ByLayer
370
18
48
1
60
0
100
AcDbSpline
70
4
71
3
72
8
73
4
40
0
40
0
40
0
40
0
40
1
40
1
40
1
40
1
41
1
10
28.6984241196147
20
-14.7125721761978
30
1.6E-15
41
1
10
28.8610529896362
20
-14.6947372046458
30
-1.8E-15
41
1
10
29.0237243032226
20
-14.6738511163114
30
-1.6E-15
41
1
10
29.1862390601426
20
-14.6484943539066
30
-1.4E-15
0
SPLINE
5
135
100
AcDbEntity
8
1
62
256
6
ByLayer
370
18
48
1
60
0
100
AcDbSpline
70
4
71
3
72
10
73
6
40
0
40
0
40
0
40
0
40
0.579529299651688
40
0.579529299651688
40
1
40
1
40
1
40
1
41
1
10
27.647618909132
20
-2.46447846963113
30
4E-16
41
1
10
28.0603229624292
20
-2.68541675172494
30
8E-16
41
1
10
28.4848894470279
20
-2.88068128448637
30
1.3E-15
41
1
10
29.1896595996966
20
-3.13017466768895
30
-1.4E-15
41
1
10
29.4833408696679
20
-3.20790295837554
30
-1E-15
41
1
10
29.7565434753192
20
-3.25348911018935
30
-7E-16
0
SPLINE
5
136
100
AcDbEntity
8
1
62
256
6
ByLayer
370
18
48
1
60
0
100
AcDbSpline
70
4
71
3
72
8
73
4
40
0
40
0
40
0
40
0
40
1
40
1
40
1
40
1
41
1
10
9.7264953960177
20
-11.2175502016248
30
7E-16
41
1
10
8.50243878993984
20
-12.095855765772
30
-7E-16
41
1
10
7.32024028170906
20
-12.8853562085442
30
-2.1E-15
41
1
10
6.42470463665074
20
-13.4122558452459
30
-3.2E-15
0
SPLINE
5
137
100
AcDbEntity
8
1
62
256
6
ByLayer
370
18
48
1
60
0
100
AcDbSpline
70
4
71
3
72
8
73
4
40
0
40
0
40
0
40
0
40
1
40
1
40
1
40
1
41
1
10
6.20504175462821
20
-15.3676335894493
30
1E-16
41
1
10
6.1771858813031
20
-15.3538971561763
30
1E-16
41
1
10
6.14929584218373
20
-15.3398163368945
30
0
41
1
10
6.12137746867052
20
-15.3253803821013
30
0
0
SPLINE
5
138
100
AcDbEntity
8
1
62
256
6
ByLayer
370
18
48
1
60
0
100
AcDbSpline
70
4
71
3
72
10
73
6
40
0
40
0
40
0
40
0
40
0.5
40
0.5
40
1
40
1
40
1
40
1
41
1
10
27.6476189091319
20
-2.4644784696311
30
4E-16
41
1
10
26.0117480941856
20
-1.58872625761845
30
-1.6E-15
41
1
10
24.3153821227222
20
-0.866283896397732
30
0
41
1
10
20.7916652422556
20
0.246652247244072
30
-6E-16
41
1
10
18.9513823196583
20
0.652841244264636
30
8E-16
41
1
10
17.0818832050268
20
0.81851084649918
30
-1.4E-15
0
SPLINE
5
139
100
AcDbEntity
8
1
62
256
6
ByLayer
370
18
48
1
60
0
100
AcDbSpline
70
4
71
3
72
8
73
4
40
0
40
0
40
0
40
0
40
1
40
1
40
1
40
1
41
1
10
15.0098162030408
20
-3.32842078792009
30
-2E-16
41
1
10
13.7421467513717
20
-3.22366786680681
30
-1.7E-15
41
1
10
12.5185980579698
20
-3.67246016700312
30
-3.2E-15
41
1
10
11.6050675951954
20
-4.47870805511366
30
2.9E-15
0
SPLINE
5
13A
100
AcDbEntity
8
1
62
256
6
ByLayer
370
18
48
1
60
0
100
AcDbSpline
70
4
71
3
72
10
73
6
40
0
40
0
40
0
40
0
40
0.5
40
0.5
40
1
40
1
40
1
40
1
41
1
10
16.4674673206688
20
-13.7374332560082
30
1.5E-15
41
1
10
17.5972855711191
20
-13.7826399628158
30
2.8E-15
41
1
10
18.7269472674819
20
-13.4700183184612
30
-3E-15
41
1
10
20.6149080763984
20
-12.3192630751162
30
-8E-16
41
1
10
21.3888449978428
20
-11.4585988599509
30
1E-16
41
1
10
21.7583023726799
20
-10.3824548307079
30
6E-16
0
SPLINE
5
13B
100
AcDbEntity
8
1
62
256
6
ByLayer
370
18
48
1
60
0
100
AcDbSpline
70
4
71
3
72
8
73
4
40
0
40
0
40
0
40
0
40
1
40
1
40
1
40
1
41
1
10
15.4594345750631
20
-16.7520718300714
30
3E-16
41
1
10
19.2028563638331
20
-17.0390348974307
30
1.1E-15
41
1
10
22.9122686186446
20
-16.4439376068273
30
-1.6E-15
41
1
10
26.4668547551211
20
-15.2517641848323
30
-1E-15
0
SPLINE
5
13C
100
AcDbEntity
8
1
62
256
6
ByLayer
370
18
48
1
60
0
100
AcDbSpline
70
4
71
3
72
14
73
10
40
0
40
0
40
0
40
0
40
0.0560617400824664
40
0.0560617400824664
40
0.432699965147829
40
0.432699965147829
40
0.811345304670937
40
0.811345304670937
40
1
40
1
40
1
40
1
41
1
10
35.1969063201096
20
-10.6475603574711
30
-1.5E-15
41
1
10
35.1743481127588
20
-10.6766728578225
30
-1.5E-15
41
1
10
35.1513451086352
20
-10.705707307457
30
-1.5E-15
41
1
10
34.9720043299913
20
-10.9270051441436
30
-1.7E-15
41
1
10
34.7938082726541
20
-11.1169975998635
30
1.6E-15
41
1
10
34.4154019479791
20
-11.4587907187958
30
1.2E-15
41
1
10
34.2098892628668
20
-11.6147460007317
30
9E-16
41
1
10
33.9064122273085
20
-11.804472605579
30
6E-16
41
1
10
33.8046415738503
20
-11.8614279395949
30
5E-16
41
1
10
33.7047484267712
20
-11.9111743552093
30
4E-16
0
SPLINE
5
13D
100
AcDbEntity
8
1
62
256
6
ByLayer
370
18
48
1
60
0
100
AcDbSpline
70
4
71
3
72
8
73
4
40
0
40
0
40
0
40
0
40
1
40
1
40
1
40
1
41
1
10
6.44151508446572
20
-14.4249145488611
30
-3.2E-15
41
1
10
7.25588919148993
20
-13.8613100900465
30
-2.2E-15
41
1
10
8.65052407220901
20
-12.6659179081113
30
-6E-16
41
1
10
10.053028976454
20
-11.3516636144839
30
1.1E-15
0
SPLINE
5
13E
100
AcDbEntity
8
1
62
256
6
ByLayer
370
18
48
1
60
0
100
AcDbSpline
70
4
71
2
72
8
73
5
40
0
40
0
40
0
40
0.210534309729082
40
0.210534309729082
40
1
40
1
40
1
41
1
10
33.071367246556
20
-12.513691675555
30
-4E-16
41
1
10
32.6481099083662
20
-12.7910905053046
30
-9E-16
41
1
10
32.2129270351167
20
-13.0495534792599
30
-1.4E-15
41
1
10
30.6372453365066
20
-13.9853793190698
30
3E-16
41
1
10
29.1859881856685
20
-14.646787799387
30
-1.4E-15
0
SPLINE
5
13F
100
AcDbEntity
8
1
62
256
6
ByLayer
370
18
48
1
60
0
100
AcDbSpline
70
4
71
3
72
8
73
4
40
0
40
0
40
0
40
0
40
1
40
1
40
1
40
1
41
1
10
17.4098172774312
20
-3.53209447372197
30
2.6E-15
41
1
10
17.4196616508006
20
-2.71901777310046
30
2.6E-15
41
1
10
17.3972101384081
20
-2.03727072405255
30
2.6E-15
41
1
10
17.3450247677209
20
-1.56465007518267
30
2.5E-15
0
SPLINE
5
140
100
AcDbEntity
8
1
62
256
6
ByLayer
370
18
48
1
60
0
100
AcDbSpline
70
4
71
3
72
8
73
4
40
0
40
0
40
0
40
0
40
1
40
1
40
1
40
1
41
1
10
16.4674673208253
20
-13.737433256015
30
1.5E-15
41
1
10
16.3916798362266
20
-13.7342531607339
30
1.4E-15
41
1
10
16.3161872287147
20
-13.7295626206243
30
1.3E-15
41
1
10
16.2409930304847
20
-13.7233490040501
30
1.2E-15
0
SPLINE
5
141
100
AcDbEntity
8
1
62
256
6
ByLayer
370
18
48
1
60
0
100
AcDbSpline
70
4
71
3
72
8
73
4
40
0
40
0
40
0
40
0
40
1
40
1
40
1
40
1
41
1
10
28.6984241196147
20
-14.7125721761978
30
1.6E-15
41
1
10
28.0250264644492
20
-14.7864214750427
30
8E-16
41
1
10
27.2479317478152
20
-14.9897986013665
30
-1E-16
41
1
10
26.4668547551209
20
-15.2517641848324
30
-1E-15
0
SPLINE
5
142
100
AcDbEntity
8
1
62
256
6
ByLayer
370
18
48
1
60
0
100
AcDbSpline
70
4
71
3
72
8
73
4
40
0
40
0
40
0
40
0
40
1
40
1
40
1
40
1
41
1
10
9.37918558040258
20
1.73556790759943
30
3E-16
41
1
10
8.88003123883959
20
1.82564884093492
30
-3E-16
41
1
10
8.30321873811943
20
1.85510997432391
30
-1E-15
41
1
10
7.69574497018618
20
1.72449955727527
30
-1.7E-15
0
SPLINE
5
143
100
AcDbEntity
8
1
62
256
6
ByLayer
370
18
48
1
60
0
100
AcDbSpline
70
4
71
3
72
11
73
7
40
0
40
0
40
0
40
0
40
0.0598016998824463
40
0.468392215028714
40
0.740785891792893
40
1
40
1
40
1
40
1
41
1.0229825050537
10
21.7583023725959
20
-10.3824548307058
30
6E-16
41
1.02281639303114
10
22.0030759968311
20
-10.3887301252408
30
9E-16
41
1.02150796927553
10
23.9401759536156
20
-10.431997857973
30
3.1E-15
41
1.01953314781965
10
27.100407965288
20
-10.4136567588735
30
-3E-16
41
1.01726237988674
10
29.4473633258877
20
-10.3130065791072
30
2.5E-15
41
1.01931548101018
10
30.3259936529856
20
-10.3197359109259
30
3.5E-15
41
1.02052415826821
10
30.9474998129726
20
-10.3029879240727
30
7E-16
0
SPLINE
5
144
100
AcDbEntity
8
1
62
256
6
ByLayer
370
18
48
1
60
0
100
AcDbSpline
70
4
71
3
72
8
73
4
40
0
40
0
40
0
40
0
40
1
40
1
40
1
40
1
41
1
10
10.6380947472743
20
-5.01559459659796
30
1.8E-15
41
1
10
11.001080495367
20
-4.90458204341024
30
2.2E-15
41
1
10
11.3315758760371
20
-4.72008163812197
30
2.6E-15
41
1
10
11.6050675951954
20
-4.47870805511366
30
2.9E-15
0
SPLINE
5
145
100
AcDbEntity
8
1
62
256
6
ByLayer
370
18
48
1
60
0
100
AcDbSpline
70
4
71
3
72
11
73
7
40
0
40
0
40
0
40
0
40
0.059801699885507
40
0.46839221504046
40
0.740785891810429
40
1
40
1
40
1
40
1
41
1.02298250505371
10
21.9902579062169
20
-7.87045302953538
30
8E-16
41
1.02281639303115
10
22.2331310083699
20
-7.8973103504485
30
1.1E-15
41
1.02150796927554
10
24.1544719556227
20
-8.11124295038069
30
3.4E-15
41
1.01953314781965
10
27.2791787986675
20
-8.47762769144268
30
-1E-16
41
1.0172623798868
10
29.5896368444442
20
-8.77223137348333
30
2.6E-15
41
1.01931548101
10
30.4635220707062
20
-8.83034857946963
30
-3.4E-15
41
1.02052415826788
10
31.0783912710312
20
-8.88547667223414
30
8E-16
0
SPLINE
5
146
100
AcDbEntity
8
1
62
256
6
ByLayer
370
18
48
1
60
0
100
AcDbSpline
70
4
71
3
72
8
73
4
40
0
40
0
40
0
40
0
40
1
40
1
40
1
40
1
41
1
10
30.2301423335821
20
-3.34336676255518
30
-2E-16
41
1
10
30.0731022474135
20
-3.30943464928515
30
-3E-16
41
1
10
29.9150827849236
20
-3.27994272697987
30
-5E-16
41
1
10
29.7565434753192
20
-3.25348911018932
30
-7E-16
0
SPLINE
5
147
100
AcDbEntity
8
1
62
256
6
ByLayer
370
18
48
1
60
0
100
AcDbSpline
70
4
71
3
72
8
73
4
40
0
40
0
40
0
40
0
40
1
40
1
40
1
40
1
41
1
10
10.9106396105686
20
-11.9991337200423
30
2.1E-15
41
1
10
11.6707181233646
20
-12.8792639812214
30
3E-15
41
1
10
12.7847313945813
20
-13.4377433976233
30
-2.8E-15
41
1
10
14.0665515239228
20
-13.5436656494482
30
-1.3E-15
0
SPLINE
5
148
100
AcDbEntity
8
1
62
256
6
ByLayer
370
18
48
1
60
0
100
AcDbSpline
70
4
71
3
72
11
73
7
40
0
40
0
40
0
40
0
40
0.425230898249524
40
0.744154071936667
40
0.956769521061429
40
1
40
1
40
1
40
1
41
1.0258173342201
10
17.3450247677209
20
-1.56465007518268
30
2.5E-15
41
1.02559001729416
10
18.4695364128772
20
-1.77053399346553
30
-3.3E-15
41
1.0228008665691
10
22.2517263329324
20
-3.3071114529366
30
1.1E-15
41
1.01953314781965
10
27.3739779041648
20
-5.94629938174555
30
0
41
1.01775466813744
10
29.1575421241822
20
-6.83651758371825
30
2.1E-15
41
1.01823166218986
10
29.7973770003262
20
-7.01795725855021
30
2.9E-15
41
1.01834276704995
10
29.9037490016112
20
-7.04479257016551
30
-5E-16
0
SPLINE
5
149
100
AcDbEntity
8
1
62
256
6
ByLayer
370
18
48
1
60
0
100
AcDbSpline
70
4
71
3
72
10
73
6
40
0
40
0
40
0
40
0
40
0.230438518716884
40
0.230438518716884
40
1
40
1
40
1
40
1
41
1
10
15.9097784912379
20
-10.1270266887082
30
8E-16
41
1
10
15.9146387781592
20
-10.1289440374469
30
8E-16
41
1
10
15.9194231416584
20
-10.1309178438523
30
8E-16
41
1
10
15.9398144186712
20
-10.1396796188748
30
9E-16
41
1
10
15.9546793078891
20
-10.1469739302983
30
9E-16
41
1
10
15.9687449299818
20
-10.1546047945795
30
9E-16
0
SPLINE
5
14A
100
AcDbEntity
8
1
62
256
6
ByLayer
370
18
48
1
60
0
100
AcDbSpline
70
4
71
3
72
10
73
6
40
0
40
0
40
0
40
0
40
0.355593196478037
40
0.355593196478037
40
1
40
1
40
1
40
1
41
1
10
17.2690363447579
20
-8.30416029902986
30
2.4E-15
41
1
10
17.2636309058951
20
-8.29903959247193
30
2.4E-15
41
1
10
17.2582359092612
20
-8.29374364508769
30
2.4E-15
41
1
10
17.2431712594786
20
-8.27836808409936
30
2.4E-15
41
1
10
17.2335263068491
20
-8.26783838884683
30
2.4E-15
41
1
10
17.2240752652081
20
-8.25665116881686
30
2.4E-15
0
SPLINE
5
14B
100
AcDbEntity
8
1
62
256
6
ByLayer
370
18
48
1
60
0
100
AcDbSpline
70
4
71
3
72
10
73
6
40
0
40
0
40
0
40
0
40
0.769561481283243
40
0.769561481283243
40
1
40
1
40
1
40
1
41
1
10
15.6020897472623
20
-10.1243065166012
30
5E-16
41
1
10
15.6147279523833
20
-10.1188823031956
30
5E-16
41
1
10
15.6282378496398
20
-10.113932721122
30
5E-16
41
1
10
15.6470342446236
20
-10.1084091901921
30
5E-16
41
1
10
15.6514618068801
20
-10.1071966044115
30
5E-16
41
1
10
15.6559785822612
20
-10.106054122233
30
5E-16
0
SPLINE
5
14C
100
AcDbEntity
8
1
62
256
6
ByLayer
370
18
48
1
60
0
100
AcDbSpline
70
4
71
3
72
10
73
6
40
0
40
0
40
0
40
0
40
0.35559319647781
40
0.35559319647781
40
1
40
1
40
1
40
1
41
1
10
14.5605897369267
20
-9.17212559539038
30
-8E-16
41
1
10
14.5648781136905
20
-9.1761292398493
30
-8E-16
41
1
10
14.5691862110068
20
-9.18033828791599
30
-7E-16
41
1
10
14.5813077689119
20
-9.19277075702678
30
-7E-16
41
1
10
14.5891755885516
20
-9.20152331928949
30
-7E-16
41
1
10
14.5970282393968
20
-9.21111214852374
30
-7E-16
0
SPLINE
5
14D
100
AcDbEntity
8
1
62
256
6
ByLayer
370
18
48
1
60
0
100
AcDbSpline
70
4
71
3
72
10
73
6
40
0
40
0
40
0
40
0
40
0.537616842494968
40
0.537616842494968
40
1
40
1
40
1
40
1
41
1
10
17.1174885164008
20
-8.02617957865266
30
2.2E-15
41
1
10
17.1162091955794
20
-8.0156881653576
30
2.2E-15
41
1
10
17.115435449724
20
-8.00553910400305
30
2.2E-15
41
1
10
17.1147781152866
20
-7.98732406882988
30
2.2E-15
41
1
10
17.1147844650807
20
-7.97914568184692
30
2.2E-15
41
1
10
17.1150544776403
20
-7.97120666108501
30
2.2E-15
0
SPLINE
5
14E
100
AcDbEntity
8
1
62
256
6
ByLayer
370
18
48
1
60
0
100
AcDbSpline
70
4
71
3
72
10
73
6
40
0
40
0
40
0
40
0
40
0.27605405649245
40
0.27605405649245
40
1
40
1
40
1
40
1
41
1
10
17.1167152553357
20
-9.41932460868981
30
2.2E-15
41
1
10
17.1215472025598
20
-9.41587521257682
30
2.2E-15
41
1
10
17.1263880782335
20
-9.4125830605673
30
2.2E-15
41
1
10
17.143845864707
20
-9.40124173925329
30
2.3E-15
41
1
10
17.1564764141983
20
-9.39403601048255
30
2.3E-15
41
1
10
17.1689863667729
20
-9.38766850845553
30
2.3E-15
0
SPLINE
5
14F
100
AcDbEntity
8
1
62
256
6
ByLayer
370
18
48
1
60
0
100
AcDbSpline
70
4
71
3
72
10
73
6
40
0
40
0
40
0
40
0
40
0.276054056492
40
0.276054056492
40
1
40
1
40
1
40
1
41
1
10
14.7043882492689
20
-8.04843870865048
30
-6E-16
41
1
10
14.7002444164443
20
-8.052576219163
30
-6E-16
41
1
10
14.6961246502974
20
-8.0565894806993
30
-6E-16
41
1
10
14.6813689261664
20
-8.07063286435579
30
-6E-16
41
1
10
14.6708841071147
20
-8.07998432356612
30
-6E-16
41
1
10
14.6606397149138
20
-8.08861738596687
30
-6E-16
0
SPLINE
5
150
100
AcDbEntity
8
1
62
256
6
ByLayer
370
18
48
1
60
0
100
AcDbSpline
70
4
71
3
72
10
73
6
40
0
40
0
40
0
40
0
40
0.230438518716888
40
0.230438518716888
40
1
40
1
40
1
40
1
41
1
10
15.9113250133668
20
-7.34073662863219
30
8E-16
41
1
10
15.9070378571938
20
-7.33939241064178
30
8E-16
41
1
10
15.9028494893552
20
-7.33801459989701
30
8E-16
41
1
10
15.8851258566974
20
-7.3319204692294
30
8E-16
41
1
10
15.8725364332888
20
-7.32690162361533
30
8E-16
41
1
10
15.8608811517037
20
-7.32168109984167
30
8E-16
0
SPLINE
5
151
100
AcDbEntity
8
1
62
256
6
ByLayer
370
18
48
1
60
0
100
AcDbSpline
70
4
71
3
72
10
73
6
40
0
40
0
40
0
40
0
40
0.201157530231724
40
0.201157530231724
40
1
40
1
40
1
40
1
41
1
10
14.8733130305076
20
-7.78596202600787
30
-4E-16
41
1
10
14.8721081433685
20
-7.78933716381027
30
-4E-16
41
1
10
14.8708560853738
20
-7.79274903129269
30
-4E-16
41
1
10
14.8644111680166
20
-7.80982685804875
30
-4E-16
41
1
10
14.8584730928288
20
-7.82409386566553
30
-4E-16
41
1
10
14.8516014094374
20
-7.83893968496042
30
-4E-16
0
SPLINE
5
152
100
AcDbEntity
8
1
62
256
6
ByLayer
370
18
48
1
60
0
100
AcDbSpline
70
4
71
3
72
10
73
6
40
0
40
0
40
0
40
0
40
0.201157530231524
40
0.201157530231524
40
1
40
1
40
1
40
1
41
1
10
16.9563130511784
20
-9.69032386841377
30
2E-15
41
1
10
16.9568852356614
20
-9.68631602795529
30
2E-15
41
1
10
16.9575143655598
20
-9.68228123237651
30
2E-15
41
1
10
16.9609297339963
20
-9.66217385669981
30
2.1E-15
41
1
10
16.9646118469672
20
-9.64565088686615
30
2.1E-15
41
1
10
16.9695020951675
20
-9.62882363238009
30
2.1E-15
0
SPLINE
5
153
100
AcDbEntity
8
1
62
256
6
ByLayer
370
18
48
1
60
0
100
AcDbSpline
70
4
71
3
72
10
73
6
40
0
40
0
40
0
40
0
40
0.537616842495282
40
0.537616842495282
40
1
40
1
40
1
40
1
41
1
10
14.7036149882041
20
-9.44158373868788
30
-6E-16
41
1
10
14.7062293970155
20
-9.45341023997293
30
-6E-16
41
1
10
14.7084628901559
20
-9.46501904861256
30
-6E-16
41
1
10
14.7119990091589
20
-9.48611286835134
30
-6E-16
41
1
10
14.7133919511462
20
-9.49569054711552
30
-6E-16
41
1
10
14.7145716040463
20
-9.50507923333734
30
-6E-16
0
SPLINE
5
154
100
AcDbEntity
8
1
62
256
6
ByLayer
370
18
48
1
60
0
100
AcDbSpline
70
4
71
3
72
10
73
6
40
0
40
0
40
0
40
0
40
0.769561481283269
40
0.769561481283269
40
1
40
1
40
1
40
1
41
1
10
16.2275363344231
20
-7.35197937781987
30
1.2E-15
41
1
10
16.2124877887946
20
-7.35499325071794
30
1.2E-15
41
1
10
16.1967024257289
20
-7.35766736698224
30
1.2E-15
41
1
10
16.17523838639
20
-7.3605232535572
30
1.1E-15
41
1
10
16.1702148284729
20
-7.36113984367719
30
1.1E-15
41
1
10
16.1651249223435
20
-7.3617091951073
30
1.1E-15
0
LINE
5
72
100
AcDbEntity
8
1
62
256
6
ByLayer
370
18
48
1
60
0
100
AcDbLine
10
6.203393
20
-15.36678
30
0
11
7.266241
21
-15.890594
31
0
39
0
210
0
220
0
230
1
0
LINE
5
74
100
AcDbEntity
8
1
62
256
6
ByLayer
370
18
48
1
60
0
100
AcDbLine
10
15.531454
20
-7.027952
30
0
11
15.733195
21
-7.229693
31
0
39
0
210
0
220
0
230
1
0
LINE
5
75
100
AcDbEntity
8
1
62
256
6
ByLayer
370
18
48
1
60
0
100
AcDbLine
10
14.570051
20
-9.18127
30
0
11
14.369494
21
-8.980713
31
0
39
0
210
0
220
0
230
1
0
LINE
5
76
100
AcDbEntity
8
1
62
256
6
ByLayer
370
18
48
1
60
0
100
AcDbLine
10
17.05665
20
-8.092091
30
0
11
17.258183
21
-8.293625
31
0
39
0
210
0
220
0
230
1
0
LINE
5
77
100
AcDbEntity
8
1
62
256
6
ByLayer
370
18
48
1
60
0
100
AcDbLine
10
12.089231
20
-11.983629
30
0
11
12.245998
21
-12.140396
31
0
39
0
210
0
220
0
230
1
0
LINE
5
78
100
AcDbEntity
8
1
62
256
6
ByLayer
370
18
48
1
60
0
100
AcDbLine
10
16.096431
20
-10.246593
30
0
11
15.89469
21
-10.044852
31
0
39
0
210
0
220
0
230
1
0
LINE
5
79
100
AcDbEntity
8
1
62
256
6
ByLayer
370
18
48
1
60
0
100
AcDbLine
10
19.317066
20
-5.069328
30
0
11
19.155116
21
-4.907378
31
0
39
0
210
0
220
0
230
1
0
LINE
5
7A
100
AcDbEntity
8
1
62
256
6
ByLayer
370
18
48
1
60
0
100
AcDbLine
10
10.080305
20
-11.36485
30
0
11
9.67688
21
-11.166026
31
0
39
0
210
0
220
0
230
1
0
LINE
5
7B
100
AcDbEntity
8
1
62
256
6
ByLayer
370
18
48
1
60
0
100
AcDbLine
10
10.085102
20
-11.367214
30
0
11
10.080305
21
-11.36485
31
0
39
0
210
0
220
0
230
1
0
LINE
5
7C
100
AcDbEntity
8
80
62
256
6
ByLayer
370
18
48
1
60
0
100
AcDbLine
10
0
20
0
30
0
11
-5
21
0
31
0
39
0
210
0
220
0
230
1
0
LINE
5
7D
100
AcDbEntity
8
81
62
256
6
ByLayer
370
18
48
1
60
0
100
AcDbLine
10
33.117165
20
-19.9125
30
0
11
43.117165
21
-19.9125
31
0
39
0
210
0
220
0
230
1
0
LINE
5
7E
100
AcDbEntity
8
1
62
256
6
ByLayer
370
18
48
1
60
0
100
AcDbLine
10
11.849209
20
12.458189
30
0
11
8.925118
21
12.447807
31
0
39
0
210
0
220
0
230
1
0
LINE
5
7F
100
AcDbEntity
8
1
62
256
6
ByLayer
370
18
48
1
60
0
100
AcDbLine
10
29.291752
20
-17.29158
30
0
11
20.796279
21
-16.548322
31
0
39
0
210
0
220
0
230
1
0
LINE
5
80
100
AcDbEntity
8
1
62
256
6
ByLayer
370
18
48
1
60
0
100
AcDbLine
10
29.291752
20
-17.29158
30
0
11
27.054736
21
-15.07419
31
0
39
0
210
0
220
0
230
1
0
LINE
5
81
100
AcDbEntity
8
1
62
256
6
ByLayer
370
18
48
1
60
0
100
AcDbLine
10
20.557438
20
12.458189
30
0
11
12.007522
21
3.908273
31
0
39
0
210
0
220
0
230
1
0
LINE
5
82
100
AcDbEntity
8
1
62
256
6
ByLayer
370
18
48
1
60
0
100
AcDbLine
10
12.007522
20
3.908273
30
0
11
11.765914
21
1.291737
31
0
39
0
210
0
220
0
230
1
0
LINE
5
83
100
AcDbEntity
8
1
62
256
6
ByLayer
370
18
48
1
60
0
100
AcDbLine
10
0
20
-12.4375
30
0
11
2.511074
21
-14.948574
31
0
39
0
210
0
220
0
230
1
0
LINE
5
84
100
AcDbEntity
8
1
62
256
6
ByLayer
370
18
48
1
60
0
100
AcDbLine
10
5.465215
20
-15.207028
30
0
11
5.989307
21
-15.25288
31
0
39
0
210
0
220
0
230
1
0
LINE
5
85
100
AcDbEntity
8
1
62
256
6
ByLayer
370
18
48
1
60
0
100
AcDbLine
10
2.511074
20
-14.948574
30
0
11
5.465215
21
-15.207028
31
0
39
0
210
0
220
0
230
1
0
LINE
5
86
100
AcDbEntity
8
1
62
256
6
ByLayer
370
18
48
1
60
0
100
AcDbLine
10
32.196391
20
1.487447
30
0
11
32.134965
21
1.548873
31
0
39
0
210
0
220
0
230
1
0
LINE
5
87
100
AcDbEntity
8
1
62
256
6
ByLayer
370
18
48
1
60
0
100
AcDbLine
10
2.036688
20
12.446387
30
0
11
0
21
-10.084781
31
0
39
0
210
0
220
0
230
1
0
LINE
5
88
100
AcDbEntity
8
1
62
256
6
ByLayer
370
18
48
1
60
0
100
AcDbLine
10
21.225939
20
12.457899
30
0
11
20.557438
21
12.458189
31
0
39
0
210
0
220
0
230
1
0
LINE
5
89
100
AcDbEntity
8
1
62
256
6
ByLayer
370
18
48
1
60
0
100
AcDbLine
10
27.977292
20
-2.627763
30
0
11
29.236328
21
-1.368726
31
0
39
0
210
0
220
0
230
1
0
LINE
5
8A
100
AcDbEntity
8
1
62
256
6
ByLayer
370
18
48
1
60
0
100
AcDbLine
10
32.134965
20
1.548873
30
0
11
27.964687
21
-2.621406
31
0
39
0
210
0
220
0
230
1
0
LINE
5
8B
100
AcDbEntity
8
1
62
256
6
ByLayer
370
18
48
1
60
0
100
AcDbLine
10
11.849209
20
12.458189
30
0
11
20.557438
21
12.458189
31
0
39
0
210
0
220
0
230
1
0
LINE
5
8C
100
AcDbEntity
8
1
62
256
6
ByLayer
370
18
48
1
60
0
100
AcDbLine
10
8.925118
20
12.447807
30
0
11
7.938899
21
1.76738
31
0
39
0
210
0
220
0
230
1
0
LINE
5
8D
100
AcDbEntity
8
1
62
256
6
ByLayer
370
18
48
1
60
0
100
AcDbLine
10
0
20
-10.084781
30
0
11
0
21
12.4375
31
0
39
0
210
0
220
0
230
1
0
LINE
5
8E
100
AcDbEntity
8
1
62
256
6
ByLayer
370
18
48
1
60
0
100
AcDbLine
10
29.536102
20
-17.312958
30
0
11
29.291752
21
-17.29158
31
0
39
0
210
0
220
0
230
1
0
LINE
5
8F
100
AcDbEntity
8
1
62
256
6
ByLayer
370
18
48
1
60
0
100
AcDbLine
10
0
20
12.4375
30
0
11
2.036688
21
12.446387
31
0
39
0
210
0
220
0
230
1
0
LINE
5
90
100
AcDbEntity
8
1
62
256
6
ByLayer
370
18
48
1
60
0
100
AcDbLine
10
12.007522
20
3.908273
30
0
11
11.849209
21
12.458189
31
0
39
0
210
0
220
0
230
1
0
LINE
5
91
100
AcDbEntity
8
1
62
256
6
ByLayer
370
18
48
1
60
0
100
AcDbLine
10
8.018462
20
12.443792
30
0
11
6.999956
21
1.413707
31
0
39
0
210
0
220
0
230
1
0
LINE
5
92
100
AcDbEntity
8
1
62
256
6
ByLayer
370
18
48
1
60
0
100
AcDbLine
10
5.493102
20
-14.905029
30
0
11
5.465215
21
-15.207028
31
0
39
0
210
0
220
0
230
1
0
LINE
5
93
100
AcDbEntity
8
1
62
256
6
ByLayer
370
18
48
1
60
0
100
AcDbLine
10
0
20
-12.4375
30
0
11
0
21
-10.084781
31
0
39
0
210
0
220
0
230
1
0
LINE
5
94
100
AcDbEntity
8
1
62
256
6
ByLayer
370
18
48
1
60
0
100
AcDbLine
10
21.225939
20
12.457899
30
0
11
32.134965
21
1.548873
31
0
39
0
210
0
220
0
230
1
0
LINE
5
95
100
AcDbEntity
8
1
62
256
6
ByLayer
370
18
48
1
60
0
100
AcDbLine
10
8.925118
20
12.447807
30
0
11
8.903538
21
12.446934
31
0
39
0
210
0
220
0
230
1
0
LINE
5
96
100
AcDbEntity
8
1
62
256
6
ByLayer
370
18
48
1
60
0
100
AcDbLine
10
8.018462
20
12.443792
30
0
11
2.036688
21
12.446387
31
0
39
0
210
0
220
0
230
1
0
LINE
5
97
100
AcDbEntity
8
1
62
256
6
ByLayer
370
18
48
1
60
0
100
AcDbLine
10
32.196391
20
1.487447
30
0
11
29.998624
21
-0.71032
31
0
39
0
210
0
220
0
230
1
0
LINE
5
98
100
AcDbEntity
8
1
62
256
6
ByLayer
370
18
48
1
60
0
100
AcDbLine
10
8.903538
20
12.446934
30
0
11
7.917056
21
1.763663
31
0
39
0
210
0
220
0
230
1
0
LINE
5
99
100
AcDbEntity
8
SK1
62
256
6
ByLayer
370
18
48
1
60
0
100
AcDbLine
10
0
20
-10.084781
30
0
11
-2.352719
21
-12.4375
31
0
39
0
210
0
220
0
230
1
0
LINE
5
9B
100
AcDbEntity
8
SK1
62
256
6
ByLayer
370
18
48
1
60
0
100
AcDbLine
10
-2.352719
20
-12.4375
30
0
11
0
21
-12.4375
31
0
39
0
210
0
220
0
230
1
0
LINE
5
9C
100
AcDbEntity
8
SK1
62
256
6
ByLayer
370
18
48
1
60
0
100
AcDbLine
10
-118.232835
20
12.4375
30
0
11
0
21
12.4375
31
0
39
0
210
0
220
0
230
1
0
LINE
5
9D
100
AcDbEntity
8
SK1
62
256
6
ByLayer
370
18
48
1
60
0
100
AcDbLine
10
0
20
-12.4375
30
0
11
0
21
-10.084781
31
0
39
0
210
0
220
0
230
1
0
LINE
5
9E
100
AcDbEntity
8
SK1
62
256
6
ByLayer
370
18
48
1
60
0
100
AcDbLine
10
0
20
-10.084781
30
0
11
0
21
12.4375
31
0
39
0
210
0
220
0
230
1
0
LINE
5
9F
100
AcDbEntity
8
SK1
62
256
6
ByLayer
370
18
48
1
60
0
100
AcDbLine
10
-2.352719
20
-12.4375
30
0
11
-118.232835
21
-12.4375
31
0
39
0
210
0
220
0
230
1
0
LINE
5
A0
100
AcDbEntity
8
SK1
62
256
6
ByLayer
370
18
48
1
60
0
100
AcDbLine
10
-118.232835
20
-12.4375
30
0
11
-118.232835
21
12.4375
31
0
39
0
210
0
220
0
230
1
0
LINE
5
A1
100
AcDbEntity
8
1
62
256
6
ByLayer
370
18
48
1
60
0
100
AcDbLine
10
33.569619
20
1.104169
30
0
11
32.944714
21
1.729074
31
0
39
0
210
0
220
0
230
1
0
LINE
5
A2
100
AcDbEntity
8
1
62
256
6
ByLayer
370
18
48
1
60
0
100
AcDbLine
10
31.849196
20
1.140263
30
0
11
31.893486
21
1.095973
31
0
39
0
210
0
220
0
230
1
0
LINE
5
A3
100
AcDbEntity
8
1
62
256
6
ByLayer
370
18
48
1
60
0
100
AcDbLine
10
33.569619
20
1.104169
30
0
11
43.017758
21
-8.343971
31
0
39
0
210
0
220
0
230
1
0
LINE
5
A4
100
AcDbEntity
8
1
62
256
6
ByLayer
370
18
48
1
60
0
100
AcDbLine
10
31.792438
20
-19.569291
30
0
11
27.240944
21
-15.017797
31
0
39
0
210
0
220
0
230
1
0
LINE
5
A5
100
AcDbEntity
8
1
62
256
6
ByLayer
370
18
48
1
60
0
100
AcDbLine
10
28.105862
20
-2.691652
30
0
11
31.893486
21
1.095973
31
0
39
0
210
0
220
0
230
1
0
LINE
5
A6
100
AcDbEntity
8
1
62
256
6
ByLayer
370
18
48
1
60
0
100
AcDbLine
10
43.009562
20
-10.020103
30
0
11
33.468571
21
-19.561095
31
0
39
0
210
0
220
0
230
1
0
LINE
5
A7
100
AcDbEntity
8
1
62
256
6
ByLayer
370
18
48
1
60
0
100
AcDbLine
10
6.437155
20
-14.456706
30
0
11
16.081
21
-15.253618
31
0
39
0
210
0
220
0
230
1
0
LINE
5
A8
100
AcDbEntity
8
1
62
256
6
ByLayer
370
18
48
1
60
0
100
AcDbLine
10
32.268022
20
-9.630165
30
0
11
35.666821
21
-9.545779
31
0
39
0
210
0
220
0
230
1
0
LINE
5
A9
100
AcDbEntity
8
1
62
256
6
ByLayer
370
18
48
1
60
0
100
AcDbLine
10
10.332599
20
-16.337779
30
0
11
8.403734
21
-16.178389
31
0
39
0
210
0
220
0
230
1
0
LINE
5
AA
100
AcDbEntity
8
1
62
256
6
ByLayer
370
18
48
1
60
0
100
AcDbLine
10
10.028347
20
1.415635
30
0
11
9.379186
21
1.735568
31
0
39
0
210
0
220
0
230
1
0
LINE
5
AB
100
AcDbEntity
8
1
62
256
6
ByLayer
370
18
48
1
60
0
100
AcDbLine
10
13.869656
20
-13.446628
30
0
11
16.035686
21
-13.622165
31
0
39
0
210
0
220
0
230
1
0
LINE
5
AC
100
AcDbEntity
8
1
62
256
6
ByLayer
370
18
48
1
60
0
100
AcDbLine
10
7.70118
20
-0.767738
30
0
11
17.345025
21
-1.56465
31
0
39
0
210
0
220
0
230
1
0
LINE
5
AD
100
AcDbEntity
8
1
62
256
6
ByLayer
370
18
48
1
60
0
100
AcDbLine
10
11.957212
20
1.256245
30
0
11
9.529204
21
1.708079
31
0
39
0
210
0
220
0
230
1
0
LINE
5
AE
100
AcDbEntity
8
1
62
256
6
ByLayer
370
18
48
1
60
0
100
AcDbLine
10
11.957212
20
1.256245
30
0
11
11.979817
21
1.240116
31
0
39
0
210
0
220
0
230
1
0
LINE
5
AF
100
AcDbEntity
8
1
62
256
6
ByLayer
370
18
48
1
60
0
100
AcDbLine
10
6.427879
20
-13.008812
30
0
11
4.278609
21
-11.949566
31
0
39
0
210
0
220
0
230
1
0
LINE
5
B0
100
AcDbEntity
8
1
62
256
6
ByLayer
370
18
48
1
60
0
100
AcDbLine
10
6.427879
20
-13.008812
30
0
11
7.411439
21
-2.357188
31
0
39
0
210
0
220
0
230
1
0
LINE
5
B1
100
AcDbEntity
8
1
62
256
6
ByLayer
370
18
48
1
60
0
100
AcDbLine
10
33.704748
20
-11.911174
30
0
11
33.074396
21
-12.511706
31
0
39
0
210
0
220
0
230
1
0
LINE
5
B2
100
AcDbEntity
8
1
62
256
6
ByLayer
370
18
48
1
60
0
100
AcDbLine
10
8.930667
20
-11.029631
30
0
11
8.611262
21
-10.872216
31
0
39
0
210
0
220
0
230
1
0
LINE
5
B3
100
AcDbEntity
8
1
62
256
6
ByLayer
370
18
48
1
60
0
100
AcDbLine
10
14.066552
20
-13.543666
30
0
11
16.240993
21
-13.723349
31
0
39
0
210
0
220
0
230
1
0
LINE
5
B4
100
AcDbEntity
8
1
62
256
6
ByLayer
370
18
48
1
60
0
100
AcDbLine
10
7.110501
20
-10.750592
30
0
11
7.659976
21
-4.799964
31
0
39
0
210
0
220
0
230
1
0
LINE
5
B5
100
AcDbEntity
8
1
62
256
6
ByLayer
370
18
48
1
60
0
100
AcDbLine
10
8.611262
20
-10.872216
30
0
11
7.110501
21
-10.750592
31
0
39
0
210
0
220
0
230
1
0
LINE
5
B6
100
AcDbEntity
8
1
62
256
6
ByLayer
370
18
48
1
60
0
100
AcDbLine
10
7.411439
20
-2.357188
30
0
11
5.262168
21
-1.297942
31
0
39
0
210
0
220
0
230
1
0
LINE
5
B7
100
AcDbEntity
8
1
62
256
6
ByLayer
370
18
48
1
60
0
100
AcDbLine
10
33.667598
20
-6.085264
30
0
11
34.178524
21
-6.780342
31
0
39
0
210
0
220
0
230
1
0
LINE
5
B8
100
AcDbEntity
8
1
62
256
6
ByLayer
370
18
48
1
60
0
100
AcDbLine
10
10.332599
20
-16.337779
30
0
11
10.357369
21
-16.330466
31
0
39
0
210
0
220
0
230
1
0
LINE
5
B9
100
AcDbEntity
8
1
62
256
6
ByLayer
370
18
48
1
60
0
100
AcDbLine
10
10.028347
20
1.415635
30
0
11
11.957212
21
1.256245
31
0
39
0
210
0
220
0
230
1
0
LINE
5
BA
100
AcDbEntity
8
1
62
256
6
ByLayer
370
18
48
1
60
0
100
AcDbLine
10
5.262168
20
-1.297942
30
0
11
4.278609
21
-11.949566
31
0
39
0
210
0
220
0
230
1
0
LINE
5
BB
100
AcDbEntity
8
1
62
256
6
ByLayer
370
18
48
1
60
0
100
AcDbLine
10
15.459435
20
-16.752072
30
0
11
10.357369
21
-16.330466
31
0
39
0
210
0
220
0
230
1
0
LINE
5
BC
100
AcDbEntity
8
1
62
256
6
ByLayer
370
18
48
1
60
0
100
AcDbLine
10
16.240993
20
-13.723349
30
0
11
16.035686
21
-13.622165
31
0
39
0
210
0
220
0
230
1
0
LINE
5
BD
100
AcDbEntity
8
1
62
256
6
ByLayer
370
18
48
1
60
0
100
AcDbLine
10
17.081883
20
0.818511
30
0
11
11.979817
21
1.240116
31
0
39
0
210
0
220
0
230
1
0
LINE
5
BE
100
AcDbEntity
8
1
62
256
6
ByLayer
370
18
48
1
60
0
100
AcDbLine
10
14.066552
20
-13.543666
30
0
11
13.869656
21
-13.446628
31
0
39
0
210
0
220
0
230
1
0
LINE
5
BF
100
AcDbEntity
8
1
62
256
6
ByLayer
370
18
48
1
60
0
100
AcDbLine
10
17.184258
20
-3.508104
30
0
11
15.009816
21
-3.328421
31
0
39
0
210
0
220
0
230
1
0
LINE
5
C0
100
AcDbEntity
8
1
62
256
6
ByLayer
370
18
48
1
60
0
100
AcDbLine
10
15.655979
20
-10.106054
30
0
11
15.458499
21
-9.908574
31
0
39
0
210
0
220
0
230
1
0
LINE
5
C1
100
AcDbEntity
8
1
62
256
6
ByLayer
370
18
48
1
60
0
100
AcDbLine
10
16.759693
20
-9.741397
30
0
11
16.961434
21
-9.943138
31
0
39
0
210
0
220
0
230
1
0
LINE
5
C2
100
AcDbEntity
8
1
62
256
6
ByLayer
370
18
48
1
60
0
100
AcDbLine
10
16.920009
20
-7.8287
30
0
11
17.117489
21
-8.02618
31
0
39
0
210
0
220
0
230
1
0
LINE
5
C3
100
AcDbEntity
8
1
62
256
6
ByLayer
370
18
48
1
60
0
100
AcDbLine
10
16.964693
20
-7.521321
30
0
11
17.166434
21
-7.723062
31
0
39
0
210
0
220
0
230
1
0
LINE
5
C4
100
AcDbEntity
8
1
62
256
6
ByLayer
370
18
48
1
60
0
100
AcDbLine
10
17.224075
20
-8.256651
30
0
11
17.026596
21
-8.059171
31
0
39
0
210
0
220
0
230
1
0
LINE
5
C5
100
AcDbEntity
8
1
62
256
6
ByLayer
370
18
48
1
60
0
100
AcDbLine
10
16.919236
20
-9.221845
30
0
11
17.116715
21
-9.419325
31
0
39
0
210
0
220
0
230
1
0
LINE
5
C6
100
AcDbEntity
8
1
62
256
6
ByLayer
370
18
48
1
60
0
100
AcDbLine
10
15.550074
20
-7.03319
30
0
11
15.672096
21
-7.155212
31
0
39
0
210
0
220
0
230
1
0
LINE
5
C7
100
AcDbEntity
8
1
62
256
6
ByLayer
370
18
48
1
60
0
100
AcDbLine
10
16.969502
20
-9.628824
30
0
11
16.772022
21
-9.431344
31
0
39
0
210
0
220
0
230
1
0
LINE
5
C8
100
AcDbEntity
8
1
62
256
6
ByLayer
370
18
48
1
60
0
100
AcDbLine
10
15.712299
20
-9.929547
30
0
11
15.909778
21
-10.127027
31
0
39
0
210
0
220
0
230
1
0
LINE
5
C9
100
AcDbEntity
8
1
62
256
6
ByLayer
370
18
48
1
60
0
100
AcDbLine
10
15.183912
20
-10.055549
30
0
11
15.385653
21
-10.25729
31
0
39
0
210
0
220
0
230
1
0
LINE
5
CA
100
AcDbEntity
8
1
62
256
6
ByLayer
370
18
48
1
60
0
100
AcDbLine
10
17.20741
20
-9.104251
30
0
11
17.409151
21
-9.305992
31
0
39
0
210
0
220
0
230
1
0
LINE
5
CB
100
AcDbEntity
8
1
62
256
6
ByLayer
370
18
48
1
60
0
100
AcDbLine
10
14.137291
20
-8.850554
30
0
11
14.339032
21
-9.052295
31
0
39
0
210
0
220
0
230
1
0
LINE
5
CC
100
AcDbEntity
8
1
62
256
6
ByLayer
370
18
48
1
60
0
100
AcDbLine
10
19.155393
20
-4.907655
30
0
11
19.155116
21
-4.907378
31
0
39
0
210
0
220
0
230
1
0
MTEXT
5
155
100
AcDbEntity
8
SK6
62
256
6
ByLayer
370
18
48
1
60
0
100
AcDbMText
10
-56.561011
20
21.572845
30
0
210
0
220
0
230
1
1
\W0.7618;DSSNL 2525M 15
40
3.5
41
0
44
1.084337
50
0
71
7
72
5
7
iso_b_vert
0
DIMENSION
5
166
100
AcDbEntity
8
2
62
256
6
ByLayer
370
13
48
1
60
0
100
AcDbDimension
2
DimnDraft3D1
10
87.717165
20
12.4375
30
0
11
87.717165
21
-9.019079
31
0
70
32
71
5
72
1
41
1
210
0
220
0
230
1
3
Standard
100
AcDbAlignedDimension
13
35.117165
23
-19.9125
33
0
14
2
24
12.4375
34
0
50
90
100
AcDbRotatedDimension
1001
ACAD
1000
DSTYLE
1002
{
1070
    74
1070
     0
1070
   279
1070
     0
1070
   172
1070
     1
1070
   173
1070
     1
1070
   340
1005
156
1070
    77
1070
     1
1070
    73
1070
     0
1070
   171
1070
     3
1070
   274
1070
     4
1070
   177
1070
     2
1070
   176
1070
     2
1070
   178
1070
     7
1070
    78
1070
     8
1070
    41
1041
3.175
1070
   147
1041
2.25
1070
    42
1041
2.0
1070
    44
1041
2.0
1070
   140
1041
4.5
1070
   343
1005
167
1070
   344
1005
167
1002
}
0
DIMENSION
5
17C
100
AcDbEntity
8
SK2
62
256
6
ByLayer
370
13
48
1
60
0
100
AcDbDimension
2
DimnDraft3D2
10
-125.982835
20
-12.4375
30
0
11
-125.982835
21
-5.281579
31
0
70
32
71
5
72
1
41
1
210
0
220
0
230
1
3
Standard
100
AcDbAlignedDimension
13
-120.232835
23
12.4375
33
0
14
-120.232835
24
-12.4375
34
0
50
90
100
AcDbRotatedDimension
1001
ACAD
1000
DSTYLE
1002
{
1070
    74
1070
     0
1070
   279
1070
     0
1070
   172
1070
     1
1070
   173
1070
     1
1070
   340
1005
156
1070
    77
1070
     1
1070
    73
1070
     0
1070
   171
1070
     3
1070
   274
1070
     4
1070
   177
1070
     2
1070
   176
1070
     2
1070
   178
1070
     7
1070
    78
1070
     8
1070
    41
1041
3.175
1070
   147
1041
2.25
1070
    42
1041
2.0
1070
    44
1041
2.0
1070
   140
1041
4.5
1070
   343
1005
167
1070
   344
1005
167
1002
}
0
DIMENSION
5
18A
100
AcDbEntity
8
2
62
256
6
ByLayer
370
13
48
1
60
0
100
AcDbDimension
2
DimnDraft3D3
10
77.717165
20
12.4375
30
0
11
77.717165
21
-3.337092
31
0
70
32
71
5
72
1
41
1
210
0
220
0
230
1
3
Standard
100
AcDbAlignedDimension
13
45.35614
23
-9.673526
33
0
14
2
24
12.4375
34
0
50
90
100
AcDbRotatedDimension
1001
ACAD
1000
DSTYLE
1002
{
1070
    74
1070
     0
1070
   279
1070
     0
1070
   172
1070
     1
1070
   173
1070
     1
1070
   340
1005
156
1070
    77
1070
     1
1070
    73
1070
     0
1070
   171
1070
     3
1070
   274
1070
     4
1070
   177
1070
     2
1070
   176
1070
     2
1070
   178
1070
     7
1070
    78
1070
     8
1070
    41
1041
3.175
1070
   147
1041
2.25
1070
    42
1041
2.0
1070
    44
1041
2.0
1070
   140
1041
4.5
1070
   343
1005
167
1070
   344
1005
167
1002
}
0
DIMENSION
5
198
100
AcDbEntity
8
2
62
256
6
ByLayer
370
13
48
1
60
0
100
AcDbDimension
2
DimnDraft3D4
10
33.117165
20
-32.923526
30
0
11
11.839504
21
-32.923526
31
0
70
32
71
5
72
1
41
1
210
0
220
0
230
1
3
Standard
100
AcDbAlignedDimension
13
0
23
-14.4375
33
0
14
33.117165
24
-21.9125
34
0
50
0
100
AcDbRotatedDimension
1001
ACAD
1000
DSTYLE
1002
{
1070
   279
1070
     0
1070
   172
1070
     1
1070
   173
1070
     1
1070
   340
1005
156
1070
    77
1070
     1
1070
    73
1070
     0
1070
   171
1070
     3
1070
   274
1070
     4
1070
   177
1070
     2
1070
   176
1070
     2
1070
   178
1070
     7
1070
    78
1070
     8
1070
    41
1041
3.175
1070
   147
1041
2.25
1070
    42
1041
2.0
1070
    44
1041
2.0
1070
   140
1041
4.5
1070
   343
1005
167
1070
   344
1005
167
1002
}
0
DIMENSION
5
1A6
100
AcDbEntity
8
SK2
62
256
6
ByLayer
370
13
48
1
60
0
100
AcDbDimension
2
DimnDraft3D5
10
33.117165
20
-42.923526
30
0
11
-48.958492
21
-42.923526
31
0
70
32
71
5
72
1
41
1
210
0
220
0
230
1
3
Standard
100
AcDbAlignedDimension
13
-118.232835
23
-14.4375
33
0
14
33.117165
24
-21.9125
34
0
50
0
100
AcDbRotatedDimension
1001
ACAD
1000
DSTYLE
1002
{
1070
   279
1070
     0
1070
   172
1070
     1
1070
   173
1070
     1
1070
   340
1005
156
1070
    77
1070
     1
1070
    73
1070
     0
1070
   171
1070
     3
1070
   274
1070
     4
1070
   177
1070
     2
1070
   176
1070
     2
1070
   178
1070
     7
1070
    78
1070
     8
1070
    41
1041
3.175
1070
   147
1041
2.25
1070
    42
1041
2.0
1070
    44
1041
2.0
1070
   140
1041
4.5
1070
   343
1005
167
1070
   344
1005
167
1002
}
0
DIMENSION
5
1B4
100
AcDbEntity
8
SK2
62
256
6
ByLayer
370
13
48
1
60
0
100
AcDbDimension
2
DimnDraft3D6
10
-118.232835
20
-52.923526
30
0
11
-43.839005
21
-52.923526
31
0
70
32
71
5
72
1
41
1
210
0
220
0
230
1
3
Standard
100
AcDbAlignedDimension
13
43.35614
23
-11.673526
33
0
14
-118.232835
24
-14.4375
34
0
50
0
100
AcDbRotatedDimension
1001
ACAD
1000
DSTYLE
1002
{
1070
   279
1070
     0
1070
   172
1070
     1
1070
   173
1070
     1
1070
   340
1005
156
1070
    77
1070
     1
1070
    73
1070
     0
1070
   171
1070
     3
1070
   274
1070
     4
1070
   177
1070
     2
1070
   176
1070
     2
1070
   178
1070
     7
1070
    78
1070
     8
1070
    41
1041
3.175
1070
   147
1041
2.25
1070
    42
1041
2.0
1070
    44
1041
2.0
1070
   140
1041
4.5
1070
   343
1005
167
1070
   344
1005
167
1002
}
0
DIMENSION
5
1C2
100
AcDbEntity
8
2
62
256
6
ByLayer
370
13
48
1
60
0
100
AcDbDimension
2
DimnDraft3D7
10
43.007414
20
-10.022252
30
0
11
55.322541
21
19.215922
31
0
70
34
71
5
72
1
41
1
210
0
220
0
230
1
3
Standard
100
AcDb2LineAngularDimension
13
43.35614
23
-9.673526
33
0
14
43.35614
24
-8.482901
34
0
15
43.849313
25
-9.180353
35
0
16
53.600465
26
15.058464
36
0
40
0
0
ENDSEC
0
SECTION
2
OBJECTS
0
DICTIONARY
5
22c
330
0
100
AcDbDictionary
280
0
281
1
3
ACAD_GROUP
350
22d
3
ACAD_MLINESTYLE
350
22e
0
DICTIONARY
5
22d
330
0
100
AcDbDictionary
280
0
281
1
0
DICTIONARY
5
22e
330
0
100
AcDbDictionary
280
0
281
1
3
Standard
350
18
0
MLINESTYLE
5
18
330
22e
100
AcDbMlineStyle
2
Standard
70
0
3

62
256
51
90
52
90
71
2
49
-0.5
62
256
6
ByLayer
49
0.5
62
256
6
ByLayer
0
RASTERVARIABLES
5
21b
330

100
AcDbRasterVariables
90
0
70
1
71
1
72
1
0
ENDSEC
0
EOF
