0
SECTION
2
HEADER
9
$ACADVER
1
AC1015
9
$DWGCODEPAGE
3
ANSI_1252
9
$HANDSEED
5
21f
9
$ANGBASE
50
0
9
$ANGDIR
70
0
9
$ATTMODE
70
1
9
$AUNITS
70
0
9
$AUPREC
70
0
9
$CECOLOR
62
256
9
$CELTSCALE
40
1
9
$CELTYPE
6
ByLayer
9
$CELWEIGHT
370
18
9
$CLAYER
8
0
9
$CMLJUST
70
0
9
$CMLSCALE
40
1
9
$CMLSTYLE
2
Standard
9
$DIMSTYLE
2
Standard
9
$TEXTSIZE
40
0.2
9
$TEXTSTYLE
7
Standard
9
$LUNITS
70
2
9
$LUPREC
70
4
9
$EXTNAMES
290
1
9
$INSUNITS
70
4
9
$LTSCALE
40
1
9
$LWDISPLAY
290
1
9
$PDMODE
70
0
9
$PDSIZE
40
0
9
$PLINEGEN
70
0
0
ENDSEC
0
SECTION
2
CLASSES
0
CLASS
1
RASTERVARIABLES
2
AcDbRasterVariables
3
ISM
90
0
280
0
281
0
0
ENDSEC
0
SECTION
2
TABLES
0
TABLE
2
VPORT
5
215
100
AcDbSymbolTable
0
VPORT
5
1
100
AcDbSymbolTableRecord
100
AcDbViewportTableRecord
2
*Active
70
0
10
0
20
0
11
1
21
1
12
-1
22
1
13
0
23
0
14
0.5
24
0.5
15
10
25
10
16
0
26
0
36
1
17
0
27
0
37
0
0
ENDTAB
0
TABLE
2
LTYPE
5
216
100
AcDbSymbolTable
0
LTYPE
5
14
100
AcDbSymbolTableRecord
100
AcDbLinetypeTableRecord
70
0
2
ByBlock
3

72
65
73
0
40
0
0
LTYPE
5
15
100
AcDbSymbolTableRecord
100
AcDbLinetypeTableRecord
70
0
2
ByLayer
3

72
65
73
0
40
0
0
LTYPE
5
16
100
AcDbSymbolTableRecord
100
AcDbLinetypeTableRecord
70
0
2
CONTINUOUS
3
Solid line
72
65
73
0
40
0
0
LTYPE
5
6A
100
AcDbSymbolTableRecord
100
AcDbLinetypeTableRecord
70
0
2
CENTER
3
____ _ ____ _ ____ _ ____
72
65
73
4
40
47.5
49
22
74
0
49
-8.5
74
0
49
8.5
74
0
49
-8.5
74
0
0
LTYPE
5
6B
100
AcDbSymbolTableRecord
100
AcDbLinetypeTableRecord
70
0
2
DASHED
3
__ __ __ __ __ __ __ __ __
72
65
73
2
40
25.72
49
12.86
74
0
49
-12.86
74
0
0
ENDTAB
0
TABLE
2
LAYER
5
217
100
AcDbSymbolTable
0
LAYER
5
10
100
AcDbSymbolTableRecord
100
AcDbLayerTableRecord
2
0
70
0
62
7
6
CONTINUOUS
290
1
370
-3
390
0
0
LAYER
5
6D
100
AcDbSymbolTableRecord
100
AcDbLayerTableRecord
2
2
70
0
62
7
6
CONTINUOUS
290
1
370
-3
390
0
0
LAYER
5
6F
100
AcDbSymbolTableRecord
100
AcDbLayerTableRecord
2
80
70
0
62
-6
6
CONTINUOUS
290
1
370
-3
390
0
0
LAYER
5
71
100
AcDbSymbolTableRecord
100
AcDbLayerTableRecord
2
81
70
0
62
-3
6
CONTINUOUS
290
1
370
-3
390
0
0
LAYER
5
73
100
AcDbSymbolTableRecord
100
AcDbLayerTableRecord
2
1
70
0
62
4
6
CONTINUOUS
290
1
370
-3
390
0
0
LAYER
5
202
100
AcDbSymbolTableRecord
100
AcDbLayerTableRecord
2
SK1
70
0
62
4
6
CONTINUOUS
290
1
370
-3
390
0
0
LAYER
5
203
100
AcDbSymbolTableRecord
100
AcDbLayerTableRecord
2
SK6
70
0
62
5
6
CONTINUOUS
290
1
370
-3
390
0
0
LAYER
5
204
100
AcDbSymbolTableRecord
100
AcDbLayerTableRecord
2
SK2
70
0
62
7
6
CONTINUOUS
290
1
370
-3
390
0
0
ENDTAB
0
TABLE
2
STYLE
5
218
100
AcDbSymbolTable
0
STYLE
5
11
100
AcDbSymbolTableRecord
100
AcDbTextStyleTableRecord
2
Standard
3
txt
70
0
71
0
40
0
41
1
42
0
50
0
0
STYLE
5
158
100
AcDbSymbolTableRecord
100
AcDbTextStyleTableRecord
2
iso_b_vert
3
simplex.shx
70
0
71
0
40
0
41
1
42
0
50
0
0
STYLE
5
159
100
AcDbSymbolTableRecord
100
AcDbTextStyleTableRecord
2
DWGDirectTextStyle
3
simplex
70
0
71
0
40
0
41
1
42
0
50
0
0
ENDTAB
0
TABLE
2
DIMSTYLE
5
219
100
AcDbSymbolTable
100
AcDbDimStyleTable
0
DIMSTYLE
105
27
100
AcDbSymbolTableRecord
100
AcDbDimStyleTableRecord
2
Standard
70
0
3
<>
41
0.18
42
0.0625
44
0.18
140
0.18
147
0.09
73
0
74
0
77
1
271
2
275
0
278
52
280
0
340
11
0
ENDTAB
0
TABLE
2
VIEW
5
21a
100
AcDbSymbolTable
0
ENDTAB
0
TABLE
2
UCS
5
21b
100
AcDbSymbolTable
0
ENDTAB
0
TABLE
2
APPID
5
21c
100
AcDbSymbolTable
0
APPID
5
12
100
AcDbSymbolTableRecord
100
AcDbRegAppTableRecord
2
ACAD
70
0
0
ENDTAB
0
TABLE
2
BLOCK_RECORD
5
21d
100
AcDbSymbolTable
0
BLOCK_RECORD
5
1F
100
AcDbSymbolTableRecord
100
AcDbBlockTableRecord
2
*Model_Space
340
0
70
0
0
BLOCK_RECORD
5
1B
100
AcDbSymbolTableRecord
100
AcDbBlockTableRecord
2
*Paper_Space
340
0
70
0
0
BLOCK_RECORD
5
23
100
AcDbSymbolTableRecord
100
AcDbBlockTableRecord
2
*Paper_Space0
340
0
70
0
0
BLOCK_RECORD
5
15B
100
AcDbSymbolTableRecord
100
AcDbBlockTableRecord
2
DimnDraft3D1
340
0
70
0
0
BLOCK_RECORD
5
169
100
AcDbSymbolTableRecord
100
AcDbBlockTableRecord
2
_CLOSED
340
0
70
0
0
BLOCK_RECORD
5
170
100
AcDbSymbolTableRecord
100
AcDbBlockTableRecord
2
DimnDraft3D2
340
0
70
0
0
BLOCK_RECORD
5
17F
100
AcDbSymbolTableRecord
100
AcDbBlockTableRecord
2
DimnDraft3D3
340
0
70
0
0
BLOCK_RECORD
5
18D
100
AcDbSymbolTableRecord
100
AcDbBlockTableRecord
2
DimnDraft3D4
340
0
70
0
0
BLOCK_RECORD
5
19B
100
AcDbSymbolTableRecord
100
AcDbBlockTableRecord
2
DimnDraft3D5
340
0
70
0
0
ENDTAB
0
ENDSEC
0
SECTION
2
BLOCKS
0
BLOCK
5
20
100
AcDbEntity
8
0
100
AcDbBlockBegin
2
*Model_Space
70
0
10
0
20
0
30
0
3
*Model_Space
0
ENDBLK
5
21
100
AcDbEntity
8
0
100
AcDbBlockEnd
0
BLOCK
5
1C
100
AcDbEntity
8
0
100
AcDbBlockBegin
2
*Paper_Space
70
0
10
0
20
0
30
0
3
*Paper_Space
0
ENDBLK
5
1D
100
AcDbEntity
8
0
100
AcDbBlockEnd
0
BLOCK
5
24
100
AcDbEntity
8
0
100
AcDbBlockBegin
2
*Paper_Space0
70
0
10
0
20
0
30
0
3
*Paper_Space0
0
ENDBLK
5
25
100
AcDbEntity
8
0
100
AcDbBlockEnd
0
BLOCK
5
166
100
AcDbEntity
8
0
100
AcDbBlockBegin
2
DimnDraft3D1
70
0
10
0
20
0
30
0
3
DimnDraft3D1
0
MTEXT
5
15C
100
AcDbEntity
8
2
62
256
6
ByLayer
370
18
48
1
60
0
100
AcDbMText
10
56.341042
20
15.558033
30
0
210
0
220
0
230
1
1
\W0.7399;75%%d
40
4.5
41
0
44
1.084337
50
52.5000000000002
71
7
72
5
7
iso_b_vert
0
LINE
5
15D
100
AcDbEntity
8
2
62
256
6
ByLayer
370
13
48
1
60
0
100
AcDbLine
10
36.682004
20
30.062097
30
0
11
43.515799
21
4.558025
31
0
39
0
210
0
220
0
230
1
0
LINE
5
15E
100
AcDbEntity
8
2
62
256
6
ByLayer
370
13
48
1
60
0
100
AcDbLine
10
37.245018
20
35.425
30
0
11
67.200862
21
35.425
31
0
39
0
210
0
220
0
230
1
0
ARC
5
15F
100
AcDbEntity
8
2
62
256
6
ByLayer
370
13
48
1
60
0
100
AcDbCircle
39
0
10
35.245018
20
35.425
30
0
40
29.9558441234256
210
0
220
0
230
1
100
AcDbArc
50
285
51
0
0
LINE
5
160
100
AcDbEntity
8
2
62
256
6
ByLayer
370
13
48
1
60
0
100
AcDbLine
10
42.998161
20
6.489877
30
0
11
45.923314
21
7.793264
31
0
39
0
210
0
220
0
230
1
0
LINE
5
161
100
AcDbEntity
8
2
62
256
6
ByLayer
370
13
48
1
60
0
100
AcDbLine
10
42.998161
20
6.489877
30
0
11
46.160986
21
6.991768
31
0
39
0
210
0
220
0
230
1
0
LINE
5
162
100
AcDbEntity
8
2
62
256
6
ByLayer
370
13
48
1
60
0
100
AcDbLine
10
45.923314
20
7.793264
30
0
11
46.160986
21
6.991768
31
0
39
0
210
0
220
0
230
1
0
LINE
5
163
100
AcDbEntity
8
2
62
256
6
ByLayer
370
13
48
1
60
0
100
AcDbLine
10
65.200862
20
35.425
30
0
11
65.534672
21
32.24005
31
0
39
0
210
0
220
0
230
1
0
LINE
5
164
100
AcDbEntity
8
2
62
256
6
ByLayer
370
13
48
1
60
0
100
AcDbLine
10
65.200862
20
35.425
30
0
11
64.698972
21
32.262175
31
0
39
0
210
0
220
0
230
1
0
LINE
5
165
100
AcDbEntity
8
2
62
256
6
ByLayer
370
13
48
1
60
0
100
AcDbLine
10
65.534672
20
32.24005
30
0
11
64.698972
21
32.262175
31
0
39
0
210
0
220
0
230
1
0
ENDBLK
5
167
100
AcDbEntity
8
0
100
AcDbBlockEnd
0
BLOCK
5
16A
100
AcDbEntity
8
0
100
AcDbBlockBegin
2
_CLOSED
70
0
10
0
20
0
30
0
3
_CLOSED
0
LINE
5
16C
100
AcDbEntity
8
0
62
256
6
ByLayer
370
-2
48
1
60
0
100
AcDbLine
10
-1
20
0.166667
30
0
11
0
21
0
31
0
39
0
210
0
220
0
230
1
0
LINE
5
16D
100
AcDbEntity
8
0
62
256
6
ByLayer
370
-2
48
1
60
0
100
AcDbLine
10
0
20
0
30
0
11
-1
21
-0.166667
31
0
39
0
210
0
220
0
230
1
0
LINE
5
16E
100
AcDbEntity
8
0
62
256
6
ByLayer
370
-2
48
1
60
0
100
AcDbLine
10
-1
20
0.166667
30
0
11
-1
21
-0.166667
31
0
39
0
210
0
220
0
230
1
0
LINE
5
16F
100
AcDbEntity
8
0
62
256
6
ByLayer
370
-2
48
1
60
0
100
AcDbLine
10
0
20
0
30
0
11
-1
21
0
31
0
39
0
210
0
220
0
230
1
0
ENDBLK
5
16B
100
AcDbEntity
8
0
100
AcDbBlockEnd
0
BLOCK
5
17C
100
AcDbEntity
8
0
100
AcDbBlockBegin
2
DimnDraft3D2
70
0
10
0
20
0
30
0
3
DimnDraft3D2
0
MTEXT
5
171
100
AcDbEntity
8
SK2
62
256
6
ByLayer
370
18
48
1
60
0
100
AcDbMText
10
-274.979982
20
-4.156579
30
0
210
0
220
0
230
1
1
\W0.7346;50.0
40
4.5
41
0
44
1.084337
50
90
71
7
72
5
7
iso_b_vert
0
LINE
5
173
100
AcDbEntity
8
SK2
62
256
6
ByLayer
370
13
48
1
60
0
100
AcDbLine
10
-268.104982
20
-24.925
30
0
11
-275.854982
21
-24.925
31
0
39
0
210
0
220
0
230
1
0
LINE
5
174
100
AcDbEntity
8
SK2
62
256
6
ByLayer
370
13
48
1
60
0
100
AcDbLine
10
-268.104982
20
24.925
30
0
11
-275.854982
21
24.925
31
0
39
0
210
0
220
0
230
1
0
LINE
5
175
100
AcDbEntity
8
SK2
62
256
6
ByLayer
370
13
48
1
60
0
100
AcDbLine
10
-273.854982
20
-24.925
30
0
11
-273.854982
21
24.925
31
0
39
0
210
0
220
0
230
1
0
LINE
5
176
100
AcDbEntity
8
SK2
62
256
6
ByLayer
370
13
48
1
60
0
100
AcDbLine
10
-273.854982
20
-24.925
30
0
11
-274.272978
21
-21.750002
31
0
39
0
210
0
220
0
230
1
0
LINE
5
177
100
AcDbEntity
8
SK2
62
256
6
ByLayer
370
13
48
1
60
0
100
AcDbLine
10
-273.854982
20
-24.925
30
0
11
-273.436985
21
-21.749998
31
0
39
0
210
0
220
0
230
1
0
LINE
5
178
100
AcDbEntity
8
SK2
62
256
6
ByLayer
370
13
48
1
60
0
100
AcDbLine
10
-274.272978
20
-21.750002
30
0
11
-273.436985
21
-21.749998
31
0
39
0
210
0
220
0
230
1
0
LINE
5
179
100
AcDbEntity
8
SK2
62
256
6
ByLayer
370
13
48
1
60
0
100
AcDbLine
10
-273.854982
20
24.925
30
0
11
-273.436985
21
21.750002
31
0
39
0
210
0
220
0
230
1
0
LINE
5
17A
100
AcDbEntity
8
SK2
62
256
6
ByLayer
370
13
48
1
60
0
100
AcDbLine
10
-273.854982
20
24.925
30
0
11
-274.272978
21
21.749998
31
0
39
0
210
0
220
0
230
1
0
LINE
5
17B
100
AcDbEntity
8
SK2
62
256
6
ByLayer
370
13
48
1
60
0
100
AcDbLine
10
-273.436985
20
21.750002
30
0
11
-274.272978
21
21.749998
31
0
39
0
210
0
220
0
230
1
0
ENDBLK
5
17D
100
AcDbEntity
8
0
100
AcDbBlockEnd
0
BLOCK
5
18A
100
AcDbEntity
8
0
100
AcDbBlockBegin
2
DimnDraft3D3
70
0
10
0
20
0
30
0
3
DimnDraft3D3
0
MTEXT
5
180
100
AcDbEntity
8
2
62
256
6
ByLayer
370
18
48
1
60
0
100
AcDbMText
10
74.370018
20
1.093421
30
0
210
0
220
0
230
1
1
\W0.7346;60.0
40
4.5
41
0
44
1.084337
50
90
71
7
72
5
7
iso_b_vert
0
LINE
5
181
100
AcDbEntity
8
2
62
256
6
ByLayer
370
13
48
1
60
0
100
AcDbLine
10
2
20
-24.925
30
0
11
77.495018
21
-24.925
31
0
39
0
210
0
220
0
230
1
0
LINE
5
182
100
AcDbEntity
8
2
62
256
6
ByLayer
370
13
48
1
60
0
100
AcDbLine
10
37.245018
20
35.425
30
0
11
77.495018
21
35.425
31
0
39
0
210
0
220
0
230
1
0
LINE
5
183
100
AcDbEntity
8
2
62
256
6
ByLayer
370
13
48
1
60
0
100
AcDbLine
10
75.495018
20
-24.925
30
0
11
75.495018
21
35.425
31
0
39
0
210
0
220
0
230
1
0
LINE
5
184
100
AcDbEntity
8
2
62
256
6
ByLayer
370
13
48
1
60
0
100
AcDbLine
10
75.495018
20
-24.925
30
0
11
75.077022
21
-21.750002
31
0
39
0
210
0
220
0
230
1
0
LINE
5
185
100
AcDbEntity
8
2
62
256
6
ByLayer
370
13
48
1
60
0
100
AcDbLine
10
75.495018
20
-24.925
30
0
11
75.913015
21
-21.749998
31
0
39
0
210
0
220
0
230
1
0
LINE
5
186
100
AcDbEntity
8
2
62
256
6
ByLayer
370
13
48
1
60
0
100
AcDbLine
10
75.077022
20
-21.750002
30
0
11
75.913015
21
-21.749998
31
0
39
0
210
0
220
0
230
1
0
LINE
5
187
100
AcDbEntity
8
2
62
256
6
ByLayer
370
13
48
1
60
0
100
AcDbLine
10
75.495018
20
35.425
30
0
11
75.913015
21
32.250002
31
0
39
0
210
0
220
0
230
1
0
LINE
5
188
100
AcDbEntity
8
2
62
256
6
ByLayer
370
13
48
1
60
0
100
AcDbLine
10
75.495018
20
35.425
30
0
11
75.077022
21
32.249998
31
0
39
0
210
0
220
0
230
1
0
LINE
5
189
100
AcDbEntity
8
2
62
256
6
ByLayer
370
13
48
1
60
0
100
AcDbLine
10
75.913015
20
32.250002
30
0
11
75.077022
21
32.249998
31
0
39
0
210
0
220
0
230
1
0
ENDBLK
5
18B
100
AcDbEntity
8
0
100
AcDbBlockEnd
0
BLOCK
5
198
100
AcDbEntity
8
0
100
AcDbBlockBegin
2
DimnDraft3D4
70
0
10
0
20
0
30
0
3
DimnDraft3D4
0
MTEXT
5
18E
100
AcDbEntity
8
2
62
256
6
ByLayer
370
18
48
1
60
0
100
AcDbMText
10
13.46593
20
52.3
30
0
210
0
220
0
230
1
1
\W0.7346;35.2
40
4.5
41
0
44
1.084337
50
0
71
7
72
5
7
iso_b_vert
0
LINE
5
18F
100
AcDbEntity
8
2
62
256
6
ByLayer
370
13
48
1
60
0
100
AcDbLine
10
0
20
26.925
30
0
11
0
21
53.175
31
0
39
0
210
0
220
0
230
1
0
LINE
5
190
100
AcDbEntity
8
2
62
256
6
ByLayer
370
13
48
1
60
0
100
AcDbLine
10
35.245018
20
37.425
30
0
11
35.245018
21
53.175
31
0
39
0
210
0
220
0
230
1
0
LINE
5
191
100
AcDbEntity
8
2
62
256
6
ByLayer
370
13
48
1
60
0
100
AcDbLine
10
0
20
51.175
30
0
11
35.245018
21
51.175
31
0
39
0
210
0
220
0
230
1
0
LINE
5
192
100
AcDbEntity
8
2
62
256
6
ByLayer
370
13
48
1
60
0
100
AcDbLine
10
0
20
51.175
30
0
11
3.174998
21
51.592997
31
0
39
0
210
0
220
0
230
1
0
LINE
5
193
100
AcDbEntity
8
2
62
256
6
ByLayer
370
13
48
1
60
0
100
AcDbLine
10
0
20
51.175
30
0
11
3.175002
21
50.757003
31
0
39
0
210
0
220
0
230
1
0
LINE
5
194
100
AcDbEntity
8
2
62
256
6
ByLayer
370
13
48
1
60
0
100
AcDbLine
10
3.174998
20
51.592997
30
0
11
3.175002
21
50.757003
31
0
39
0
210
0
220
0
230
1
0
LINE
5
195
100
AcDbEntity
8
2
62
256
6
ByLayer
370
13
48
1
60
0
100
AcDbLine
10
35.245018
20
51.175
30
0
11
32.07002
21
50.757003
31
0
39
0
210
0
220
0
230
1
0
LINE
5
196
100
AcDbEntity
8
2
62
256
6
ByLayer
370
13
48
1
60
0
100
AcDbLine
10
35.245018
20
51.175
30
0
11
32.070017
21
51.592997
31
0
39
0
210
0
220
0
230
1
0
LINE
5
197
100
AcDbEntity
8
2
62
256
6
ByLayer
370
13
48
1
60
0
100
AcDbLine
10
32.07002
20
50.757003
30
0
11
32.070017
21
51.592997
31
0
39
0
210
0
220
0
230
1
0
ENDBLK
5
199
100
AcDbEntity
8
0
100
AcDbBlockEnd
0
BLOCK
5
1A6
100
AcDbEntity
8
0
100
AcDbBlockBegin
2
DimnDraft3D5
70
0
10
0
20
0
30
0
3
DimnDraft3D5
0
MTEXT
5
19C
100
AcDbEntity
8
SK2
62
256
6
ByLayer
370
18
48
1
60
0
100
AcDbMText
10
-121.26814
20
62.3
30
0
210
0
220
0
230
1
1
\W0.7468;300.0
40
4.5
41
0
44
1.084337
50
0
71
7
72
5
7
iso_b_vert
0
LINE
5
19D
100
AcDbEntity
8
SK2
62
256
6
ByLayer
370
13
48
1
60
0
100
AcDbLine
10
35.245018
20
37.425
30
0
11
35.245018
21
63.175
31
0
39
0
210
0
220
0
230
1
0
LINE
5
19E
100
AcDbEntity
8
SK2
62
256
6
ByLayer
370
13
48
1
60
0
100
AcDbLine
10
-266.104982
20
26.925
30
0
11
-266.104982
21
63.175
31
0
39
0
210
0
220
0
230
1
0
LINE
5
19F
100
AcDbEntity
8
SK2
62
256
6
ByLayer
370
13
48
1
60
0
100
AcDbLine
10
35.245018
20
61.175
30
0
11
-266.104982
21
61.175
31
0
39
0
210
0
220
0
230
1
0
LINE
5
1A0
100
AcDbEntity
8
SK2
62
256
6
ByLayer
370
13
48
1
60
0
100
AcDbLine
10
35.245018
20
61.175
30
0
11
32.07002
21
60.757003
31
0
39
0
210
0
220
0
230
1
0
LINE
5
1A1
100
AcDbEntity
8
SK2
62
256
6
ByLayer
370
13
48
1
60
0
100
AcDbLine
10
35.245018
20
61.175
30
0
11
32.070017
21
61.592997
31
0
39
0
210
0
220
0
230
1
0
LINE
5
1A2
100
AcDbEntity
8
SK2
62
256
6
ByLayer
370
13
48
1
60
0
100
AcDbLine
10
32.07002
20
60.757003
30
0
11
32.070017
21
61.592997
31
0
39
0
210
0
220
0
230
1
0
LINE
5
1A3
100
AcDbEntity
8
SK2
62
256
6
ByLayer
370
13
48
1
60
0
100
AcDbLine
10
-266.104982
20
61.175
30
0
11
-262.929983
21
61.592997
31
0
39
0
210
0
220
0
230
1
0
LINE
5
1A4
100
AcDbEntity
8
SK2
62
256
6
ByLayer
370
13
48
1
60
0
100
AcDbLine
10
-266.104982
20
61.175
30
0
11
-262.92998
21
60.757003
31
0
39
0
210
0
220
0
230
1
0
LINE
5
1A5
100
AcDbEntity
8
SK2
62
256
6
ByLayer
370
13
48
1
60
0
100
AcDbLine
10
-262.929983
20
61.592997
30
0
11
-262.92998
21
60.757003
31
0
39
0
210
0
220
0
230
1
0
ENDBLK
5
1A7
100
AcDbEntity
8
0
100
AcDbBlockEnd
0
ENDSEC
0
SECTION
2
ENTITIES
0
ELLIPSE
5
DB
100
AcDbEntity
8
1
62
256
6
ByLayer
370
18
48
1
60
0
100
AcDbEllipse
10
21.326339
20
-0.580528
30
0
11
-0.493634480157131
21
0.284999999999999
31
0
210
0
220
0
230
1
40
0.989133
41
-0.417218117610764
42
-0.311414047343912
0
ELLIPSE
5
DC
100
AcDbEntity
8
1
62
256
6
ByLayer
370
18
48
1
60
0
100
AcDbEllipse
10
20.593089
20
0.416712
30
0
11
0.580237020535574
21
-0.334999999999999
31
0
210
0
220
0
230
1
40
0.989133
41
-0.417218117610767
42
2.04557019862553E-05
0
ELLIPSE
5
DD
100
AcDbEntity
8
1
62
256
6
ByLayer
370
18
48
1
60
0
100
AcDbEllipse
10
24.234874
20
-1.120158
30
0
11
-0.493634480157131
21
0.284999999999999
31
0
210
0
220
0
230
1
40
0.989133
41
-2.83017847363423
42
-2.0371692522244
0
ELLIPSE
5
DE
100
AcDbEntity
8
1
62
256
6
ByLayer
370
18
48
1
60
0
100
AcDbEllipse
10
21.623724
20
1.086693
30
0
11
-0.493634480157131
21
0.284999999999999
31
0
210
0
220
0
230
1
40
0.989133
41
-1.46441566880746
42
-0.311407971244703
0
ELLIPSE
5
DF
100
AcDbEntity
8
1
62
256
6
ByLayer
370
18
48
1
60
0
100
AcDbEllipse
10
25.265509
20
-0.450177
30
0
11
0.580237020535574
21
-0.334999999999999
31
0
210
0
220
0
230
1
40
0.989133
41
-3.141572155876
42
-2.03716925222433
0
ELLIPSE
5
E0
100
AcDbEntity
8
1
62
256
6
ByLayer
370
18
48
1
60
0
100
AcDbEllipse
10
22.119496
20
2.208722
30
0
11
0.580237020535574
21
-0.334999999999999
31
0
210
0
220
0
230
1
40
0.989133
41
-1.46441566880727
42
-2.60817393626115E-06
0
ELLIPSE
5
E1
100
AcDbEntity
8
1
62
256
6
ByLayer
370
18
48
1
60
0
100
AcDbEllipse
10
24.53226
20
0.547063
30
0
11
-0.493634480157131
21
0.284999999999999
31
0
210
0
220
0
230
1
40
0.989133
41
-2.83014378740139
42
-0.989971701027678
0
ELLIPSE
5
E2
100
AcDbEntity
8
1
62
256
6
ByLayer
370
18
48
1
60
0
100
AcDbEllipse
10
23.226685
20
1.650489
30
0
11
-0.493634480157131
21
0.284999999999999
31
0
210
0
220
0
230
1
40
0.989133
41
-2.51161322000391
42
-0.0844210383247906
0
ELLIPSE
5
E3
100
AcDbEntity
8
1
62
256
6
ByLayer
370
18
48
1
60
0
100
AcDbEllipse
10
22.808004
20
-0.226822
30
0
11
5.19615242270663
21
-2.99999999999999
31
0
210
0
220
0
230
1
40
0.989133
41
3.1415569793395
42
-1.05191594608213
0
ELLIPSE
5
E4
100
AcDbEntity
8
1
62
256
6
ByLayer
370
18
48
1
60
0
100
AcDbEllipse
10
22.808004
20
-0.226822
30
0
11
5.19615242270663
21
-2.99999999999999
31
0
210
0
220
0
230
1
40
0.989133
41
-1.05191594608213
42
-2.47867830990766E-16
0
ELLIPSE
5
E5
100
AcDbEntity
8
1
62
256
6
ByLayer
370
18
48
1
60
0
100
AcDbEllipse
10
22.929299
20
-0.016733
30
0
11
1.47224318643355
21
-0.849999999999998
31
0
210
0
220
0
230
1
40
0.989133
41
-1.45331697300757
42
-1.05191611319357
0
ELLIPSE
5
E6
100
AcDbEntity
8
1
62
256
6
ByLayer
370
18
48
1
60
0
100
AcDbEllipse
10
22.929299
20
-0.016733
30
0
11
1.47224318643355
21
-0.849999999999998
31
0
210
0
220
0
230
1
40
0.989133
41
-2.74794778348935
42
-2.09969957222007
0
ELLIPSE
5
E7
100
AcDbEntity
8
1
62
256
6
ByLayer
370
18
48
1
60
0
100
AcDbEllipse
10
22.929299
20
-0.016733
30
0
11
1.47224318643355
21
-0.849999999999998
31
0
210
0
220
0
230
1
40
0.989133
41
-0.330884375844087
42
-2.47592727959699E-16
0
ELLIPSE
5
E8
100
AcDbEntity
8
1
62
256
6
ByLayer
370
18
48
1
60
0
100
AcDbEllipse
10
22.929299
20
-0.016733
30
0
11
1.47224318643355
21
-0.849999999999998
31
0
210
0
220
0
230
1
40
0.989133
41
0
42
-3.10451817808714
0
ELLIPSE
5
E9
100
AcDbEntity
8
1
62
256
6
ByLayer
370
18
48
1
60
0
100
AcDbEllipse
10
22.929299
20
-0.016733
30
0
11
1.47224318643355
21
-0.849999999999998
31
0
210
0
220
0
230
1
40
0.989133
41
-1.05191611319357
42
-0.83255782358534
0
ELLIPSE
5
EA
100
AcDbEntity
8
1
62
256
6
ByLayer
370
18
48
1
60
0
100
AcDbEllipse
10
22.866814
20
-0.124961
30
0
11
1.47224318643355
21
-0.849999999999998
31
0
210
0
220
0
230
1
40
0.989133
41
3.10434869174991
42
-2.44743430152767
0
ELLIPSE
5
EB
100
AcDbEntity
8
1
62
256
6
ByLayer
370
18
48
1
60
0
100
AcDbEllipse
10
22.866814
20
-0.124961
30
0
11
1.47224318643355
21
-0.849999999999998
31
0
210
0
220
0
230
1
40
0.989133
41
0.0371725923232886
42
3.1043486917499
0
ELLIPSE
5
EC
100
AcDbEntity
8
1
62
256
6
ByLayer
370
18
48
1
60
0
100
AcDbEllipse
10
37.669624
20
11.388418
30
0
11
-2.06222299276161
21
1.19062499999995
31
0
210
0
220
0
230
1
40
0.989133
41
2.7327539002322
42
3.14157801152989
0
ELLIPSE
5
ED
100
AcDbEntity
8
1
62
256
6
ByLayer
370
18
48
1
60
0
100
AcDbEllipse
10
28.897787
20
-8.75523
30
0
11
-3.09210775442108
21
1.63977731264005
31
0
210
0
220
0
230
1
40
0.986566
41
0.119484579459261
42
0.308039714168686
0
ELLIPSE
5
EE
100
AcDbEntity
8
1
62
256
6
ByLayer
370
18
48
1
60
0
100
AcDbEllipse
10
22.98637
20
0.80285
30
0
11
-5.43327505419705
21
2.88132299221037
31
0
210
0
220
0
230
1
40
0.986566
41
-2.83355293942112
42
0.103639915611264
0
ELLIPSE
5
EF
100
AcDbEntity
8
1
62
256
6
ByLayer
370
18
48
1
60
0
100
AcDbEllipse
10
26.13987
20
20.602735
30
0
11
3.94907584125704
21
-2.27999999999999
31
0
210
0
220
0
230
1
40
0.989133
41
0.522701258320127
42
-2.9770329527959
0
ELLIPSE
5
F0
100
AcDbEntity
8
1
62
256
6
ByLayer
370
18
48
1
60
0
100
AcDbEllipse
10
26.13987
20
20.602735
30
0
11
3.94907584125704
21
-2.27999999999999
31
0
210
0
220
0
230
1
40
0.989133
41
-1.0519158493334
42
0
0
ELLIPSE
5
F1
100
AcDbEntity
8
1
62
256
6
ByLayer
370
18
48
1
60
0
100
AcDbEllipse
10
26.13987
20
20.602735
30
0
11
3.94907584125704
21
-2.27999999999999
31
0
210
0
220
0
230
1
40
0.989133
41
0
42
0.25782577294261
0
ELLIPSE
5
F2
100
AcDbEntity
8
1
62
256
6
ByLayer
370
18
48
1
60
0
100
AcDbEllipse
10
25.556183
20
19.591759
30
0
11
3.94907584125704
21
-2.27999999999999
31
0
210
0
220
0
230
1
40
0.989133
41
2.58545934458074
42
3.01183239207219
0
ELLIPSE
5
F3
100
AcDbEntity
8
1
62
256
6
ByLayer
370
18
48
1
60
0
100
AcDbEllipse
10
38.154707
20
12.226939
30
0
11
2.06200648641075
21
-1.1905
31
0
210
0
220
0
230
1
40
0.989133
41
-0.645366493768573
42
-1.47482893147823E-05
0
ELLIPSE
5
F4
100
AcDbEntity
8
1
62
256
6
ByLayer
370
18
48
1
60
0
100
AcDbEllipse
10
38.110698
20
12.15238
30
0
11
-2.0622229927617
21
1.190625
31
0
210
0
220
0
230
1
40
0.989133
41
2.5164501915316
42
3.14157801152995
0
ELLIPSE
5
F5
100
AcDbEntity
8
1
62
256
6
ByLayer
370
18
48
1
60
0
100
AcDbEllipse
10
25.365455
20
19.262368
30
0
11
-4.11362066797545
21
2.37499999999962
31
0
210
0
220
0
230
1
40
0.989133
41
-0.620241417343284
42
-0.553187980597198
0
ELLIPSE
5
F6
100
AcDbEntity
8
1
62
256
6
ByLayer
370
18
48
1
60
0
100
AcDbEllipse
10
33.426148
20
33.063487
30
0
11
-2.06200648641075
21
1.1905
31
0
210
0
220
0
230
1
40
0.989133
41
-2.36165769871388
42
-0.79086137191898
0
ELLIPSE
5
F7
100
AcDbEntity
8
1
62
256
6
ByLayer
370
18
48
1
60
0
100
AcDbEllipse
10
38.738394
20
13.237915
30
0
11
-2.06200648641075
21
1.1905
31
0
210
0
220
0
230
1
40
0.989133
41
2.35073128167081
42
-2.36165769871387
0
ELLIPSE
5
F8
100
AcDbEntity
8
1
62
256
6
ByLayer
370
18
48
1
60
0
100
AcDbEllipse
10
13.541346
20
27.967555
30
0
11
-2.06200648641075
21
1.1905
31
0
210
0
220
0
230
1
40
0.989133
41
-0.790861371918978
42
0.77993495487591
0
ELLIPSE
5
F9
100
AcDbEntity
8
1
62
256
6
ByLayer
370
18
48
1
60
0
100
AcDbEllipse
10
23.399439
20
1.949707
30
0
11
-0.493634480157131
21
0.284999999999999
31
0
210
0
220
0
230
1
40
0.989133
41
-2.511613220004
42
0.0572258501687091
0
ELLIPSE
5
FA
100
AcDbEntity
8
1
62
256
6
ByLayer
370
18
48
1
60
0
100
AcDbEllipse
10
22.29225
20
2.50794
30
0
11
0.580237020535574
21
-0.334999999999999
31
0
210
0
220
0
230
1
40
0.989133
41
-1.46441566880741
42
-0.749944664171079
0
ELLIPSE
5
FB
100
AcDbEntity
8
1
62
256
6
ByLayer
370
18
48
1
60
0
100
AcDbEllipse
10
22.991785
20
0.091495
30
0
11
-5.19615242270663
21
2.99999999999999
31
0
210
0
220
0
230
1
40
0.989133
41
0
42
6.28318530717959
0
ELLIPSE
5
FC
100
AcDbEntity
8
1
62
256
6
ByLayer
370
18
48
1
60
0
100
AcDbEllipse
10
20.765843
20
0.71593
30
0
11
0.580237020535574
21
-0.334999999999999
31
0
210
0
220
0
230
1
40
0.989133
41
0.389952396729208
42
1.10442340136541
0
ELLIPSE
5
FD
100
AcDbEntity
8
1
62
256
6
ByLayer
370
18
48
1
60
0
100
AcDbEllipse
10
22.29225
20
2.50794
30
0
11
0.580237020535574
21
-0.334999999999999
31
0
210
0
220
0
230
1
40
0.989133
41
-0.657245154467463
42
0.0572258501688435
0
ELLIPSE
5
FE
100
AcDbEntity
8
1
62
256
6
ByLayer
370
18
48
1
60
0
100
AcDbEllipse
10
24.705014
20
0.846281
30
0
11
-0.493634480157131
21
0.284999999999999
31
0
210
0
220
0
230
1
40
0.989133
41
2.72437453597894
42
-0.989971701027805
0
ELLIPSE
5
FF
100
AcDbEntity
8
1
62
256
6
ByLayer
370
18
48
1
60
0
100
AcDbEllipse
10
24.62846
20
2.074495
30
0
11
0.580237020535574
21
-0.334999999999999
31
0
210
0
220
0
230
1
40
0.989133
41
-2.51161322000394
42
-1.79714221536785
0
ELLIPSE
5
100
100
AcDbEntity
8
1
62
256
6
ByLayer
370
18
48
1
60
0
100
AcDbEllipse
10
25.438263
20
-0.150959
30
0
11
0.580237020535574
21
-0.334999999999999
31
0
210
0
220
0
230
1
40
0.989133
41
2.72437453597911
42
-2.84433976656429
0
ELLIPSE
5
101
100
AcDbEntity
8
1
62
256
6
ByLayer
370
18
48
1
60
0
100
AcDbEllipse
10
21.575646
20
-1.509524
30
0
11
0.580237020535574
21
-0.334999999999999
31
0
210
0
220
0
230
1
40
0.989133
41
1.43714994792556
42
2.151620952562
0
ELLIPSE
5
102
100
AcDbEntity
8
1
62
256
6
ByLayer
370
18
48
1
60
0
100
AcDbEllipse
10
24.62846
20
2.074495
30
0
11
0.580237020535574
21
-0.334999999999999
31
0
210
0
220
0
230
1
40
0.989133
41
-1.70444270566382
42
-0.989971701027822
0
ELLIPSE
5
103
100
AcDbEntity
8
1
62
256
6
ByLayer
370
18
48
1
60
0
100
AcDbEllipse
10
22.804667
20
-1.384736
30
0
11
-0.493634480157131
21
0.284999999999999
31
0
210
0
220
0
230
1
40
0.989133
41
0.629979433585884
42
-3.08436680342094
0
ELLIPSE
5
104
100
AcDbEntity
8
1
62
256
6
ByLayer
370
18
48
1
60
0
100
AcDbEllipse
10
24.407628
20
-0.82094
30
0
11
-0.493634480157131
21
0.284999999999999
31
0
210
0
220
0
230
1
40
0.989133
41
1.67717698478238
42
-2.03716925222434
0
ELLIPSE
5
105
100
AcDbEntity
8
1
62
256
6
ByLayer
370
18
48
1
60
0
100
AcDbEllipse
10
21.575646
20
-1.509524
30
0
11
0.580237020535574
21
-0.334999999999999
31
0
210
0
220
0
230
1
40
0.989133
41
0.629979433585795
42
1.34445043822222
0
ELLIPSE
5
106
100
AcDbEntity
8
1
62
256
6
ByLayer
370
18
48
1
60
0
100
AcDbEllipse
10
23.911856
20
-1.942969
30
0
11
0.580237020535574
21
-0.334999999999999
31
0
210
0
220
0
230
1
40
0.989133
41
2.48434749912253
42
-3.08436680342095
0
ELLIPSE
5
107
100
AcDbEntity
8
1
62
256
6
ByLayer
370
18
48
1
60
0
100
AcDbEllipse
10
24.455706
20
1.775277
30
0
11
0.580237020535574
21
-0.334999999999999
31
0
210
0
220
0
230
1
40
0.989133
41
-2.51161322000396
42
-0.98997170102786
0
ELLIPSE
5
108
100
AcDbEntity
8
1
62
256
6
ByLayer
370
18
48
1
60
0
100
AcDbEllipse
10
21.499092
20
-0.28131
30
0
11
-0.493634480157131
21
0.284999999999999
31
0
210
0
220
0
230
1
40
0.989133
41
-0.417218117610853
42
2.15162095256203
0
ELLIPSE
5
109
100
AcDbEntity
8
1
62
256
6
ByLayer
370
18
48
1
60
0
100
AcDbEllipse
10
22.991785
20
0.091495
30
0
11
-5.16173618507042
21
2.98012977593622
31
0
210
0
220
0
230
1
40
0.989133
41
0
42
6.28318530717959
0
ELLIPSE
5
10A
100
AcDbEntity
8
1
62
256
6
ByLayer
370
18
48
1
60
0
100
AcDbEllipse
10
21.796478
20
1.385911
30
0
11
-0.493634480157131
21
0.284999999999999
31
0
210
0
220
0
230
1
40
0.989133
41
-1.46441566880735
42
1.10442340136537
0
ELLIPSE
5
10B
100
AcDbEntity
8
1
62
256
6
ByLayer
370
18
48
1
60
0
100
AcDbEllipse
10
23.102053
20
0.282486
30
0
11
-3.03108891324554
21
1.74999999999999
31
0
210
0
220
0
230
1
40
0.989133
41
0
42
6.28318530717959
0
ELLIPSE
5
10C
100
AcDbEntity
8
1
62
256
6
ByLayer
370
18
48
1
60
0
100
AcDbEllipse
10
23.911856
20
-1.942969
30
0
11
0.580237020535574
21
-0.334999999999999
31
0
210
0
220
0
230
1
40
0.989133
41
1.67717698478234
42
2.3916479894185
0
ELLIPSE
5
10D
100
AcDbEntity
8
1
62
256
6
ByLayer
370
18
48
1
60
0
100
AcDbEllipse
10
25.438263
20
-0.150959
30
0
11
0.580237020535574
21
-0.334999999999999
31
0
210
0
220
0
230
1
40
0.989133
41
-2.75164025686055
42
-2.0371692522244
0
ELLIPSE
5
10E
100
AcDbEntity
8
1
62
256
6
ByLayer
370
18
48
1
60
0
100
AcDbEllipse
10
20.765843
20
0.71593
30
0
11
0.580237020535574
21
-0.334999999999999
31
0
210
0
220
0
230
1
40
0.989133
41
-0.417218117610674
42
0.29725288702557
0
ELLIPSE
5
10F
100
AcDbEntity
8
1
62
256
6
ByLayer
370
18
48
1
60
0
100
AcDbEllipse
10
14.219394
20
-3.505276
30
0
11
-1.69719480556932
21
-6.80231475411101
31
0
210
0
220
0
230
1
40
0.411064
41
0.703611544648562
42
0.740642046587202
0
ELLIPSE
5
110
100
AcDbEntity
8
1
62
256
6
ByLayer
370
18
48
1
60
0
100
AcDbEllipse
10
14.959298
20
-8.248358
30
0
11
0.747683065211551
21
-0.664055746150772
31
0
210
0
220
0
230
1
40
0.69282
41
-2.49459655680686
42
-1.13991798635191
0
ELLIPSE
5
111
100
AcDbEntity
8
1
62
256
6
ByLayer
370
18
48
1
60
0
100
AcDbEllipse
10
13.850158
20
-8.694727
30
0
11
-2.18980561051237
21
2.73831352644352
31
0
210
0
220
0
230
1
40
0.993026
41
0.927248713547228
42
2.17571679685364
0
ELLIPSE
5
112
100
AcDbEntity
8
1
62
256
6
ByLayer
370
18
48
1
60
0
100
AcDbEllipse
10
9.905243
20
-12.712758
30
0
11
1.45936105975237
21
7.86576539805749
31
0
210
0
220
0
230
1
40
0.04953
41
0.802273398896465
42
0.917827976421322
0
ELLIPSE
5
113
100
AcDbEntity
8
1
62
256
6
ByLayer
370
18
48
1
60
0
100
AcDbEllipse
10
29.414317
20
-6.3244
30
0
11
-0.889436655557926
21
-6.95336927714931
31
0
210
0
220
0
230
1
40
0.312387
41
-0.733093694415847
42
-0.696063327904418
0
ELLIPSE
5
114
100
AcDbEntity
8
1
62
256
6
ByLayer
370
18
48
1
60
0
100
AcDbEllipse
10
11.142552
20
-15.745604
30
0
11
-3.5525508703979
21
-2.84094413767301
31
0
210
0
220
0
230
1
40
0.672481
41
-2.61504109654154
42
-2.50370111382669
0
ELLIPSE
5
115
100
AcDbEntity
8
1
62
256
6
ByLayer
370
18
48
1
60
0
100
AcDbEllipse
10
27.107346
20
-11.154376
30
0
11
-2.18980561050344
21
2.73831352644558
31
0
210
0
220
0
230
1
40
0.993026
41
2.39839676144811
42
-2.63632046242383
0
ELLIPSE
5
116
100
AcDbEntity
8
1
62
256
6
ByLayer
370
18
48
1
60
0
100
AcDbEllipse
10
27.405569
20
-10.557555
30
0
11
0.963353261168998
21
0.268235892816485
31
0
210
0
220
0
230
1
40
0.726272
41
-1.87811759392107
42
-0.523439023466275
0
ELLIPSE
5
117
100
AcDbEntity
8
1
62
256
6
ByLayer
370
18
48
1
60
0
100
AcDbEllipse
10
26.474457
20
21.14183
30
0
11
-3.10118286503589
21
2.80681803078533
31
0
210
0
220
0
230
1
40
0.804696
41
-1.45151525926641
42
-1.05568399472808
0
ELLIPSE
5
118
100
AcDbEntity
8
1
62
256
6
ByLayer
370
18
48
1
60
0
100
AcDbEllipse
10
26.474457
20
21.14183
30
0
11
-4.35885506618576
21
-0.178753265125472
31
0
210
0
220
0
230
1
40
0.817299
41
-1.70485399888944
42
-1.30902273435938
0
ELLIPSE
5
119
100
AcDbEntity
8
1
62
256
6
ByLayer
370
18
48
1
60
0
100
AcDbEllipse
10
28.397269
20
-7.795286
30
0
11
-1.59457565168778
21
4.26611169023662
31
0
210
0
220
0
230
1
40
0.519679
41
2.74468085419095
42
-2.42081688848325
0
ELLIPSE
5
11A
100
AcDbEntity
8
1
62
256
6
ByLayer
370
18
48
1
60
0
100
AcDbEllipse
10
17.888794
20
-4.186061
30
0
11
1.27694092728332
21
6.8825447233003
31
0
210
0
220
0
230
1
40
0.04953
41
-2.46310835861285
42
-1.79987861894544
0
ELLIPSE
5
11B
100
AcDbEntity
8
1
62
256
6
ByLayer
370
18
48
1
60
0
100
AcDbEllipse
10
24.39974
20
-18.205254
30
0
11
-3.5525508885563
21
-2.84094418858028
31
0
210
0
220
0
230
1
40
0.672481
41
-2.72638108529407
42
-2.61504110322725
0
ELLIPSE
5
11C
100
AcDbEntity
8
1
62
256
6
ByLayer
370
18
48
1
60
0
100
AcDbEllipse
10
30.34605
20
-6.441837
30
0
11
-0.688353968410615
21
-5.97268070517724
31
0
210
0
220
0
230
1
40
0.372231
41
-0.741122909996329
42
-0.310759650781128
0
ELLIPSE
5
11D
100
AcDbEntity
8
1
62
256
6
ByLayer
370
18
48
1
60
0
100
AcDbEllipse
10
13.345491
20
-3.287668
30
0
11
-1.54302784733959
21
-5.81219038675723
31
0
210
0
220
0
230
1
40
0.470683
41
0.32099986004066
42
0.751363119243502
0
ELLIPSE
5
11E
100
AcDbEntity
8
1
62
256
6
ByLayer
370
18
48
1
60
0
100
AcDbEllipse
10
15.140081
20
-5.335637
30
0
11
-3.91196847794535
21
-2.97621954917644
31
0
210
0
220
0
230
1
40
0.564387
41
-0.550128025610821
42
0.567559538892973
0
ELLIPSE
5
11F
100
AcDbEntity
8
1
62
256
6
ByLayer
370
18
48
1
60
0
100
AcDbEllipse
10
25.744905
20
-5.643631
30
0
11
1.27694092728332
21
6.8825447233003
31
0
210
0
220
0
230
1
40
0.04953
41
-2.46310835861259
42
-1.79987861894544
0
ELLIPSE
5
120
100
AcDbEntity
8
1
62
256
6
ByLayer
370
18
48
1
60
0
100
AcDbEllipse
10
1.345128
20
-7.958756
30
0
11
-0.00887339753724303
21
0.814236666164384
31
0
210
0
220
0
230
1
40
0.259855
41
0.0879457064732673
42
1.6587420332776
0
ELLIPSE
5
121
100
AcDbEntity
8
1
62
256
6
ByLayer
370
18
48
1
60
0
100
AcDbEllipse
10
30.031516
20
-13.281035
30
0
11
-0.479091669147784
21
-0.724760123260712
31
0
210
0
220
0
230
1
40
0.008261
41
1.43524688928156
42
3.00604321615923
0
POINT
5
6C
100
AcDbEntity
8
2
62
256
6
ByLayer
370
18
48
1
60
0
100
AcDbPoint
10
35.245018
20
35.425
30
0
39
0
210
0
220
0
230
1
50
360
0
POINT
5
6E
100
AcDbEntity
8
80
62
256
6
ByLayer
370
18
48
1
60
0
100
AcDbPoint
10
0
20
0
30
0
39
0
210
0
220
0
230
1
50
360
0
POINT
5
70
100
AcDbEntity
8
81
62
256
6
ByLayer
370
18
48
1
60
0
100
AcDbPoint
10
35.245018
20
35.425
30
0
39
0
210
0
220
0
230
1
50
360
0
SPLINE
5
122
100
AcDbEntity
8
1
62
256
6
ByLayer
370
18
48
1
60
0
100
AcDbSpline
70
4
71
3
72
8
73
4
40
0
40
0
40
0
40
0
40
1
40
1
40
1
40
1
41
1
10
30.3740116503527
20
-12.4109412810707
30
0
41
1
10
30.3628976647288
20
-12.4399108317892
30
0
41
1
10
30.3514784763877
20
-12.4689129506571
30
0
41
1
10
30.3397438990085
20
-12.4979437137419
30
0
0
SPLINE
5
123
100
AcDbEntity
8
1
62
256
6
ByLayer
370
18
48
1
60
0
100
AcDbSpline
70
4
71
3
72
9
73
5
40
0
40
0
40
0
40
0
40
0.499999999999816
40
1
40
1
40
1
40
1
41
1
10
22.5491707445714
20
1.8920910973429
30
0
41
1
10
22.539529450265
20
1.88823242242108
30
0
41
1
10
22.5202468616523
20
1.88051507257748
30
0
41
1
10
22.5007294056549
20
1.87458561428744
30
0
41
1
10
22.4909706776563
20
1.87162088514245
30
0
0
SPLINE
5
124
100
AcDbEntity
8
1
62
256
6
ByLayer
370
18
48
1
60
0
100
AcDbSpline
70
4
71
1
72
4
73
2
40
0
40
0
40
1
40
1
41
1
10
23.7131354465046
20
-1.30664938858735
30
0
41
1
10
23.6549353795894
20
-1.32711960078785
30
0
0
SPLINE
5
125
100
AcDbEntity
8
1
62
256
6
ByLayer
370
18
48
1
60
0
100
AcDbSpline
70
4
71
3
72
8
73
4
40
0
40
0
40
0
40
0
40
1
40
1
40
1
40
1
41
1
10
21.4284847217785
20
0.624256590500067
30
0
41
1
10
21.4248855752275
20
0.604078845159933
30
0
41
1
10
21.4212864286766
20
0.583901099819826
30
0
41
1
10
21.4176872821255
20
0.563723354479691
30
0
0
SPLINE
5
126
100
AcDbEntity
8
1
62
256
6
ByLayer
370
18
48
1
60
0
100
AcDbSpline
70
4
71
1
72
4
73
2
40
0
40
0
40
1
40
1
41
1
10
24.7864188420353
20
0.0012481420754398
30
0
41
1
10
24.7756214023823
20
-0.05928509394505
30
0
0
SPLINE
5
127
100
AcDbEntity
8
1
62
256
6
ByLayer
370
18
48
1
60
0
100
AcDbSpline
70
4
71
3
72
10
73
6
40
0
40
0
40
0
40
0
40
0.499998260768581
40
0.501912286286022
40
1
40
1
40
1
40
1
41
1
10
21.9813670392877
20
-0.985348758565323
30
0
41
1
10
21.9894272544584
20
-0.991859352182559
30
0
41
1
10
21.9975183246514
20
-0.998394868771101
30
0
41
1
10
22.0133473898941
20
-1.01177458013052
30
0
41
1
10
22.0210733157898
20
-1.01860625721662
30
0
41
1
10
22.0287696665497
20
-1.02541178238516
30
0
0
SPLINE
5
128
100
AcDbEntity
8
1
62
256
6
ByLayer
370
18
48
1
60
0
100
AcDbSpline
70
4
71
3
72
8
73
4
40
0
40
0
40
0
40
0
40
1
40
1
40
1
40
1
41
1
10
24.2227390848734
20
1.55032025512028
30
0
41
1
10
24.2069382091192
20
1.56367459639364
30
0
41
1
10
24.1911373333652
20
1.577028937667
30
0
41
1
10
24.175336457611
20
1.59038327894038
30
0
0
SPLINE
5
129
100
AcDbEntity
8
1
62
256
6
ByLayer
370
18
48
1
60
0
100
AcDbSpline
70
4
71
3
72
12
73
8
40
0
40
0
40
0
40
0
40
0.204202248153567
40
0.204202248153567
40
0.849675991585493
40
0.849675991585493
40
1
40
1
40
1
40
1
41
1
10
25.9998943073768
20
-6.54204265806894
30
0
41
1
10
26.041406120435
20
-6.43998119219177
30
0
41
1
10
26.0879252156571
20
-6.34031850469967
30
0
41
1
10
26.2993271502292
20
-5.94187408307246
30
0
41
1
10
26.509965710168
20
-5.66723152808657
30
0
41
1
10
26.8033006860855
20
-5.39644115064385
30
0
41
1
10
26.8610553308942
20
-5.34744474763139
30
0
41
1
10
26.9199962307667
20
-5.30153910313197
30
0
0
SPLINE
5
12A
100
AcDbEntity
8
1
62
256
6
ByLayer
370
18
48
1
60
0
100
AcDbSpline
70
4
71
3
72
22
73
18
40
0
40
0
40
0
40
0
40
0.130530602739819
40
0.130530602739819
40
0.2030875483074
40
0.2030875483074
40
0.264442711370256
40
0.264442711370256
40
0.326069932320039
40
0.326069932320039
40
0.39766768234132
40
0.39766768234132
40
0.506875085108943
40
0.506875085108943
40
0.711100138795161
40
0.711100138795161
40
1
40
1
40
1
40
1
41
1
10
21.7128755569707
20
15.6975644631968
30
0
41
1
10
21.7204599582592
20
15.5774426051519
30
0
41
1
10
21.7471748782804
20
15.4618695881387
30
0
41
1
10
21.8445235582898
20
15.3133615480613
30
0
41
1
10
21.8916127755056
20
15.2659003830985
30
0
41
1
10
22.0054460968449
20
15.2008739959091
30
0
41
1
10
22.0694795030432
20
15.1794903630441
30
0
41
1
10
22.2151246972215
20
15.160751595454
30
0
41
1
10
22.2986781305476
20
15.1633772161579
30
0
41
1
10
22.4847267478027
20
15.1923988702588
30
0
41
1
10
22.5906621860883
20
15.2225588897209
30
0
41
1
10
22.8506889327475
20
15.3195754457075
30
0
41
1
10
23.0060559792935
20
15.3982970650762
30
0
41
1
10
23.4244337667175
20
15.6439138337899
30
0
41
1
10
23.6753795959007
20
15.8328392777482
30
0
41
1
10
24.2293737978664
20
16.3018688969147
30
0
41
1
10
24.5190120034899
20
16.5953317455093
30
0
41
1
10
24.7788957648043
20
16.8915350739939
30
0
0
SPLINE
5
12B
100
AcDbEntity
8
1
62
256
6
ByLayer
370
18
48
1
60
0
100
AcDbSpline
70
4
71
3
72
12
73
8
40
0
40
0
40
0
40
0
40
0.499842200422128
40
0.499842200422128
40
0.749802242645015
40
0.749802242645015
40
1
40
1
40
1
40
1
41
1
10
29.3325734037097
20
14.2838571172151
30
0
41
1
10
29.6970849069926
20
15.1546723115619
30
0
41
1
10
30.0939702813625
20
15.995060520471
30
0
41
1
10
30.6256200622152
20
17.3155584451507
30
0
41
1
10
30.7997449562097
20
17.7587312067571
30
0
41
1
10
31.1344002686822
20
18.6579428440259
30
0
41
1
10
31.291188513211
20
19.1177099047476
30
0
41
1
10
31.4276532095155
20
19.5949930976558
30
0
0
SPLINE
5
12C
100
AcDbEntity
8
1
62
256
6
ByLayer
370
18
48
1
60
0
100
AcDbSpline
70
4
71
2
72
6
73
3
40
0
40
0
40
0
40
1
40
1
40
1
41
1.02609574526022
10
30.4295114209073
20
1.05443660925899
30
0
41
1.02609574526022
10
31.6540911892119
20
0.329358031394777
30
0
41
1.02609574526022
10
32.8786709575164
20
-0.395720546469441
30
0
0
SPLINE
5
12D
100
AcDbEntity
8
1
62
256
6
ByLayer
370
18
48
1
60
0
100
AcDbSpline
70
4
71
3
72
10
73
6
40
0
40
0
40
0
40
0
40
0.5
40
0.5
40
1
40
1
40
1
40
1
41
1
10
12.6898814593239
20
3.34997128975996
30
0
41
1
10
13.1183148120025
20
5.38345695329585
30
0
41
1
10
13.618676839201
20
7.38876750905135
30
0
41
1
10
15.0456849426806
20
11.232409330201
30
0
41
1
10
15.9503135884225
20
13.0793650208697
30
0
41
1
10
16.9587845503675
20
14.8856447437035
30
0
0
SPLINE
5
12E
100
AcDbEntity
8
1
62
256
6
ByLayer
370
18
48
1
60
0
100
AcDbSpline
70
4
71
3
72
10
73
6
40
0
40
0
40
0
40
0
40
0.363146207408298
40
0.919635117144715
40
1
40
1
40
1
40
1
41
1.01924252060337
10
32.846294962052
20
14.9168319194029
30
0
41
1.0190261298545
10
32.7064741807454
20
15.5207336627263
30
0
41
1.01859648737407
10
32.3367993379449
20
16.8884424767001
30
0
41
1.01806418111389
10
31.8329130109025
20
18.4837173950142
30
0
41
1.01767843063346
10
31.473587478254
20
19.4709066354909
30
0
41
1.01762918625356
10
31.4276178287022
20
19.5950886755107
30
0
0
SPLINE
5
12F
100
AcDbEntity
8
1
62
256
6
ByLayer
370
18
48
1
60
0
100
AcDbSpline
70
4
71
3
72
10
73
6
40
0
40
0
40
0
40
0
40
0.748781644179017
40
0.748781644179017
40
1
40
1
40
1
40
1
41
1
10
25.8038556984551
20
-7.18650452251109
30
0
41
1
10
25.8388598225512
20
-7.02559232721157
30
0
41
1
10
25.8843386062755
20
-6.8594756773129
30
0
41
1
10
25.958738066264
20
-6.6470844919194
30
0
41
1
10
25.9788426838143
20
-6.59380044462677
30
0
41
1
10
25.9998943073768
20
-6.54204265806905
30
0
0
SPLINE
5
130
100
AcDbEntity
8
1
62
256
6
ByLayer
370
18
48
1
60
0
100
AcDbSpline
70
4
71
3
72
8
73
4
40
0
40
0
40
0
40
0
40
1
40
1
40
1
40
1
41
1
10
29.3558917137091
20
1.50508588713254
30
0
41
1
10
29.3576175351432
20
1.09255440484355
30
0
41
1
10
29.3235398455301
20
0.673540358537508
30
0
41
1
10
29.2516791689515
20
0.270670841713354
30
0
0
SPLINE
5
131
100
AcDbEntity
8
1
62
256
6
ByLayer
370
18
48
1
60
0
100
AcDbSpline
70
4
71
3
72
11
73
7
40
0
40
0
40
0
40
0
40
0.567115805318445
40
0.567115805318445
40
0.567115805318445
40
1
40
1
40
1
40
1
41
1
10
17.7510558811968
20
16.9199766691602
30
0
41
1
10
17.6876353235069
20
16.5694071619709
30
0
41
1
10
17.5660024780508
20
16.1815402134378
30
0
41
1
10
17.4030809857264
20
15.7918861780505
30
0
41
1
10
17.2777883474195
20
15.4922278492195
30
0
41
1
10
17.1264154058213
20
15.1858895961121
30
0
41
1
10
16.9587845503664
20
14.8856447437017
30
0
0
SPLINE
5
132
100
AcDbEntity
8
1
62
256
6
ByLayer
370
18
48
1
60
0
100
AcDbSpline
70
4
71
3
72
10
73
6
40
0
40
0
40
0
40
0
40
0.633056393844539
40
0.633056393844539
40
1
40
1
40
1
40
1
41
1
10
14.7343281063446
20
-9.14347911114683
30
0
41
1
10
14.6619673460253
20
-9.13005378372861
30
0
41
1
10
14.5873156780265
20
-9.12102770052937
30
0
41
1
10
14.476811200316
20
-9.11211643178515
30
0
41
1
10
14.4369008695018
20
-9.10989969016916
30
0
41
1
10
14.3982571370421
20
-9.10850979519114
30
0
0
SPLINE
5
133
100
AcDbEntity
8
1
62
256
6
ByLayer
370
18
48
1
60
0
100
AcDbSpline
70
4
71
3
72
8
73
4
40
0
40
0
40
0
40
0
40
1
40
1
40
1
40
1
41
1
10
17.5323502648491
20
-3.55981858744192
30
0
41
1
10
16.8210365690684
20
-2.46511618426803
30
0
41
1
10
16.5157728266942
20
-1.17238511533881
30
0
41
1
10
16.7634064691973
20
0.215913056268988
30
0
0
SPLINE
5
134
100
AcDbEntity
8
1
62
256
6
ByLayer
370
18
48
1
60
0
100
AcDbSpline
70
4
71
3
72
8
73
4
40
0
40
0
40
0
40
0
40
1
40
1
40
1
40
1
41
1
10
10.4824282729207
20
-7.87652553331728
30
0
41
1
10
10.4180331863149
20
-8.16272581725426
30
0
41
1
10
10.3728055581926
20
-8.47044784899279
30
0
41
1
10
10.3608957280275
20
-8.79120297537273
30
0
0
SPLINE
5
135
100
AcDbEntity
8
1
62
256
6
ByLayer
370
18
48
1
60
0
100
AcDbSpline
70
4
71
3
72
10
73
6
40
0
40
0
40
0
40
0
40
0.567800532142487
40
0.567800532142487
40
1
40
1
40
1
40
1
41
1
10
32.8667224737413
20
11.9341932356198
30
0
41
1
10
32.7973440026083
20
12.3790806787458
30
0
41
1
10
32.7513195584545
20
12.8265733493355
30
0
41
1
10
32.7286738768407
20
13.5581226334391
30
0
41
1
10
32.7381374534382
20
13.8615690820166
30
0
41
1
10
32.7684062514359
20
14.1337587689419
30
0
0
SPLINE
5
136
100
AcDbEntity
8
1
62
256
6
ByLayer
370
18
48
1
60
0
100
AcDbSpline
70
4
71
3
72
10
73
6
40
0
40
0
40
0
40
0
40
0.91765448605327
40
0.91765448605327
40
1
40
1
40
1
40
1
41
1
10
24.7788957648043
20
16.8915350739939
30
0
41
1
10
25.2403163258846
20
17.4172643763337
30
0
41
1
10
25.6691568188697
20
17.9504972023016
30
0
41
1
10
26.0955017498947
20
18.533982457853
30
0
41
1
10
26.1304135321324
20
18.5821232622447
30
0
41
1
10
26.1651036261342
20
18.6302800377728
30
0
0
SPLINE
5
137
100
AcDbEntity
8
1
62
256
6
ByLayer
370
18
48
1
60
0
100
AcDbSpline
70
4
71
3
72
12
73
8
40
0
40
0
40
0
40
0
40
0.241231766725666
40
0.241231766725666
40
0.620546361038363
40
0.620546361038363
40
1
40
1
40
1
40
1
41
1
10
20.8428736585146
20
21.5588217042796
30
0
41
1
10
20.8654137879387
20
21.0700664863827
30
0
41
1
10
20.9119831213464
20
20.5895803293113
30
0
41
1
10
21.0661130889076
20
19.3670692719573
30
0
41
1
10
21.1756691125651
20
18.6254451727402
30
0
41
1
10
21.4375495186206
20
17.1590059910839
30
0
41
1
10
21.5877094368484
20
16.4332727348003
30
0
41
1
10
21.712875556973
20
15.6975644632012
30
0
0
SPLINE
5
138
100
AcDbEntity
8
1
62
256
6
ByLayer
370
18
48
1
60
0
100
AcDbSpline
70
4
71
3
72
10
73
6
40
0
40
0
40
0
40
0
40
0.178235590375236
40
0.965884392516032
40
1
40
1
40
1
40
1
41
1.02426270642939
10
22.43470271435
20
7.78345609190351
30
0
41
1.02399541235391
10
22.5693530727284
20
8.3360899167235
30
0
41
1.02244297574217
10
23.3371253470605
20
11.4412506816584
30
0
41
1.02043217367667
10
24.2692786084226
20
14.9538693792931
30
0
41
1.01956281722763
10
24.7589892614249
20
16.8157732863384
30
0
41
1.01952794425495
10
24.7788957648013
20
16.8915350739824
30
0
0
SPLINE
5
139
100
AcDbEntity
8
1
62
256
6
ByLayer
370
18
48
1
60
0
100
AcDbSpline
70
4
71
3
72
14
73
10
40
0
40
0
40
0
40
0
40
0.277474514381386
40
0.277474514381386
40
0.535318923390722
40
0.535318923390722
40
0.765023320191404
40
0.765023320191404
40
1
40
1
40
1
40
1
41
1
10
22.4347027140988
20
7.7834560908729
30
0
41
1
10
22.7966625011862
20
7.83094090184218
30
0
41
1
10
23.1651840163175
20
7.8465822984127
30
0
41
1
10
23.872199375145
20
7.81504406978303
30
0
41
1
10
24.2134124814248
20
7.77212195059806
30
0
41
1
10
24.8466480240508
20
7.64025631004947
30
0
41
1
10
25.1417236704838
20
7.55647994265701
30
0
41
1
10
25.7219546502014
20
7.34593027828097
30
0
41
1
10
26.0083861832251
20
7.21761086878129
30
0
41
1
10
26.2828893675799
20
7.06948949403863
30
0
0
SPLINE
5
13A
100
AcDbEntity
8
1
62
256
6
ByLayer
370
18
48
1
60
0
100
AcDbSpline
70
4
71
3
72
15
73
11
40
0
40
0
40
0
40
0
40
0.14713993365957
40
0.14713993365957
40
0.468348890922561
40
0.468348890922561
40
0.791093030527836
40
0.791093030527836
40
0.791093030527836
40
1
40
1
40
1
40
1
41
1
10
25.2052928656991
20
24.5366925725228
30
0
41
1
10
25.0444805346988
20
24.4812722919212
30
0
41
1
10
24.8835499165658
20
24.4191700870121
30
0
41
1
10
24.3798106085138
20
24.20148483405
30
0
41
1
10
24.0382765544935
20
24.0175902779083
30
0
41
1
10
23.421336819093
20
23.6001489987559
30
0
41
1
10
23.138335889513
20
23.360551850357
30
0
41
1
10
22.9070733378509
20
23.1130232589396
30
0
41
1
10
22.7558886030536
20
22.9512048227975
30
0
41
1
10
22.6238028567589
20
22.7836399634947
30
0
41
1
10
22.5134226234944
20
22.6164914288874
30
0
0
SPLINE
5
13B
100
AcDbEntity
8
1
62
256
6
ByLayer
370
18
48
1
60
0
100
AcDbSpline
70
4
71
3
72
8
73
4
40
0
40
0
40
0
40
0
40
1
40
1
40
1
40
1
41
1
10
17.5134786374645
20
3.70224735436423
30
0
41
1
10
16.9643026681374
20
3.73283839774044
30
0
41
1
10
16.5073263154892
20
3.73160480921681
30
0
41
1
10
16.1775942812094
20
3.69864119049768
30
0
0
SPLINE
5
13C
100
AcDbEntity
8
1
62
256
6
ByLayer
370
18
48
1
60
0
100
AcDbSpline
70
4
71
3
72
10
73
6
40
0
40
0
40
0
40
0
40
0.5
40
0.5
40
1
40
1
40
1
40
1
41
1
10
29.0108477373423
20
-12.0500864307812
30
0
41
1
10
28.8590628244809
20
-11.9996118335349
30
0
41
1
10
28.6988704762527
20
-11.9373925548252
30
0
41
1
10
28.2838945314168
20
-11.7870838929343
30
0
41
1
10
28.0281417605633
20
-11.6997448097256
30
0
41
1
10
27.6554449767186
20
-11.5681590112516
30
0
0
SPLINE
5
13D
100
AcDbEntity
8
1
62
256
6
ByLayer
370
18
48
1
60
0
100
AcDbSpline
70
4
71
3
72
10
73
6
40
0
40
0
40
0
40
0
40
0.617959141538636
40
0.617959141538636
40
1
40
1
40
1
40
1
41
1
10
17.5323502648491
20
-3.55981858744192
30
0
41
1
10
17.7027586951065
20
-3.82207491574036
30
0
41
1
10
17.8339879280079
20
-4.1281184705278
30
0
41
1
10
17.9591772644445
20
-4.64499665885322
30
0
41
1
10
17.9876231638381
20
-4.8505711174347
30
0
41
1
10
17.9959189838909
20
-5.05703906093188
30
0
0
SPLINE
5
13E
100
AcDbEntity
8
1
62
256
6
ByLayer
370
18
48
1
60
0
100
AcDbSpline
70
4
71
3
72
10
73
6
40
0
40
0
40
0
40
0
40
0.178235590382921
40
0.965884392557147
40
1
40
1
40
1
40
1
41
1.02426270642939
10
26.2828893676888
20
7.06948949510787
30
0
41
1.02399541235391
10
26.3405894956224
20
7.63640014667964
30
0
41
1.02244297574217
10
26.6452750810576
20
10.8274788924957
30
0
41
1.02043217367675
10
26.8586077147612
20
14.4734627209932
30
0
41
1.01956281722772
10
26.9578743877643
20
16.4078069706126
30
0
41
1.01952794425508
10
26.9618862883578
20
16.4865177355575
30
0
0
SPLINE
5
13F
100
AcDbEntity
8
1
62
256
6
ByLayer
370
18
48
1
60
0
100
AcDbSpline
70
4
71
3
72
8
73
4
40
0
40
0
40
0
40
0
40
1
40
1
40
1
40
1
41
1
10
27.2998329426345
20
-11.3055740252578
30
0
41
1
10
27.0636337020184
20
-10.1791173779503
30
0
41
1
10
26.4819973357895
20
-8.7067184646416
30
0
41
1
10
25.80385569846
20
-7.18650452251208
30
0
0
SPLINE
5
140
100
AcDbEntity
8
1
62
256
6
ByLayer
370
18
48
1
60
0
100
AcDbSpline
70
4
71
3
72
8
73
4
40
0
40
0
40
0
40
0
40
1
40
1
40
1
40
1
41
1
10
28.8421776120111
20
-2.02510067391884
30
0
41
1
10
28.5944904313712
20
-3.41369899415312
30
0
41
1
10
27.9184462503413
20
-4.52390435801976
30
0
41
1
10
26.9199962307667
20
-5.30153910313197
30
0
0
SPLINE
5
141
100
AcDbEntity
8
1
62
256
6
ByLayer
370
18
48
1
60
0
100
AcDbSpline
70
4
71
3
72
8
73
4
40
0
40
0
40
0
40
0
40
1
40
1
40
1
40
1
41
1
10
14.0853962084149
20
-8.03076168765182
30
0
41
1
10
14.9951284077792
20
-7.1493857381378
30
0
41
1
10
16.4598132869008
20
-6.09795792435284
30
0
41
1
10
17.9959189838909
20
-5.05703906093197
30
0
0
SPLINE
5
142
100
AcDbEntity
8
1
62
256
6
ByLayer
370
18
48
1
60
0
100
AcDbSpline
70
4
71
3
72
10
73
6
40
0
40
0
40
0
40
0
40
0.5
40
0.5
40
1
40
1
40
1
40
1
41
1
10
17.5134784945725
20
3.70224736232385
30
0
41
1
10
17.9276919095699
20
4.75177991141442
30
0
41
1
10
18.5965942629798
20
5.67076666525125
30
0
41
1
10
20.2769618651755
20
7.11077345389984
30
0
41
1
10
21.3231445967397
20
7.63765174533222
30
0
41
1
10
22.4347027140988
20
7.7834560908729
30
0
0
SPLINE
5
143
100
AcDbEntity
8
1
62
256
6
ByLayer
370
18
48
1
60
0
100
AcDbSpline
70
4
71
2
72
6
73
3
40
0
40
0
40
0
40
1
40
1
40
1
41
0.949562357290118
10
29.355891586019
20
1.50508592999766
30
0
41
0.967780772402292
10
30.0775760269247
20
1.26281896341329
30
0
41
1.02609574526022
10
30.4295114209073
20
1.05443660925899
30
0
0
SPLINE
5
144
100
AcDbEntity
8
1
62
256
6
ByLayer
370
18
48
1
60
0
100
AcDbSpline
70
4
71
3
72
8
73
4
40
0
40
0
40
0
40
0
40
1
40
1
40
1
40
1
41
1
10
17.9461208981581
20
-5.72863340570325
30
0
41
1
10
16.7383466633673
20
-6.89896441069618
30
0
41
1
10
15.5975497354903
20
-8.0515674943174
30
0
41
1
10
14.8535623334595
20
-8.99637692275377
30
0
0
SPLINE
5
145
100
AcDbEntity
8
1
62
256
6
ByLayer
370
18
48
1
60
0
100
AcDbSpline
70
4
71
3
72
8
73
4
40
0
40
0
40
0
40
0
40
1
40
1
40
1
40
1
41
1
10
17.5134784945725
20
3.70224736232385
30
0
41
1
10
17.3619654189404
20
3.31814679144662
30
0
41
1
10
17.2447687027162
20
2.91455408872534
30
0
41
1
10
17.1729080261376
20
2.51168457190118
30
0
0
SPLINE
5
146
100
AcDbEntity
8
1
62
256
6
ByLayer
370
18
48
1
60
0
100
AcDbSpline
70
4
71
3
72
12
73
8
40
0
40
0
40
0
40
0
40
0.499999999999998
40
0.499999999999998
40
0.749999999999999
40
0.749999999999999
40
1
40
1
40
1
40
1
41
1
10
26.9618862883731
20
16.4865177358558
30
0
41
1
10
27.2336183175411
20
15.8369720894585
30
0
41
1
10
27.5675410572187
20
15.1601374906889
30
0
41
1
10
28.3077406078983
20
14.250108690179
30
0
41
1
10
28.6320957350711
20
13.9569056379381
30
0
41
1
10
29.1411456429238
20
13.8792626776446
30
0
41
1
10
29.2666909320224
20
14.0667169181766
30
0
41
1
10
29.332573403709
20
14.2838571172196
30
0
0
SPLINE
5
147
100
AcDbEntity
8
1
62
256
6
ByLayer
370
18
48
1
60
0
100
AcDbSpline
70
4
71
3
72
9
73
5
40
0
40
0
40
0
40
0
40
0.557412159345921
40
1
40
1
40
1
40
1
41
1.02609574526022
10
30.4295114209073
20
1.05443660925899
30
0
41
1.0257992359639
10
30.5578209613829
20
2.42671259869376
30
0
41
1.02388785778436
10
30.4731195889691
20
6.97531106018948
30
0
41
1.02114228821988
10
29.6397400962056
20
12.3784742103807
30
0
41
1.02025357652616
10
29.3325734062311
20
14.2838571015757
30
0
0
SPLINE
5
148
100
AcDbEntity
8
1
62
256
6
ByLayer
370
18
48
1
60
0
100
AcDbSpline
70
4
71
3
72
10
73
6
40
0
40
0
40
0
40
0
40
0.634609507784674
40
0.634609507784674
40
1
40
1
40
1
40
1
41
1
10
27.6554449767161
20
-11.5681590112509
30
0
41
1
10
27.5962935144214
20
-11.5472747623539
30
0
41
1
10
27.5316471469718
20
-11.52701489323
30
0
41
1
10
27.4229374160784
20
-11.4992639170176
30
0
41
1
10
27.3811512520419
20
-11.4898853786111
30
0
41
1
10
27.3390059902311
20
-11.4820660309917
30
0
0
SPLINE
5
149
100
AcDbEntity
8
1
62
256
6
ByLayer
370
18
48
1
60
0
100
AcDbSpline
70
4
71
3
72
10
73
6
40
0
40
0
40
0
40
0
40
0.286413870643358
40
0.286413870643358
40
1
40
1
40
1
40
1
41
1
10
26.1651036261492
20
18.6302800377941
30
0
41
1
10
26.2307009678722
20
18.428370975055
30
0
41
1
10
26.2987078265221
20
18.2256783305625
30
0
41
1
10
26.5472713682436
20
17.5152605359233
30
0
41
1
10
26.746132911377
20
17.0020461488561
30
0
41
1
10
26.9618862883731
20
16.4865177358558
30
0
0
SPLINE
5
14A
100
AcDbEntity
8
1
62
256
6
ByLayer
370
18
48
1
60
0
100
AcDbSpline
70
4
71
3
72
14
73
10
40
0
40
0
40
0
40
0
40
0.344680425563172
40
0.344680425563172
40
0.662299704488298
40
0.662299704488298
40
0.966309045319182
40
0.966309045319182
40
1
40
1
40
1
40
1
41
1
10
30.2293629893214
20
21.1849278950906
30
0
41
1
10
30.1364737928108
20
21.5086667996549
30
0
41
1
10
29.9915625677901
20
21.8565912273499
30
0
41
1
10
29.6281960319265
20
22.5091227937729
30
0
41
1
10
29.4115833365177
20
22.8233975599095
30
0
41
1
10
28.9456479089573
20
23.3880952021964
30
0
41
1
10
28.6930372760239
20
23.6475449355307
30
0
41
1
10
28.4060444790421
20
23.9031686647253
30
0
41
1
10
28.3770703468213
20
23.9285565537827
30
0
41
1
10
28.3480075168217
20
23.9536144928111
30
0
0
SPLINE
5
14B
100
AcDbEntity
8
1
62
256
6
ByLayer
370
18
48
1
60
0
100
AcDbSpline
70
4
71
1
72
4
73
2
40
0
40
0
40
1
40
1
41
1
10
16.1775942812094
20
3.69864119049771
30
0
41
1
10
12.6898814593239
20
3.34997128975996
30
0
0
SPLINE
5
14C
100
AcDbEntity
8
1
62
256
6
ByLayer
370
18
48
1
60
0
100
AcDbSpline
70
4
71
3
72
8
73
4
40
0
40
0
40
0
40
0
40
1
40
1
40
1
40
1
41
1
10
25.9998943073836
20
-6.54204265807189
30
0
41
1
10
27.0305593422078
20
-8.05796701791184
30
0
41
1
10
27.9434832278789
20
-9.55347123463355
30
0
41
1
10
28.337313348113
20
-10.6749662688906
30
0
0
SPLINE
5
14D
100
AcDbEntity
8
1
62
256
6
ByLayer
370
18
48
1
60
0
100
AcDbSpline
70
4
71
3
72
10
73
6
40
0
40
0
40
0
40
0
40
0.5
40
0.5
40
1
40
1
40
1
40
1
41
1
10
14.3982571370421
20
-9.10850979519114
30
0
41
1
10
13.9824984757739
20
-9.09355624804158
30
0
41
1
10
13.6760058085905
20
-9.0765500456011
30
0
41
1
10
13.1590297355823
20
-9.05398943032284
30
0
41
1
10
12.9453822767978
20
-9.04707209340168
30
0
41
1
10
12.7444364346653
20
-9.03212618969587
30
0
0
SPLINE
5
14E
100
AcDbEntity
8
1
62
256
6
ByLayer
370
18
48
1
60
0
100
AcDbSpline
70
4
71
3
72
10
73
6
40
0
40
0
40
0
40
0
40
0.0803615089464603
40
0.636852329491508
40
1
40
1
40
1
40
1
41
1.01762919296299
10
20.8429280721394
20
21.5588848642042
30
0
41
1.01767843505497
10
20.7570254486704
20
21.459174719396
30
0
41
1.01806418305672
10
20.0798325629601
20
20.6642991862324
30
0
41
1.01859648748914
10
19.0573581438023
20
19.3522201055795
30
0
41
1.01902613005648
10
18.2390752007185
20
18.2049166807728
30
0
41
1.0192425209898
10
17.8996750764392
20
17.6899259306542
30
0
0
SPLINE
5
14F
100
AcDbEntity
8
1
62
256
6
ByLayer
370
18
48
1
60
0
100
AcDbSpline
70
4
71
3
72
10
73
6
40
0
40
0
40
0
40
0
40
0.75679569453333
40
0.75679569453333
40
1
40
1
40
1
40
1
41
1
10
17.9959189838909
20
-5.05703906093197
30
0
41
1
10
18.0026130369917
20
-5.22364192461129
30
0
41
1
10
17.9926802347255
20
-5.39963608985039
30
0
41
1
10
17.9638618954445
20
-5.62125646197154
30
0
41
1
10
17.95552402486
20
-5.67529950462688
30
0
41
1
10
17.9461208981679
20
-5.72863340570467
30
0
0
SPLINE
5
150
100
AcDbEntity
8
1
62
256
6
ByLayer
370
18
48
1
60
0
100
AcDbSpline
70
4
71
3
72
8
73
4
40
0
40
0
40
0
40
0
40
1
40
1
40
1
40
1
41
1
10
17.946120898168
20
-5.72863340570407
30
0
41
1
10
17.9412904915102
20
-5.75603114682653
30
0
41
1
10
17.9361832595013
20
-5.78334667601985
30
0
41
1
10
17.9308064748334
20
-5.81057012969001
30
0
0
SPLINE
5
151
100
AcDbEntity
8
1
62
256
6
ByLayer
370
18
48
1
60
0
100
AcDbSpline
70
4
71
3
72
8
73
4
40
0
40
0
40
0
40
0
40
1
40
1
40
1
40
1
41
1
10
25.8038556984488
20
-7.18650452251686
30
0
41
1
10
25.7979395367245
20
-7.21370081996471
30
0
41
1
10
25.7922945719001
20
-7.24091658183565
30
0
41
1
10
25.7869177872328
20
-7.26814003550325
30
0
0
SPLINE
5
152
100
AcDbEntity
8
1
62
256
6
ByLayer
370
18
48
1
60
0
100
AcDbSpline
70
4
71
3
72
9
73
5
40
0
40
0
40
0
40
0
40
0.557412158884145
40
1
40
1
40
1
40
1
41
1.02609574526022
10
16.1775942812094
20
3.69864119049767
30
0
41
1.0257992359639
10
16.5341416746382
20
5.02857146806545
30
0
41
1.02388785778278
10
18.2335400144111
20
9.24616010588826
30
0
41
1.02114228821533
10
20.8060617024717
20
14.0174153277518
30
0
41
1.02025357652117
10
21.7128755545869
20
15.69756445878
30
0
0
SPLINE
5
153
100
AcDbEntity
8
1
62
256
6
ByLayer
370
18
48
1
60
0
100
AcDbSpline
70
4
71
3
72
8
73
4
40
0
40
0
40
0
40
0
40
1
40
1
40
1
40
1
41
1
10
32.8463750789589
20
14.9164858755418
30
0
41
1
10
32.8237640941228
20
14.6550632640416
30
0
41
1
10
32.7973677471051
20
14.3941926467478
30
0
41
1
10
32.7684062514352
20
14.1337587689354
30
0
0
SPLINE
5
154
100
AcDbEntity
8
1
62
256
6
ByLayer
370
18
48
1
60
0
100
AcDbSpline
70
4
71
3
72
8
73
4
40
0
40
0
40
0
40
0
40
1
40
1
40
1
40
1
41
1
10
17.7510558811968
20
16.9199766691602
30
0
41
1
10
17.7975807496187
20
17.1771519572498
30
0
41
1
10
17.8466596397407
20
17.433814208481
30
0
41
1
10
17.899481203825
20
17.6896317528668
30
0
0
SPLINE
5
155
100
AcDbEntity
8
1
62
256
6
ByLayer
370
18
48
1
60
0
100
AcDbSpline
70
4
71
3
72
8
73
4
40
0
40
0
40
0
40
0
40
1
40
1
40
1
40
1
41
1
10
26.2828893675799
20
7.06948949403863
30
0
41
1
10
28.2675891936065
20
5.99859718814989
30
0
41
1
10
29.3307307005701
20
3.75507642330399
30
0
41
1
10
29.355891713709
20
1.50508588713262
30
0
0
SPLINE
5
156
100
AcDbEntity
8
1
62
256
6
ByLayer
370
18
48
1
60
0
100
AcDbSpline
70
4
71
3
72
10
73
6
40
0
40
0
40
0
40
0
40
0.5
40
0.5
40
1
40
1
40
1
40
1
41
1
10
32.8667224737413
20
11.9341932356198
30
0
41
1
10
33.1868452473509
20
9.88141519205834
30
0
41
1
10
33.3957325641006
20
7.82786526003844
30
0
41
1
10
33.4040434586003
20
3.71792403279295
30
0
41
1
10
33.1798820564003
20
1.66136907595868
30
0
41
1
10
32.8786709575165
20
-0.395720546469448
30
0
0
LINE
5
72
100
AcDbEntity
8
1
62
256
6
ByLayer
370
18
48
1
60
0
100
AcDbLine
10
23.331619
20
-1.607969
30
0
11
23.272772
21
-1.709894
31
0
39
0
210
0
220
0
230
1
0
LINE
5
74
100
AcDbEntity
8
1
62
256
6
ByLayer
370
18
48
1
60
0
100
AcDbLine
10
24.858026
20
0.184041
30
0
11
24.685272
21
-0.115177
31
0
39
0
210
0
220
0
230
1
0
LINE
5
75
100
AcDbEntity
8
1
62
256
6
ByLayer
370
18
48
1
60
0
100
AcDbLine
10
28.004156
20
-3.226822
30
0
11
28.187937
21
-2.908505
31
0
39
0
210
0
220
0
230
1
0
LINE
5
76
100
AcDbEntity
8
1
62
256
6
ByLayer
370
18
48
1
60
0
100
AcDbLine
10
17.795632
20
3.091495
30
0
11
17.611852
21
2.773178
31
0
39
0
210
0
220
0
230
1
0
LINE
5
77
100
AcDbEntity
8
1
62
256
6
ByLayer
370
18
48
1
60
0
100
AcDbLine
10
30.373523
20
-12.41219
30
0
11
30.89503
21
-11.054133
31
0
39
0
210
0
220
0
230
1
0
LINE
5
78
100
AcDbEntity
8
1
62
256
6
ByLayer
370
18
48
1
60
0
100
AcDbLine
10
39.731847
20
10.197793
30
0
11
40.172921
21
10.961755
31
0
39
0
210
0
220
0
230
1
0
LINE
5
79
100
AcDbEntity
8
1
62
256
6
ByLayer
370
18
48
1
60
0
100
AcDbLine
10
40.216713
20
11.036439
30
0
11
40.800401
21
12.047415
31
0
39
0
210
0
220
0
230
1
0
LINE
5
7A
100
AcDbEntity
8
1
62
256
6
ByLayer
370
18
48
1
60
0
100
AcDbLine
10
11.47934
20
29.158055
30
0
11
10.993329
21
28.316259
31
0
39
0
210
0
220
0
230
1
0
LINE
5
7B
100
AcDbEntity
8
1
62
256
6
ByLayer
370
18
48
1
60
0
100
AcDbLine
10
25.975586
20
-6.603565
30
0
11
25.63502
21
-7.490433
31
0
39
0
210
0
220
0
230
1
0
LINE
5
7C
100
AcDbEntity
8
1
62
256
6
ByLayer
370
18
48
1
60
0
100
AcDbLine
10
21.173326
20
0.081712
30
0
11
21.34608
21
0.38093
31
0
39
0
210
0
220
0
230
1
0
LINE
5
7D
100
AcDbEntity
8
1
62
256
6
ByLayer
370
18
48
1
60
0
100
AcDbLine
10
22.699733
20
1.873722
30
0
11
22.872487
21
2.17294
31
0
39
0
210
0
220
0
230
1
0
LINE
5
7E
100
AcDbEntity
8
80
62
256
6
ByLayer
370
18
48
1
60
0
100
AcDbLine
10
0
20
0
30
0
11
-5
21
0
31
0
39
0
210
0
220
0
230
1
0
LINE
5
7F
100
AcDbEntity
8
81
62
256
6
ByLayer
370
18
48
1
60
0
100
AcDbLine
10
35.245018
20
35.425
30
0
11
45.245018
21
35.425
31
0
39
0
210
0
220
0
230
1
0
LINE
5
80
100
AcDbEntity
8
1
62
256
6
ByLayer
370
18
48
1
60
0
100
AcDbLine
10
23.281369
20
-1.697198
30
0
11
23.313617
21
-1.641343
31
0
39
0
210
0
220
0
230
1
0
LINE
5
81
100
AcDbEntity
8
1
62
256
6
ByLayer
370
18
48
1
60
0
100
AcDbLine
10
28.004156
20
-3.226822
30
0
11
28.004342
21
-3.226501
31
0
39
0
210
0
220
0
230
1
0
LINE
5
82
100
AcDbEntity
8
1
62
256
6
ByLayer
370
18
48
1
60
0
100
AcDbLine
10
11.431729
20
-3.829194
30
0
11
4.081197
21
-2.465426
31
0
39
0
210
0
220
0
230
1
0
LINE
5
83
100
AcDbEntity
8
1
62
256
6
ByLayer
370
18
48
1
60
0
100
AcDbLine
10
33.527252
20
-7.928649
30
0
11
31.573336
21
-7.566132
31
0
39
0
210
0
220
0
230
1
0
LINE
5
84
100
AcDbEntity
8
1
62
256
6
ByLayer
370
18
48
1
60
0
100
AcDbLine
10
30.521724
20
-12.537992
30
0
11
30.33725
21
-12.503766
31
0
39
0
210
0
220
0
230
1
0
LINE
5
85
100
AcDbEntity
8
1
62
256
6
ByLayer
370
18
48
1
60
0
100
AcDbLine
10
10.361169
20
-8.797539
30
0
11
1.370202
21
-7.129415
31
0
39
0
210
0
220
0
230
1
0
LINE
5
86
100
AcDbEntity
8
1
62
256
6
ByLayer
370
18
48
1
60
0
100
AcDbLine
10
39.093668
20
10.830385
30
0
11
33.191848
21
9.31791
31
0
39
0
210
0
220
0
230
1
0
LINE
5
87
100
AcDbEntity
8
1
62
256
6
ByLayer
370
18
48
1
60
0
100
AcDbLine
10
33.185114
20
9.370428
30
0
11
39.351267
21
10.950644
31
0
39
0
210
0
220
0
230
1
0
LINE
5
88
100
AcDbEntity
8
1
62
256
6
ByLayer
370
18
48
1
60
0
100
AcDbLine
10
39.093668
20
10.70956
30
0
11
33.206136
21
9.200746
31
0
39
0
210
0
220
0
230
1
0
LINE
5
89
100
AcDbEntity
8
1
62
256
6
ByLayer
370
18
48
1
60
0
100
AcDbLine
10
29.972706
20
-13.382896
30
0
11
29.833475
21
-13.357064
31
0
39
0
210
0
220
0
230
1
0
LINE
5
8A
100
AcDbEntity
8
1
62
256
6
ByLayer
370
18
48
1
60
0
100
AcDbLine
10
10.53799
20
-9.77711
30
0
11
1.135141
21
-8.032569
31
0
39
0
210
0
220
0
230
1
0
LINE
5
8B
100
AcDbEntity
8
1
62
256
6
ByLayer
370
18
48
1
60
0
100
AcDbLine
10
30.507022
20
-12.563458
30
0
11
30.326413
21
-12.529949
31
0
39
0
210
0
220
0
230
1
0
LINE
5
8C
100
AcDbEntity
8
1
62
256
6
ByLayer
370
18
48
1
60
0
100
AcDbLine
10
10.362288
20
-8.82594
30
0
11
1.317705
21
-7.147869
31
0
39
0
210
0
220
0
230
1
0
LINE
5
8D
100
AcDbEntity
8
1
62
256
6
ByLayer
370
18
48
1
60
0
100
AcDbLine
10
32.106585
20
-4.577192
30
0
11
32.131973
21
-4.581902
31
0
39
0
210
0
220
0
230
1
0
LINE
5
8E
100
AcDbEntity
8
1
62
256
6
ByLayer
370
18
48
1
60
0
100
AcDbLine
10
10.731375
20
28.847318
30
0
11
15.280241
21
11.569483
31
0
39
0
210
0
220
0
230
1
0
LINE
5
8F
100
AcDbEntity
8
1
62
256
6
ByLayer
370
18
48
1
60
0
100
AcDbLine
10
15.357405
20
11.740267
30
0
11
13.859408
21
17.43007
31
0
39
0
210
0
220
0
230
1
0
LINE
5
90
100
AcDbEntity
8
1
62
256
6
ByLayer
370
18
48
1
60
0
100
AcDbLine
10
11.134689
20
27.779299
30
0
11
10.866541
21
28.797797
31
0
39
0
210
0
220
0
230
1
0
LINE
5
91
100
AcDbEntity
8
1
62
256
6
ByLayer
370
18
48
1
60
0
100
AcDbLine
10
39.09366
20
10.504456
30
0
11
39.351267
21
10.950644
31
0
39
0
210
0
220
0
230
1
0
LINE
5
92
100
AcDbEntity
8
1
62
256
6
ByLayer
370
18
48
1
60
0
100
AcDbLine
10
11.247243
20
27.379639
30
0
11
11.221998
21
27.335914
31
0
39
0
210
0
220
0
230
1
0
LINE
5
93
100
AcDbEntity
8
1
62
256
6
ByLayer
370
18
48
1
60
0
100
AcDbLine
10
11.247243
20
27.379639
30
0
11
15.40781
21
11.852189
31
0
39
0
210
0
220
0
230
1
0
LINE
5
94
100
AcDbEntity
8
1
62
256
6
ByLayer
370
18
48
1
60
0
100
AcDbLine
10
32.813276
20
35.350758
30
0
11
12.928474
21
30.254826
31
0
39
0
210
0
220
0
230
1
0
LINE
5
95
100
AcDbEntity
8
1
62
256
6
ByLayer
370
18
48
1
60
0
100
AcDbLine
10
41.032498
20
13.825831
30
0
11
35.720252
21
33.651403
31
0
39
0
210
0
220
0
230
1
0
LINE
5
96
100
AcDbEntity
8
1
62
256
6
ByLayer
370
18
48
1
60
0
100
AcDbLine
10
23.791638
20
1.707851
30
0
11
23.964392
21
2.007069
31
0
39
0
210
0
220
0
230
1
0
LINE
5
97
100
AcDbEntity
8
1
62
256
6
ByLayer
370
18
48
1
60
0
100
AcDbLine
10
20.989281
20
-0.12212
30
0
11
21.162034
21
0.177099
31
0
39
0
210
0
220
0
230
1
0
LINE
5
98
100
AcDbEntity
8
1
62
256
6
ByLayer
370
18
48
1
60
0
100
AcDbLine
10
21.851619
20
1.602464
30
0
11
22.024373
21
1.901683
31
0
39
0
210
0
220
0
230
1
0
LINE
5
99
100
AcDbEntity
8
1
62
256
6
ByLayer
370
18
48
1
60
0
100
AcDbLine
10
24.708634
20
-0.812183
30
0
11
24.881388
21
-0.512965
31
0
39
0
210
0
220
0
230
1
0
LINE
5
9A
100
AcDbEntity
8
1
62
256
6
ByLayer
370
18
48
1
60
0
100
AcDbLine
10
24.49707
20
1.111645
30
0
11
24.669824
21
1.410864
31
0
39
0
210
0
220
0
230
1
0
LINE
5
9B
100
AcDbEntity
8
1
62
256
6
ByLayer
370
18
48
1
60
0
100
AcDbLine
10
29.251679
20
0.270671
30
0
11
28.842178
21
-2.025101
31
0
39
0
210
0
220
0
230
1
0
LINE
5
9C
100
AcDbEntity
8
1
62
256
6
ByLayer
370
18
48
1
60
0
100
AcDbLine
10
11.461415
20
-3.703654
30
0
11
11.971936
21
-0.841545
31
0
39
0
210
0
220
0
230
1
0
LINE
5
9D
100
AcDbEntity
8
1
62
256
6
ByLayer
370
18
48
1
60
0
100
AcDbLine
10
25.786918
20
-7.26814
30
0
11
25.460739
21
-8.117544
31
0
39
0
210
0
220
0
230
1
0
LINE
5
9E
100
AcDbEntity
8
1
62
256
6
ByLayer
370
18
48
1
60
0
100
AcDbLine
10
11.971936
20
-0.841545
30
0
11
11.943183
21
-0.836211
31
0
39
0
210
0
220
0
230
1
0
LINE
5
9F
100
AcDbEntity
8
1
62
256
6
ByLayer
370
18
48
1
60
0
100
AcDbLine
10
28.620145
20
-2.603296
30
0
11
29.025756
21
-0.317657
31
0
39
0
210
0
220
0
230
1
0
LINE
5
A0
100
AcDbEntity
8
1
62
256
6
ByLayer
370
18
48
1
60
0
100
AcDbLine
10
31.058417
20
-10.453497
30
0
11
32.109712
21
-4.559666
31
0
39
0
210
0
220
0
230
1
0
LINE
5
A1
100
AcDbEntity
8
1
62
256
6
ByLayer
370
18
48
1
60
0
100
AcDbLine
10
27.655445
20
-11.568159
30
0
11
26.51096
21
-14.548514
31
0
39
0
210
0
220
0
230
1
0
LINE
5
A2
100
AcDbEntity
8
1
62
256
6
ByLayer
370
18
48
1
60
0
100
AcDbLine
10
31.427525
20
19.595164
30
0
11
30.229363
21
21.184928
31
0
39
0
210
0
220
0
230
1
0
LINE
5
A3
100
AcDbEntity
8
1
62
256
6
ByLayer
370
18
48
1
60
0
100
AcDbLine
10
14.085396
20
-8.030762
30
0
11
16.177594
21
3.698641
31
0
39
0
210
0
220
0
230
1
0
LINE
5
A4
100
AcDbEntity
8
1
62
256
6
ByLayer
370
18
48
1
60
0
100
AcDbLine
10
16.763406
20
0.215913
30
0
11
17.172908
21
2.511685
31
0
39
0
210
0
220
0
230
1
0
LINE
5
A5
100
AcDbEntity
8
1
62
256
6
ByLayer
370
18
48
1
60
0
100
AcDbLine
10
11.943183
20
-0.836211
30
0
11
11.978426
21
-0.824643
31
0
39
0
210
0
220
0
230
1
0
LINE
5
A6
100
AcDbEntity
8
1
62
256
6
ByLayer
370
18
48
1
60
0
100
AcDbLine
10
12.689881
20
3.349971
30
0
11
11.943183
21
-0.836211
31
0
39
0
210
0
220
0
230
1
0
LINE
5
A7
100
AcDbEntity
8
1
62
256
6
ByLayer
370
18
48
1
60
0
100
AcDbLine
10
28.337313
20
-10.674966
30
0
11
30.429511
21
1.054437
31
0
39
0
210
0
220
0
230
1
0
LINE
5
A8
100
AcDbEntity
8
1
62
256
6
ByLayer
370
18
48
1
60
0
100
AcDbLine
10
32.109712
20
-4.559666
30
0
11
32.131973
21
-4.581902
31
0
39
0
210
0
220
0
230
1
0
LINE
5
A9
100
AcDbEntity
8
1
62
256
6
ByLayer
370
18
48
1
60
0
100
AcDbLine
10
29.251679
20
0.270671
30
0
11
29.025756
21
-0.317657
31
0
39
0
210
0
220
0
230
1
0
LINE
5
AA
100
AcDbEntity
8
1
62
256
6
ByLayer
370
18
48
1
60
0
100
AcDbLine
10
26.165104
20
18.63028
30
0
11
26.912262
21
24.696246
31
0
39
0
210
0
220
0
230
1
0
LINE
5
AB
100
AcDbEntity
8
1
62
256
6
ByLayer
370
18
48
1
60
0
100
AcDbLine
10
14.398257
20
-9.10851
30
0
11
13.253772
21
-12.088865
31
0
39
0
210
0
220
0
230
1
0
LINE
5
AC
100
AcDbEntity
8
1
62
256
6
ByLayer
370
18
48
1
60
0
100
AcDbLine
10
26.51096
20
-14.548514
30
0
11
13.253772
21
-12.088865
31
0
39
0
210
0
220
0
230
1
0
LINE
5
AD
100
AcDbEntity
8
1
62
256
6
ByLayer
370
18
48
1
60
0
100
AcDbLine
10
17.066071
20
-9.694766
30
0
11
24.922183
21
-11.152336
31
0
39
0
210
0
220
0
230
1
0
LINE
5
AE
100
AcDbEntity
8
1
62
256
6
ByLayer
370
18
48
1
60
0
100
AcDbLine
10
28.842178
20
-2.025101
30
0
11
28.620145
21
-2.603296
31
0
39
0
210
0
220
0
230
1
0
LINE
5
AF
100
AcDbEntity
8
1
62
256
6
ByLayer
370
18
48
1
60
0
100
AcDbLine
10
25.460739
20
-8.117544
30
0
11
24.922183
21
-11.152336
31
0
39
0
210
0
220
0
230
1
0
LINE
5
B0
100
AcDbEntity
8
1
62
256
6
ByLayer
370
18
48
1
60
0
100
AcDbLine
10
14.734328
20
-9.143479
30
0
11
17.108611
21
-9.583988
31
0
39
0
210
0
220
0
230
1
0
LINE
5
B1
100
AcDbEntity
8
1
62
256
6
ByLayer
370
18
48
1
60
0
100
AcDbLine
10
12.858809
20
-12.040653
30
0
11
26.879778
21
-14.642009
31
0
39
0
210
0
220
0
230
1
0
LINE
5
B2
100
AcDbEntity
8
1
62
256
6
ByLayer
370
18
48
1
60
0
100
AcDbLine
10
10.927131
20
-6.718474
30
0
11
10.482428
21
-7.876526
31
0
39
0
210
0
220
0
230
1
0
LINE
5
B3
100
AcDbEntity
8
1
62
256
6
ByLayer
370
18
48
1
60
0
100
AcDbLine
10
24.964723
20
-11.041558
30
0
11
24.922183
21
-11.152336
31
0
39
0
210
0
220
0
230
1
0
LINE
5
B4
100
AcDbEntity
8
1
62
256
6
ByLayer
370
18
48
1
60
0
100
AcDbLine
10
11.978426
20
-0.824643
30
0
11
10.927131
21
-6.718474
31
0
39
0
210
0
220
0
230
1
0
LINE
5
B5
100
AcDbEntity
8
1
62
256
6
ByLayer
370
18
48
1
60
0
100
AcDbLine
10
24.964723
20
-11.041558
30
0
11
27.339006
21
-11.482066
31
0
39
0
210
0
220
0
230
1
0
LINE
5
B6
100
AcDbEntity
8
1
62
256
6
ByLayer
370
18
48
1
60
0
100
AcDbLine
10
22.513423
20
22.616491
30
0
11
20.843021
21
21.558915
31
0
39
0
210
0
220
0
230
1
0
LINE
5
B7
100
AcDbEntity
8
1
62
256
6
ByLayer
370
18
48
1
60
0
100
AcDbLine
10
11.978426
20
-0.824643
30
0
11
11.971936
21
-0.841545
31
0
39
0
210
0
220
0
230
1
0
LINE
5
B8
100
AcDbEntity
8
1
62
256
6
ByLayer
370
18
48
1
60
0
100
AcDbLine
10
32.878671
20
-0.395721
30
0
11
32.131973
21
-4.581902
31
0
39
0
210
0
220
0
230
1
0
LINE
5
B9
100
AcDbEntity
8
1
62
256
6
ByLayer
370
18
48
1
60
0
100
AcDbLine
10
11.461415
20
-3.703654
30
0
11
10.639516
21
-7.193503
31
0
39
0
210
0
220
0
230
1
0
LINE
5
BA
100
AcDbEntity
8
1
62
256
6
ByLayer
370
18
48
1
60
0
100
AcDbLine
10
17.108611
20
-9.583988
30
0
11
17.066071
21
-9.694766
31
0
39
0
210
0
220
0
230
1
0
LINE
5
BB
100
AcDbEntity
8
1
62
256
6
ByLayer
370
18
48
1
60
0
100
AcDbLine
10
2.374363
20
-2.263267
30
0
11
4.081197
21
-2.465426
31
0
39
0
210
0
220
0
230
1
0
LINE
5
BC
100
AcDbEntity
8
1
62
256
6
ByLayer
370
18
48
1
60
0
100
AcDbLine
10
23.040385
20
-24.707487
30
0
11
38.398923
21
-1.463192
31
0
39
0
210
0
220
0
230
1
0
LINE
5
BD
100
AcDbEntity
8
1
62
256
6
ByLayer
370
18
48
1
60
0
100
AcDbLine
10
39.093668
20
0.471525
30
0
11
39.093668
21
10.70956
31
0
39
0
210
0
220
0
230
1
0
LINE
5
BE
100
AcDbEntity
8
1
62
256
6
ByLayer
370
18
48
1
60
0
100
AcDbLine
10
1.707157
20
-24.946839
30
0
11
1.135141
21
-8.032569
31
0
39
0
210
0
220
0
230
1
0
LINE
5
BF
100
AcDbEntity
8
1
62
256
6
ByLayer
370
18
48
1
60
0
100
AcDbLine
10
1.370202
20
-7.129415
30
0
11
2.374363
21
-2.263267
31
0
39
0
210
0
220
0
230
1
0
LINE
5
C0
100
AcDbEntity
8
1
62
256
6
ByLayer
370
18
48
1
60
0
100
AcDbLine
10
38.398923
20
-1.463192
30
0
11
39.093668
21
-0.259857
31
0
39
0
210
0
220
0
230
1
0
LINE
5
C1
100
AcDbEntity
8
1
62
256
6
ByLayer
370
18
48
1
60
0
100
AcDbLine
10
39.093668
20
0.471525
30
0
11
33.527252
21
-7.928649
31
0
39
0
210
0
220
0
230
1
0
LINE
5
C2
100
AcDbEntity
8
1
62
256
6
ByLayer
370
18
48
1
60
0
100
AcDbLine
10
39.093668
20
0.471525
30
0
11
39.093668
21
-0.259857
31
0
39
0
210
0
220
0
230
1
0
LINE
5
C3
100
AcDbEntity
8
1
62
256
6
ByLayer
370
18
48
1
60
0
100
AcDbLine
10
0.5
20
-24.927182
30
0
11
0
21
-24.925
31
0
39
0
210
0
220
0
230
1
0
LINE
5
C4
100
AcDbEntity
8
1
62
256
6
ByLayer
370
18
48
1
60
0
100
AcDbLine
10
2.374363
20
-1.479985
30
0
11
2.374363
21
-2.263267
31
0
39
0
210
0
220
0
230
1
0
LINE
5
C5
100
AcDbEntity
8
1
62
256
6
ByLayer
370
18
48
1
60
0
100
AcDbLine
10
4.081197
20
-2.465426
30
0
11
2.374363
21
-1.479985
31
0
39
0
210
0
220
0
230
1
0
LINE
5
C6
100
AcDbEntity
8
1
62
256
6
ByLayer
370
18
48
1
60
0
100
AcDbLine
10
0
20
24.925
30
0
11
0
21
-24.925
31
0
39
0
210
0
220
0
230
1
0
LINE
5
C7
100
AcDbEntity
8
1
62
256
6
ByLayer
370
18
48
1
60
0
100
AcDbLine
10
10.731375
20
28.847318
30
0
11
10.866541
21
28.797797
31
0
39
0
210
0
220
0
230
1
0
LINE
5
C8
100
AcDbEntity
8
1
62
256
6
ByLayer
370
18
48
1
60
0
100
AcDbLine
10
0.874779
20
26.823695
30
0
11
0.5
21
25.425
31
0
39
0
210
0
220
0
230
1
0
LINE
5
C9
100
AcDbEntity
8
1
62
256
6
ByLayer
370
18
48
1
60
0
100
AcDbLine
10
30.507022
20
-12.563458
30
0
11
30.521724
21
-12.537992
31
0
39
0
210
0
220
0
230
1
0
LINE
5
CA
100
AcDbEntity
8
1
62
256
6
ByLayer
370
18
48
1
60
0
100
AcDbLine
10
1.317705
20
-7.147869
30
0
11
1.370202
21
-7.129415
31
0
39
0
210
0
220
0
230
1
0
LINE
5
CB
100
AcDbEntity
8
1
62
256
6
ByLayer
370
18
48
1
60
0
100
AcDbLine
10
0.5
20
25.425
30
0
11
0
21
24.925
31
0
39
0
210
0
220
0
230
1
0
LINE
5
CC
100
AcDbEntity
8
1
62
256
6
ByLayer
370
18
48
1
60
0
100
AcDbLine
10
30.521724
20
-12.537992
30
0
11
33.527252
21
-7.928649
31
0
39
0
210
0
220
0
230
1
0
LINE
5
CD
100
AcDbEntity
8
1
62
256
6
ByLayer
370
18
48
1
60
0
100
AcDbLine
10
2.374363
20
-1.479985
30
0
11
1.406039
21
27.152963
31
0
39
0
210
0
220
0
230
1
0
LINE
5
CE
100
AcDbEntity
8
1
62
256
6
ByLayer
370
18
48
1
60
0
100
AcDbLine
10
0.874779
20
26.823695
30
0
11
1.406039
21
27.152963
31
0
39
0
210
0
220
0
230
1
0
LINE
5
CF
100
AcDbEntity
8
1
62
256
6
ByLayer
370
18
48
1
60
0
100
AcDbLine
10
0.5
20
25.425
30
0
11
0.5
21
-24.927182
31
0
39
0
210
0
220
0
230
1
0
LINE
5
D0
100
AcDbEntity
8
1
62
256
6
ByLayer
370
18
48
1
60
0
100
AcDbLine
10
22.314233
20
-24.940153
30
0
11
29.972706
21
-13.382896
31
0
39
0
210
0
220
0
230
1
0
LINE
5
D1
100
AcDbEntity
8
1
62
256
6
ByLayer
370
18
48
1
60
0
100
AcDbLine
10
22.314233
20
-24.940153
30
0
11
1.707157
21
-24.946839
31
0
39
0
210
0
220
0
230
1
0
LINE
5
D2
100
AcDbEntity
8
1
62
256
6
ByLayer
370
18
48
1
60
0
100
AcDbLine
10
39.093668
20
10.830385
30
0
11
39.093668
21
10.70956
31
0
39
0
210
0
220
0
230
1
0
LINE
5
D3
100
AcDbEntity
8
1
62
256
6
ByLayer
370
18
48
1
60
0
100
AcDbLine
10
0.5
20
-24.927182
30
0
11
1.707157
21
-24.946839
31
0
39
0
210
0
220
0
230
1
0
LINE
5
D4
100
AcDbEntity
8
1
62
256
6
ByLayer
370
18
48
1
60
0
100
AcDbLine
10
22.314233
20
-24.940153
30
0
11
23.040385
21
-24.707487
31
0
39
0
210
0
220
0
230
1
0
LINE
5
D5
100
AcDbEntity
8
1
62
256
6
ByLayer
370
18
48
1
60
0
100
AcDbLine
10
1.406039
20
27.152963
30
0
11
10.731375
21
28.847318
31
0
39
0
210
0
220
0
230
1
0
LINE
5
D6
100
AcDbEntity
8
SK1
62
256
6
ByLayer
370
18
48
1
60
0
100
AcDbLine
10
-266.104982
20
24.925
30
0
11
-266.104982
21
-24.925
31
0
39
0
210
0
220
0
230
1
0
LINE
5
D8
100
AcDbEntity
8
SK1
62
256
6
ByLayer
370
18
48
1
60
0
100
AcDbLine
10
-266.104982
20
-24.925
30
0
11
0
21
-24.925
31
0
39
0
210
0
220
0
230
1
0
LINE
5
D9
100
AcDbEntity
8
SK1
62
256
6
ByLayer
370
18
48
1
60
0
100
AcDbLine
10
0
20
24.925
30
0
11
-266.104982
21
24.925
31
0
39
0
210
0
220
0
230
1
0
LINE
5
DA
100
AcDbEntity
8
SK1
62
256
6
ByLayer
370
18
48
1
60
0
100
AcDbLine
10
0
20
24.925
30
0
11
0
21
-24.925
31
0
39
0
210
0
220
0
230
1
0
MTEXT
5
157
100
AcDbEntity
8
SK6
62
256
6
ByLayer
370
18
48
1
60
0
100
AcDbMText
10
-129.554982
20
-35.810866
30
0
210
0
220
0
230
1
1
\W0.7875;DSKNR 5050T 25
40
3.5
41
0
44
1.084337
50
0
71
7
72
5
7
iso_b_vert
0
DIMENSION
5
168
100
AcDbEntity
8
2
62
256
6
ByLayer
370
13
48
1
60
0
100
AcDbDimension
2
DimnDraft3D1
10
35.245018
20
35.425
30
0
11
55.440497
21
19.928464
31
0
70
34
71
5
72
1
41
1
210
0
220
0
230
1
3
Standard
100
AcDb2LineAngularDimension
13
35.245018
23
35.425
33
0
14
36.164366
24
31.993949
34
0
15
30.482018
25
35.425
35
0
16
59.010587
26
17.189038
36
0
40
0
0
DIMENSION
5
17E
100
AcDbEntity
8
SK2
62
256
6
ByLayer
370
13
48
1
60
0
100
AcDbDimension
2
DimnDraft3D2
10
-273.854982
20
24.925
30
0
11
-273.854982
21
-5.281579
31
0
70
32
71
5
72
1
41
1
210
0
220
0
230
1
3
Standard
100
AcDbAlignedDimension
13
-268.104982
23
-24.925
33
0
14
-268.104982
24
24.925
34
0
50
90
100
AcDbRotatedDimension
1001
ACAD
1000
DSTYLE
1002
{
1070
    74
1070
     0
1070
   279
1070
     0
1070
   172
1070
     1
1070
   173
1070
     1
1070
   340
1005
158
1070
    77
1070
     1
1070
    73
1070
     0
1070
   171
1070
     3
1070
   274
1070
     4
1070
   177
1070
     2
1070
   176
1070
     2
1070
   178
1070
     7
1070
    78
1070
     8
1070
    41
1041
3.175
1070
   147
1041
2.25
1070
    42
1041
2.0
1070
    44
1041
2.0
1070
   140
1041
4.5
1070
   343
1005
169
1070
   344
1005
169
1002
}
0
DIMENSION
5
18C
100
AcDbEntity
8
2
62
256
6
ByLayer
370
13
48
1
60
0
100
AcDbDimension
2
DimnDraft3D3
10
75.495018
20
35.425
30
0
11
75.495018
21
-0.031579
31
0
70
32
71
5
72
1
41
1
210
0
220
0
230
1
3
Standard
100
AcDbAlignedDimension
13
2
23
-24.925
33
0
14
37.245018
24
35.425
34
0
50
90
100
AcDbRotatedDimension
1001
ACAD
1000
DSTYLE
1002
{
1070
    74
1070
     0
1070
   279
1070
     0
1070
   172
1070
     1
1070
   173
1070
     1
1070
   340
1005
158
1070
    77
1070
     1
1070
    73
1070
     0
1070
   171
1070
     3
1070
   274
1070
     4
1070
   177
1070
     2
1070
   176
1070
     2
1070
   178
1070
     7
1070
    78
1070
     8
1070
    41
1041
3.175
1070
   147
1041
2.25
1070
    42
1041
2.0
1070
    44
1041
2.0
1070
   140
1041
4.5
1070
   343
1005
169
1070
   344
1005
169
1002
}
0
DIMENSION
5
19A
100
AcDbEntity
8
2
62
256
6
ByLayer
370
13
48
1
60
0
100
AcDbDimension
2
DimnDraft3D4
10
35.245018
20
51.175
30
0
11
12.34093
21
51.175
31
0
70
32
71
5
72
1
41
1
210
0
220
0
230
1
3
Standard
100
AcDbAlignedDimension
13
0
23
26.925
33
0
14
35.245018
24
37.425
34
0
50
0
100
AcDbRotatedDimension
1001
ACAD
1000
DSTYLE
1002
{
1070
   279
1070
     0
1070
   172
1070
     1
1070
   173
1070
     1
1070
   340
1005
158
1070
    77
1070
     1
1070
    73
1070
     0
1070
   171
1070
     3
1070
   274
1070
     4
1070
   177
1070
     2
1070
   176
1070
     2
1070
   178
1070
     7
1070
    78
1070
     8
1070
    41
1041
3.175
1070
   147
1041
2.25
1070
    42
1041
2.0
1070
    44
1041
2.0
1070
   140
1041
4.5
1070
   343
1005
169
1070
   344
1005
169
1002
}
0
DIMENSION
5
1A8
100
AcDbEntity
8
SK2
62
256
6
ByLayer
370
13
48
1
60
0
100
AcDbDimension
2
DimnDraft3D5
10
-266.104982
20
61.175
30
0
11
-122.39314
21
61.175
31
0
70
32
71
5
72
1
41
1
210
0
220
0
230
1
3
Standard
100
AcDbAlignedDimension
13
35.245018
23
37.425
33
0
14
-266.104982
24
26.925
34
0
50
0
100
AcDbRotatedDimension
1001
ACAD
1000
DSTYLE
1002
{
1070
   279
1070
     0
1070
   172
1070
     1
1070
   173
1070
     1
1070
   340
1005
158
1070
    77
1070
     1
1070
    73
1070
     0
1070
   171
1070
     3
1070
   274
1070
     4
1070
   177
1070
     2
1070
   176
1070
     2
1070
   178
1070
     7
1070
    78
1070
     8
1070
    41
1041
3.175
1070
   147
1041
2.25
1070
    42
1041
2.0
1070
    44
1041
2.0
1070
   140
1041
4.5
1070
   343
1005
169
1070
   344
1005
169
1002
}
0
ENDSEC
0
SECTION
2
OBJECTS
0
DICTIONARY
5
212
330
0
100
AcDbDictionary
280
0
281
1
3
ACAD_GROUP
350
213
3
ACAD_MLINESTYLE
350
214
0
DICTIONARY
5
213
330
0
100
AcDbDictionary
280
0
281
1
0
DICTIONARY
5
214
330
0
100
AcDbDictionary
280
0
281
1
3
Standard
350
18
0
MLINESTYLE
5
18
330
214
100
AcDbMlineStyle
2
Standard
70
0
3

62
256
51
90
52
90
71
2
49
-0.5
62
256
6
ByLayer
49
0.5
62
256
6
ByLayer
0
RASTERVARIABLES
5
201
330

100
AcDbRasterVariables
90
0
70
1
71
1
72
1
0
ENDSEC
0
EOF
