0
SECTION
2
HEADER
9
$ACADVER
1
AC1015
9
$DWGCODEPAGE
3
ANSI_1252
9
$HANDSEED
5
204
9
$ANGBASE
50
0
9
$ANGDIR
70
0
9
$ATTMODE
70
1
9
$AUNITS
70
0
9
$AUPREC
70
0
9
$CECOLOR
62
256
9
$CELTSCALE
40
1
9
$CELTYPE
6
ByLayer
9
$CELWEIGHT
370
18
9
$CLAYER
8
0
9
$CMLJUST
70
0
9
$CMLSCALE
40
1
9
$CMLSTYLE
2
Standard
9
$DIMSTYLE
2
Standard
9
$TEXTSIZE
40
0.2
9
$TEXTSTYLE
7
Standard
9
$LUNITS
70
2
9
$LUPREC
70
4
9
$EXTNAMES
290
1
9
$INSUNITS
70
4
9
$LTSCALE
40
1
9
$LWDISPLAY
290
1
9
$PDMODE
70
0
9
$PDSIZE
40
0
9
$PLINEGEN
70
0
0
ENDSEC
0
SECTION
2
CLASSES
0
CLASS
1
RASTERVARIABLES
2
AcDbRasterVariables
3
ISM
90
0
280
0
281
0
0
ENDSEC
0
SECTION
2
TABLES
0
TABLE
2
VPORT
5
1fa
100
AcDbSymbolTable
0
VPORT
5
1
100
AcDbSymbolTableRecord
100
AcDbViewportTableRecord
2
*Active
70
0
10
0
20
0
11
1
21
1
12
-1
22
1
13
0
23
0
14
0.5
24
0.5
15
10
25
10
16
0
26
0
36
1
17
0
27
0
37
0
0
ENDTAB
0
TABLE
2
LTYPE
5
1fb
100
AcDbSymbolTable
0
LTYPE
5
14
100
AcDbSymbolTableRecord
100
AcDbLinetypeTableRecord
70
0
2
ByBlock
3

72
65
73
0
40
0
0
LTYPE
5
15
100
AcDbSymbolTableRecord
100
AcDbLinetypeTableRecord
70
0
2
ByLayer
3

72
65
73
0
40
0
0
LTYPE
5
16
100
AcDbSymbolTableRecord
100
AcDbLinetypeTableRecord
70
0
2
CONTINUOUS
3
Solid line
72
65
73
0
40
0
0
LTYPE
5
6A
100
AcDbSymbolTableRecord
100
AcDbLinetypeTableRecord
70
0
2
CENTER
3
____ _ ____ _ ____ _ ____
72
65
73
4
40
47.5
49
22
74
0
49
-8.5
74
0
49
8.5
74
0
49
-8.5
74
0
0
LTYPE
5
6B
100
AcDbSymbolTableRecord
100
AcDbLinetypeTableRecord
70
0
2
DASHED
3
__ __ __ __ __ __ __ __ __
72
65
73
2
40
25.72
49
12.86
74
0
49
-12.86
74
0
0
ENDTAB
0
TABLE
2
LAYER
5
1fc
100
AcDbSymbolTable
0
LAYER
5
10
100
AcDbSymbolTableRecord
100
AcDbLayerTableRecord
2
0
70
0
62
7
6
CONTINUOUS
290
1
370
-3
390
0
0
LAYER
5
6D
100
AcDbSymbolTableRecord
100
AcDbLayerTableRecord
2
2
70
0
62
7
6
CONTINUOUS
290
1
370
-3
390
0
0
LAYER
5
6F
100
AcDbSymbolTableRecord
100
AcDbLayerTableRecord
2
80
70
0
62
-6
6
CONTINUOUS
290
1
370
-3
390
0
0
LAYER
5
71
100
AcDbSymbolTableRecord
100
AcDbLayerTableRecord
2
81
70
0
62
-3
6
CONTINUOUS
290
1
370
-3
390
0
0
LAYER
5
73
100
AcDbSymbolTableRecord
100
AcDbLayerTableRecord
2
1
70
0
62
4
6
CONTINUOUS
290
1
370
-3
390
0
0
LAYER
5
1e7
100
AcDbSymbolTableRecord
100
AcDbLayerTableRecord
2
SK1
70
0
62
4
6
CONTINUOUS
290
1
370
-3
390
0
0
LAYER
5
1e8
100
AcDbSymbolTableRecord
100
AcDbLayerTableRecord
2
SK6
70
0
62
5
6
CONTINUOUS
290
1
370
-3
390
0
0
LAYER
5
1e9
100
AcDbSymbolTableRecord
100
AcDbLayerTableRecord
2
SK2
70
0
62
7
6
CONTINUOUS
290
1
370
-3
390
0
0
ENDTAB
0
TABLE
2
STYLE
5
1fd
100
AcDbSymbolTable
0
STYLE
5
11
100
AcDbSymbolTableRecord
100
AcDbTextStyleTableRecord
2
Standard
3
txt
70
0
71
0
40
0
41
1
42
0
50
0
0
STYLE
5
13D
100
AcDbSymbolTableRecord
100
AcDbTextStyleTableRecord
2
iso_b_vert
3
simplex.shx
70
0
71
0
40
0
41
1
42
0
50
0
0
STYLE
5
13E
100
AcDbSymbolTableRecord
100
AcDbTextStyleTableRecord
2
DWGDirectTextStyle
3
simplex
70
0
71
0
40
0
41
1
42
0
50
0
0
ENDTAB
0
TABLE
2
DIMSTYLE
5
1fe
100
AcDbSymbolTable
100
AcDbDimStyleTable
0
DIMSTYLE
105
27
100
AcDbSymbolTableRecord
100
AcDbDimStyleTableRecord
2
Standard
70
0
3
<>
41
0.18
42
0.0625
44
0.18
140
0.18
147
0.09
73
0
74
0
77
1
271
2
275
0
278
52
280
0
340
11
0
ENDTAB
0
TABLE
2
VIEW
5
1ff
100
AcDbSymbolTable
0
ENDTAB
0
TABLE
2
UCS
5
200
100
AcDbSymbolTable
0
ENDTAB
0
TABLE
2
APPID
5
201
100
AcDbSymbolTable
0
APPID
5
12
100
AcDbSymbolTableRecord
100
AcDbRegAppTableRecord
2
ACAD
70
0
0
ENDTAB
0
TABLE
2
BLOCK_RECORD
5
202
100
AcDbSymbolTable
0
BLOCK_RECORD
5
1F
100
AcDbSymbolTableRecord
100
AcDbBlockTableRecord
2
*Model_Space
340
0
70
0
0
BLOCK_RECORD
5
1B
100
AcDbSymbolTableRecord
100
AcDbBlockTableRecord
2
*Paper_Space
340
0
70
0
0
BLOCK_RECORD
5
23
100
AcDbSymbolTableRecord
100
AcDbBlockTableRecord
2
*Paper_Space0
340
0
70
0
0
BLOCK_RECORD
5
140
100
AcDbSymbolTableRecord
100
AcDbBlockTableRecord
2
DimnDraft3D11
340
0
70
0
0
BLOCK_RECORD
5
14F
100
AcDbSymbolTableRecord
100
AcDbBlockTableRecord
2
DimnDraft3D2
340
0
70
0
0
BLOCK_RECORD
5
15D
100
AcDbSymbolTableRecord
100
AcDbBlockTableRecord
2
_CLOSED
340
0
70
0
0
BLOCK_RECORD
5
164
100
AcDbSymbolTableRecord
100
AcDbBlockTableRecord
2
DimnDraft3D3
340
0
70
0
0
BLOCK_RECORD
5
172
100
AcDbSymbolTableRecord
100
AcDbBlockTableRecord
2
DimnDraft3D4
340
0
70
0
0
BLOCK_RECORD
5
180
100
AcDbSymbolTableRecord
100
AcDbBlockTableRecord
2
DimnDraft3D5
340
0
70
0
0
ENDTAB
0
ENDSEC
0
SECTION
2
BLOCKS
0
BLOCK
5
20
100
AcDbEntity
8
0
100
AcDbBlockBegin
2
*Model_Space
70
0
10
0
20
0
30
0
3
*Model_Space
0
ENDBLK
5
21
100
AcDbEntity
8
0
100
AcDbBlockEnd
0
BLOCK
5
1C
100
AcDbEntity
8
0
100
AcDbBlockBegin
2
*Paper_Space
70
0
10
0
20
0
30
0
3
*Paper_Space
0
ENDBLK
5
1D
100
AcDbEntity
8
0
100
AcDbBlockEnd
0
BLOCK
5
24
100
AcDbEntity
8
0
100
AcDbBlockBegin
2
*Paper_Space0
70
0
10
0
20
0
30
0
3
*Paper_Space0
0
ENDBLK
5
25
100
AcDbEntity
8
0
100
AcDbBlockEnd
0
BLOCK
5
141
100
AcDbEntity
8
0
100
AcDbBlockBegin
2
DimnDraft3D11
70
0
10
0
20
0
30
0
3
DimnDraft3D11
0
LINE
5
143
100
AcDbEntity
8
SK2
62
256
6
ByLayer
370
25
48
1
60
0
100
AcDbLine
10
23.644301
20
-21.9125
30
0
11
23.644301
21
-55.1625
31
0
39
0
210
0
220
0
230
1
0
LINE
5
145
100
AcDbEntity
8
SK2
62
256
6
ByLayer
370
25
48
1
60
0
100
AcDbLine
10
-127.705699
20
-14.4375
30
0
11
-127.705699
21
-55.1625
31
0
39
0
210
0
220
0
230
1
0
LINE
5
146
100
AcDbEntity
8
SK2
62
256
6
ByLayer
370
25
48
1
60
0
100
AcDbLine
10
23.644301
20
-53.1625
30
0
11
-127.705699
21
-53.1625
31
0
39
0
210
0
220
0
230
1
0
LINE
5
147
100
AcDbEntity
8
SK2
62
256
6
ByLayer
370
25
48
1
60
0
100
AcDbLine
10
23.644301
20
-53.1625
30
0
11
20.469302
21
-53.580497
31
0
39
0
210
0
220
0
230
1
0
LINE
5
148
100
AcDbEntity
8
SK2
62
256
6
ByLayer
370
25
48
1
60
0
100
AcDbLine
10
23.644301
20
-53.1625
30
0
11
20.469299
21
-52.744503
31
0
39
0
210
0
220
0
230
1
0
LINE
5
149
100
AcDbEntity
8
SK2
62
256
6
ByLayer
370
25
48
1
60
0
100
AcDbLine
10
20.469302
20
-53.580497
30
0
11
20.469299
21
-52.744503
31
0
39
0
210
0
220
0
230
1
0
LINE
5
14A
100
AcDbEntity
8
SK2
62
256
6
ByLayer
370
25
48
1
60
0
100
AcDbLine
10
-127.705699
20
-53.1625
30
0
11
-124.530701
21
-52.744503
31
0
39
0
210
0
220
0
230
1
0
LINE
5
14B
100
AcDbEntity
8
SK2
62
256
6
ByLayer
370
25
48
1
60
0
100
AcDbLine
10
-127.705699
20
-53.1625
30
0
11
-124.530698
21
-53.580497
31
0
39
0
210
0
220
0
230
1
0
LINE
5
14C
100
AcDbEntity
8
SK2
62
256
6
ByLayer
370
25
48
1
60
0
100
AcDbLine
10
-124.530701
20
-52.744503
30
0
11
-124.530698
21
-53.580497
31
0
39
0
210
0
220
0
230
1
0
MTEXT
5
14D
100
AcDbEntity
8
SK2
62
256
6
ByLayer
370
18
48
1
60
0
100
AcDbMText
10
-57.306357
20
-52.0375
30
0
210
0
220
0
230
1
1
\W0.6864;150.0
40
4.5
41
0
44
1.084337
50
0
71
7
72
5
7
iso_b_vert
0
ENDBLK
5
142
100
AcDbEntity
8
0
100
AcDbBlockEnd
0
BLOCK
5
15A
100
AcDbEntity
8
0
100
AcDbBlockBegin
2
DimnDraft3D2
70
0
10
0
20
0
30
0
3
DimnDraft3D2
0
MTEXT
5
150
100
AcDbEntity
8
2
62
256
6
ByLayer
370
18
48
1
60
0
100
AcDbMText
10
39.385189
20
-4.154673
30
0
210
0
220
0
230
1
1
\W0.7399;75%%d
40
4.5
41
0
44
1.084337
50
307.5
71
7
72
5
7
iso_b_vert
0
LINE
5
151
100
AcDbEntity
8
2
62
256
6
ByLayer
370
13
48
1
60
0
100
AcDbLine
10
25.644301
20
-19.9125
30
0
11
46.600145
21
-19.9125
31
0
39
0
210
0
220
0
230
1
0
LINE
5
152
100
AcDbEntity
8
2
62
256
6
ByLayer
370
13
48
1
60
0
100
AcDbLine
10
24.964278
20
-14.986278
30
0
11
29.58571
21
2.261143
31
0
39
0
210
0
220
0
230
1
0
ARC
5
153
100
AcDbEntity
8
2
62
256
6
ByLayer
370
13
48
1
60
0
100
AcDbCircle
39
0
10
23.644301
20
-19.9125
30
0
40
20.9558441220058
210
0
220
0
230
1
100
AcDbArc
50
0
51
75
0
LINE
5
154
100
AcDbEntity
8
2
62
256
6
ByLayer
370
13
48
1
60
0
100
AcDbLine
10
44.600145
20
-19.9125
30
0
11
44.062444
21
-16.755569
31
0
39
0
210
0
220
0
230
1
0
LINE
5
155
100
AcDbEntity
8
2
62
256
6
ByLayer
370
13
48
1
60
0
100
AcDbLine
10
44.600145
20
-19.9125
30
0
11
44.89784
21
-16.723968
31
0
39
0
210
0
220
0
230
1
0
LINE
5
156
100
AcDbEntity
8
2
62
256
6
ByLayer
370
13
48
1
60
0
100
AcDbLine
10
44.062444
20
-16.755569
30
0
11
44.89784
21
-16.723968
31
0
39
0
210
0
220
0
230
1
0
LINE
5
157
100
AcDbEntity
8
2
62
256
6
ByLayer
370
13
48
1
60
0
100
AcDbLine
10
29.068072
20
0.329291
30
0
11
32.225003
21
-0.208409
31
0
39
0
210
0
220
0
230
1
0
LINE
5
158
100
AcDbEntity
8
2
62
256
6
ByLayer
370
13
48
1
60
0
100
AcDbLine
10
29.068072
20
0.329291
30
0
11
31.978269
21
-1.007162
31
0
39
0
210
0
220
0
230
1
0
LINE
5
159
100
AcDbEntity
8
2
62
256
6
ByLayer
370
13
48
1
60
0
100
AcDbLine
10
32.225003
20
-0.208409
30
0
11
31.978269
21
-1.007162
31
0
39
0
210
0
220
0
230
1
0
ENDBLK
5
15B
100
AcDbEntity
8
0
100
AcDbBlockEnd
0
BLOCK
5
15E
100
AcDbEntity
8
0
100
AcDbBlockBegin
2
_CLOSED
70
0
10
0
20
0
30
0
3
_CLOSED
0
LINE
5
160
100
AcDbEntity
8
0
62
256
6
ByLayer
370
-2
48
1
60
0
100
AcDbLine
10
-1
20
0.166667
30
0
11
0
21
0
31
0
39
0
210
0
220
0
230
1
0
LINE
5
161
100
AcDbEntity
8
0
62
256
6
ByLayer
370
-2
48
1
60
0
100
AcDbLine
10
0
20
0
30
0
11
-1
21
-0.166667
31
0
39
0
210
0
220
0
230
1
0
LINE
5
162
100
AcDbEntity
8
0
62
256
6
ByLayer
370
-2
48
1
60
0
100
AcDbLine
10
-1
20
0.166667
30
0
11
-1
21
-0.166667
31
0
39
0
210
0
220
0
230
1
0
LINE
5
163
100
AcDbEntity
8
0
62
256
6
ByLayer
370
-2
48
1
60
0
100
AcDbLine
10
0
20
0
30
0
11
-1
21
0
31
0
39
0
210
0
220
0
230
1
0
ENDBLK
5
15F
100
AcDbEntity
8
0
100
AcDbBlockEnd
0
BLOCK
5
16F
100
AcDbEntity
8
0
100
AcDbBlockBegin
2
DimnDraft3D3
70
0
10
0
20
0
30
0
3
DimnDraft3D3
0
MTEXT
5
165
100
AcDbEntity
8
2
62
256
6
ByLayer
370
18
48
1
60
0
100
AcDbMText
10
7.665571
20
-42.0375
30
0
210
0
220
0
230
1
1
\W0.7346;23.6
40
4.5
41
0
44
1.084337
50
0
71
7
72
5
7
iso_b_vert
0
LINE
5
166
100
AcDbEntity
8
2
62
256
6
ByLayer
370
13
48
1
60
0
100
AcDbLine
10
0
20
-14.4375
30
0
11
0
21
-45.1625
31
0
39
0
210
0
220
0
230
1
0
LINE
5
167
100
AcDbEntity
8
2
62
256
6
ByLayer
370
13
48
1
60
0
100
AcDbLine
10
23.644301
20
-21.9125
30
0
11
23.644301
21
-45.1625
31
0
39
0
210
0
220
0
230
1
0
LINE
5
168
100
AcDbEntity
8
2
62
256
6
ByLayer
370
13
48
1
60
0
100
AcDbLine
10
0
20
-43.1625
30
0
11
23.644301
21
-43.1625
31
0
39
0
210
0
220
0
230
1
0
LINE
5
169
100
AcDbEntity
8
2
62
256
6
ByLayer
370
13
48
1
60
0
100
AcDbLine
10
0
20
-43.1625
30
0
11
3.174998
21
-42.744503
31
0
39
0
210
0
220
0
230
1
0
LINE
5
16A
100
AcDbEntity
8
2
62
256
6
ByLayer
370
13
48
1
60
0
100
AcDbLine
10
0
20
-43.1625
30
0
11
3.175002
21
-43.580497
31
0
39
0
210
0
220
0
230
1
0
LINE
5
16B
100
AcDbEntity
8
2
62
256
6
ByLayer
370
13
48
1
60
0
100
AcDbLine
10
3.174998
20
-42.744503
30
0
11
3.175002
21
-43.580497
31
0
39
0
210
0
220
0
230
1
0
LINE
5
16C
100
AcDbEntity
8
2
62
256
6
ByLayer
370
13
48
1
60
0
100
AcDbLine
10
23.644301
20
-43.1625
30
0
11
20.469302
21
-43.580497
31
0
39
0
210
0
220
0
230
1
0
LINE
5
16D
100
AcDbEntity
8
2
62
256
6
ByLayer
370
13
48
1
60
0
100
AcDbLine
10
23.644301
20
-43.1625
30
0
11
20.469299
21
-42.744503
31
0
39
0
210
0
220
0
230
1
0
LINE
5
16E
100
AcDbEntity
8
2
62
256
6
ByLayer
370
13
48
1
60
0
100
AcDbLine
10
20.469302
20
-43.580497
30
0
11
20.469299
21
-42.744503
31
0
39
0
210
0
220
0
230
1
0
ENDBLK
5
170
100
AcDbEntity
8
0
100
AcDbBlockEnd
0
BLOCK
5
17D
100
AcDbEntity
8
0
100
AcDbBlockBegin
2
DimnDraft3D4
70
0
10
0
20
0
30
0
3
DimnDraft3D4
0
MTEXT
5
173
100
AcDbEntity
8
2
62
256
6
ByLayer
370
18
48
1
60
0
100
AcDbMText
10
62.769301
20
-7.894079
30
0
210
0
220
0
230
1
1
\W0.7346;32.0
40
4.5
41
0
44
1.084337
50
90
71
7
72
5
7
iso_b_vert
0
LINE
5
174
100
AcDbEntity
8
2
62
256
6
ByLayer
370
13
48
1
60
0
100
AcDbLine
10
2
20
12.4375
30
0
11
65.894301
21
12.4375
31
0
39
0
210
0
220
0
230
1
0
LINE
5
175
100
AcDbEntity
8
2
62
256
6
ByLayer
370
13
48
1
60
0
100
AcDbLine
10
25.644301
20
-19.9125
30
0
11
65.894301
21
-19.9125
31
0
39
0
210
0
220
0
230
1
0
LINE
5
176
100
AcDbEntity
8
2
62
256
6
ByLayer
370
13
48
1
60
0
100
AcDbLine
10
63.894301
20
12.4375
30
0
11
63.894301
21
-19.9125
31
0
39
0
210
0
220
0
230
1
0
LINE
5
177
100
AcDbEntity
8
2
62
256
6
ByLayer
370
13
48
1
60
0
100
AcDbLine
10
63.894301
20
12.4375
30
0
11
64.312297
21
9.262502
31
0
39
0
210
0
220
0
230
1
0
LINE
5
178
100
AcDbEntity
8
2
62
256
6
ByLayer
370
13
48
1
60
0
100
AcDbLine
10
63.894301
20
12.4375
30
0
11
63.476304
21
9.262498
31
0
39
0
210
0
220
0
230
1
0
LINE
5
179
100
AcDbEntity
8
2
62
256
6
ByLayer
370
13
48
1
60
0
100
AcDbLine
10
64.312297
20
9.262502
30
0
11
63.476304
21
9.262498
31
0
39
0
210
0
220
0
230
1
0
LINE
5
17A
100
AcDbEntity
8
2
62
256
6
ByLayer
370
13
48
1
60
0
100
AcDbLine
10
63.894301
20
-19.9125
30
0
11
63.476304
21
-16.737502
31
0
39
0
210
0
220
0
230
1
0
LINE
5
17B
100
AcDbEntity
8
2
62
256
6
ByLayer
370
13
48
1
60
0
100
AcDbLine
10
63.894301
20
-19.9125
30
0
11
64.312297
21
-16.737498
31
0
39
0
210
0
220
0
230
1
0
LINE
5
17C
100
AcDbEntity
8
2
62
256
6
ByLayer
370
13
48
1
60
0
100
AcDbLine
10
63.476304
20
-16.737502
30
0
11
64.312297
21
-16.737498
31
0
39
0
210
0
220
0
230
1
0
ENDBLK
5
17E
100
AcDbEntity
8
0
100
AcDbBlockEnd
0
BLOCK
5
18B
100
AcDbEntity
8
0
100
AcDbBlockBegin
2
DimnDraft3D5
70
0
10
0
20
0
30
0
3
DimnDraft3D5
0
MTEXT
5
181
100
AcDbEntity
8
SK2
62
256
6
ByLayer
370
18
48
1
60
0
100
AcDbMText
10
-136.580699
20
-4.156579
30
0
210
0
220
0
230
1
1
\W0.7346;25.0
40
4.5
41
0
44
1.084337
50
90
71
7
72
5
7
iso_b_vert
0
LINE
5
182
100
AcDbEntity
8
SK2
62
256
6
ByLayer
370
13
48
1
60
0
100
AcDbLine
10
-129.705699
20
12.4375
30
0
11
-137.455699
21
12.4375
31
0
39
0
210
0
220
0
230
1
0
LINE
5
183
100
AcDbEntity
8
SK2
62
256
6
ByLayer
370
13
48
1
60
0
100
AcDbLine
10
-129.705699
20
-12.4375
30
0
11
-137.455699
21
-12.4375
31
0
39
0
210
0
220
0
230
1
0
LINE
5
184
100
AcDbEntity
8
SK2
62
256
6
ByLayer
370
13
48
1
60
0
100
AcDbLine
10
-135.455699
20
12.4375
30
0
11
-135.455699
21
-12.4375
31
0
39
0
210
0
220
0
230
1
0
LINE
5
185
100
AcDbEntity
8
SK2
62
256
6
ByLayer
370
13
48
1
60
0
100
AcDbLine
10
-135.455699
20
12.4375
30
0
11
-135.037703
21
9.262502
31
0
39
0
210
0
220
0
230
1
0
LINE
5
186
100
AcDbEntity
8
SK2
62
256
6
ByLayer
370
13
48
1
60
0
100
AcDbLine
10
-135.455699
20
12.4375
30
0
11
-135.873696
21
9.262498
31
0
39
0
210
0
220
0
230
1
0
LINE
5
187
100
AcDbEntity
8
SK2
62
256
6
ByLayer
370
13
48
1
60
0
100
AcDbLine
10
-135.037703
20
9.262502
30
0
11
-135.873696
21
9.262498
31
0
39
0
210
0
220
0
230
1
0
LINE
5
188
100
AcDbEntity
8
SK2
62
256
6
ByLayer
370
13
48
1
60
0
100
AcDbLine
10
-135.455699
20
-12.4375
30
0
11
-135.873696
21
-9.262502
31
0
39
0
210
0
220
0
230
1
0
LINE
5
189
100
AcDbEntity
8
SK2
62
256
6
ByLayer
370
13
48
1
60
0
100
AcDbLine
10
-135.455699
20
-12.4375
30
0
11
-135.037703
21
-9.262498
31
0
39
0
210
0
220
0
230
1
0
LINE
5
18A
100
AcDbEntity
8
SK2
62
256
6
ByLayer
370
13
48
1
60
0
100
AcDbLine
10
-135.873696
20
-9.262502
30
0
11
-135.037703
21
-9.262498
31
0
39
0
210
0
220
0
230
1
0
ENDBLK
5
18C
100
AcDbEntity
8
0
100
AcDbBlockEnd
0
ENDSEC
0
SECTION
2
ENTITIES
0
ELLIPSE
5
D0
100
AcDbEntity
8
1
62
256
6
ByLayer
370
18
48
1
60
0
100
AcDbEllipse
10
24.627355
20
-7.371288
30
0
11
1.03111149638079
21
0.595312499999945
31
0
210
0
220
0
230
1
40
0.989133
41
1.48832205333812E-05
42
0.656951071664021
0
ELLIPSE
5
D1
100
AcDbEntity
8
1
62
256
6
ByLayer
370
18
48
1
60
0
100
AcDbEllipse
10
12.105032
20
0.0474
30
0
11
-0.32908965343808
21
-0.190000000000011
31
0
210
0
220
0
230
1
40
0.989133
41
0.318256471637085
42
0.812068914915991
0
ELLIPSE
5
D2
100
AcDbEntity
8
1
62
256
6
ByLayer
370
18
48
1
60
0
100
AcDbEllipse
10
14.069081
20
0.978476
30
0
11
-0.32908965343808
21
-0.190000000000011
31
0
210
0
220
0
230
1
40
0.989133
41
2.16591723051731
42
2.82335763989677
0
ELLIPSE
5
D3
100
AcDbEntity
8
1
62
256
6
ByLayer
370
18
48
1
60
0
100
AcDbEllipse
10
11.914318
20
-0.729952
30
0
11
0.368060796608389
21
0.212499999999995
31
0
210
0
220
0
230
1
40
0.989133
41
-1.50816586011481E-05
42
0.8120689149161
0
ELLIPSE
5
D4
100
AcDbEntity
8
1
62
256
6
ByLayer
370
18
48
1
60
0
100
AcDbEllipse
10
14.78959
20
0.633098
30
0
11
0.368060796608389
21
0.212499999999995
31
0
210
0
220
0
230
1
40
0.989133
41
2.16591723051743
42
3.14157944955829
0
ELLIPSE
5
D5
100
AcDbEntity
8
1
62
256
6
ByLayer
370
18
48
1
60
0
100
AcDbEllipse
10
12.634827
20
-1.07533
30
0
11
-0.32908965343808
21
-0.190000000000011
31
0
210
0
220
0
230
1
40
0.989133
41
0.318299315670517
42
1.85926646611252
0
ELLIPSE
5
D6
100
AcDbEntity
8
1
62
256
6
ByLayer
370
18
48
1
60
0
100
AcDbEllipse
10
14.598877
20
-0.144254
30
0
11
-0.32908965343808
21
-0.190000000000011
31
0
210
0
220
0
230
1
40
0.989133
41
1.11871967932086
42
2.82331643431412
0
ELLIPSE
5
D7
100
AcDbEntity
8
1
62
256
6
ByLayer
370
18
48
1
60
0
100
AcDbEllipse
10
13.293144
20
0.053435
30
0
11
3.46410161513778
21
1.99999999999995
31
0
210
0
220
0
230
1
40
0.989133
41
1.05191587274161
42
3.1415055875233
0
ELLIPSE
5
D8
100
AcDbEntity
8
1
62
256
6
ByLayer
370
18
48
1
60
0
100
AcDbEllipse
10
13.293144
20
0.053435
30
0
11
3.46410161513778
21
1.99999999999995
31
0
210
0
220
0
230
1
40
0.989133
41
-0.509417668450806
42
-2.4728323704975E-16
0
ELLIPSE
5
D9
100
AcDbEntity
8
1
62
256
6
ByLayer
370
18
48
1
60
0
100
AcDbEllipse
10
13.293144
20
0.053435
30
0
11
3.46410161513778
21
1.99999999999995
31
0
210
0
220
0
230
1
40
0.989133
41
1.11311519705004E-05
42
1.05191587274162
0
ELLIPSE
5
DA
100
AcDbEntity
8
1
62
256
6
ByLayer
370
18
48
1
60
0
100
AcDbEllipse
10
13.351954
20
-0.048427
30
0
11
0.995929214352112
21
0.574999999999986
31
0
210
0
220
0
230
1
40
0.989133
41
1.13903476325026
42
1.79248619531696
0
ELLIPSE
5
DB
100
AcDbEntity
8
1
62
256
6
ByLayer
370
18
48
1
60
0
100
AcDbEllipse
10
13.351954
20
-0.048427
30
0
11
0.995929214352112
21
0.574999999999986
31
0
210
0
220
0
230
1
40
0.989133
41
2.37112828590773
42
-2.50104538243348E-16
0
ELLIPSE
5
DC
100
AcDbEntity
8
1
62
256
6
ByLayer
370
18
48
1
60
0
100
AcDbEllipse
10
13.351954
20
-0.048427
30
0
11
0.995929214352112
21
0.574999999999986
31
0
210
0
220
0
230
1
40
0.989133
41
0
42
0.598484838105526
0
ELLIPSE
5
DD
100
AcDbEntity
8
1
62
256
6
ByLayer
370
18
48
1
60
0
100
AcDbEllipse
10
13.315198
20
0.015237
30
0
11
0.995929214352112
21
0.574999999999986
31
0
210
0
220
0
230
1
40
0.989133
41
-3.10928185683136
42
-0.0322881490673873
0
ELLIPSE
5
DE
100
AcDbEntity
8
1
62
256
6
ByLayer
370
18
48
1
60
0
100
AcDbEllipse
10
19.114671
20
-12.415737
30
0
11
2.23434554176387
21
1.28999999999997
31
0
210
0
220
0
230
1
40
0.989133
41
-2.98685813507606
42
-0.321216686911335
0
ELLIPSE
5
DF
100
AcDbEntity
8
1
62
256
6
ByLayer
370
18
48
1
60
0
100
AcDbEllipse
10
25.548104
20
-7.844263
30
0
11
-0.687624170604831
21
-0.397000000000024
31
0
210
0
220
0
230
1
40
0.989133
41
-3.14157782170157
42
-2.35073128167076
0
ELLIPSE
5
E0
100
AcDbEntity
8
1
62
256
6
ByLayer
370
18
48
1
60
0
100
AcDbEllipse
10
15.918369
20
7.60998
30
0
11
-2.61100463396897
21
-1.47738106167386
31
0
210
0
220
0
230
1
40
0.986425
41
-0.073224365109478
42
-0.0285627574976758
0
ELLIPSE
5
E1
100
AcDbEntity
8
1
62
256
6
ByLayer
370
18
48
1
60
0
100
AcDbEllipse
10
13.591849
20
-0.584276
30
0
11
-3.61188974365707
21
-2.04371046864884
31
0
210
0
220
0
230
1
40
0.986425
41
0.0670181977761608
42
3.06836828848031
0
ELLIPSE
5
E2
100
AcDbEntity
8
1
62
256
6
ByLayer
370
18
48
1
60
0
100
AcDbEllipse
10
12.695544
20
1.316211
30
0
11
-2.26287068277311
21
-1.28039692011734
31
0
210
0
220
0
230
1
40
0.986425
41
-1.75019659386735
42
-1.53642100930345
0
ELLIPSE
5
E3
100
AcDbEntity
8
1
62
256
6
ByLayer
370
18
48
1
60
0
100
AcDbEllipse
10
8.28452
20
-29.605345
30
0
11
-7.97228031780434
21
-13.1033309050226
31
0
210
0
220
0
230
1
40
0.525
41
-2.59482359702878
42
-2.58380833882673
0
ELLIPSE
5
E4
100
AcDbEntity
8
1
62
256
6
ByLayer
370
18
48
1
60
0
100
AcDbEllipse
10
1.777928
20
4.2577
30
0
11
-0.547965878188982
21
-0.893679313264689
31
0
210
0
220
0
230
1
40
0.6361
41
-0.945139622189212
42
0.625656704605855
0
ELLIPSE
5
E5
100
AcDbEntity
8
1
62
256
6
ByLayer
370
18
48
1
60
0
100
AcDbEllipse
10
21.76079
20
-8.05609
30
0
11
-2.7336458173376
21
-0.0882571531225102
31
0
210
0
220
0
230
1
40
0.523705
41
-2.42025200996674
42
-2.07792152498246
0
ELLIPSE
5
E6
100
AcDbEntity
8
1
62
256
6
ByLayer
370
18
48
1
60
0
100
AcDbEllipse
10
8.436106
20
-29.868062
30
0
11
12.124355652982
21
6.99999999999972
31
0
210
0
220
0
230
1
40
0.989133
41
0.837479346259603
42
0.850263782863104
0
ELLIPSE
5
E7
100
AcDbEntity
8
1
62
256
6
ByLayer
370
18
48
1
60
0
100
AcDbEllipse
10
15.795264
20
10.902749
30
0
11
-0.423787783204406
21
0.684440301525238
31
0
210
0
220
0
230
1
40
0.004548
41
-2.99502979427937
42
-1.42423346744875
0
ELLIPSE
5
E8
100
AcDbEntity
8
1
62
256
6
ByLayer
370
18
48
1
60
0
100
AcDbEllipse
10
23.03778
20
-19.124909
30
0
11
-0.687624170604831
21
-0.397000000000024
31
0
210
0
220
0
230
1
40
0.989133
41
0.790861371918884
42
2.36165769871386
0
ELLIPSE
5
E9
100
AcDbEntity
8
1
62
256
6
ByLayer
370
18
48
1
60
0
100
AcDbEllipse
10
25.898022
20
-8.450339
30
0
11
-0.687624170604831
21
-0.397000000000024
31
0
210
0
220
0
230
1
40
0.989133
41
2.36165769871388
42
-2.35073128167082
0
ELLIPSE
5
EA
100
AcDbEntity
8
1
62
256
6
ByLayer
370
18
48
1
60
0
100
AcDbEllipse
10
12.33132
20
-16.381135
30
0
11
-0.687624170604831
21
-0.397000000000024
31
0
210
0
220
0
230
1
40
0.989133
41
-0.779934954875903
42
0.790861371918949
0
ELLIPSE
5
EB
100
AcDbEntity
8
1
62
256
6
ByLayer
370
18
48
1
60
0
100
AcDbEllipse
10
14.208599
20
7.742412
30
0
11
-2.31569334081663
21
-1.90795612568736
31
0
210
0
220
0
230
1
40
0.996259
41
-2.86985287285878
42
-1.81816380979479
0
ELLIPSE
5
EC
100
AcDbEntity
8
1
62
256
6
ByLayer
370
18
48
1
60
0
100
AcDbEllipse
10
18.008899
20
5.613846
30
0
11
-1.29770227531683
21
3.25716164032736
31
0
210
0
220
0
230
1
40
0.360272
41
-0.0912833491952738
42
0.631934757204485
0
ELLIPSE
5
ED
100
AcDbEntity
8
1
62
256
6
ByLayer
370
18
48
1
60
0
100
AcDbEllipse
10
19.379216
20
-12.891919
30
0
11
-2.26087573809015
21
-0.221809542940659
31
0
210
0
220
0
230
1
40
0.797311
41
0.980772643843022
42
1.83598397731826
0
ELLIPSE
5
EE
100
AcDbEntity
8
1
62
256
6
ByLayer
370
18
48
1
60
0
100
AcDbEllipse
10
7.600295
20
0.794145
30
0
11
-2.54252803951581
21
4.88114264139987
31
0
210
0
220
0
230
1
40
0.2494
41
-0.618381735996974
42
-0.565389428995347
0
ELLIPSE
5
EF
100
AcDbEntity
8
1
62
256
6
ByLayer
370
18
48
1
60
0
100
AcDbEllipse
10
2.118726
20
6.819594
30
0
11
2.99854242392764
21
-6.3252465036476
31
0
210
0
220
0
230
1
40
0.012014
41
-0.825079255295671
42
-0.810298218555841
0
ELLIPSE
5
F0
100
AcDbEntity
8
1
62
256
6
ByLayer
370
18
48
1
60
0
100
AcDbEllipse
10
19.379216
20
-12.891919
30
0
11
-1.45808439434544
21
-1.7096039089973
31
0
210
0
220
0
230
1
40
0.793963
41
1.2143358402969
42
2.06954717377531
0
ELLIPSE
5
F1
100
AcDbEntity
8
1
62
256
6
ByLayer
370
18
48
1
60
0
100
AcDbEllipse
10
16.266411
20
4.902402
30
0
11
-2.17152104434694
21
5.05707263508546
31
0
210
0
220
0
230
1
40
0.225408
41
0.564386906250603
42
0.617379230975157
0
ELLIPSE
5
F2
100
AcDbEntity
8
1
62
256
6
ByLayer
370
18
48
1
60
0
100
AcDbEllipse
10
8.077629
20
1.384213
30
0
11
-3.78708252102781
21
2.0069699191139
31
0
210
0
220
0
230
1
40
0.503949
41
0.232916907824053
42
0.592532641163598
0
ELLIPSE
5
F3
100
AcDbEntity
8
1
62
256
6
ByLayer
370
18
48
1
60
0
100
AcDbEllipse
10
14.282562
20
3.961935
30
0
11
2.35599761880029
21
-4.96983653858026
31
0
210
0
220
0
230
1
40
0.012014
41
1.97044601845001
42
2.41221375773599
0
ELLIPSE
5
F4
100
AcDbEntity
8
1
62
256
6
ByLayer
370
18
48
1
60
0
100
AcDbEllipse
10
5.961697
20
-0.097243
30
0
11
-1.70419149663883
21
3.0642731065211
31
0
210
0
220
0
230
1
40
0.384187
41
-0.633968203000495
42
0.0892499033994942
0
ELLIPSE
5
F5
100
AcDbEntity
8
1
62
256
6
ByLayer
370
18
48
1
60
0
100
AcDbEllipse
10
15.667377
20
4.982204
30
0
11
-0.629982996399161
21
-4.15429074059759
31
0
210
0
220
0
230
1
40
0.491679
41
2.50963555478917
42
2.86925128816902
0
ELLIPSE
5
F6
100
AcDbEntity
8
1
62
256
6
ByLayer
370
18
48
1
60
0
100
AcDbEllipse
10
6.618851
20
4.144421
30
0
11
-2.31569334097353
21
-1.90795612549798
31
0
210
0
220
0
230
1
40
0.996259
41
-1.81816380971238
42
-0.766474746648716
0
ELLIPSE
5
F7
100
AcDbEntity
8
1
62
256
6
ByLayer
370
18
48
1
60
0
100
AcDbEllipse
10
14.526142
20
7.254387
30
0
11
1.99389037204342
21
-0.156208784236169
31
0
210
0
220
0
230
1
40
0.7808
41
0.572040297729931
42
1.98471579198952
0
ELLIPSE
5
F8
100
AcDbEntity
8
1
62
256
6
ByLayer
370
18
48
1
60
0
100
AcDbEllipse
10
9.584146
20
1.734608
30
0
11
2.35599761880029
21
-4.96983653858026
31
0
210
0
220
0
230
1
40
0.012014
41
1.97044601844991
42
2.41221375773597
0
ELLIPSE
5
F9
100
AcDbEntity
8
1
62
256
6
ByLayer
370
18
48
1
60
0
100
AcDbEllipse
10
6.924598
20
3.650804
30
0
11
1.09891943339153
21
1.67104041809719
31
0
210
0
220
0
230
1
40
0.773105
41
1.12401539365456
42
2.53669088791416
0
ELLIPSE
5
FA
100
AcDbEntity
8
1
62
256
6
ByLayer
370
18
48
1
60
0
100
AcDbEllipse
10
12.222651
20
-0.156323
30
0
11
-0.32908965343808
21
-0.190000000000011
31
0
210
0
220
0
230
1
40
0.989133
41
-2.0228729742691
42
0.812068914916069
0
ELLIPSE
5
FB
100
AcDbEntity
8
1
62
256
6
ByLayer
370
18
48
1
60
0
100
AcDbEllipse
10
14.716496
20
-0.347977
30
0
11
-0.32908965343808
21
-0.190000000000011
31
0
210
0
220
0
230
1
40
0.989133
41
1.11871967932071
42
-2.3295237386738
0
ELLIPSE
5
FC
100
AcDbEntity
8
1
62
256
6
ByLayer
370
18
48
1
60
0
100
AcDbEllipse
10
14.770088
20
-1.144104
30
0
11
0.368060796608389
21
0.212499999999995
31
0
210
0
220
0
230
1
40
0.989133
41
1.11871967932087
42
2.9064640173092
0
ELLIPSE
5
FD
100
AcDbEntity
8
1
62
256
6
ByLayer
370
18
48
1
60
0
100
AcDbEllipse
10
12.031938
20
-0.933675
30
0
11
0.368060796608389
21
0.212499999999995
31
0
210
0
220
0
230
1
40
0.989133
41
-0.975675423072348
42
0.81206891491598
0
ELLIPSE
5
FE
100
AcDbEntity
8
1
62
256
6
ByLayer
370
18
48
1
60
0
100
AcDbEllipse
10
13.999369
20
-1.37488
30
0
11
-0.32908965343808
21
-0.190000000000011
31
0
210
0
220
0
230
1
40
0.989133
41
0.0715221281242379
42
2.90646401730914
0
ELLIPSE
5
FF
100
AcDbEntity
8
1
62
256
6
ByLayer
370
18
48
1
60
0
100
AcDbEllipse
10
13.88175
20
-1.171157
30
0
11
-0.32908965343808
21
-0.190000000000011
31
0
210
0
220
0
230
1
40
0.989133
41
0.0715221281242379
42
2.90646401730914
0
ELLIPSE
5
100
100
AcDbEntity
8
1
62
256
6
ByLayer
370
18
48
1
60
0
100
AcDbEllipse
10
13.415613
20
-0.158686
30
0
11
-3.46410161513769
21
-2.00000000000012
31
0
210
0
220
0
230
1
40
0.989133
41
0
42
6.28318530717959
0
ELLIPSE
5
101
100
AcDbEntity
8
1
62
256
6
ByLayer
370
18
48
1
60
0
100
AcDbEllipse
10
13.606696
20
1.321329
30
0
11
0.368060796608389
21
0.212499999999995
31
0
210
0
220
0
230
1
40
0.989133
41
-3.07007052546557
42
-1.28232618747721
0
ELLIPSE
5
102
100
AcDbEntity
8
1
62
256
6
ByLayer
370
18
48
1
60
0
100
AcDbEllipse
10
14.90721
20
0.429375
30
0
11
0.368060796608389
21
0.212499999999995
31
0
210
0
220
0
230
1
40
0.989133
41
2.16591723051747
42
-2.32952373867377
0
ELLIPSE
5
103
100
AcDbEntity
8
1
62
256
6
ByLayer
370
18
48
1
60
0
100
AcDbEllipse
10
12.16906
20
0.639804
30
0
11
0.368060796608389
21
0.212499999999995
31
0
210
0
220
0
230
1
40
0.989133
41
-2.02287297426898
42
-0.23512863628058
0
ELLIPSE
5
104
100
AcDbEntity
8
1
62
256
6
ByLayer
370
18
48
1
60
0
100
AcDbEllipse
10
14.652468
20
-0.940381
30
0
11
0.368060796608389
21
0.212499999999995
31
0
210
0
220
0
230
1
40
0.989133
41
1.11871967932083
42
2.90646401730922
0
ELLIPSE
5
105
100
AcDbEntity
8
1
62
256
6
ByLayer
370
18
48
1
60
0
100
AcDbEllipse
10
13.214832
20
-1.621906
30
0
11
0.368060796608389
21
0.212499999999995
31
0
210
0
220
0
230
1
40
0.989133
41
0.0715221281242552
42
1.85926646611263
0
ELLIPSE
5
106
100
AcDbEntity
8
1
62
256
6
ByLayer
370
18
48
1
60
0
100
AcDbEllipse
10
13.332452
20
-1.825629
30
0
11
0.368060796608389
21
0.212499999999995
31
0
210
0
220
0
230
1
40
0.989133
41
0.0715221281242887
42
1.85926646611263
0
ELLIPSE
5
107
100
AcDbEntity
8
1
62
256
6
ByLayer
370
18
48
1
60
0
100
AcDbEllipse
10
13.469574
20
-0.25215
30
0
11
-1.99185842870417
21
-1.15000000000007
31
0
210
0
220
0
230
1
40
0.989133
41
0
42
6.28318530717959
0
ELLIPSE
5
108
100
AcDbEntity
8
1
62
256
6
ByLayer
370
18
48
1
60
0
100
AcDbEllipse
10
12.939778
20
0.87058
30
0
11
-0.32908965343808
21
-0.190000000000011
31
0
210
0
220
0
230
1
40
0.989133
41
-3.07007052546563
42
-0.23512863628064
0
ELLIPSE
5
109
100
AcDbEntity
8
1
62
256
6
ByLayer
370
18
48
1
60
0
100
AcDbEllipse
10
14.186701
20
0.774753
30
0
11
-0.32908965343808
21
-0.190000000000011
31
0
210
0
220
0
230
1
40
0.989133
41
2.16591723051736
42
-1.28232618747721
0
ELLIPSE
5
10A
100
AcDbEntity
8
1
62
256
6
ByLayer
370
18
48
1
60
0
100
AcDbEllipse
10
12.752447
20
-1.279053
30
0
11
-0.32908965343808
21
-0.190000000000011
31
0
210
0
220
0
230
1
40
0.989133
41
-0.975675423072382
42
1.85926646611258
0
POINT
5
6C
100
AcDbEntity
8
2
62
256
6
ByLayer
370
18
48
1
60
0
100
AcDbPoint
10
23.644301
20
44.7875
30
0
39
0
210
0
220
0
230
1
50
360
0
POINT
5
6E
100
AcDbEntity
8
80
62
256
6
ByLayer
370
18
48
1
60
0
100
AcDbPoint
10
0
20
0
30
0
39
0
210
0
220
0
230
1
50
360
0
POINT
5
70
100
AcDbEntity
8
81
62
256
6
ByLayer
370
18
48
1
60
0
100
AcDbPoint
10
23.644301
20
-19.9125
30
0
39
0
210
0
220
0
230
1
50
360
0
SPLINE
5
10B
100
AcDbEntity
8
1
62
256
6
ByLayer
370
18
48
1
60
0
100
AcDbSpline
70
4
71
3
72
10
73
6
40
0
40
0
40
0
40
0
40
0.616264392149499
40
0.616264392149499
40
1
40
1
40
1
40
1
41
1
10
17.0284801515938
20
8.82719415670951
30
0
41
1
10
16.8772752937703
20
9.11445571841435
30
0
41
1
10
16.6874096548645
20
9.41421170040186
30
0
41
1
10
16.2951725038135
20
9.87353522806669
30
0
41
1
10
16.122541457646
20
10.0450597596149
30
0
41
1
10
15.9291243506743
20
10.1995809743784
30
0
0
SPLINE
5
10C
100
AcDbEntity
8
1
62
256
6
ByLayer
370
18
48
1
60
0
100
AcDbSpline
70
4
71
3
72
11
73
7
40
0
40
0
40
0
40
0
40
0.564783939443773
40
0.564783939443773
40
0.564783939443773
40
1
40
1
40
1
40
1
41
1
10
13.6204478534971
20
-12.0126709514409
30
0
41
1
10
13.4232813513965
20
-11.7118022689657
30
0
41
1
10
13.1779466857076
20
-11.3809907818291
30
0
41
1
10
12.8846213965628
20
-11.0679670345823
30
0
41
1
10
12.6567235786199
20
-10.8247645845998
30
0
41
1
10
12.4029534251959
20
-10.5835934415393
30
0
41
1
10
12.1401118759451
20
-10.349071956617
30
0
0
SPLINE
5
10D
100
AcDbEntity
8
1
62
256
6
ByLayer
370
18
48
1
60
0
100
AcDbSpline
70
4
71
3
72
10
73
6
40
0
40
0
40
0
40
0
40
0.5
40
0.5
40
1
40
1
40
1
40
1
41
1
10
19.9893529113311
20
-9.37890430346474
30
0
41
1
10
20.4480756031336
20
-9.43654691537813
30
0
41
1
10
20.8790919984395
20
-9.55279400232772
30
0
41
1
10
21.5739726222564
20
-10.1388491434027
30
0
41
1
10
21.822992327228
20
-10.635886861583
30
0
41
1
10
21.7934792278464
20
-11.3820956682297
30
0
0
SPLINE
5
10E
100
AcDbEntity
8
1
62
256
6
ByLayer
370
18
48
1
60
0
100
AcDbSpline
70
4
71
3
72
8
73
4
40
0
40
0
40
0
40
0
40
1
40
1
40
1
40
1
41
1
10
13.6204478534971
20
-12.0126709514409
30
0
41
1
10
13.6775455739655
20
-12.0997999299774
30
0
41
1
10
13.7368521890041
20
-12.1856442029663
30
0
41
1
10
13.7981198276321
20
-12.2702302088937
30
0
0
SPLINE
5
10F
100
AcDbEntity
8
1
62
256
6
ByLayer
370
18
48
1
60
0
100
AcDbSpline
70
4
71
3
72
8
73
4
40
0
40
0
40
0
40
0
40
1
40
1
40
1
40
1
41
1
10
5.28600002610216
20
2.75941625166166
30
0
41
1
10
6.06683801268866
20
2.42331192952042
30
0
41
1
10
7.48716376593819
20
2.10738709401687
30
0
41
1
10
9.03047131345454
20
1.84888665359236
30
0
0
SPLINE
5
110
100
AcDbEntity
8
1
62
256
6
ByLayer
370
18
48
1
60
0
100
AcDbSpline
70
4
71
3
72
10
73
6
40
0
40
0
40
0
40
0
40
0.5
40
0.5
40
1
40
1
40
1
40
1
41
1
10
16.8235690178581
20
8.90006490922244
30
0
41
1
10
16.4895028530004
20
9.16313946605388
30
0
41
1
10
16.1489664786676
20
9.25317390315601
30
0
41
1
10
15.1731298292346
20
9.2961338757342
30
0
41
1
10
14.4895535885489
20
9.19500419542538
30
0
41
1
10
13.8219237331394
20
8.91338573172439
30
0
0
SPLINE
5
111
100
AcDbEntity
8
1
62
256
6
ByLayer
370
18
48
1
60
0
100
AcDbSpline
70
4
71
3
72
10
73
6
40
0
40
0
40
0
40
0
40
0.5
40
0.5
40
1
40
1
40
1
40
1
41
1
10
16.6244575457178
20
-13.8325188718646
30
0
41
1
10
16.0498864540281
20
-13.3851790346223
30
0
41
1
10
15.8318016341502
20
-12.8655964140431
30
0
41
1
10
15.8481236187001
20
-11.9467505723564
30
0
41
1
10
16.0497288612813
20
-11.5219495036668
30
0
41
1
10
16.312675353147
20
-11.1218677802083
30
0
0
SPLINE
5
112
100
AcDbEntity
8
1
62
256
6
ByLayer
370
18
48
1
60
0
100
AcDbSpline
70
4
71
3
72
12
73
8
40
0
40
0
40
0
40
0
40
0.466938972358618
40
0.466938972358618
40
0.928803236876549
40
0.928803236876549
40
1
40
1
40
1
40
1
41
1
10
9.03047131345392
20
1.84888665358361
30
0
41
1
10
9.06336240650569
20
2.01810562146713
30
0
41
1
10
9.07617145762237
20
2.20337988219219
30
0
41
1
10
9.06206432236627
20
2.5649334684413
30
0
41
1
10
9.03591409433278
20
2.74621979849729
30
0
41
1
10
8.99074045310721
20
2.94439148007592
30
0
41
1
10
8.98433454958291
20
2.97092500486403
30
0
41
1
10
8.97763377133293
20
2.99726608992947
30
0
0
SPLINE
5
113
100
AcDbEntity
8
1
62
256
6
ByLayer
370
18
48
1
60
0
100
AcDbSpline
70
4
71
3
72
12
73
8
40
0
40
0
40
0
40
0
40
0.10885398860713
40
0.502629237162305
40
0.699516861439892
40
0.896404485717479
40
1
40
1
40
1
40
1
41
1.02441262532206
10
16.6624708469842
20
-4.19640822980206
30
0
41
1.02394775682001
10
16.7810990492723
20
-4.51377897402811
30
0
41
1.02173322384668
10
17.3361676451634
20
-6.01810546759636
30
0
41
1.01876555595691
10
18.0754605935086
20
-8.14591648126158
30
0
41
1.01610930227499
10
18.5440345338223
20
-9.57958537685486
30
0
41
1.01814069306376
10
18.844172148855
20
-10.2027809558049
30
0
41
1.02005196006971
10
19.0931262699406
20
-10.765440848167
30
0
41
1.02076673234773
10
19.1819364670962
20
-10.9720478321693
30
0
0
SPLINE
5
114
100
AcDbEntity
8
1
62
256
6
ByLayer
370
18
48
1
60
0
100
AcDbSpline
70
4
71
3
72
15
73
11
40
0
40
0
40
0
40
0
40
0.227604479949749
40
0.227604479949749
40
0.479423709218442
40
0.479423709218442
40
0.785574270382838
40
0.785574270382838
40
0.785574270382838
40
1
40
1
40
1
40
1
41
1
10
16.662470846984
20
-4.19640822980196
30
0
41
1
10
16.918756426344
20
-3.96926085595192
30
0
41
1
10
17.1441803448816
20
-3.70002557290448
30
0
41
1
10
17.5301695547775
20
-3.08913695549231
30
0
41
1
10
17.6866174388839
20
-2.73615733231154
30
0
41
1
10
17.9246311073545
20
-1.93236231092317
30
0
41
1
10
17.9867664471647
20
-1.46535083725269
30
0
41
1
10
17.9777009127583
20
-1.00490658012538
30
0
41
1
10
17.9713123659443
20
-0.68042822506834
30
0
41
1
10
17.9295699191649
20
-0.354593535650508
30
0
41
1
10
17.8519803094915
20
-0.0396160004058572
30
0
0
SPLINE
5
115
100
AcDbEntity
8
1
62
256
6
ByLayer
370
18
48
1
60
0
100
AcDbSpline
70
4
71
3
72
10
73
6
40
0
40
0
40
0
40
0
40
0.5
40
0.5
40
1
40
1
40
1
40
1
41
1
10
6.10562804115688
20
5.25540339465076
30
0
41
1
10
5.46456700141772
20
4.91654108062372
30
0
41
1
10
4.94937339347524
20
4.45182727324948
30
0
41
1
10
4.33717364234275
20
3.65184657391524
30
0
41
1
10
4.17970405128136
20
3.32571631631396
30
0
41
1
10
4.15935815313031
20
2.89647698240358
30
0
0
SPLINE
5
116
100
AcDbEntity
8
1
62
256
6
ByLayer
370
18
48
1
60
0
100
AcDbSpline
70
4
71
3
72
11
73
7
40
0
40
0
40
0
40
0
40
0.65664265674397
40
0.65664265674397
40
0.65664265674397
40
1
40
1
40
1
40
1
41
1
10
4.09741167099651
20
2.50145959478004
30
0
41
1
10
3.93467365773654
20
2.83512984105556
30
0
41
1
10
3.78545597131898
20
3.22453694813871
30
0
41
1
10
3.70180344287383
20
3.65546190082736
30
0
41
1
10
3.65770570450223
20
3.8826255762674
30
0
41
1
10
3.63166033886608
20
4.12364042436846
30
0
41
1
10
3.63230990464393
20
4.37016076532805
30
0
0
SPLINE
5
117
100
AcDbEntity
8
1
62
256
6
ByLayer
370
18
48
1
60
0
100
AcDbSpline
70
4
71
3
72
8
73
4
40
0
40
0
40
0
40
0
40
1
40
1
40
1
40
1
41
1
10
13.8044854597487
20
5.28548039958127
30
0
41
1
10
13.651266712204
20
5.49026436586186
30
0
41
1
10
13.5255870848264
20
5.70368910182475
30
0
41
1
10
13.4208543278367
20
5.92175102084715
30
0
0
SPLINE
5
118
100
AcDbEntity
8
1
62
256
6
ByLayer
370
18
48
1
60
0
100
AcDbSpline
70
4
71
2
72
6
73
3
40
0
40
0
40
0
40
1
40
1
40
1
41
1
10
22.3772131654889
20
-8.20318103404105
30
0
41
1
10
22.2935830741888
20
-9.21221309310624
30
0
41
1
10
22.1137549047555
20
-10.192162984316
30
0
0
SPLINE
5
119
100
AcDbEntity
8
1
62
256
6
ByLayer
370
18
48
1
60
0
100
AcDbSpline
70
4
71
3
72
8
73
4
40
0
40
0
40
0
40
0
40
1
40
1
40
1
40
1
41
1
10
22.3774002448303
20
-8.20314186966971
30
0
41
1
10
22.3524701228914
20
-8.10132972317663
30
0
41
1
10
22.3253296888736
20
-8.00023677041466
30
0
41
1
10
22.2958001534053
20
-7.90003883523931
30
0
0
SPLINE
5
11A
100
AcDbEntity
8
1
62
256
6
ByLayer
370
18
48
1
60
0
100
AcDbSpline
70
4
71
3
72
12
73
8
40
0
40
0
40
0
40
0
40
0.286978363858297
40
0.286978363858297
40
0.569998995185619
40
0.569998995185619
40
1
40
1
40
1
40
1
41
1
10
14.4824000180645
20
-5.22989125119983
30
0
41
1
10
14.7126250936671
20
-5.19281320245079
30
0
41
1
10
14.941043878586
20
-5.13652266437961
30
0
41
1
10
15.3816556536162
20
-4.98912214401983
30
0
41
1
10
15.5955420896664
20
-4.8979977469692
30
0
41
1
10
16.1095883454868
20
-4.62875390276426
30
0
41
1
10
16.4016387153442
20
-4.42756104423736
30
0
41
1
10
16.662470846984
20
-4.19640822980196
30
0
0
SPLINE
5
11B
100
AcDbEntity
8
1
62
256
6
ByLayer
370
18
48
1
60
0
100
AcDbSpline
70
4
71
3
72
10
73
6
40
0
40
0
40
0
40
0
40
0.967465556419478
40
0.967465556419478
40
1
40
1
40
1
40
1
41
1
10
18.057682685999
20
-11.5050108804889
30
0
41
1
10
18.3968211314049
20
-11.7271679660053
30
0
41
1
10
18.7257347012678
20
-11.9536664520643
30
0
41
1
10
19.0480968064668
20
-12.1929420887307
30
0
41
1
10
19.0585739964434
20
-12.2007396093229
30
0
41
1
10
19.0690308587599
20
-12.2085431895852
30
0
0
SPLINE
5
11C
100
AcDbEntity
8
1
62
256
6
ByLayer
370
18
48
1
60
0
100
AcDbSpline
70
4
71
3
72
8
73
4
40
0
40
0
40
0
40
0
40
1
40
1
40
1
40
1
41
1
10
8.5083219595208
20
-4.0692512361102
30
0
41
1
10
8.92737015898553
20
-4.03445748753057
30
0
41
1
10
9.64153597522562
20
-3.83856509422281
30
0
41
1
10
10.5097519518379
20
-3.52026820959529
30
0
0
SPLINE
5
11D
100
AcDbEntity
8
1
62
256
6
ByLayer
370
18
48
1
60
0
100
AcDbSpline
70
4
71
3
72
8
73
4
40
0
40
0
40
0
40
0
40
1
40
1
40
1
40
1
41
1
10
8.97763377133293
20
2.99726608992947
30
0
41
1
10
8.91465716534964
20
3.24483018971821
30
0
41
1
10
8.82717163342699
20
3.47636119482002
30
0
41
1
10
8.72243887643725
20
3.69442311384242
30
0
0
SPLINE
5
11E
100
AcDbEntity
8
1
62
256
6
ByLayer
370
18
48
1
60
0
100
AcDbSpline
70
4
71
3
72
8
73
4
40
0
40
0
40
0
40
0
40
1
40
1
40
1
40
1
41
1
10
6.16822149206888
20
5.28676524734473
30
0
41
1
10
6.14696941797001
20
5.27669050231381
30
0
41
1
10
6.12611114754378
20
5.26623068315914
30
0
41
1
10
6.10562804115688
20
5.25540339465076
30
0
0
SPLINE
5
11F
100
AcDbEntity
8
1
62
256
6
ByLayer
370
18
48
1
60
0
100
AcDbSpline
70
4
71
3
72
8
73
4
40
0
40
0
40
0
40
0
40
1
40
1
40
1
40
1
41
1
10
17.8519803074516
20
-0.0396159921591277
30
0
41
1
10
17.7837820887806
20
0.236090469462255
30
0
41
1
10
17.6881663639552
20
0.509724692125559
30
0
41
1
10
17.5660497903397
20
0.768511211038515
30
0
0
SPLINE
5
120
100
AcDbEntity
8
1
62
256
6
ByLayer
370
18
48
1
60
0
100
AcDbSpline
70
4
71
3
72
15
73
11
40
0
40
0
40
0
40
0
40
0.32216372042646
40
0.32216372042646
40
0.64483345260023
40
0.64483345260023
40
0.912233455904557
40
0.912233455904557
40
0.912233455904557
40
1
40
1
40
1
40
1
41
1
10
10.5097519518379
20
-3.52026820959529
30
0
41
1
10
10.8000834241201
20
-3.90774072841228
30
0
41
1
10
11.1618088560393
20
-4.24999202837623
30
0
41
1
10
11.9633930838724
20
-4.7956101449046
30
0
41
1
10
12.4142025739241
20
-5.00687382619626
30
0
41
1
10
13.2704684987578
20
-5.23994613510285
30
0
41
1
10
13.6810713093333
20
-5.28972950494907
30
0
41
1
10
14.0834468038983
20
-5.27100211570854
30
0
41
1
10
14.21716576768
20
-5.26477855806795
30
0
41
1
10
14.3506885440766
20
-5.25109669951476
30
0
41
1
10
14.4824000180652
20
-5.22989125120043
30
0
0
SPLINE
5
121
100
AcDbEntity
8
1
62
256
6
ByLayer
370
18
48
1
60
0
100
AcDbSpline
70
4
71
3
72
8
73
4
40
0
40
0
40
0
40
0
40
1
40
1
40
1
40
1
41
1
10
8.97763377133293
20
2.99726608992947
30
0
41
1
10
7.8624452062549
20
3.79335448884001
30
0
41
1
10
6.85104979535095
20
4.5604941462145
30
0
41
1
10
6.23432162971943
20
5.13898859731583
30
0
0
SPLINE
5
122
100
AcDbEntity
8
1
62
256
6
ByLayer
370
18
48
1
60
0
100
AcDbSpline
70
4
71
3
72
8
73
4
40
0
40
0
40
0
40
0
40
1
40
1
40
1
40
1
41
1
10
21.965109704002
20
-5.69143959629139
30
0
41
1
10
21.9977388834623
20
-6.50536622625722
30
0
41
1
10
22.1123636496832
20
-7.27761255533889
30
0
41
1
10
22.2958001534054
20
-7.90003883523934
30
0
0
SPLINE
5
123
100
AcDbEntity
8
1
62
256
6
ByLayer
370
18
48
1
60
0
100
AcDbSpline
70
4
71
3
72
8
73
4
40
0
40
0
40
0
40
0
40
1
40
1
40
1
40
1
41
1
10
8.97979479564538
20
1.6379226586738
30
0
41
1
10
8.99956711758779
20
1.70669385060921
30
0
41
1
10
9.0165034334949
20
1.77702433430863
30
0
41
1
10
9.03047131345392
20
1.84888665358361
30
0
0
SPLINE
5
124
100
AcDbEntity
8
1
62
256
6
ByLayer
370
18
48
1
60
0
100
AcDbSpline
70
4
71
3
72
10
73
6
40
0
40
0
40
0
40
0
40
0.5
40
0.5
40
1
40
1
40
1
40
1
41
1
10
7.27798398423255
20
-4.17140671663682
30
0
41
1
10
7.85755346200591
20
-5.37002445982895
30
0
41
1
10
8.60919241893185
20
-6.4446578145531
30
0
41
1
10
10.2348493629092
20
-8.50574450924128
30
0
41
1
10
11.1534023836253
20
-9.46867623537187
30
0
41
1
10
12.1401118759449
20
-10.3490719566168
30
0
0
SPLINE
5
125
100
AcDbEntity
8
1
62
256
6
ByLayer
370
18
48
1
60
0
100
AcDbSpline
70
4
71
3
72
8
73
4
40
0
40
0
40
0
40
0
40
1
40
1
40
1
40
1
41
1
10
22.1137103152199
20
-10.1922762806374
30
0
41
1
10
22.0090322449605
20
-10.5881645982491
30
0
41
1
10
21.9021106350123
20
-10.9854636154096
30
0
41
1
10
21.7934792278463
20
-11.3820956682298
30
0
0
SPLINE
5
126
100
AcDbEntity
8
1
62
256
6
ByLayer
370
18
48
1
60
0
100
AcDbSpline
70
4
71
3
72
10
73
6
40
0
40
0
40
0
40
0
40
0.264715639145584
40
0.264715639145584
40
1
40
1
40
1
40
1
41
1
10
19.0690308587472
20
-12.2085431895757
30
0
41
1
10
19.0753488263077
20
-12.1017891416426
30
0
41
1
10
19.0827980226515
20
-11.9942567683355
30
0
41
1
10
19.1146260585972
20
-11.5857109379606
30
0
41
1
10
19.1454439038629
20
-11.2804240524942
30
0
41
1
10
19.1819364671002
20
-10.9720478321789
30
0
0
SPLINE
5
127
100
AcDbEntity
8
1
62
256
6
ByLayer
370
18
48
1
60
0
100
AcDbSpline
70
4
71
2
72
6
73
3
40
0
40
0
40
0
40
1
40
1
40
1
41
1
10
15.4994074351552
20
-13.3277779184818
30
0
41
1
10
14.629230682163
20
-12.8451847949364
30
0
41
1
10
13.7982690486238
20
-12.270109829004
30
0
0
SPLINE
5
128
100
AcDbEntity
8
1
62
256
6
ByLayer
370
18
48
1
60
0
100
AcDbSpline
70
4
71
2
72
6
73
3
40
0
40
0
40
0
40
1
40
1
40
1
41
1.02805999725224
10
8.50832195952078
20
-4.06925123611022
30
0
41
1.02805999725224
10
7.89315297187663
20
-4.12032897637351
30
0
41
1.02805999725224
10
7.27798398423254
20
-4.17140671663683
30
0
0
SPLINE
5
129
100
AcDbEntity
8
1
62
256
6
ByLayer
370
18
48
1
60
0
100
AcDbSpline
70
4
71
3
72
8
73
4
40
0
40
0
40
0
40
0
40
1
40
1
40
1
40
1
41
1
10
15.4994962096134
20
-13.3278065056273
30
0
41
1
10
15.8729900437148
20
-13.4970129476912
30
0
41
1
10
16.2486282699272
20
-13.6655499490851
30
0
41
1
10
16.6244575457363
20
-13.8325188718791
30
0
0
SPLINE
5
12A
100
AcDbEntity
8
1
62
256
6
ByLayer
370
18
48
1
60
0
100
AcDbSpline
70
4
71
3
72
11
73
7
40
0
40
0
40
0
40
0
40
0.423407924939447
40
0.740963868644033
40
0.899741840496325
40
1
40
1
40
1
40
1
41
1.02805999725224
10
19.4909500461299
20
1.13716660466894
30
0
41
1.02767136955277
10
19.7597651583529
20
0.316939298316571
30
0
41
1.02349884684923
10
19.9424905278645
20
-2.94731461720696
30
0
41
1.01876555595691
10
19.801459848184
20
-7.15300880599389
30
0
41
1.01635405201137
10
19.751052812318
20
-8.73446205239929
30
0
41
1.01722454828226
10
19.9139201664184
20
-9.19255631158091
30
0
41
1.01774327987904
10
19.9893529113314
20
-9.37890430346537
30
0
0
SPLINE
5
12B
100
AcDbEntity
8
1
62
256
6
ByLayer
370
18
48
1
60
0
100
AcDbSpline
70
4
71
3
72
8
73
4
40
0
40
0
40
0
40
0
40
1
40
1
40
1
40
1
41
1
10
13.757969528945
20
8.88475648173704
30
0
41
1
10
13.7792216030439
20
8.89483122676796
30
0
41
1
10
13.8005405800654
20
8.90436592730885
30
0
41
1
10
13.8219237331394
20
8.91338573172436
30
0
0
SPLINE
5
12C
100
AcDbEntity
8
1
62
256
6
ByLayer
370
18
48
1
60
0
100
AcDbSpline
70
4
71
3
72
8
73
4
40
0
40
0
40
0
40
0
40
1
40
1
40
1
40
1
41
1
10
14.6597270233447
20
4.51748811468192
30
0
41
1
10
14.7232529022072
20
4.48278337789438
30
0
41
1
10
14.7879825311351
20
4.45101275335702
30
0
41
1
10
14.8534459570507
20
4.4223820754996
30
0
0
SPLINE
5
12D
100
AcDbEntity
8
1
62
256
6
ByLayer
370
18
48
1
60
0
100
AcDbSpline
70
4
71
3
72
8
73
4
40
0
40
0
40
0
40
0
40
1
40
1
40
1
40
1
41
1
10
17.8519803302845
20
-0.0396159880734217
30
0
41
1
10
18.6356229675649
20
0.42516619455543
30
0
41
1
10
19.2204528881865
20
0.845074911384529
30
0
41
1
10
19.49095004613
20
1.13716660466895
30
0
0
SPLINE
5
12E
100
AcDbEntity
8
1
62
256
6
ByLayer
370
18
48
1
60
0
100
AcDbSpline
70
4
71
3
72
20
73
16
40
0
40
0
40
0
40
0
40
0.110576036200126
40
0.110576036200126
40
0.197179369122814
40
0.197179369122814
40
0.284291117387378
40
0.284291117387378
40
0.365904217918085
40
0.365904217918085
40
0.497270233392077
40
0.497270233392077
40
0.733496364826721
40
0.733496364826721
40
1
40
1
40
1
40
1
41
1
10
16.3126753531477
20
-11.1218677802095
30
0
41
1
10
16.3360773744121
20
-11.0862542427851
30
0
41
1
10
16.3689757339891
20
-11.0530532050189
30
0
41
1
10
16.4487862038602
20
-11.0053167436424
30
0
41
1
10
16.4921031606859
20
-10.9880062400678
30
0
41
1
10
16.5917739901537
20
-10.9653690173636
30
0
41
1
10
16.6495219758115
20
-10.959905397888
30
0
41
1
10
16.7659307978586
20
-10.9611150810353
30
0
41
1
10
16.8255352824812
20
-10.9669392660632
30
0
41
1
10
16.9787130970414
20
-10.9919934183818
30
0
41
1
10
17.0735785421145
20
-11.0173400396107
30
0
41
1
10
17.3240837485425
20
-11.1008021415271
30
0
41
1
10
17.4742766938363
20
-11.1698867612064
30
0
41
1
10
17.7714706894486
20
-11.3248706885799
30
0
41
1
10
17.9184768273425
20
-11.413782275956
30
0
41
1
10
18.057682685999
20
-11.5050108804889
30
0
0
SPLINE
5
12F
100
AcDbEntity
8
1
62
256
6
ByLayer
370
18
48
1
60
0
100
AcDbSpline
70
4
71
3
72
8
73
4
40
0
40
0
40
0
40
0
40
1
40
1
40
1
40
1
41
1
10
8.97979479564543
20
1.63792265867389
30
0
41
1
10
8.73795158328943
20
0.796754584247253
30
0
41
1
10
8.8056297030185
20
-0.114310277924261
30
0
41
1
10
9.19953010625267
20
-0.94905458112035
30
0
0
SPLINE
5
130
100
AcDbEntity
8
1
62
256
6
ByLayer
370
18
48
1
60
0
100
AcDbSpline
70
4
71
3
72
10
73
6
40
0
40
0
40
0
40
0
40
0.5
40
0.5
40
1
40
1
40
1
40
1
41
1
10
21.965109704002
20
-5.69143959629113
30
0
41
1
10
21.9123225480388
20
-4.37467734025947
30
0
41
1
10
21.7561843730209
20
-3.07015985768516
30
0
41
1
10
21.1975827281634
20
-0.490308905034709
30
0
41
1
10
20.8402302894532
20
0.788913618158062
30
0
41
1
10
20.2851377529236
20
1.99475650996294
30
0
0
SPLINE
5
131
100
AcDbEntity
8
1
62
256
6
ByLayer
370
18
48
1
60
0
100
AcDbSpline
70
4
71
3
72
8
73
4
40
0
40
0
40
0
40
0
40
1
40
1
40
1
40
1
41
1
10
18.0584584877473
20
-14.426303865526
30
0
41
1
10
17.9823537315121
20
-14.3892606287919
30
0
41
1
10
17.9098412036229
20
-14.3495384487506
30
0
41
1
10
17.8420951449994
20
-14.3079671896195
30
0
0
SPLINE
5
132
100
AcDbEntity
8
1
62
256
6
ByLayer
370
18
48
1
60
0
100
AcDbSpline
70
4
71
3
72
8
73
4
40
0
40
0
40
0
40
0
40
1
40
1
40
1
40
1
41
1
10
14.6597270233448
20
4.5174881146819
30
0
41
1
10
15.4298630726728
20
5.87360366727935
30
0
41
1
10
16.0638949024333
20
7.16153379870758
30
0
41
1
10
16.2686281127113
20
7.96583409244082
30
0
0
SPLINE
5
133
100
AcDbEntity
8
1
62
256
6
ByLayer
370
18
48
1
60
0
100
AcDbSpline
70
4
71
3
72
12
73
8
40
0
40
0
40
0
40
0
40
0.47134308667853
40
0.47134308667853
40
0.892619726108231
40
0.892619726108231
40
1
40
1
40
1
40
1
41
1
10
13.8044854597487
20
5.28548039958127
30
0
41
1
10
13.911162233481
20
5.14290194110302
30
0
41
1
10
14.0334856432315
20
5.00307653827738
30
0
41
1
10
14.2875760325472
20
4.76547236084824
30
0
41
1
10
14.4198441531656
20
4.66257565436993
30
0
41
1
10
14.5894431724437
20
4.5571906834185
30
0
41
1
10
14.6245574080422
20
4.53670157955409
30
0
41
1
10
14.6597270233448
20
4.5174881146819
30
0
0
SPLINE
5
134
100
AcDbEntity
8
1
62
256
6
ByLayer
370
18
48
1
60
0
100
AcDbSpline
70
4
71
3
72
8
73
4
40
0
40
0
40
0
40
0
40
1
40
1
40
1
40
1
41
1
10
10.509751942703
20
-3.52026819738811
30
0
41
1
10
10.3361831879143
20
-3.28832481241363
30
0
41
1
10
10.1880495362529
20
-3.04390128860379
30
0
41
1
10
10.0666558967595
20
-2.78664679437296
30
0
0
SPLINE
5
135
100
AcDbEntity
8
1
62
256
6
ByLayer
370
18
48
1
60
0
100
AcDbSpline
70
4
71
3
72
8
73
4
40
0
40
0
40
0
40
0
40
1
40
1
40
1
40
1
41
1
10
21.3835308700166
20
-12.6291163721926
30
0
41
1
10
21.371871105187
20
-12.7083307066084
30
0
41
1
10
21.3558706156675
20
-12.790013312637
30
0
41
1
10
21.3356508929248
20
-12.8727200719725
30
0
0
SPLINE
5
136
100
AcDbEntity
8
1
62
256
6
ByLayer
370
18
48
1
60
0
100
AcDbSpline
70
4
71
3
72
12
73
8
40
0
40
0
40
0
40
0
40
0.108854002841679
40
0.502629245107338
40
0.699516866240167
40
0.896404487372997
40
1
40
1
40
1
40
1
41
1.0244126255267
10
14.4823999439181
20
-5.2298911219462
30
0
41
1.02394775696077
10
14.6508987847492
20
-5.52362027457839
30
0
41
1.02173322391444
10
15.4533657065105
20
-6.9106653273068
30
0
41
1.01876555595691
10
16.6108388735569
20
-8.84023414298873
30
0
41
1.01610930227499
10
17.4053234266971
20
-10.1194020561488
30
0
41
1.01814069306376
10
17.6885351640186
20
-10.7506215061593
30
0
41
1.0200519600697
10
17.9574068091333
20
-11.3038393094627
30
0
41
1.02076673234771
10
18.057682685991
20
-11.5050108804729
30
0
0
SPLINE
5
137
100
AcDbEntity
8
1
62
256
6
ByLayer
370
18
48
1
60
0
100
AcDbSpline
70
4
71
3
72
11
73
7
40
0
40
0
40
0
40
0
40
0.423407924946023
40
0.74096386865554
40
0.899741840510299
40
1
40
1
40
1
40
1
41
1.02805999725224
10
8.50832195952078
20
-4.06925123611022
30
0
41
1.02767136955277
10
8.97237294774882
20
-4.79692514446519
30
0
41
1.02349884684923
10
11.3897015888301
20
-7.00184442269583
30
0
41
1.01876555595691
10
14.7256514206255
20
-9.5592433925577
30
0
41
1.01635405201144
10
15.9731326579332
20
-10.5254205313036
30
0
41
1.01722454828215
10
16.2188332258178
20
-10.9442469286519
30
0
41
1.0177432798788
10
16.3126753531088
20
-11.1218677801359
30
0
0
SPLINE
5
138
100
AcDbEntity
8
1
62
256
6
ByLayer
370
18
48
1
60
0
100
AcDbSpline
70
4
71
3
72
8
73
4
40
0
40
0
40
0
40
0
40
1
40
1
40
1
40
1
41
1
10
13.8358648866017
20
8.74257146636896
30
0
41
1
10
13.9170422442352
20
7.91828766371114
30
0
41
1
10
13.8872038892554
20
6.64824145883347
30
0
41
1
10
13.8044854597487
20
5.28548039958127
30
0
0
SPLINE
5
139
100
AcDbEntity
8
1
62
256
6
ByLayer
370
18
48
1
60
0
100
AcDbSpline
70
4
71
3
72
8
73
4
40
0
40
0
40
0
40
0
40
1
40
1
40
1
40
1
41
1
10
16.6989239998326
20
2.60610342429106
30
0
41
1
10
16.3062257948289
20
3.43830005778202
30
0
41
1
10
15.6476140025322
20
4.07504966573305
30
0
41
1
10
14.8534459570506
20
4.42238207549963
30
0
0
SPLINE
5
13A
100
AcDbEntity
8
1
62
256
6
ByLayer
370
18
48
1
60
0
100
AcDbSpline
70
4
71
1
72
4
73
2
40
0
40
0
40
1
40
1
41
1
10
19.49095004613
20
1.13716660466895
30
0
41
1
10
20.2851377529236
20
1.99475650996294
30
0
0
SPLINE
5
13B
100
AcDbEntity
8
1
62
256
6
ByLayer
370
18
48
1
60
0
100
AcDbSpline
70
4
71
3
72
20
73
16
40
0
40
0
40
0
40
0
40
0.332873226652389
40
0.332873226652389
40
0.501657261698205
40
0.501657261698205
40
0.631212321676504
40
0.631212321676504
40
0.722542323637666
40
0.722542323637666
40
0.814765347404199
40
0.814765347404199
40
0.896421359038826
40
0.896421359038826
40
1
40
1
40
1
40
1
41
1
10
19.1819364671002
20
-10.9720478321789
30
0
41
1
10
19.2064722144015
20
-10.7643682156636
30
0
41
1
10
19.240839933731
20
-10.5491315232308
30
0
41
1
10
19.3246141786077
20
-10.215795674881
30
0
41
1
10
19.358835028077
20
-10.1007310818673
30
0
41
1
10
19.4359310835783
20
-9.89957071669406
30
0
41
1
10
19.4757210076759
20
-9.81135545687829
30
0
41
1
10
19.5551713276346
20
-9.6719235969976
30
0
41
1
10
19.5922083590164
20
-9.6164012149714
30
0
41
1
10
19.6708655222452
20
-9.52041089001389
30
0
41
1
10
19.7136481777887
20
-9.4789876185913
30
0
41
1
10
19.7925207391428
20
-9.42183054050926
30
0
41
1
10
19.8297106981534
20
-9.40289410513111
30
0
41
1
10
19.9090838271257
20
-9.37705970714546
30
0
41
1
10
19.9510116413236
20
-9.37408293045618
30
0
41
1
10
19.9893529113311
20
-9.37890430346474
30
0
0
INSERT
5
14E
100
AcDbEntity
8
SK2
62
256
6
ByLayer
370
25
48
1
60
0
100
AcDbBlockReference
2
DimnDraft3D11
10
0
20
0
30
0
41
1
42
1
43
1
50
0
210
0
220
0
230
1
0
LINE
5
72
100
AcDbEntity
8
1
62
256
6
ByLayer
370
18
48
1
60
0
100
AcDbLine
10
12.399998
20
-0.721175
30
0
11
12.282379
21
-0.517452
31
0
39
0
210
0
220
0
230
1
0
LINE
5
74
100
AcDbEntity
8
1
62
256
6
ByLayer
370
18
48
1
60
0
100
AcDbLine
10
9.829043
20
-1.946565
30
0
11
9.951511
21
-2.158686
31
0
39
0
210
0
220
0
230
1
0
LINE
5
75
100
AcDbEntity
8
1
62
256
6
ByLayer
370
18
48
1
60
0
100
AcDbLine
10
16.879714
20
1.841314
30
0
11
16.757246
21
2.053435
31
0
39
0
210
0
220
0
230
1
0
LINE
5
76
100
AcDbEntity
8
1
62
256
6
ByLayer
370
18
48
1
60
0
100
AcDbLine
10
11.344466
20
-16.259854
30
0
11
11.643696
21
-16.778135
31
0
39
0
210
0
220
0
230
1
0
LINE
5
77
100
AcDbEntity
8
1
62
256
6
ByLayer
370
18
48
1
60
0
100
AcDbLine
10
17.322977
20
8.26999
30
0
11
17.026985
21
8.830047
31
0
39
0
210
0
220
0
230
1
0
LINE
5
78
100
AcDbEntity
8
1
62
256
6
ByLayer
370
18
48
1
60
0
100
AcDbLine
10
14.421529
20
0.420598
30
0
11
14.539149
21
0.216875
31
0
39
0
210
0
220
0
230
1
0
LINE
5
79
100
AcDbEntity
8
1
62
256
6
ByLayer
370
18
48
1
60
0
100
AcDbLine
10
25.854281
20
-7.115135
30
0
11
25.658467
21
-6.775975
31
0
39
0
210
0
220
0
230
1
0
LINE
5
7A
100
AcDbEntity
8
1
62
256
6
ByLayer
370
18
48
1
60
0
100
AcDbLine
10
26.585646
20
-8.053339
30
0
11
26.235728
21
-7.447263
31
0
39
0
210
0
220
0
230
1
0
LINE
5
7B
100
AcDbEntity
8
1
62
256
6
ByLayer
370
18
48
1
60
0
100
AcDbLine
10
13.267087
20
6.206231
30
0
11
13.489718
21
5.784985
31
0
39
0
210
0
220
0
230
1
0
LINE
5
7C
100
AcDbEntity
8
80
62
256
6
ByLayer
370
18
48
1
60
0
100
AcDbLine
10
0
20
0
30
0
11
-5
21
0
31
0
39
0
210
0
220
0
230
1
0
LINE
5
7D
100
AcDbEntity
8
81
62
256
6
ByLayer
370
18
48
1
60
0
100
AcDbLine
10
23.644301
20
-19.9125
30
0
11
33.644301
21
-19.9125
31
0
39
0
210
0
220
0
230
1
0
LINE
5
7E
100
AcDbEntity
8
1
62
256
6
ByLayer
370
18
48
1
60
0
100
AcDbLine
10
25.37033
20
-6.983585
30
0
11
25.084183
21
-6.910253
31
0
39
0
210
0
220
0
230
1
0
LINE
5
7F
100
AcDbEntity
8
1
62
256
6
ByLayer
370
18
48
1
60
0
100
AcDbLine
10
25.37033
20
-6.983585
30
0
11
25.084241
21
-6.488063
31
0
39
0
210
0
220
0
230
1
0
LINE
5
80
100
AcDbEntity
8
1
62
256
6
ByLayer
370
18
48
1
60
0
100
AcDbLine
10
16.757246
20
2.053435
30
0
11
16.757224
21
2.053473
31
0
39
0
210
0
220
0
230
1
0
LINE
5
81
100
AcDbEntity
8
1
62
256
6
ByLayer
370
18
48
1
60
0
100
AcDbLine
10
11.566298
20
-16.185081
30
0
11
12.924779
21
-11.115161
31
0
39
0
210
0
220
0
230
1
0
LINE
5
82
100
AcDbEntity
8
1
62
256
6
ByLayer
370
18
48
1
60
0
100
AcDbLine
10
22.042308
20
-6.647105
30
0
11
26.102399
21
-7.687596
31
0
39
0
210
0
220
0
230
1
0
LINE
5
83
100
AcDbEntity
8
1
62
256
6
ByLayer
370
18
48
1
60
0
100
AcDbLine
10
25.084163
20
-6.910248
30
0
11
25.75248
21
-7.081519
31
0
39
0
210
0
220
0
230
1
0
LINE
5
84
100
AcDbEntity
8
1
62
256
6
ByLayer
370
18
48
1
60
0
100
AcDbLine
10
11.539414
20
-16.138517
30
0
11
11.566298
21
-16.185081
31
0
39
0
210
0
220
0
230
1
0
LINE
5
85
100
AcDbEntity
8
1
62
256
6
ByLayer
370
18
48
1
60
0
100
AcDbLine
10
16.698924
20
2.606103
30
0
11
16.594755
21
2.803205
31
0
39
0
210
0
220
0
230
1
0
LINE
5
86
100
AcDbEntity
8
1
62
256
6
ByLayer
370
18
48
1
60
0
100
AcDbLine
10
16.543899
20
2.884598
30
0
11
17.341546
21
1.193303
31
0
39
0
210
0
220
0
230
1
0
LINE
5
87
100
AcDbEntity
8
1
62
256
6
ByLayer
370
18
48
1
60
0
100
AcDbLine
10
18.024073
20
7.280404
30
0
11
17.835349
21
7.190938
31
0
39
0
210
0
220
0
230
1
0
LINE
5
88
100
AcDbEntity
8
1
62
256
6
ByLayer
370
18
48
1
60
0
100
AcDbLine
10
4.820219
20
1.020993
30
0
11
4.376238
21
0.81052
31
0
39
0
210
0
220
0
230
1
0
LINE
5
89
100
AcDbEntity
8
1
62
256
6
ByLayer
370
18
48
1
60
0
100
AcDbLine
10
25.084238
20
-7.266318
30
0
11
22.020168
21
-6.481081
31
0
39
0
210
0
220
0
230
1
0
LINE
5
8A
100
AcDbEntity
8
1
62
256
6
ByLayer
370
18
48
1
60
0
100
AcDbLine
10
11.407203
20
-16.272697
30
0
11
12.799178
21
-10.985596
31
0
39
0
210
0
220
0
230
1
0
LINE
5
8B
100
AcDbEntity
8
1
62
256
6
ByLayer
370
18
48
1
60
0
100
AcDbLine
10
16.229665
20
10.200463
30
0
11
16.026948
21
10.104363
31
0
39
0
210
0
220
0
230
1
0
LINE
5
8C
100
AcDbEntity
8
1
62
256
6
ByLayer
370
18
48
1
60
0
100
AcDbLine
10
3.645694
20
4.234914
30
0
11
1.862095
21
3.389382
31
0
39
0
210
0
220
0
230
1
0
LINE
5
8D
100
AcDbEntity
8
1
62
256
6
ByLayer
370
18
48
1
60
0
100
AcDbLine
10
22.022647
20
-6.499003
30
0
11
23.048026
21
-6.76178
31
0
39
0
210
0
220
0
230
1
0
LINE
5
8E
100
AcDbEntity
8
1
62
256
6
ByLayer
370
18
48
1
60
0
100
AcDbLine
10
15.736454
20
11.004611
30
0
11
14.969041
21
10.640812
31
0
39
0
210
0
220
0
230
1
0
LINE
5
8F
100
AcDbEntity
8
1
62
256
6
ByLayer
370
18
48
1
60
0
100
AcDbLine
10
3.900978
20
5.393893
30
0
11
0.996233
21
4.016871
31
0
39
0
210
0
220
0
230
1
0
LINE
5
90
100
AcDbEntity
8
1
62
256
6
ByLayer
370
18
48
1
60
0
100
AcDbLine
10
16.214963
20
10.225929
30
0
11
16.004467
21
10.126141
31
0
39
0
210
0
220
0
230
1
0
LINE
5
91
100
AcDbEntity
8
1
62
256
6
ByLayer
370
18
48
1
60
0
100
AcDbLine
10
3.642511
20
4.26584
30
0
11
1.666671
21
3.329175
31
0
39
0
210
0
220
0
230
1
0
LINE
5
92
100
AcDbEntity
8
1
62
256
6
ByLayer
370
18
48
1
60
0
100
AcDbLine
10
25.084238
20
-7.377849
30
0
11
23.783018
21
-7.044382
31
0
39
0
210
0
220
0
230
1
0
LINE
5
93
100
AcDbEntity
8
1
62
256
6
ByLayer
370
18
48
1
60
0
100
AcDbLine
10
24.562398
20
-3.026844
30
0
11
25.084238
21
-3.930698
31
0
39
0
210
0
220
0
230
1
0
LINE
5
94
100
AcDbEntity
8
1
62
256
6
ByLayer
370
18
48
1
60
0
100
AcDbLine
10
25.084238
20
-7.377849
30
0
11
25.084238
21
-7.266318
31
0
39
0
210
0
220
0
230
1
0
LINE
5
95
100
AcDbEntity
8
1
62
256
6
ByLayer
370
18
48
1
60
0
100
AcDbLine
10
4.376238
20
0.81052
30
0
11
2.535565
21
-14.551357
31
0
39
0
210
0
220
0
230
1
0
LINE
5
96
100
AcDbEntity
8
1
62
256
6
ByLayer
370
18
48
1
60
0
100
AcDbLine
10
0
20
12.4375
30
0
11
2.006249
21
12.446254
31
0
39
0
210
0
220
0
230
1
0
LINE
5
97
100
AcDbEntity
8
1
62
256
6
ByLayer
370
18
48
1
60
0
100
AcDbLine
10
0
20
-12.4375
30
0
11
0
21
12.4375
31
0
39
0
210
0
220
0
230
1
0
LINE
5
98
100
AcDbEntity
8
1
62
256
6
ByLayer
370
18
48
1
60
0
100
AcDbLine
10
16.229665
20
10.200463
30
0
11
18.024073
21
7.280404
31
0
39
0
210
0
220
0
230
1
0
LINE
5
99
100
AcDbEntity
8
1
62
256
6
ByLayer
370
18
48
1
60
0
100
AcDbLine
10
15.054658
20
12.328962
30
0
11
24.562398
21
-3.026844
31
0
39
0
210
0
220
0
230
1
0
LINE
5
9A
100
AcDbEntity
8
1
62
256
6
ByLayer
370
18
48
1
60
0
100
AcDbLine
10
1.666671
20
3.329175
30
0
11
1.862095
21
3.389382
31
0
39
0
210
0
220
0
230
1
0
LINE
5
9B
100
AcDbEntity
8
1
62
256
6
ByLayer
370
18
48
1
60
0
100
AcDbLine
10
16.214963
20
10.225929
30
0
11
16.229665
21
10.200463
31
0
39
0
210
0
220
0
230
1
0
LINE
5
9C
100
AcDbEntity
8
1
62
256
6
ByLayer
370
18
48
1
60
0
100
AcDbLine
10
1.862095
20
3.389382
30
0
11
4.376238
21
0.81052
31
0
39
0
210
0
220
0
230
1
0
LINE
5
9D
100
AcDbEntity
8
1
62
256
6
ByLayer
370
18
48
1
60
0
100
AcDbLine
10
1.916642
20
-14.354142
30
0
11
2.535565
21
-14.551357
31
0
39
0
210
0
220
0
230
1
0
LINE
5
9E
100
AcDbEntity
8
1
62
256
6
ByLayer
370
18
48
1
60
0
100
AcDbLine
10
25.084238
20
-4.10506
30
0
11
25.084238
21
-3.930698
31
0
39
0
210
0
220
0
230
1
0
LINE
5
9F
100
AcDbEntity
8
1
62
256
6
ByLayer
370
18
48
1
60
0
100
AcDbLine
10
14.845069
20
12.442088
30
0
11
2.006249
21
12.446254
31
0
39
0
210
0
220
0
230
1
0
LINE
5
A0
100
AcDbEntity
8
1
62
256
6
ByLayer
370
18
48
1
60
0
100
AcDbLine
10
14.845069
20
12.442088
30
0
11
15.736454
21
11.004611
31
0
39
0
210
0
220
0
230
1
0
LINE
5
A1
100
AcDbEntity
8
1
62
256
6
ByLayer
370
18
48
1
60
0
100
AcDbLine
10
25.084238
20
-4.10506
30
0
11
25.084238
21
-7.266318
31
0
39
0
210
0
220
0
230
1
0
LINE
5
A2
100
AcDbEntity
8
1
62
256
6
ByLayer
370
18
48
1
60
0
100
AcDbLine
10
25.084238
20
-4.10506
30
0
11
18.024073
21
7.280404
31
0
39
0
210
0
220
0
230
1
0
LINE
5
A3
100
AcDbEntity
8
1
62
256
6
ByLayer
370
18
48
1
60
0
100
AcDbLine
10
2.006249
20
12.446254
30
0
11
0.996233
21
4.016871
31
0
39
0
210
0
220
0
230
1
0
LINE
5
A4
100
AcDbEntity
8
1
62
256
6
ByLayer
370
18
48
1
60
0
100
AcDbLine
10
14.845069
20
12.442088
30
0
11
15.054658
21
12.328962
31
0
39
0
210
0
220
0
230
1
0
LINE
5
A5
100
AcDbEntity
8
1
62
256
6
ByLayer
370
18
48
1
60
0
100
AcDbLine
10
1.916642
20
-14.354142
30
0
11
0
21
-12.4375
31
0
39
0
210
0
220
0
230
1
0
LINE
5
A6
100
AcDbEntity
8
1
62
256
6
ByLayer
370
18
48
1
60
0
100
AcDbLine
10
2.535565
20
-14.551357
30
0
11
11.232555
21
-16.237675
31
0
39
0
210
0
220
0
230
1
0
LINE
5
A7
100
AcDbEntity
8
SK1
62
256
6
ByLayer
370
18
48
1
60
0
100
AcDbLine
10
-127.705699
20
12.4375
30
0
11
0
21
12.4375
31
0
39
0
210
0
220
0
230
1
0
LINE
5
A9
100
AcDbEntity
8
SK1
62
256
6
ByLayer
370
18
48
1
60
0
100
AcDbLine
10
-127.705699
20
-12.4375
30
0
11
-127.705699
21
12.4375
31
0
39
0
210
0
220
0
230
1
0
LINE
5
AA
100
AcDbEntity
8
SK1
62
256
6
ByLayer
370
18
48
1
60
0
100
AcDbLine
10
0
20
-12.4375
30
0
11
-127.705699
21
-12.4375
31
0
39
0
210
0
220
0
230
1
0
LINE
5
AB
100
AcDbEntity
8
SK1
62
256
6
ByLayer
370
18
48
1
60
0
100
AcDbLine
10
0
20
-12.4375
30
0
11
0
21
12.4375
31
0
39
0
210
0
220
0
230
1
0
LINE
5
AC
100
AcDbEntity
8
1
62
256
6
ByLayer
370
18
48
1
60
0
100
AcDbLine
10
22.833403
20
-19.887652
30
0
11
12.126943
21
-17.143879
31
0
39
0
210
0
220
0
230
1
0
LINE
5
AD
100
AcDbEntity
8
1
62
256
6
ByLayer
370
18
48
1
60
0
100
AcDbLine
10
26.663045
20
-8.646394
30
0
11
23.802802
21
-19.320963
31
0
39
0
210
0
220
0
230
1
0
LINE
5
AE
100
AcDbEntity
8
1
62
256
6
ByLayer
370
18
48
1
60
0
100
AcDbLine
10
25.75248
20
-7.081519
30
0
11
26.102399
21
-7.687596
31
0
39
0
210
0
220
0
230
1
0
LINE
5
AF
100
AcDbEntity
8
1
62
256
6
ByLayer
370
18
48
1
60
0
100
AcDbLine
10
12.932644
20
10.446384
30
0
11
5.342896
21
6.848393
31
0
39
0
210
0
220
0
230
1
0
LINE
5
B0
100
AcDbEntity
8
1
62
256
6
ByLayer
370
18
48
1
60
0
100
AcDbLine
10
4.371299
20
1.983228
30
0
11
4.097412
21
2.50146
31
0
39
0
210
0
220
0
230
1
0
LINE
5
B1
100
AcDbEntity
8
1
62
256
6
ByLayer
370
18
48
1
60
0
100
AcDbLine
10
13.420854
20
5.921751
30
0
11
13.207745
21
6.324983
31
0
39
0
210
0
220
0
230
1
0
LINE
5
B2
100
AcDbEntity
8
1
62
256
6
ByLayer
370
18
48
1
60
0
100
AcDbLine
10
17.56605
20
0.768511
30
0
11
17.341546
21
1.193303
31
0
39
0
210
0
220
0
230
1
0
LINE
5
B3
100
AcDbEntity
8
1
62
256
6
ByLayer
370
18
48
1
60
0
100
AcDbLine
10
7.86733
20
5.458922
30
0
11
12.565746
21
7.68625
31
0
39
0
210
0
220
0
230
1
0
LINE
5
B4
100
AcDbEntity
8
1
62
256
6
ByLayer
370
18
48
1
60
0
100
AcDbLine
10
17.990119
20
6.863129
30
0
11
17.990468
21
6.857565
31
0
39
0
210
0
220
0
230
1
0
LINE
5
B5
100
AcDbEntity
8
1
62
256
6
ByLayer
370
18
48
1
60
0
100
AcDbLine
10
19.069031
20
-12.208543
30
0
11
20.142439
21
-14.573392
31
0
39
0
210
0
220
0
230
1
0
LINE
5
B6
100
AcDbEntity
8
1
62
256
6
ByLayer
370
18
48
1
60
0
100
AcDbLine
10
13.207745
20
6.324983
30
0
11
12.565746
21
7.68625
31
0
39
0
210
0
220
0
230
1
0
LINE
5
B7
100
AcDbEntity
8
1
62
256
6
ByLayer
370
18
48
1
60
0
100
AcDbLine
10
6.168221
20
5.286765
30
0
11
5.342896
21
6.848393
31
0
39
0
210
0
220
0
230
1
0
LINE
5
B8
100
AcDbEntity
8
1
62
256
6
ByLayer
370
18
48
1
60
0
100
AcDbLine
10
17.6122
20
-14.241519
30
0
11
16.624458
21
-13.832519
31
0
39
0
210
0
220
0
230
1
0
LINE
5
B9
100
AcDbEntity
8
1
62
256
6
ByLayer
370
18
48
1
60
0
100
AcDbLine
10
4.979122
20
0.695144
30
0
11
4.983314
21
0.691402
31
0
39
0
210
0
220
0
230
1
0
LINE
5
BA
100
AcDbEntity
8
1
62
256
6
ByLayer
370
18
48
1
60
0
100
AcDbLine
10
7.277984
20
-4.171407
30
0
11
4.983314
21
0.691402
31
0
39
0
210
0
220
0
230
1
0
LINE
5
BB
100
AcDbEntity
8
1
62
256
6
ByLayer
370
18
48
1
60
0
100
AcDbLine
10
17.842095
20
-14.307967
30
0
11
17.6122
21
-14.241519
31
0
39
0
210
0
220
0
230
1
0
LINE
5
BC
100
AcDbEntity
8
1
62
256
6
ByLayer
370
18
48
1
60
0
100
AcDbLine
10
20.285138
20
1.994757
30
0
11
17.990468
21
6.857565
31
0
39
0
210
0
220
0
230
1
0
LINE
5
BD
100
AcDbEntity
8
1
62
256
6
ByLayer
370
18
48
1
60
0
100
AcDbLine
10
21.268669
20
-13.090805
30
0
11
21.335651
21
-12.87272
31
0
39
0
210
0
220
0
230
1
0
LINE
5
BE
100
AcDbEntity
8
1
62
256
6
ByLayer
370
18
48
1
60
0
100
AcDbLine
10
5.286
20
2.759416
30
0
11
8.508322
21
-4.069251
31
0
39
0
210
0
220
0
230
1
0
LINE
5
BF
100
AcDbEntity
8
1
62
256
6
ByLayer
370
18
48
1
60
0
100
AcDbLine
10
17.56605
20
0.768511
30
0
11
16.698924
21
2.606103
31
0
39
0
210
0
220
0
230
1
0
LINE
5
C0
100
AcDbEntity
8
1
62
256
6
ByLayer
370
18
48
1
60
0
100
AcDbLine
10
21.478126
20
-12.40884
30
0
11
21.383531
21
-12.629116
31
0
39
0
210
0
220
0
230
1
0
LINE
5
C1
100
AcDbEntity
8
1
62
256
6
ByLayer
370
18
48
1
60
0
100
AcDbLine
10
18.268259
20
-14.513177
30
0
11
18.058458
21
-14.426304
31
0
39
0
210
0
220
0
230
1
0
LINE
5
C2
100
AcDbEntity
8
1
62
256
6
ByLayer
370
18
48
1
60
0
100
AcDbLine
10
4.979122
20
0.695144
30
0
11
4.371299
21
1.983228
31
0
39
0
210
0
220
0
230
1
0
LINE
5
C3
100
AcDbEntity
8
1
62
256
6
ByLayer
370
18
48
1
60
0
100
AcDbLine
10
6.168221
20
5.286765
30
0
11
13.75797
21
8.884756
31
0
39
0
210
0
220
0
230
1
0
LINE
5
C4
100
AcDbEntity
8
1
62
256
6
ByLayer
370
18
48
1
60
0
100
AcDbLine
10
13.75797
20
8.884756
30
0
11
12.932644
21
10.446384
31
0
39
0
210
0
220
0
230
1
0
LINE
5
C5
100
AcDbEntity
8
1
62
256
6
ByLayer
370
18
48
1
60
0
100
AcDbLine
10
21.478126
20
-12.40884
30
0
11
21.793479
21
-11.382096
31
0
39
0
210
0
220
0
230
1
0
LINE
5
C6
100
AcDbEntity
8
1
62
256
6
ByLayer
370
18
48
1
60
0
100
AcDbLine
10
17.382296
20
8.151212
30
0
11
17.990119
21
6.863129
31
0
39
0
210
0
220
0
230
1
0
LINE
5
C7
100
AcDbEntity
8
1
62
256
6
ByLayer
370
18
48
1
60
0
100
AcDbLine
10
16.268628
20
7.965834
30
0
11
19.49095
21
1.137167
31
0
39
0
210
0
220
0
230
1
0
LINE
5
C8
100
AcDbEntity
8
1
62
256
6
ByLayer
370
18
48
1
60
0
100
AcDbLine
10
4.979122
20
0.695144
30
0
11
4.130515
21
2.433614
31
0
39
0
210
0
220
0
230
1
0
LINE
5
C9
100
AcDbEntity
8
1
62
256
6
ByLayer
370
18
48
1
60
0
100
AcDbLine
10
9.19953
20
-0.949055
30
0
11
10.066656
21
-2.786647
31
0
39
0
210
0
220
0
230
1
0
LINE
5
CA
100
AcDbEntity
8
1
62
256
6
ByLayer
370
18
48
1
60
0
100
AcDbLine
10
12.908618
20
-1.333341
30
0
11
13.026238
21
-1.537064
31
0
39
0
210
0
220
0
230
1
0
LINE
5
CB
100
AcDbEntity
8
1
62
256
6
ByLayer
370
18
48
1
60
0
100
AcDbLine
10
12.015005
20
-0.319548
30
0
11
12.132625
21
-0.523272
31
0
39
0
210
0
220
0
230
1
0
LINE
5
CC
100
AcDbEntity
8
1
62
256
6
ByLayer
370
18
48
1
60
0
100
AcDbLine
10
14.624174
20
-0.520065
30
0
11
14.741794
21
-0.723788
31
0
39
0
210
0
220
0
230
1
0
LINE
5
CD
100
AcDbEntity
8
1
62
256
6
ByLayer
370
18
48
1
60
0
100
AcDbLine
10
14.409197
20
0.815441
30
0
11
14.526817
21
0.611718
31
0
39
0
210
0
220
0
230
1
0
LINE
5
CE
100
AcDbEntity
8
1
62
256
6
ByLayer
370
18
48
1
60
0
100
AcDbLine
10
13.566931
20
-1.383933
30
0
11
13.684551
21
-1.587656
31
0
39
0
210
0
220
0
230
1
0
LINE
5
CF
100
AcDbEntity
8
1
62
256
6
ByLayer
370
18
48
1
60
0
100
AcDbLine
10
14.245567
20
-1.062219
30
0
11
14.363187
21
-1.265942
31
0
39
0
210
0
220
0
230
1
0
MTEXT
5
13C
100
AcDbEntity
8
SK6
62
256
6
ByLayer
370
18
48
1
60
0
100
AcDbMText
10
-66.155699
20
21.566877
30
0
210
0
220
0
230
1
1
\W0.7591;DSKNL 2525M 12
40
3.5
41
0
44
1.084337
50
0
71
7
72
5
7
iso_b_vert
0
DIMENSION
5
15C
100
AcDbEntity
8
2
62
256
6
ByLayer
370
13
48
1
60
0
100
AcDbDimension
2
DimnDraft3D2
10
24.44664
20
-16.91813
30
0
11
43.839779
21
-4.415964
31
0
70
34
71
5
72
1
41
1
210
0
220
0
230
1
3
Standard
100
AcDb2LineAngularDimension
13
22.056801
23
-19.9125
33
0
14
23.644301
24
-19.9125
34
0
15
23.644301
25
-19.9125
35
0
16
40.269689
26
-7.15539
36
0
40
0
0
DIMENSION
5
171
100
AcDbEntity
8
2
62
256
6
ByLayer
370
13
48
1
60
0
100
AcDbDimension
2
DimnDraft3D3
10
23.644301
20
-43.1625
30
0
11
6.540571
21
-43.1625
31
0
70
32
71
5
72
1
41
1
210
0
220
0
230
1
3
Standard
100
AcDbAlignedDimension
13
0
23
-14.4375
33
0
14
23.644301
24
-21.9125
34
0
50
0
100
AcDbRotatedDimension
1001
ACAD
1000
DSTYLE
1002
{
1070
   279
1070
     0
1070
   172
1070
     1
1070
   173
1070
     1
1070
   340
1005
13D
1070
    77
1070
     1
1070
    73
1070
     0
1070
   171
1070
     3
1070
   274
1070
     4
1070
   177
1070
     2
1070
   176
1070
     2
1070
   178
1070
     7
1070
    78
1070
     8
1070
    41
1041
3.175
1070
   147
1041
2.25
1070
    42
1041
2.0
1070
    44
1041
2.0
1070
   140
1041
4.5
1070
   343
1005
15D
1070
   344
1005
15D
1002
}
0
DIMENSION
5
17F
100
AcDbEntity
8
2
62
256
6
ByLayer
370
13
48
1
60
0
100
AcDbDimension
2
DimnDraft3D4
10
63.894301
20
-19.9125
30
0
11
63.894301
21
-9.019079
31
0
70
32
71
5
72
1
41
1
210
0
220
0
230
1
3
Standard
100
AcDbAlignedDimension
13
2
23
12.4375
33
0
14
25.644301
24
-19.9125
34
0
50
90
100
AcDbRotatedDimension
1001
ACAD
1000
DSTYLE
1002
{
1070
    74
1070
     0
1070
   279
1070
     0
1070
   172
1070
     1
1070
   173
1070
     1
1070
   340
1005
13D
1070
    77
1070
     1
1070
    73
1070
     0
1070
   171
1070
     3
1070
   274
1070
     4
1070
   177
1070
     2
1070
   176
1070
     2
1070
   178
1070
     7
1070
    78
1070
     8
1070
    41
1041
3.175
1070
   147
1041
2.25
1070
    42
1041
2.0
1070
    44
1041
2.0
1070
   140
1041
4.5
1070
   343
1005
15D
1070
   344
1005
15D
1002
}
0
DIMENSION
5
18D
100
AcDbEntity
8
SK2
62
256
6
ByLayer
370
13
48
1
60
0
100
AcDbDimension
2
DimnDraft3D5
10
-135.455699
20
-12.4375
30
0
11
-135.455699
21
-5.281579
31
0
70
32
71
5
72
1
41
1
210
0
220
0
230
1
3
Standard
100
AcDbAlignedDimension
13
-129.705699
23
12.4375
33
0
14
-129.705699
24
-12.4375
34
0
50
90
100
AcDbRotatedDimension
1001
ACAD
1000
DSTYLE
1002
{
1070
    74
1070
     0
1070
   279
1070
     0
1070
   172
1070
     1
1070
   173
1070
     1
1070
   340
1005
13D
1070
    77
1070
     1
1070
    73
1070
     0
1070
   171
1070
     3
1070
   274
1070
     4
1070
   177
1070
     2
1070
   176
1070
     2
1070
   178
1070
     7
1070
    78
1070
     8
1070
    41
1041
3.175
1070
   147
1041
2.25
1070
    42
1041
2.0
1070
    44
1041
2.0
1070
   140
1041
4.5
1070
   343
1005
15D
1070
   344
1005
15D
1002
}
0
ENDSEC
0
SECTION
2
OBJECTS
0
DICTIONARY
5
1f7
330
0
100
AcDbDictionary
280
0
281
1
3
ACAD_GROUP
350
1f8
3
ACAD_MLINESTYLE
350
1f9
0
DICTIONARY
5
1f8
330
0
100
AcDbDictionary
280
0
281
1
0
DICTIONARY
5
1f9
330
0
100
AcDbDictionary
280
0
281
1
3
Standard
350
18
0
MLINESTYLE
5
18
330
1f9
100
AcDbMlineStyle
2
Standard
70
0
3

62
256
51
90
52
90
71
2
49
-0.5
62
256
6
ByLayer
49
0.5
62
256
6
ByLayer
0
RASTERVARIABLES
5
1e6
330

100
AcDbRasterVariables
90
0
70
1
71
1
72
1
0
ENDSEC
0
EOF
