0
SECTION
2
HEADER
9
$ACADVER
1
AC1015
9
$DWGCODEPAGE
3
ANSI_1252
9
$HANDSEED
5
20d
9
$ANGBASE
50
0
9
$ANGDIR
70
0
9
$ATTMODE
70
1
9
$AUNITS
70
0
9
$AUPREC
70
0
9
$CECOLOR
62
256
9
$CELTSCALE
40
1
9
$CELTYPE
6
ByLayer
9
$CELWEIGHT
370
18
9
$CLAYER
8
0
9
$CMLJUST
70
0
9
$CMLSCALE
40
1
9
$CMLSTYLE
2
Standard
9
$DIMSTYLE
2
Standard
9
$TEXTSIZE
40
0.2
9
$TEXTSTYLE
7
Standard
9
$LUNITS
70
2
9
$LUPREC
70
4
9
$EXTNAMES
290
1
9
$INSUNITS
70
4
9
$LTSCALE
40
1
9
$LWDISPLAY
290
1
9
$PDMODE
70
0
9
$PDSIZE
40
0
9
$PLINEGEN
70
0
0
ENDSEC
0
SECTION
2
CLASSES
0
CLASS
1
RASTERVARIABLES
2
AcDbRasterVariables
3
ISM
90
0
280
0
281
0
0
ENDSEC
0
SECTION
2
TABLES
0
TABLE
2
VPORT
5
203
100
AcDbSymbolTable
0
VPORT
5
1
100
AcDbSymbolTableRecord
100
AcDbViewportTableRecord
2
*Active
70
0
10
0
20
0
11
1
21
1
12
-1
22
1
13
0
23
0
14
0.5
24
0.5
15
10
25
10
16
0
26
0
36
1
17
0
27
0
37
0
0
ENDTAB
0
TABLE
2
LTYPE
5
204
100
AcDbSymbolTable
0
LTYPE
5
14
100
AcDbSymbolTableRecord
100
AcDbLinetypeTableRecord
70
0
2
ByBlock
3

72
65
73
0
40
0
0
LTYPE
5
15
100
AcDbSymbolTableRecord
100
AcDbLinetypeTableRecord
70
0
2
ByLayer
3

72
65
73
0
40
0
0
LTYPE
5
16
100
AcDbSymbolTableRecord
100
AcDbLinetypeTableRecord
70
0
2
CONTINUOUS
3
Solid line
72
65
73
0
40
0
0
LTYPE
5
6A
100
AcDbSymbolTableRecord
100
AcDbLinetypeTableRecord
70
0
2
CENTER
3
____ _ ____ _ ____ _ ____
72
65
73
4
40
47.5
49
22
74
0
49
-8.5
74
0
49
8.5
74
0
49
-8.5
74
0
0
LTYPE
5
6B
100
AcDbSymbolTableRecord
100
AcDbLinetypeTableRecord
70
0
2
DASHED
3
__ __ __ __ __ __ __ __ __
72
65
73
2
40
25.72
49
12.86
74
0
49
-12.86
74
0
0
ENDTAB
0
TABLE
2
LAYER
5
205
100
AcDbSymbolTable
0
LAYER
5
10
100
AcDbSymbolTableRecord
100
AcDbLayerTableRecord
2
0
70
0
62
7
6
CONTINUOUS
290
1
370
-3
390
0
0
LAYER
5
6D
100
AcDbSymbolTableRecord
100
AcDbLayerTableRecord
2
2
70
0
62
7
6
CONTINUOUS
290
1
370
-3
390
0
0
LAYER
5
6F
100
AcDbSymbolTableRecord
100
AcDbLayerTableRecord
2
80
70
0
62
-6
6
CONTINUOUS
290
1
370
-3
390
0
0
LAYER
5
71
100
AcDbSymbolTableRecord
100
AcDbLayerTableRecord
2
81
70
0
62
-3
6
CONTINUOUS
290
1
370
-3
390
0
0
LAYER
5
73
100
AcDbSymbolTableRecord
100
AcDbLayerTableRecord
2
1
70
0
62
4
6
CONTINUOUS
290
1
370
-3
390
0
0
LAYER
5
1f0
100
AcDbSymbolTableRecord
100
AcDbLayerTableRecord
2
SK1
70
0
62
4
6
CONTINUOUS
290
1
370
-3
390
0
0
LAYER
5
1f1
100
AcDbSymbolTableRecord
100
AcDbLayerTableRecord
2
SK6
70
0
62
5
6
CONTINUOUS
290
1
370
-3
390
0
0
LAYER
5
1f2
100
AcDbSymbolTableRecord
100
AcDbLayerTableRecord
2
SK2
70
0
62
7
6
CONTINUOUS
290
1
370
-3
390
0
0
ENDTAB
0
TABLE
2
STYLE
5
206
100
AcDbSymbolTable
0
STYLE
5
11
100
AcDbSymbolTableRecord
100
AcDbTextStyleTableRecord
2
Standard
3
txt
70
0
71
0
40
0
41
1
42
0
50
0
0
STYLE
5
146
100
AcDbSymbolTableRecord
100
AcDbTextStyleTableRecord
2
iso_b_vert
3
simplex.shx
70
0
71
0
40
0
41
1
42
0
50
0
0
STYLE
5
147
100
AcDbSymbolTableRecord
100
AcDbTextStyleTableRecord
2
DWGDirectTextStyle
3
simplex
70
0
71
0
40
0
41
1
42
0
50
0
0
ENDTAB
0
TABLE
2
DIMSTYLE
5
207
100
AcDbSymbolTable
100
AcDbDimStyleTable
0
DIMSTYLE
105
27
100
AcDbSymbolTableRecord
100
AcDbDimStyleTableRecord
2
Standard
70
0
3
<>
41
0.18
42
0.0625
44
0.18
140
0.18
147
0.09
73
0
74
0
77
1
271
2
275
0
278
52
280
0
340
11
0
ENDTAB
0
TABLE
2
VIEW
5
208
100
AcDbSymbolTable
0
ENDTAB
0
TABLE
2
UCS
5
209
100
AcDbSymbolTable
0
ENDTAB
0
TABLE
2
APPID
5
20a
100
AcDbSymbolTable
0
APPID
5
12
100
AcDbSymbolTableRecord
100
AcDbRegAppTableRecord
2
ACAD
70
0
0
ENDTAB
0
TABLE
2
BLOCK_RECORD
5
20b
100
AcDbSymbolTable
0
BLOCK_RECORD
5
1F
100
AcDbSymbolTableRecord
100
AcDbBlockTableRecord
2
*Model_Space
340
0
70
0
0
BLOCK_RECORD
5
1B
100
AcDbSymbolTableRecord
100
AcDbBlockTableRecord
2
*Paper_Space
340
0
70
0
0
BLOCK_RECORD
5
23
100
AcDbSymbolTableRecord
100
AcDbBlockTableRecord
2
*Paper_Space0
340
0
70
0
0
BLOCK_RECORD
5
149
100
AcDbSymbolTableRecord
100
AcDbBlockTableRecord
2
DimnDraft3D1
340
0
70
0
0
BLOCK_RECORD
5
157
100
AcDbSymbolTableRecord
100
AcDbBlockTableRecord
2
_CLOSED
340
0
70
0
0
BLOCK_RECORD
5
15E
100
AcDbSymbolTableRecord
100
AcDbBlockTableRecord
2
DimnDraft3D2
340
0
70
0
0
BLOCK_RECORD
5
16D
100
AcDbSymbolTableRecord
100
AcDbBlockTableRecord
2
DimnDraft3D3
340
0
70
0
0
BLOCK_RECORD
5
17B
100
AcDbSymbolTableRecord
100
AcDbBlockTableRecord
2
DimnDraft3D4
340
0
70
0
0
BLOCK_RECORD
5
189
100
AcDbSymbolTableRecord
100
AcDbBlockTableRecord
2
DimnDraft3D5
340
0
70
0
0
ENDTAB
0
ENDSEC
0
SECTION
2
BLOCKS
0
BLOCK
5
20
100
AcDbEntity
8
0
100
AcDbBlockBegin
2
*Model_Space
70
0
10
0
20
0
30
0
3
*Model_Space
0
ENDBLK
5
21
100
AcDbEntity
8
0
100
AcDbBlockEnd
0
BLOCK
5
1C
100
AcDbEntity
8
0
100
AcDbBlockBegin
2
*Paper_Space
70
0
10
0
20
0
30
0
3
*Paper_Space
0
ENDBLK
5
1D
100
AcDbEntity
8
0
100
AcDbBlockEnd
0
BLOCK
5
24
100
AcDbEntity
8
0
100
AcDbBlockBegin
2
*Paper_Space0
70
0
10
0
20
0
30
0
3
*Paper_Space0
0
ENDBLK
5
25
100
AcDbEntity
8
0
100
AcDbBlockEnd
0
BLOCK
5
154
100
AcDbEntity
8
0
100
AcDbBlockBegin
2
DimnDraft3D1
70
0
10
0
20
0
30
0
3
DimnDraft3D1
0
MTEXT
5
14A
100
AcDbEntity
8
2
62
256
6
ByLayer
370
18
48
1
60
0
100
AcDbMText
10
45.914568
20
20.284596
30
0
210
0
220
0
230
1
1
\W0.7785;45%%d
40
4.5
41
0
44
1.084337
50
22.3434918549996
71
7
72
5
7
iso_b_vert
0
LINE
5
14B
100
AcDbEntity
8
2
62
256
6
ByLayer
370
13
48
1
60
0
100
AcDbLine
10
57.227764
20
3.0613
30
0
11
57.227764
21
24.017144
31
0
39
0
210
0
220
0
230
1
0
LINE
5
14C
100
AcDbEntity
8
2
62
256
6
ByLayer
370
13
48
1
60
0
100
AcDbLine
10
53.323353
20
5.008607
30
0
11
41.084452
21
17.38197
31
0
39
0
210
0
220
0
230
1
0
ARC
5
14D
100
AcDbEntity
8
2
62
256
6
ByLayer
370
13
48
1
60
0
100
AcDbCircle
39
0
10
57.227764
20
1.0613
30
0
40
20.9558441220058
210
0
220
0
230
1
100
AcDbArc
50
90
51
134.686984
0
LINE
5
14E
100
AcDbEntity
8
2
62
256
6
ByLayer
370
13
48
1
60
0
100
AcDbLine
10
57.227764
20
22.017144
30
0
11
54.070833
21
21.479444
31
0
39
0
210
0
220
0
230
1
0
LINE
5
14F
100
AcDbEntity
8
2
62
256
6
ByLayer
370
13
48
1
60
0
100
AcDbLine
10
57.227764
20
22.017144
30
0
11
54.039233
21
22.31484
31
0
39
0
210
0
220
0
230
1
0
LINE
5
150
100
AcDbEntity
8
2
62
256
6
ByLayer
370
13
48
1
60
0
100
AcDbLine
10
54.070833
20
21.479444
30
0
11
54.039233
21
22.31484
31
0
39
0
210
0
220
0
230
1
0
LINE
5
151
100
AcDbEntity
8
2
62
256
6
ByLayer
370
13
48
1
60
0
100
AcDbLine
10
42.490919
20
15.960051
30
0
11
44.548483
21
18.41398
31
0
39
0
210
0
220
0
230
1
0
LINE
5
152
100
AcDbEntity
8
2
62
256
6
ByLayer
370
13
48
1
60
0
100
AcDbLine
10
42.490919
20
15.960051
30
0
11
45.113499
21
17.797829
31
0
39
0
210
0
220
0
230
1
0
LINE
5
153
100
AcDbEntity
8
2
62
256
6
ByLayer
370
13
48
1
60
0
100
AcDbLine
10
44.548483
20
18.41398
30
0
11
45.113499
21
17.797829
31
0
39
0
210
0
220
0
230
1
0
ENDBLK
5
155
100
AcDbEntity
8
0
100
AcDbBlockEnd
0
BLOCK
5
158
100
AcDbEntity
8
0
100
AcDbBlockBegin
2
_CLOSED
70
0
10
0
20
0
30
0
3
_CLOSED
0
LINE
5
15A
100
AcDbEntity
8
0
62
256
6
ByLayer
370
-2
48
1
60
0
100
AcDbLine
10
-1
20
0.166667
30
0
11
0
21
0
31
0
39
0
210
0
220
0
230
1
0
LINE
5
15B
100
AcDbEntity
8
0
62
256
6
ByLayer
370
-2
48
1
60
0
100
AcDbLine
10
0
20
0
30
0
11
-1
21
-0.166667
31
0
39
0
210
0
220
0
230
1
0
LINE
5
15C
100
AcDbEntity
8
0
62
256
6
ByLayer
370
-2
48
1
60
0
100
AcDbLine
10
-1
20
0.166667
30
0
11
-1
21
-0.166667
31
0
39
0
210
0
220
0
230
1
0
LINE
5
15D
100
AcDbEntity
8
0
62
256
6
ByLayer
370
-2
48
1
60
0
100
AcDbLine
10
0
20
0
30
0
11
-1
21
0
31
0
39
0
210
0
220
0
230
1
0
ENDBLK
5
159
100
AcDbEntity
8
0
100
AcDbBlockEnd
0
BLOCK
5
16A
100
AcDbEntity
8
0
100
AcDbBlockBegin
2
DimnDraft3D2
70
0
10
0
20
0
30
0
3
DimnDraft3D2
0
MTEXT
5
15F
100
AcDbEntity
8
SK2
62
256
6
ByLayer
370
18
48
1
60
0
100
AcDbMText
10
-202.997236
20
-4.393421
30
0
210
0
220
0
230
1
1
\W0.7640;40.0
40
4.5
41
0
44
1.084337
50
90
71
7
72
5
7
iso_b_vert
0
LINE
5
161
100
AcDbEntity
8
SK2
62
256
6
ByLayer
370
13
48
1
60
0
100
AcDbLine
10
-196.122236
20
-19.925
30
0
11
-203.872236
21
-19.925
31
0
39
0
210
0
220
0
230
1
0
LINE
5
162
100
AcDbEntity
8
SK2
62
256
6
ByLayer
370
13
48
1
60
0
100
AcDbLine
10
-196.122236
20
19.925
30
0
11
-203.872236
21
19.925
31
0
39
0
210
0
220
0
230
1
0
LINE
5
163
100
AcDbEntity
8
SK2
62
256
6
ByLayer
370
13
48
1
60
0
100
AcDbLine
10
-201.872236
20
-19.925
30
0
11
-201.872236
21
19.925
31
0
39
0
210
0
220
0
230
1
0
LINE
5
164
100
AcDbEntity
8
SK2
62
256
6
ByLayer
370
13
48
1
60
0
100
AcDbLine
10
-201.872236
20
-19.925
30
0
11
-202.290232
21
-16.750002
31
0
39
0
210
0
220
0
230
1
0
LINE
5
165
100
AcDbEntity
8
SK2
62
256
6
ByLayer
370
13
48
1
60
0
100
AcDbLine
10
-201.872236
20
-19.925
30
0
11
-201.454239
21
-16.749998
31
0
39
0
210
0
220
0
230
1
0
LINE
5
166
100
AcDbEntity
8
SK2
62
256
6
ByLayer
370
13
48
1
60
0
100
AcDbLine
10
-202.290232
20
-16.750002
30
0
11
-201.454239
21
-16.749998
31
0
39
0
210
0
220
0
230
1
0
LINE
5
167
100
AcDbEntity
8
SK2
62
256
6
ByLayer
370
13
48
1
60
0
100
AcDbLine
10
-201.872236
20
19.925
30
0
11
-201.454239
21
16.750002
31
0
39
0
210
0
220
0
230
1
0
LINE
5
168
100
AcDbEntity
8
SK2
62
256
6
ByLayer
370
13
48
1
60
0
100
AcDbLine
10
-201.872236
20
19.925
30
0
11
-202.290232
21
16.749998
31
0
39
0
210
0
220
0
230
1
0
LINE
5
169
100
AcDbEntity
8
SK2
62
256
6
ByLayer
370
13
48
1
60
0
100
AcDbLine
10
-201.454239
20
16.750002
30
0
11
-202.290232
21
16.749998
31
0
39
0
210
0
220
0
230
1
0
ENDBLK
5
16B
100
AcDbEntity
8
0
100
AcDbBlockEnd
0
BLOCK
5
178
100
AcDbEntity
8
0
100
AcDbBlockBegin
2
DimnDraft3D3
70
0
10
0
20
0
30
0
3
DimnDraft3D3
0
MTEXT
5
16E
100
AcDbEntity
8
2
62
256
6
ByLayer
370
18
48
1
60
0
100
AcDbMText
10
78.352764
20
-13.025929
30
0
210
0
220
0
230
1
1
\W0.6563;21.0
40
4.5
41
0
44
1.084337
50
90
71
7
72
5
7
iso_b_vert
0
LINE
5
16F
100
AcDbEntity
8
2
62
256
6
ByLayer
370
13
48
1
60
0
100
AcDbLine
10
2
20
-19.925
30
0
11
81.477764
21
-19.925
31
0
39
0
210
0
220
0
230
1
0
LINE
5
170
100
AcDbEntity
8
2
62
256
6
ByLayer
370
13
48
1
60
0
100
AcDbLine
10
59.227764
20
1.0613
30
0
11
81.477764
21
1.0613
31
0
39
0
210
0
220
0
230
1
0
LINE
5
171
100
AcDbEntity
8
2
62
256
6
ByLayer
370
13
48
1
60
0
100
AcDbLine
10
79.477764
20
-19.925
30
0
11
79.477764
21
1.0613
31
0
39
0
210
0
220
0
230
1
0
LINE
5
172
100
AcDbEntity
8
2
62
256
6
ByLayer
370
13
48
1
60
0
100
AcDbLine
10
79.477764
20
-19.925
30
0
11
79.059768
21
-16.750002
31
0
39
0
210
0
220
0
230
1
0
LINE
5
173
100
AcDbEntity
8
2
62
256
6
ByLayer
370
13
48
1
60
0
100
AcDbLine
10
79.477764
20
-19.925
30
0
11
79.895761
21
-16.749998
31
0
39
0
210
0
220
0
230
1
0
LINE
5
174
100
AcDbEntity
8
2
62
256
6
ByLayer
370
13
48
1
60
0
100
AcDbLine
10
79.059768
20
-16.750002
30
0
11
79.895761
21
-16.749998
31
0
39
0
210
0
220
0
230
1
0
LINE
5
175
100
AcDbEntity
8
2
62
256
6
ByLayer
370
13
48
1
60
0
100
AcDbLine
10
79.477764
20
1.0613
30
0
11
79.895761
21
-2.113698
31
0
39
0
210
0
220
0
230
1
0
LINE
5
176
100
AcDbEntity
8
2
62
256
6
ByLayer
370
13
48
1
60
0
100
AcDbLine
10
79.477764
20
1.0613
30
0
11
79.059768
21
-2.113702
31
0
39
0
210
0
220
0
230
1
0
LINE
5
177
100
AcDbEntity
8
2
62
256
6
ByLayer
370
13
48
1
60
0
100
AcDbLine
10
79.895761
20
-2.113698
30
0
11
79.059768
21
-2.113702
31
0
39
0
210
0
220
0
230
1
0
ENDBLK
5
179
100
AcDbEntity
8
0
100
AcDbBlockEnd
0
BLOCK
5
186
100
AcDbEntity
8
0
100
AcDbBlockBegin
2
DimnDraft3D4
70
0
10
0
20
0
30
0
3
DimnDraft3D4
0
MTEXT
5
17C
100
AcDbEntity
8
2
62
256
6
ByLayer
370
18
48
1
60
0
100
AcDbMText
10
24.457303
20
31.9363
30
0
210
0
220
0
230
1
1
\W0.7346;57.2
40
4.5
41
0
44
1.084337
50
0
71
7
72
5
7
iso_b_vert
0
LINE
5
17D
100
AcDbEntity
8
2
62
256
6
ByLayer
370
13
48
1
60
0
100
AcDbLine
10
0
20
21.925
30
0
11
0
21
32.8113
31
0
39
0
210
0
220
0
230
1
0
LINE
5
17E
100
AcDbEntity
8
2
62
256
6
ByLayer
370
13
48
1
60
0
100
AcDbLine
10
57.227764
20
3.0613
30
0
11
57.227764
21
32.8113
31
0
39
0
210
0
220
0
230
1
0
LINE
5
17F
100
AcDbEntity
8
2
62
256
6
ByLayer
370
13
48
1
60
0
100
AcDbLine
10
0
20
30.8113
30
0
11
57.227764
21
30.8113
31
0
39
0
210
0
220
0
230
1
0
LINE
5
180
100
AcDbEntity
8
2
62
256
6
ByLayer
370
13
48
1
60
0
100
AcDbLine
10
0
20
30.8113
30
0
11
3.174998
21
31.229297
31
0
39
0
210
0
220
0
230
1
0
LINE
5
181
100
AcDbEntity
8
2
62
256
6
ByLayer
370
13
48
1
60
0
100
AcDbLine
10
0
20
30.8113
30
0
11
3.175002
21
30.393303
31
0
39
0
210
0
220
0
230
1
0
LINE
5
182
100
AcDbEntity
8
2
62
256
6
ByLayer
370
13
48
1
60
0
100
AcDbLine
10
3.174998
20
31.229297
30
0
11
3.175002
21
30.393303
31
0
39
0
210
0
220
0
230
1
0
LINE
5
183
100
AcDbEntity
8
2
62
256
6
ByLayer
370
13
48
1
60
0
100
AcDbLine
10
57.227764
20
30.8113
30
0
11
54.052766
21
30.393303
31
0
39
0
210
0
220
0
230
1
0
LINE
5
184
100
AcDbEntity
8
2
62
256
6
ByLayer
370
13
48
1
60
0
100
AcDbLine
10
57.227764
20
30.8113
30
0
11
54.052763
21
31.229297
31
0
39
0
210
0
220
0
230
1
0
LINE
5
185
100
AcDbEntity
8
2
62
256
6
ByLayer
370
13
48
1
60
0
100
AcDbLine
10
54.052766
20
30.393303
30
0
11
54.052763
21
31.229297
31
0
39
0
210
0
220
0
230
1
0
ENDBLK
5
187
100
AcDbEntity
8
0
100
AcDbBlockEnd
0
BLOCK
5
194
100
AcDbEntity
8
0
100
AcDbBlockBegin
2
DimnDraft3D5
70
0
10
0
20
0
30
0
3
DimnDraft3D5
0
MTEXT
5
18A
100
AcDbEntity
8
SK2
62
256
6
ByLayer
370
18
48
1
60
0
100
AcDbMText
10
-74.285394
20
41.9363
30
0
210
0
220
0
230
1
1
\W0.7468;250.0
40
4.5
41
0
44
1.084337
50
0
71
7
72
5
7
iso_b_vert
0
LINE
5
18B
100
AcDbEntity
8
SK2
62
256
6
ByLayer
370
13
48
1
60
0
100
AcDbLine
10
57.227764
20
3.0613
30
0
11
57.227764
21
42.8113
31
0
39
0
210
0
220
0
230
1
0
LINE
5
18C
100
AcDbEntity
8
SK2
62
256
6
ByLayer
370
13
48
1
60
0
100
AcDbLine
10
-194.122236
20
21.925
30
0
11
-194.122236
21
42.8113
31
0
39
0
210
0
220
0
230
1
0
LINE
5
18D
100
AcDbEntity
8
SK2
62
256
6
ByLayer
370
13
48
1
60
0
100
AcDbLine
10
57.227764
20
40.8113
30
0
11
-194.122236
21
40.8113
31
0
39
0
210
0
220
0
230
1
0
LINE
5
18E
100
AcDbEntity
8
SK2
62
256
6
ByLayer
370
13
48
1
60
0
100
AcDbLine
10
57.227764
20
40.8113
30
0
11
54.052766
21
40.393303
31
0
39
0
210
0
220
0
230
1
0
LINE
5
18F
100
AcDbEntity
8
SK2
62
256
6
ByLayer
370
13
48
1
60
0
100
AcDbLine
10
57.227764
20
40.8113
30
0
11
54.052763
21
41.229297
31
0
39
0
210
0
220
0
230
1
0
LINE
5
190
100
AcDbEntity
8
SK2
62
256
6
ByLayer
370
13
48
1
60
0
100
AcDbLine
10
54.052766
20
40.393303
30
0
11
54.052763
21
41.229297
31
0
39
0
210
0
220
0
230
1
0
LINE
5
191
100
AcDbEntity
8
SK2
62
256
6
ByLayer
370
13
48
1
60
0
100
AcDbLine
10
-194.122236
20
40.8113
30
0
11
-190.947237
21
41.229297
31
0
39
0
210
0
220
0
230
1
0
LINE
5
192
100
AcDbEntity
8
SK2
62
256
6
ByLayer
370
13
48
1
60
0
100
AcDbLine
10
-194.122236
20
40.8113
30
0
11
-190.947234
21
40.393303
31
0
39
0
210
0
220
0
230
1
0
LINE
5
193
100
AcDbEntity
8
SK2
62
256
6
ByLayer
370
13
48
1
60
0
100
AcDbLine
10
-190.947237
20
41.229297
30
0
11
-190.947234
21
40.393303
31
0
39
0
210
0
220
0
230
1
0
ENDBLK
5
195
100
AcDbEntity
8
0
100
AcDbBlockEnd
0
ENDSEC
0
SECTION
2
ENTITIES
0
ELLIPSE
5
D0
100
AcDbEntity
8
1
62
256
6
ByLayer
370
18
48
1
60
0
100
AcDbEllipse
10
19.721181
20
6.619834
30
0
11
3.49012810839377E-17
21
0.57
31
0
210
0
220
0
230
1
40
0.989133
41
-2.8301833858712
42
-2.72983774449799
0
ELLIPSE
5
D1
100
AcDbEntity
8
1
62
256
6
ByLayer
370
18
48
1
60
0
100
AcDbEllipse
10
20.212059
20
5.483473
30
0
11
-1.23072938559149E-16
21
-0.67
31
0
210
0
220
0
230
1
40
0.989133
41
3.14157667850894
42
-2.729837744498
0
ELLIPSE
5
D2
100
AcDbEntity
8
1
62
256
6
ByLayer
370
18
48
1
60
0
100
AcDbEllipse
10
20.72317
20
9.403022
30
0
11
3.49012810839377E-17
21
0.57
31
0
210
0
220
0
230
1
40
0.989133
41
-1.10988660988442
42
-0.311379297157327
0
ELLIPSE
5
D3
100
AcDbEntity
8
1
62
256
6
ByLayer
370
18
48
1
60
0
100
AcDbEllipse
10
21.310593
20
6.034979
30
0
11
3.49012810839377E-17
21
0.57
31
0
210
0
220
0
230
1
40
0.989133
41
-2.83018929967332
42
-1.68264019330144
0
ELLIPSE
5
D4
100
AcDbEntity
8
1
62
256
6
ByLayer
370
18
48
1
60
0
100
AcDbEllipse
10
21.821705
20
9.954528
30
0
11
-1.23072938559149E-16
21
-0.67
31
0
210
0
220
0
230
1
40
0.989133
41
-1.10988660988441
42
-1.51748716715285E-05
0
ELLIPSE
5
D5
100
AcDbEntity
8
1
62
256
6
ByLayer
370
18
48
1
60
0
100
AcDbEllipse
10
22.529455
20
5.896582
30
0
11
-1.23072938559149E-16
21
-0.67
31
0
210
0
220
0
230
1
40
0.989133
41
-3.1415852699688
42
-1.68264019330143
0
ELLIPSE
5
D6
100
AcDbEntity
8
1
62
256
6
ByLayer
370
18
48
1
60
0
100
AcDbEllipse
10
22.312583
20
8.818167
30
0
11
3.49012810839377E-17
21
0.57
31
0
210
0
220
0
230
1
40
0.989133
41
-2.15708416108102
42
-0.311453863962135
0
ELLIPSE
5
D7
100
AcDbEntity
8
1
62
256
6
ByLayer
370
18
48
1
60
0
100
AcDbEllipse
10
22.606294
20
7.134146
30
0
11
3.49012810839377E-17
21
0.57
31
0
210
0
220
0
230
1
40
0.989133
41
-3.04910750877539
42
-0.635442642104844
0
ELLIPSE
5
D8
100
AcDbEntity
8
1
62
256
6
ByLayer
370
18
48
1
60
0
100
AcDbEllipse
10
20.774292
20
7.719001
30
0
11
-1.10214571844014E-15
21
-6
31
0
210
0
220
0
230
1
40
0.989133
41
-3.14153804496788
42
-2.9931209780017E-16
0
ELLIPSE
5
D9
100
AcDbEntity
8
1
62
256
6
ByLayer
370
18
48
1
60
0
100
AcDbEllipse
10
21.016882
20
7.719001
30
0
11
-3.12274620224706E-16
21
-1.7
31
0
210
0
220
0
230
1
40
0.989133
41
-0.0372516872650765
42
0
0
ELLIPSE
5
DA
100
AcDbEntity
8
1
62
256
6
ByLayer
370
18
48
1
60
0
100
AcDbEllipse
10
21.016882
20
7.719001
30
0
11
-3.12274620224706E-16
21
-1.7
31
0
210
0
220
0
230
1
40
0.989133
41
-1.04796133300946
42
-0.400498718631359
0
ELLIPSE
5
DB
100
AcDbEntity
8
1
62
256
6
ByLayer
370
18
48
1
60
0
100
AcDbEllipse
10
21.016882
20
7.719001
30
0
11
-3.12274620224706E-16
21
-1.7
31
0
210
0
220
0
230
1
40
0.989133
41
-2.31569177810605
42
-1.69473662811643
0
ELLIPSE
5
DC
100
AcDbEntity
8
1
62
256
6
ByLayer
370
18
48
1
60
0
100
AcDbEllipse
10
21.016882
20
7.719001
30
0
11
-3.12274620224706E-16
21
-1.7
31
0
210
0
220
0
230
1
40
0.989133
41
0
42
-2.81559778149857
0
ELLIPSE
5
DD
100
AcDbEntity
8
1
62
256
6
ByLayer
370
18
48
1
60
0
100
AcDbEllipse
10
20.891912
20
7.719001
30
0
11
-3.12274620224706E-16
21
-1.7
31
0
210
0
220
0
230
1
40
0.989133
41
0.0371645365887336
42
3.10443862958336
0
ELLIPSE
5
DE
100
AcDbEntity
8
1
62
256
6
ByLayer
370
18
48
1
60
0
100
AcDbEllipse
10
38.890165
20
0.07485
30
0
11
2.90844009032898E-16
21
4.75000000000136
31
0
210
0
220
0
230
1
40
0.989133
41
-2.58955596164279
42
-2.53506897270871
0
ELLIPSE
5
DF
100
AcDbEntity
8
1
62
256
6
ByLayer
370
18
48
1
60
0
100
AcDbEllipse
10
40.43816
20
0.07485
30
0
11
-8.37630746014506E-16
21
-4.56
31
0
210
0
220
0
230
1
40
0.989133
41
-0.170038793601267
42
-2.46144817269876E-16
0
ELLIPSE
5
E0
100
AcDbEntity
8
1
62
256
6
ByLayer
370
18
48
1
60
0
100
AcDbEllipse
10
40.43816
20
0.07485
30
0
11
-8.37630746014506E-16
21
-4.56
31
0
210
0
220
0
230
1
40
0.989133
41
0
42
2.61351058270439
0
ELLIPSE
5
E1
100
AcDbEntity
8
1
62
256
6
ByLayer
370
18
48
1
60
0
100
AcDbEllipse
10
39.27079
20
0.07485
30
0
11
-8.37630746014506E-16
21
-4.56
31
0
210
0
220
0
230
1
40
0.989133
41
0.129787043489421
42
0.574420555351104
0
ELLIPSE
5
E2
100
AcDbEntity
8
1
62
256
6
ByLayer
370
18
48
1
60
0
100
AcDbEllipse
10
16.484973
20
17.28098
30
0
11
-0.127909505037617
21
-3.49766195601019
31
0
210
0
220
0
230
1
40
0.986571
41
-0.31295363466822
42
-0.121399783001719
0
ELLIPSE
5
E3
100
AcDbEntity
8
1
62
256
6
ByLayer
370
18
48
1
60
0
100
AcDbEllipse
10
19.575318
20
8.156762
30
0
11
-0.224755273137527
21
-6.14589172270362
31
0
210
0
220
0
230
1
40
0.986571
41
2.82863901892157
42
2.99253337995484
0
ELLIPSE
5
E4
100
AcDbEntity
8
1
62
256
6
ByLayer
370
18
48
1
60
0
100
AcDbEllipse
10
21.753236
20
7.353137
30
0
11
0.224755273137518
21
6.14589172270362
31
0
210
0
220
0
230
1
40
0.986571
41
3.05792623373525
42
-0.312953634668224
0
ELLIPSE
5
E5
100
AcDbEntity
8
1
62
256
6
ByLayer
370
18
48
1
60
0
100
AcDbEllipse
10
40.43816
20
-14.518419
30
0
11
1.45789386422554E-16
21
2.381
31
0
210
0
220
0
230
1
40
0.989133
41
2.3561944901949
42
-2.35619449018981
0
ELLIPSE
5
E6
100
AcDbEntity
8
1
62
256
6
ByLayer
370
18
48
1
60
0
100
AcDbEllipse
10
54.872844
20
0.07485
30
0
11
1.45789386422554E-16
21
2.381
31
0
210
0
220
0
230
1
40
0.989133
41
-2.35619449018981
42
-0.785398163394901
0
ELLIPSE
5
E7
100
AcDbEntity
8
1
62
256
6
ByLayer
370
18
48
1
60
0
100
AcDbEllipse
10
40.43816
20
14.66812
30
0
11
1.45789386422554E-16
21
2.381
31
0
210
0
220
0
230
1
40
0.989133
41
-0.785398163394901
42
0.785398163399994
0
ELLIPSE
5
E8
100
AcDbEntity
8
1
62
256
6
ByLayer
370
18
48
1
60
0
100
AcDbEllipse
10
17.580072
20
12.98608
30
0
11
6.58618051412545
21
-2.37112341208851
31
0
210
0
220
0
230
1
40
0.050285
41
1.80014953824017
42
2.46337927790884
0
ELLIPSE
5
E9
100
AcDbEntity
8
1
62
256
6
ByLayer
370
18
48
1
60
0
100
AcDbEllipse
10
8.943063
20
4.250943
30
0
11
-1.27910809249879
21
3.26473408396755
31
0
210
0
220
0
230
1
40
0.992946
41
0.95964374537036
42
2.20811182867787
0
ELLIPSE
5
EA
100
AcDbEntity
8
1
62
256
6
ByLayer
370
18
48
1
60
0
100
AcDbEllipse
10
19.213043
20
17.361257
30
0
11
-5.50402380542821
21
2.41904824587812
31
0
210
0
220
0
230
1
40
0.371486
41
0.310370514533555
42
0.740733773741537
0
ELLIPSE
5
EB
100
AcDbEntity
8
1
62
256
6
ByLayer
370
18
48
1
60
0
100
AcDbEllipse
10
6.056562
20
18.135386
30
0
11
-4.24198198040358
21
-1.66198942353594
31
0
210
0
220
0
230
1
40
0.669051
41
2.61182923576343
42
2.72316921833748
0
ELLIPSE
5
EC
100
AcDbEntity
8
1
62
256
6
ByLayer
370
18
48
1
60
0
100
AcDbEllipse
10
13.609537
20
1.957277
30
0
11
-6.72884144427383
21
1.96832322979675
31
0
210
0
220
0
230
1
40
0.411821
41
-0.740385964586373
42
-0.703355494723184
0
ELLIPSE
5
ED
100
AcDbEntity
8
1
62
256
6
ByLayer
370
18
48
1
60
0
100
AcDbEllipse
10
9.88819
20
4.992855
30
0
11
0.196692975802349
21
-0.98046513108321
31
0
210
0
220
0
230
1
40
0.692705
41
-2.00276634329568
42
-0.648087772840955
0
ELLIPSE
5
EE
100
AcDbEntity
8
1
62
256
6
ByLayer
370
18
48
1
60
0
100
AcDbEllipse
10
17.061107
20
16.365775
30
0
11
-2.88105702501006
21
3.52267086991943
31
0
210
0
220
0
230
1
40
0.519447
41
-0.722307325758925
42
0.395380238746109
0
ELLIPSE
5
EF
100
AcDbEntity
8
1
62
256
6
ByLayer
370
18
48
1
60
0
100
AcDbEllipse
10
41.07243
20
0.095372
30
0
11
-2.34537293612705
21
-3.68061983617127
31
0
210
0
220
0
230
1
40
0.817426
41
1.30611263945769
42
1.70194390403115
0
ELLIPSE
5
F0
100
AcDbEntity
8
1
62
256
6
ByLayer
370
18
48
1
60
0
100
AcDbEllipse
10
41.07243
20
0.095372
30
0
11
-0.868367520905424
21
4.09075692367297
31
0
210
0
220
0
230
1
40
0.804635
41
-2.08903389232256
42
-1.69320262775876
0
ELLIPSE
5
F1
100
AcDbEntity
8
1
62
256
6
ByLayer
370
18
48
1
60
0
100
AcDbEllipse
10
12.494012
20
3.679925
30
0
11
-4.54239218183443
21
-1.88345358350844
31
0
210
0
220
0
230
1
40
0.564837
41
-0.568769244918395
42
0.548918319586603
0
ELLIPSE
5
F2
100
AcDbEntity
8
1
62
256
6
ByLayer
370
18
48
1
60
0
100
AcDbEllipse
10
3.483374
20
2.878853
30
0
11
7.5270634447148
21
-2.70985532810114
31
0
210
0
220
0
230
1
40
0.050285
41
-0.917557057125113
42
-0.802002479600146
0
ELLIPSE
5
F3
100
AcDbEntity
8
1
62
256
6
ByLayer
370
18
48
1
60
0
100
AcDbEllipse
10
13.356358
20
1.093361
30
0
11
-5.79626172980884
21
1.60167105410406
31
0
210
0
220
0
230
1
40
0.471442
41
-0.751112052755478
42
-0.320748793552535
0
ELLIPSE
5
F4
100
AcDbEntity
8
1
62
256
6
ByLayer
370
18
48
1
60
0
100
AcDbEllipse
10
13.510159
20
16.936793
30
0
11
-1.27910809249742
21
3.2647340839683
31
0
210
0
220
0
230
1
40
0.992946
41
-0.511504302528261
42
0.736963780779087
0
ELLIPSE
5
F5
100
AcDbEntity
8
1
62
256
6
ByLayer
370
18
48
1
60
0
100
AcDbEllipse
10
1.489466
20
5.449535
30
0
11
-4.24198201685542
21
-1.66198941774434
31
0
210
0
220
0
230
1
40
0.669051
41
2.50048925812984
42
2.6118292402607
0
ELLIPSE
5
F6
100
AcDbEntity
8
1
62
256
6
ByLayer
370
18
48
1
60
0
100
AcDbEllipse
10
14.873645
20
5.468539
30
0
11
6.58618051412545
21
-2.37112341208851
31
0
210
0
220
0
230
1
40
0.050285
41
1.80014953824018
42
2.46337927790888
0
ELLIPSE
5
F7
100
AcDbEntity
8
1
62
256
6
ByLayer
370
18
48
1
60
0
100
AcDbEllipse
10
18.844183
20
16.497342
30
0
11
-6.45207314747215
21
2.74047659283919
31
0
210
0
220
0
230
1
40
0.311638
41
0.695707885747215
42
0.732738337898406
0
ELLIPSE
5
F8
100
AcDbEntity
8
1
62
256
6
ByLayer
370
18
48
1
60
0
100
AcDbEllipse
10
14.175925
20
16.902735
30
0
11
-0.717336119868596
21
-0.696727271700962
31
0
210
0
220
0
230
1
40
0.726667
41
-2.61896939424267
42
-1.26429082378765
0
ELLIPSE
5
F9
100
AcDbEntity
8
1
62
256
6
ByLayer
370
18
48
1
60
0
100
AcDbEllipse
10
1.397259
20
-12.110652
30
0
11
-0.0225164265119957
21
-2.35259937773486
31
0
210
0
220
0
230
1
40
0.08807
41
-1.46254790202421
42
0.108248424770287
0
ELLIPSE
5
FA
100
AcDbEntity
8
1
62
256
6
ByLayer
370
18
48
1
60
0
100
AcDbEllipse
10
22.951801
20
7.134146
30
0
11
3.49012810839377E-17
21
0.57
31
0
210
0
220
0
230
1
40
0.989133
41
3.07890359490207
42
-0.635442642104835
0
ELLIPSE
5
FB
100
AcDbEntity
8
1
62
256
6
ByLayer
370
18
48
1
60
0
100
AcDbEllipse
10
19.849815
20
9.541419
30
0
11
-1.23072938559149E-16
21
-0.67
31
0
210
0
220
0
230
1
40
0.989133
41
0.744481455652002
42
1.45895246028834
0
ELLIPSE
5
FC
100
AcDbEntity
8
1
62
256
6
ByLayer
370
18
48
1
60
0
100
AcDbEllipse
10
22.658089
20
8.818167
30
0
11
3.49012810839377E-17
21
0.57
31
0
210
0
220
0
230
1
40
0.989133
41
-2.15708416108103
42
0.411754909091794
0
ELLIPSE
5
FD
100
AcDbEntity
8
1
62
256
6
ByLayer
370
18
48
1
60
0
100
AcDbEllipse
10
19.044992
20
7.305892
30
0
11
-1.23072938559149E-16
21
-0.67
31
0
210
0
220
0
230
1
40
0.989133
41
0.984508492508769
42
1.69897949714491
0
ELLIPSE
5
FE
100
AcDbEntity
8
1
62
256
6
ByLayer
370
18
48
1
60
0
100
AcDbEllipse
10
19.772976
20
8.303855
30
0
11
3.49012810839377E-17
21
0.57
31
0
210
0
220
0
230
1
40
0.989133
41
-0.0626890586877715
42
2.50615001148494
0
ELLIPSE
5
FF
100
AcDbEntity
8
1
62
256
6
ByLayer
370
18
48
1
60
0
100
AcDbEllipse
10
23.679785
20
8.132109
30
0
11
-1.23072938559149E-16
21
-0.67
31
0
210
0
220
0
230
1
40
0.989133
41
-2.15708416108099
42
-1.44261315644473
0
ELLIPSE
5
100
100
AcDbEntity
8
1
62
256
6
ByLayer
370
18
48
1
60
0
100
AcDbEllipse
10
21.068677
20
9.403022
30
0
11
3.49012810839377E-17
21
0.57
31
0
210
0
220
0
230
1
40
0.989133
41
-1.1098866098844
42
1.45895246028832
0
ELLIPSE
5
101
100
AcDbEntity
8
1
62
256
6
ByLayer
370
18
48
1
60
0
100
AcDbEllipse
10
21.362388
20
7.719001
30
0
11
2.14306111918916E-16
21
3.5
31
0
210
0
220
0
230
1
40
0.989133
41
0
42
6.28318530717959
0
ELLIPSE
5
102
100
AcDbEntity
8
1
62
256
6
ByLayer
370
18
48
1
60
0
100
AcDbEllipse
10
23.334278
20
8.132109
30
0
11
-1.23072938559149E-16
21
-0.67
31
0
210
0
220
0
230
1
40
0.989133
41
-2.15708416108104
42
-0.63544264210477
0
ELLIPSE
5
103
100
AcDbEntity
8
1
62
256
6
ByLayer
370
18
48
1
60
0
100
AcDbEllipse
10
20.557565
20
5.483473
30
0
11
-1.23072938559149E-16
21
-0.67
31
0
210
0
220
0
230
1
40
0.989133
41
2.8388765580454
42
-2.729837744498
0
ELLIPSE
5
104
100
AcDbEntity
8
1
62
256
6
ByLayer
370
18
48
1
60
0
100
AcDbEllipse
10
22.167212
20
9.954528
30
0
11
-1.23072938559149E-16
21
-0.67
31
0
210
0
220
0
230
1
40
0.989133
41
-0.302716095544519
42
0.411754909091758
0
ELLIPSE
5
105
100
AcDbEntity
8
1
62
256
6
ByLayer
370
18
48
1
60
0
100
AcDbEllipse
10
19.044992
20
7.305892
30
0
11
-1.23072938559149E-16
21
-0.67
31
0
210
0
220
0
230
1
40
0.989133
41
1.7916790068488
42
2.50615001148496
0
ELLIPSE
5
106
100
AcDbEntity
8
1
62
256
6
ByLayer
370
18
48
1
60
0
100
AcDbEllipse
10
23.679785
20
8.132109
30
0
11
-1.23072938559149E-16
21
-0.67
31
0
210
0
220
0
230
1
40
0.989133
41
-1.34991364674111
42
-0.63544264210477
0
ELLIPSE
5
107
100
AcDbEntity
8
1
62
256
6
ByLayer
370
18
48
1
60
0
100
AcDbEllipse
10
20.066687
20
6.619834
30
0
11
3.49012810839377E-17
21
0.57
31
0
210
0
220
0
230
1
40
0.989133
41
0.984508492508808
42
-2.729837744498
0
ELLIPSE
5
108
100
AcDbEntity
8
1
62
256
6
ByLayer
370
18
48
1
60
0
100
AcDbEllipse
10
22.874961
20
5.896582
30
0
11
-1.23072938559149E-16
21
-0.67
31
0
210
0
220
0
230
1
40
0.989133
41
3.07890359490204
42
-2.48981070764149
0
ELLIPSE
5
109
100
AcDbEntity
8
1
62
256
6
ByLayer
370
18
48
1
60
0
100
AcDbEllipse
10
22.167212
20
9.954528
30
0
11
-1.23072938559149E-16
21
-0.67
31
0
210
0
220
0
230
1
40
0.989133
41
-1.10988660988442
42
-0.395415605248105
0
ELLIPSE
5
10A
100
AcDbEntity
8
1
62
256
6
ByLayer
370
18
48
1
60
0
100
AcDbEllipse
10
21.141852
20
7.719001
30
0
11
3.64948585882677E-16
21
5.96025955187247
31
0
210
0
220
0
230
1
40
0.989133
41
0
42
6.28318530717959
0
ELLIPSE
5
10B
100
AcDbEntity
8
1
62
256
6
ByLayer
370
18
48
1
60
0
100
AcDbEllipse
10
21.6561
20
6.034979
30
0
11
3.49012810839377E-17
21
0.57
31
0
210
0
220
0
230
1
40
0.989133
41
2.03170604370542
42
-1.68264019330144
0
ELLIPSE
5
10C
100
AcDbEntity
8
1
62
256
6
ByLayer
370
18
48
1
60
0
100
AcDbEllipse
10
19.849815
20
9.541419
30
0
11
-1.23072938559149E-16
21
-0.67
31
0
210
0
220
0
230
1
40
0.989133
41
-0.0626890586877532
42
0.651781945948662
0
ELLIPSE
5
10D
100
AcDbEntity
8
1
62
256
6
ByLayer
370
18
48
1
60
0
100
AcDbEllipse
10
21.141852
20
7.719001
30
0
11
3.67381906146713E-16
21
6
31
0
210
0
220
0
230
1
40
0.989133
41
0
42
6.28318530717959
0
ELLIPSE
5
10E
100
AcDbEntity
8
1
62
256
6
ByLayer
370
18
48
1
60
0
100
AcDbEllipse
10
22.874961
20
5.896582
30
0
11
-1.23072938559149E-16
21
-0.67
31
0
210
0
220
0
230
1
40
0.989133
41
-2.3971111979375
42
-1.68264019330145
0
ELLIPSE
5
10F
100
AcDbEntity
8
1
62
256
6
ByLayer
370
18
48
1
60
0
100
AcDbEllipse
10
20.557565
20
5.483473
30
0
11
-1.23072938559149E-16
21
-0.67
31
0
210
0
220
0
230
1
40
0.989133
41
2.03170604370536
42
2.74617704834164
0
POINT
5
6C
100
AcDbEntity
8
2
62
256
6
ByLayer
370
18
48
1
60
0
100
AcDbPoint
10
57.227764
20
1.0613
30
0
39
0
210
0
220
0
230
1
50
360
0
POINT
5
6E
100
AcDbEntity
8
80
62
256
6
ByLayer
370
18
48
1
60
0
100
AcDbPoint
10
0
20
0
30
0
39
0
210
0
220
0
230
1
50
360
0
POINT
5
70
100
AcDbEntity
8
81
62
256
6
ByLayer
370
18
48
1
60
0
100
AcDbPoint
10
57.227764
20
1.0613
30
0
39
0
210
0
220
0
230
1
50
360
0
SPLINE
5
110
100
AcDbEntity
8
1
62
256
6
ByLayer
370
18
48
1
60
0
100
AcDbSpline
70
4
71
3
72
8
73
4
40
0
40
0
40
0
40
0
40
1
40
1
40
1
40
1
41
1
10
14.0614235198078
20
20.3931086503132
30
0
41
1
10
14.0349208014207
20
20.3973857418811
30
0
41
1
10
14.0082934310475
20
20.4014738455724
30
0
41
1
10
13.9815450659179
20
20.405364396863
30
0
0
SPLINE
5
111
100
AcDbEntity
8
1
62
256
6
ByLayer
370
18
48
1
60
0
100
AcDbSpline
70
4
71
3
72
12
73
8
40
0
40
0
40
0
40
0
40
0.204202248153572
40
0.204202248153572
40
0.849675991585483
40
0.849675991585483
40
1
40
1
40
1
40
1
41
1
10
14.1757939774708
20
6.00608040368252
30
0
41
1
10
14.2690230364784
20
5.94641577783403
30
0
41
1
10
14.3590104390763
20
5.88201155146604
30
0
41
1
10
14.7142660055688
20
5.59830669032814
30
0
41
1
10
14.9476466589103
20
5.335843518301
30
0
41
1
10
15.1619058966872
20
4.98686682585597
30
0
41
1
10
15.199805976153
20
4.91879089831596
30
0
41
1
10
15.2344095074013
20
4.84988951548164
30
0
0
SPLINE
5
112
100
AcDbEntity
8
1
62
256
6
ByLayer
370
18
48
1
60
0
100
AcDbSpline
70
4
71
3
72
10
73
6
40
0
40
0
40
0
40
0
40
0.63460950778469
40
0.63460950778469
40
1
40
1
40
1
40
1
41
1
10
8.86247034558528
20
4.94289896933367
30
0
41
1
10
8.89385074543657
20
5.00132791721035
30
0
41
1
10
8.92529894824315
20
5.06471193706534
30
0
41
1
10
8.97116739026421
20
5.17013424088222
30
0
41
1
10
8.98736785283575
20
5.21041926521247
30
0
41
1
10
9.00188687807531
20
5.25074821672533
30
0
0
SPLINE
5
113
100
AcDbEntity
8
1
62
256
6
ByLayer
370
18
48
1
60
0
100
AcDbSpline
70
4
71
3
72
10
73
6
40
0
40
0
40
0
40
0
40
0.0803615089464647
40
0.636852329491512
40
1
40
1
40
1
40
1
41
1.01762919296299
10
42.2368170160422
20
5.14815245661521
30
0
41
1.01767843505497
10
42.1528127063122
20
5.25051520472633
30
0
41
1.01806418305672
10
41.4819070011529
20
6.05900775615319
30
0
41
1.01859648748914
10
40.3589905665055
20
7.29923993848084
30
0
41
1.01902613005648
10
39.3647974558661
20
8.30874855053403
30
0
41
1.0192425209898
10
38.9140060044006
20
8.7342842170695
30
0
0
SPLINE
5
114
100
AcDbEntity
8
1
62
256
6
ByLayer
370
18
48
1
60
0
100
AcDbSpline
70
4
71
3
72
10
73
6
40
0
40
0
40
0
40
0
40
0.917654486053267
40
0.917654486053267
40
1
40
1
40
1
40
1
41
1
10
37.2994480280247
20
2.86907455143273
30
0
41
1
10
37.7316618751908
20
2.29482761827504
30
0
41
1
10
38.1754092537698
20
1.74835551152776
30
0
41
1
10
38.6668534363118
20
1.18979289105542
30
0
41
1
10
38.7074365063951
20
1.14395086740711
30
0
41
1
10
38.7480649924367
20
1.09830787692036
30
0
0
SPLINE
5
115
100
AcDbEntity
8
1
62
256
6
ByLayer
370
18
48
1
60
0
100
AcDbSpline
70
4
71
3
72
8
73
4
40
0
40
0
40
0
40
0
40
1
40
1
40
1
40
1
41
1
10
18.1059724670176
20
2.27936365797257
30
0
41
1
10
16.7821798608132
20
2.76647827126928
30
0
41
1
10
15.8205881461216
20
3.68271040575507
30
0
41
1
10
15.2344095074013
20
4.84988951548164
30
0
0
SPLINE
5
116
100
AcDbEntity
8
1
62
256
6
ByLayer
370
18
48
1
60
0
100
AcDbSpline
70
4
71
3
72
10
73
6
40
0
40
0
40
0
40
0
40
0.5
40
0.5
40
1
40
1
40
1
40
1
41
1
10
30.8690960077793
20
-4.96398807975106
30
0
41
1
10
28.8007680060928
20
-4.92278528138337
30
0
41
1
10
26.7497303613289
20
-4.77140826923721
30
0
41
1
10
22.7113018117353
20
-4.06309699918424
30
0
41
1
10
20.7275769386986
20
-3.48280277408432
30
0
41
1
10
18.7558286133748
20
-2.82619394576668
30
0
0
SPLINE
5
117
100
AcDbEntity
8
1
62
256
6
ByLayer
370
18
48
1
60
0
100
AcDbSpline
70
4
71
2
72
6
73
3
40
0
40
0
40
0
40
1
40
1
40
1
41
1.02609574526022
10
20.8170028347181
20
0.0143132334177801
30
0
41
1.02609574526022
10
19.7864157240464
20
-1.40594035617446
30
0
41
1.02609574526022
10
18.7558286133747
20
-2.82619394576668
30
0
0
SPLINE
5
118
100
AcDbEntity
8
1
62
256
6
ByLayer
370
18
48
1
60
0
100
AcDbSpline
70
4
71
3
72
15
73
11
40
0
40
0
40
0
40
0
40
0.147139933659572
40
0.147139933659572
40
0.468348890922564
40
0.468348890922564
40
0.791093030527833
40
0.791093030527833
40
0.791093030527833
40
1
40
1
40
1
40
1
41
1
10
44.4453954157769
20
0.289377345186125
30
0
41
1
10
44.4151977828527
20
0.452933096994457
30
0
41
1
10
44.3787196943544
20
0.618509887622992
30
0
41
1
10
44.2425852918718
20
1.14345966673258
30
0
41
1
10
44.1160752618021
20
1.50976489504188
30
0
41
1
10
43.8072079635757
20
2.19585205578349
30
0
41
1
10
43.6201894825035
20
2.52434132233296
30
0
41
1
10
43.4186100193399
20
2.80758275027867
30
0
41
1
10
43.2868301982666
20
2.99274796557114
30
0
41
1
10
43.1470192025519
20
3.16201683384711
30
0
41
1
10
43.0046274203551
20
3.31123164596406
30
0
0
SPLINE
5
119
100
AcDbEntity
8
1
62
256
6
ByLayer
370
18
48
1
60
0
100
AcDbSpline
70
4
71
3
72
10
73
6
40
0
40
0
40
0
40
0
40
0.178235590382925
40
0.965884392557148
40
1
40
1
40
1
40
1
41
1.02426270642939
10
27.5012619680309
20
3.35632127778342
30
0
41
1.02399541235391
10
28.0463108406219
20
3.1935434474824
30
0
41
1.02244297574217
10
31.114501890801
20
2.28850907114285
30
0
41
1.02043217367675
10
34.6174129906565
20
1.31905609405015
30
0
41
1.01956281722772
10
36.471956532497
20
0.801250587267961
30
0
41
1.01952794425508
10
36.5474086964371
20
0.780163124805842
30
0
0
SPLINE
5
11A
100
AcDbEntity
8
1
62
256
6
ByLayer
370
18
48
1
60
0
100
AcDbSpline
70
4
71
3
72
12
73
8
40
0
40
0
40
0
40
0
40
0.5
40
0.5
40
0.75
40
0.75
40
1
40
1
40
1
40
1
41
1
10
36.5474086967232
20
0.780163124725902
30
0
41
1
10
35.8744335100172
20
0.650215528778602
30
0
41
1
10
35.1628147097712
20
0.458607325572984
30
0
41
1
10
34.1465361039818
20
-0.121370510675149
30
0
41
1
10
33.8015621211602
20
-0.403281058682012
30
0
41
1
10
33.6237829746282
20
-0.946316713597383
30
0
41
1
10
33.7763404535946
20
-1.13457900660134
30
0
41
1
10
33.9693039029584
20
-1.2646091534977
30
0
0
SPLINE
5
11B
100
AcDbEntity
8
1
62
256
6
ByLayer
370
18
48
1
60
0
100
AcDbSpline
70
4
71
3
72
10
73
6
40
0
40
0
40
0
40
0
40
0.5
40
0.5
40
1
40
1
40
1
40
1
41
1
10
25.710858234439
20
16.4925308122461
30
0
41
1
10
27.6387785460201
20
15.7141825550054
30
0
41
1
10
29.5273524181259
20
14.8695909656285
30
0
41
1
10
33.0713141673418
20
12.7878178213812
30
0
41
1
10
34.7387460241849
20
11.5709134087457
30
0
41
1
10
36.3493740342069
20
10.2583745208758
30
0
0
SPLINE
5
11C
100
AcDbEntity
8
1
62
256
6
ByLayer
370
18
48
1
60
0
100
AcDbSpline
70
4
71
3
72
8
73
4
40
0
40
0
40
0
40
0
40
1
40
1
40
1
40
1
41
1
10
14.1757939774667
20
6.00608040367612
30
0
41
1
10
12.5034615920179
20
5.20581587669602
30
0
41
1
10
10.8530145187965
20
4.4700652779849
30
0
41
1
10
9.63500975649811
20
4.12893980608064
30
0
0
SPLINE
5
11D
100
AcDbEntity
8
1
62
256
6
ByLayer
370
18
48
1
60
0
100
AcDbSpline
70
4
71
3
72
10
73
6
40
0
40
0
40
0
40
0
40
0.633056393844548
40
0.633056393844548
40
1
40
1
40
1
40
1
41
1
10
13.3441931889244
20
17.3122094907664
30
0
41
1
10
13.3691214408865
20
17.3814517606911
30
0
41
1
10
13.3894824967371
20
17.4519969237543
30
0
41
1
10
13.4146817455581
20
17.5556024279095
30
0
41
1
10
13.4226706435346
20
17.5928364445747
30
0
41
1
10
13.42956606597
20
17.6287493499552
30
0
0
SPLINE
5
11E
100
AcDbEntity
8
1
62
256
6
ByLayer
370
18
48
1
60
0
100
AcDbSpline
70
4
71
3
72
22
73
18
40
0
40
0
40
0
40
0
40
0.13053060273982
40
0.13053060273982
40
0.2030875483074
40
0.2030875483074
40
0.264442711370267
40
0.264442711370267
40
0.326069932320038
40
0.326069932320038
40
0.397667682341329
40
0.397667682341329
40
0.506875085108947
40
0.506875085108947
40
0.711100138795151
40
0.711100138795151
40
1
40
1
40
1
40
1
41
1
10
36.5942866555529
20
6.02670692334524
30
0
41
1
10
36.4800519121924
20
6.05412070340057
30
0
41
1
10
36.3674833352045
20
6.06266262105748
30
0
41
1
10
36.2142036626688
20
6.01575884716146
30
0
41
1
10
36.1630289808246
20
5.98609452578822
30
0
41
1
10
36.0861595968587
20
5.9001579574159
30
0
41
1
10
36.0572379431248
20
5.84746813380099
30
0
41
1
10
36.0196299046214
20
5.71906696932388
30
0
41
1
10
36.0106594285427
20
5.64157787928914
30
0
41
1
10
36.0125237935209
20
5.46239989432493
30
0
41
1
10
36.0264343688354
20
5.35647410919552
30
0
41
1
10
36.0822400516049
20
5.08989221757972
30
0
41
1
10
36.1351413810798
20
4.92466859299125
30
0
41
1
10
36.3092891950157
20
4.47012288927826
30
0
41
1
10
36.4529483393723
20
4.18557635276201
30
0
41
1
10
36.819051444429
20
3.54253514379397
30
0
41
1
10
37.0559206981275
20
3.19253339349362
30
0
41
1
10
37.2994480280247
20
2.86907455143273
30
0
0
SPLINE
5
11F
100
AcDbEntity
8
1
62
256
6
ByLayer
370
18
48
1
60
0
100
AcDbSpline
70
4
71
3
72
8
73
4
40
0
40
0
40
0
40
0
40
1
40
1
40
1
40
1
41
1
10
16.2778539170287
20
13.8211025756135
30
0
41
1
10
15.3076636815065
20
15.17349551946
30
0
41
1
10
14.3302378790324
20
16.4179308622829
30
0
41
1
10
13.4767914122435
20
17.1894829944314
30
0
0
SPLINE
5
120
100
AcDbEntity
8
1
62
256
6
ByLayer
370
18
48
1
60
0
100
AcDbSpline
70
4
71
3
72
12
73
8
40
0
40
0
40
0
40
0
40
0.241231766725667
40
0.241231766725667
40
0.620546361038364
40
0.620546361038364
40
1
40
1
40
1
40
1
41
1
10
42.236763804727
20
5.14821729666531
30
0
41
1
10
41.7731018066609
20
5.26740010182686
30
0
41
1
10
41.3139406982554
20
5.36214722004468
30
0
41
1
10
40.1408052720646
20
5.57047920027398
30
0
41
1
10
39.4269353280243
20
5.68211673388731
30
0
41
1
10
38.0091770981708
20
5.86130141304312
30
0
41
1
10
37.3047200554697
20
5.93109924424076
30
0
41
1
10
36.5942866555567
20
6.02670692334206
30
0
0
SPLINE
5
121
100
AcDbEntity
8
1
62
256
6
ByLayer
370
18
48
1
60
0
100
AcDbSpline
70
4
71
3
72
14
73
10
40
0
40
0
40
0
40
0
40
0.277474514381387
40
0.277474514381387
40
0.53531892339072
40
0.53531892339072
40
0.765023320191397
40
0.765023320191397
40
1
40
1
40
1
40
1
41
1
10
28.826960675424
20
7.03866482735131
30
0
41
1
10
28.8143875808255
20
6.67095573646702
30
0
41
1
10
28.7695795913924
20
6.30261153511296
30
0
41
1
10
28.6234318692952
20
5.60743036372392
30
0
41
1
10
28.5258118794551
20
5.27710207483517
30
0
41
1
10
28.2936042208338
20
4.67384908862059
30
0
41
1
10
28.1635698070198
20
4.39692780770889
30
0
41
1
10
27.8630702563032
20
3.86093947322462
30
0
41
1
10
27.6908849376584
20
3.60089515578346
30
0
41
1
10
27.5012619670029
20
3.35632127809043
30
0
0
SPLINE
5
122
100
AcDbEntity
8
1
62
256
6
ByLayer
370
18
48
1
60
0
100
AcDbSpline
70
4
71
3
72
8
73
4
40
0
40
0
40
0
40
0
40
1
40
1
40
1
40
1
41
1
10
25.5740093068445
20
12.4991921805221
30
0
41
1
10
25.2187373384061
20
12.7088564301971
30
0
41
1
10
24.8397999083975
20
12.8909106531637
30
0
41
1
10
24.4557322627252
20
13.032235632488
30
0
0
SPLINE
5
123
100
AcDbEntity
8
1
62
256
6
ByLayer
370
18
48
1
60
0
100
AcDbSpline
70
4
71
3
72
10
73
6
40
0
40
0
40
0
40
0
40
0.363146207408303
40
0.919635117144721
40
1
40
1
40
1
40
1
41
1.01924252060337
10
33.7649026574692
20
-5.56818990059287
30
0
41
1.0190261298545
10
34.3807850984957
20
-5.53515729797036
30
0
41
1.01859648737407
10
35.7842288934465
20
-5.40790481306046
30
0
41
1.01806418111389
10
37.4329810412082
20
-5.18755784678298
30
0
41
1.01767843063346
10
38.4609718932994
20
-5.00420310671367
30
0
41
1.01762918625356
10
38.5904112573438
20
-4.98037771301869
30
0
0
SPLINE
5
124
100
AcDbEntity
8
1
62
256
6
ByLayer
370
18
48
1
60
0
100
AcDbSpline
70
4
71
3
72
14
73
10
40
0
40
0
40
0
40
0
40
0.344680425563158
40
0.344680425563158
40
0.662299704488283
40
0.662299704488283
40
0.966309045319179
40
0.966309045319179
40
1
40
1
40
1
40
1
41
1
10
40.346489159837
20
-4.07217924105316
30
0
41
1
10
40.6732161900889
20
-4.05450354668656
30
0
41
1
10
41.0335597518895
20
-3.98560653624469
30
0
41
1
10
41.7280890945778
20
-3.75501616222545
30
0
41
1
10
42.0710888477734
20
-3.59790486658099
30
0
41
1
10
42.7030697693094
20
-3.23068369790761
30
0
41
1
10
43.0013036454687
20
-3.01930852825612
30
0
41
1
10
43.3029227150178
20
-2.76887034612801
30
0
41
1
10
43.332974889371
20
-2.74347641212037
30
0
41
1
10
43.3627315200011
20
-2.71789752602143
30
0
0
SPLINE
5
125
100
AcDbEntity
8
1
62
256
6
ByLayer
370
18
48
1
60
0
100
AcDbSpline
70
4
71
3
72
12
73
8
40
0
40
0
40
0
40
0
40
0.499842200422129
40
0.499842200422129
40
0.749802242645017
40
0.749802242645017
40
1
40
1
40
1
40
1
41
1
10
33.9693039029539
20
-1.26460915349756
30
0
41
1
10
34.722676058279
20
-1.89709678092737
30
0
41
1
10
35.4405113644973
20
-2.5574161840774
30
0
41
1
10
36.5872275621645
20
-3.49316871658547
30
0
41
1
10
36.9729560852846
20
-3.80245486329108
30
0
41
1
10
37.7594205828807
20
-4.40936345641074
30
0
41
1
10
38.164464983525
20
-4.70382426703731
30
0
41
1
10
38.5903116331656
20
-4.98039605030246
30
0
0
SPLINE
5
126
100
AcDbEntity
8
1
62
256
6
ByLayer
370
18
48
1
60
0
100
AcDbSpline
70
4
71
3
72
8
73
4
40
0
40
0
40
0
40
0
40
1
40
1
40
1
40
1
41
1
10
13.5708675325542
20
6.3020080879601
30
0
41
1
10
13.5447769819708
20
6.31165989056811
30
0
41
1
10
13.5186176994362
20
6.32103109041839
30
0
41
1
10
13.4924018706295
20
6.33012298993575
30
0
0
SPLINE
5
127
100
AcDbEntity
8
1
62
256
6
ByLayer
370
18
48
1
60
0
100
AcDbSpline
70
4
71
2
72
6
73
3
40
0
40
0
40
0
40
1
40
1
40
1
41
0.949562357290118
10
21.4943029247469
20
1.16714481771948
30
0
41
0.967780772402292
10
21.1131861379338
20
0.422483872477468
30
0
41
1.02609574526022
10
20.8170028347181
20
0.0143132334177801
30
0
0
SPLINE
5
128
100
AcDbEntity
8
1
62
256
6
ByLayer
370
18
48
1
60
0
100
AcDbSpline
70
4
71
3
72
10
73
6
40
0
40
0
40
0
40
0
40
0.5
40
0.5
40
1
40
1
40
1
40
1
41
1
10
25.5740093068445
20
12.4991921805221
30
0
41
1
10
26.5420795287419
20
11.9186474449115
30
0
41
1
10
27.3473638579636
20
11.1278781482815
30
0
41
1
10
28.508984068359
20
9.26996596822383
30
0
41
1
10
28.8655931714042
20
8.16788309847865
30
0
41
1
10
28.826960675424
20
7.03866482735131
30
0
0
SPLINE
5
129
100
AcDbEntity
8
1
62
256
6
ByLayer
370
18
48
1
60
0
100
AcDbSpline
70
4
71
3
72
8
73
4
40
0
40
0
40
0
40
0
40
1
40
1
40
1
40
1
41
1
10
27.5012619670029
20
3.35632127809043
30
0
41
1
10
26.1303113619695
20
1.58802171199164
30
0
41
1
10
23.7171636640269
20
0.824073605307291
30
0
41
1
10
21.4943028573148
20
1.16714468596427
30
0
0
SPLINE
5
12A
100
AcDbEntity
8
1
62
256
6
ByLayer
370
18
48
1
60
0
100
AcDbSpline
70
4
71
3
72
10
73
6
40
0
40
0
40
0
40
0
40
0.61795914153864
40
0.61795914153864
40
1
40
1
40
1
40
1
41
1
10
18.468449654824
20
13.8329614603086
30
0
41
1
10
18.1869454576553
20
13.7206198439621
30
0
41
1
10
17.8676797598874
20
13.6515672941918
30
0
41
1
10
17.3425305285664
20
13.6259008107917
30
0
41
1
10
17.1367770393839
20
13.6358197516076
30
0
41
1
10
16.9331601616191
20
13.665112970156
30
0
0
SPLINE
5
12B
100
AcDbEntity
8
1
62
256
6
ByLayer
370
18
48
1
60
0
100
AcDbSpline
70
4
71
3
72
10
73
6
40
0
40
0
40
0
40
0
40
0.28641387064336
40
0.28641387064336
40
1
40
1
40
1
40
1
41
1
10
38.7480649924546
20
1.09830787690029
30
0
41
1
10
38.5427269181644
20
1.07880046104199
30
0
41
1
10
38.336151823802
20
1.05683208494773
30
0
41
1
10
37.6100418871148
20
0.968538100556799
30
0
41
1
10
37.0815501952419
20
0.883394910508883
30
0
41
1
10
36.5474086967232
20
0.780163124725902
30
0
0
SPLINE
5
12C
100
AcDbEntity
8
1
62
256
6
ByLayer
370
18
48
1
60
0
100
AcDbSpline
70
4
71
3
72
9
73
5
40
0
40
0
40
0
40
0
40
0.557412158884146
40
1
40
1
40
1
40
1
41
1.02609574526022
10
25.7267823870001
20
13.652023633067
30
0
41
1.0257992359639
10
26.9762371935687
20
13.0701181327576
30
0
41
1.02388785778278
10
30.8603450447014
20
10.7013853419956
30
0
41
1.02114228821533
10
35.1043684958011
20
7.25397895614329
30
0
41
1.02025357652117
10
36.5942866516362
20
6.02670692657154
30
0
0
SPLINE
5
12D
100
AcDbEntity
8
1
62
256
6
ByLayer
370
18
48
1
60
0
100
AcDbSpline
70
4
71
3
72
8
73
4
40
0
40
0
40
0
40
0
40
1
40
1
40
1
40
1
41
1
10
16.2778539170262
20
13.8211025756039
30
0
41
1
10
16.2513893242694
20
13.8297154153123
30
0
41
1
10
16.2250447929999
20
13.8385720567117
30
0
41
1
10
16.1988289641907
20
13.8476639562299
30
0
0
SPLINE
5
12E
100
AcDbEntity
8
1
62
256
6
ByLayer
370
18
48
1
60
0
100
AcDbSpline
70
4
71
3
72
8
73
4
40
0
40
0
40
0
40
0
40
1
40
1
40
1
40
1
41
1
10
14.5447893087802
20
17.76665020573
30
0
41
1
10
15.3155085766006
20
16.8603331054001
30
0
41
1
10
16.1438702193385
20
15.3211712193271
30
0
41
1
10
16.933160161619
20
13.665112970156
30
0
0
SPLINE
5
12F
100
AcDbEntity
8
1
62
256
6
ByLayer
370
18
48
1
60
0
100
AcDbSpline
70
4
71
3
72
8
73
4
40
0
40
0
40
0
40
0
40
1
40
1
40
1
40
1
41
1
10
7.94982621488975
20
0.931332678043276
30
0
41
1
10
7.66700366332577
20
1.02102598977046
30
0
41
1
10
7.38132200620464
20
1.13632092874573
30
0
41
1
10
7.09884014513221
20
1.28753324448695
30
0
0
SPLINE
5
130
100
AcDbEntity
8
1
62
256
6
ByLayer
370
18
48
1
60
0
100
AcDbSpline
70
4
71
3
72
8
73
4
40
0
40
0
40
0
40
0
40
1
40
1
40
1
40
1
41
1
10
21.4943028573146
20
1.16714468596402
30
0
41
1
10
21.0862401522999
20
1.23017408787317
30
0
41
1
10
20.678668252047
20
1.33269141748633
30
0
41
1
10
20.2946006063747
20
1.47401639681058
30
0
0
SPLINE
5
131
100
AcDbEntity
8
1
62
256
6
ByLayer
370
18
48
1
60
0
100
AcDbSpline
70
4
71
3
72
10
73
6
40
0
40
0
40
0
40
0
40
0.756795694533344
40
0.756795694533344
40
1
40
1
40
1
40
1
41
1
10
16.933160161619
20
13.665112970156
30
0
41
1
10
16.7688578764581
20
13.6887502186986
30
0
41
1
10
16.5967685964667
20
13.7269430374984
30
0
41
1
10
16.3816908573776
20
13.7883119422772
30
0
41
1
10
16.3293713018293
20
13.8043363634207
30
0
41
1
10
16.2778539170257
20
13.8211025756041
30
0
0
SPLINE
5
132
100
AcDbEntity
8
1
62
256
6
ByLayer
370
18
48
1
60
0
100
AcDbSpline
70
4
71
3
72
8
73
4
40
0
40
0
40
0
40
0
40
1
40
1
40
1
40
1
41
1
10
33.764549748878
20
-5.56820882645468
30
0
41
1
10
33.5170424171608
20
-5.48454208691192
30
0
41
1
10
33.2706946655084
20
-5.39721801711528
30
0
41
1
10
33.0251929480268
20
-5.30743019742428
30
0
0
SPLINE
5
133
100
AcDbEntity
8
1
62
256
6
ByLayer
370
18
48
1
60
0
100
AcDbSpline
70
4
71
3
72
8
73
4
40
0
40
0
40
0
40
0
40
1
40
1
40
1
40
1
41
1
10
38.198663931237
20
9.06272599362515
30
0
41
1
10
38.4381150740773
20
8.9561317198355
30
0
41
1
10
38.6766486990222
20
8.84710264355127
30
0
41
1
10
38.9137484986982
20
8.73452729285472
30
0
0
SPLINE
5
134
100
AcDbEntity
8
1
62
256
6
ByLayer
370
18
48
1
60
0
100
AcDbSpline
70
4
71
1
72
4
73
2
40
0
40
0
40
1
40
1
41
1
10
25.7267823870001
20
13.652023633067
30
0
41
1
10
25.710858234439
20
16.4925308122461
30
0
0
SPLINE
5
135
100
AcDbEntity
8
1
62
256
6
ByLayer
370
18
48
1
60
0
100
AcDbSpline
70
4
71
3
72
8
73
4
40
0
40
0
40
0
40
0
40
1
40
1
40
1
40
1
41
1
10
9.18905634192919
20
5.27960220717941
30
0
41
1
10
10.3799614834547
20
5.44600573714368
30
0
41
1
10
11.9509971336564
20
5.84975897759236
30
0
41
1
10
13.5708675325571
20
6.30200808794839
30
0
0
SPLINE
5
136
100
AcDbEntity
8
1
62
256
6
ByLayer
370
18
48
1
60
0
100
AcDbSpline
70
4
71
3
72
8
73
4
40
0
40
0
40
0
40
0
40
1
40
1
40
1
40
1
41
1
10
18.468449654824
20
13.8329614603086
30
0
41
1
10
19.6434959278481
20
14.3018944244392
30
0
41
1
10
20.9435976578904
20
14.3245922160357
30
0
41
1
10
22.2671041233681
20
13.8375828936499
30
0
0
SPLINE
5
137
100
AcDbEntity
8
1
62
256
6
ByLayer
370
18
48
1
60
0
100
AcDbSpline
70
4
71
3
72
10
73
6
40
0
40
0
40
0
40
0
40
0.567800532142488
40
0.567800532142488
40
1
40
1
40
1
40
1
41
1
10
30.8690960077793
20
-4.96398807975106
30
0
41
1
10
31.3173535089263
20
-4.97291773859698
30
0
41
1
10
31.7622430224245
20
-5.01139335359019
30
0
41
1
10
32.4767839247404
20
-5.13814073631127
30
0
41
1
10
32.7686094490572
20
-5.2135894162783
30
0
41
1
10
33.025192948033
20
-5.30743019742656
30
0
0
SPLINE
5
138
100
AcDbEntity
8
1
62
256
6
ByLayer
370
18
48
1
60
0
100
AcDbSpline
70
4
71
3
72
10
73
6
40
0
40
0
40
0
40
0
40
0.5
40
0.5
40
1
40
1
40
1
40
1
41
1
10
8.09377186531253
20
3.4748732613794
30
0
41
1
10
8.18219111943165
20
3.65604023086905
30
0
41
1
10
8.28333876707222
20
3.84299416657416
30
0
41
1
10
8.52460755958498
20
4.30096289602699
30
0
41
1
10
8.66475124200446
20
4.57475454631441
30
0
41
1
10
8.86247034558431
20
4.94289896933148
30
0
0
SPLINE
5
139
100
AcDbEntity
8
1
62
256
6
ByLayer
370
18
48
1
60
0
100
AcDbSpline
70
4
71
3
72
8
73
4
40
0
40
0
40
0
40
0
40
1
40
1
40
1
40
1
41
1
10
25.5740092803
20
12.4991920530458
30
0
41
1
10
25.6760275881893
20
12.9891210345425
30
0
41
1
10
25.7282878731127
20
13.3834791001857
30
0
41
1
10
25.7267823870001
20
13.652023633067
30
0
0
SPLINE
5
13A
100
AcDbEntity
8
1
62
256
6
ByLayer
370
18
48
1
60
0
100
AcDbSpline
70
4
71
3
72
10
73
6
40
0
40
0
40
0
40
0
40
0.5
40
0.5
40
1
40
1
40
1
40
1
41
1
10
13.4295660659699
20
17.6287493499552
30
0
41
1
10
13.5037522643036
20
18.0151276967889
30
0
41
1
10
13.5573864312122
20
18.2794995623342
30
0
41
1
10
13.6371515607573
20
18.7133677357417
30
0
41
1
10
13.6644843693093
20
18.88393465064
30
0
41
1
10
13.6975438224504
20
19.040260318646
30
0
0
SPLINE
5
13B
100
AcDbEntity
8
1
62
256
6
ByLayer
370
18
48
1
60
0
100
AcDbSpline
70
4
71
3
72
10
73
6
40
0
40
0
40
0
40
0
40
0.178235590375235
40
0.965884392516038
40
1
40
1
40
1
40
1
41
1.02426270642939
10
28.826960676391
20
7.03866482691041
30
0
41
1.02399541235391
10
29.3455002264612
20
6.80225304633441
30
0
41
1.02244297574217
10
32.2541581040974
20
5.45408936386726
30
0
41
1.02043217367667
10
35.5094357955806
20
3.79679436147386
30
0
41
1.01956281722763
10
37.2294715480579
20
2.90537161607818
30
0
41
1.01952794425495
10
37.299448028014
20
2.86907455143824
30
0
0
SPLINE
5
13C
100
AcDbEntity
8
1
62
256
6
ByLayer
370
18
48
1
60
0
100
AcDbSpline
70
4
71
3
72
10
73
6
40
0
40
0
40
0
40
0
40
0.748781644179013
40
0.748781644179013
40
1
40
1
40
1
40
1
41
1
10
13.570867532559
20
6.30200808795306
30
0
41
1
10
13.7252373609884
20
6.24490131636995
30
0
41
1
10
13.882424775566
20
6.17485815562165
30
0
41
1
10
14.0794417028092
20
6.06552630214773
30
0
41
1
10
14.1285153136222
20
6.03633774854012
30
0
41
1
10
14.1757939774707
20
6.0060804036826
30
0
0
SPLINE
5
13D
100
AcDbEntity
8
1
62
256
6
ByLayer
370
18
48
1
60
0
100
AcDbSpline
70
4
71
3
72
9
73
5
40
0
40
0
40
0
40
0
40
0.557412159345915
40
1
40
1
40
1
40
1
41
1.02609574526022
10
20.8170028347181
20
0.0143132334177801
30
0
41
1.0257992359639
10
22.1450854871306
20
-0.349190650446588
30
0
41
1.02388785778436
10
26.643814946575
20
-1.0107120556053
30
0
41
1.02114228821988
10
32.0611699390887
20
-1.19899943920339
30
0
41
1.02025357652616
10
33.969303887292
20
-1.26460915295904
30
0
0
SPLINE
5
13E
100
AcDbEntity
8
1
62
256
6
ByLayer
370
18
48
1
60
0
100
AcDbSpline
70
4
71
3
72
11
73
7
40
0
40
0
40
0
40
0
40
0.567115805318445
40
0.567115805318445
40
0.567115805318445
40
1
40
1
40
1
40
1
41
1
10
38.198663931237
20
9.06272599362521
30
0
41
1
10
37.8722551624746
20
9.20803039790613
30
0
41
1
10
37.516665361797
20
9.41184862002405
30
0
41
1
10
37.1636692055558
20
9.65023894036213
30
0
41
1
10
36.8922021382178
20
9.83356989170466
30
0
41
1
10
36.6170971133296
20
10.0402006468698
30
0
41
1
10
36.3493740342051
20
10.2583745208771
30
0
0
SPLINE
5
13F
100
AcDbEntity
8
1
62
256
6
ByLayer
370
18
48
1
60
0
100
AcDbSpline
70
4
71
1
72
4
73
2
40
0
40
0
40
1
40
1
41
1
10
19.7022739014452
20
7.39153955322897
30
0
41
1
10
19.6916098650061
20
7.4526827566431
30
0
0
SPLINE
5
140
100
AcDbEntity
8
1
62
256
6
ByLayer
370
18
48
1
60
0
100
AcDbSpline
70
4
71
3
72
8
73
4
40
0
40
0
40
0
40
0
40
1
40
1
40
1
40
1
41
1
10
22.4259091207738
20
6.3893262832602
30
0
41
1
10
22.44159049439
20
6.4026290804986
30
0
41
1
10
22.4572718680063
20
6.41593187773697
30
0
41
1
10
22.4729532416225
20
6.42923467497536
30
0
0
SPLINE
5
141
100
AcDbEntity
8
1
62
256
6
ByLayer
370
18
48
1
60
0
100
AcDbSpline
70
4
71
3
72
8
73
4
40
0
40
0
40
0
40
0
40
1
40
1
40
1
40
1
41
1
10
21.9696457961762
20
9.31499277344963
30
0
41
1
10
21.9504097437469
20
9.32207104401593
30
0
41
1
10
21.9311736913178
20
9.32914931458225
30
0
41
1
10
21.9119376388885
20
9.33622758514858
30
0
0
SPLINE
5
142
100
AcDbEntity
8
1
62
256
6
ByLayer
370
18
48
1
60
0
100
AcDbSpline
70
4
71
3
72
9
73
5
40
0
40
0
40
0
40
0
40
0.499999999999979
40
1
40
1
40
1
40
1
41
1
10
23.033166656298
20
7.98531845225892
30
0
41
1
10
23.0309113584511
20
7.99544651174983
30
0
41
1
10
23.0264007627574
20
8.01570263073162
30
0
41
1
10
23.0238020008251
20
8.03620864735913
30
0
41
1
10
23.0225026198589
20
8.04646165567289
30
0
0
SPLINE
5
143
100
AcDbEntity
8
1
62
256
6
ByLayer
370
18
48
1
60
0
100
AcDbSpline
70
4
71
1
72
4
73
2
40
0
40
0
40
1
40
1
41
1
10
20.8128388824156
20
6.10177362375336
30
0
41
1
10
20.7551307251279
20
6.12300843545233
30
0
0
SPLINE
5
144
100
AcDbEntity
8
1
62
256
6
ByLayer
370
18
48
1
60
0
100
AcDbSpline
70
4
71
3
72
10
73
6
40
0
40
0
40
0
40
0
40
0.499998260768473
40
0.501912286286274
40
1
40
1
40
1
40
1
41
1
10
20.2988674005302
20
9.04867492564162
30
0
41
1
10
20.2911350490712
20
9.04175416335121
30
0
41
1
10
20.2833730976732
20
9.03480690793739
30
0
41
1
10
20.2676623802686
20
9.02148106875757
30
0
41
1
10
20.2597276427379
20
9.01511161007809
30
0
41
1
10
20.2518232796817
20
9.00876653392672
30
0
0
LINE
5
72
100
AcDbEntity
8
1
62
256
6
ByLayer
370
18
48
1
60
0
100
AcDbLine
10
22.874961
20
6.566582
30
0
11
22.529455
21
6.566582
31
0
39
0
210
0
220
0
230
1
0
LINE
5
74
100
AcDbEntity
8
1
62
256
6
ByLayer
370
18
48
1
60
0
100
AcDbLine
10
39.458262
20
-16.899419
30
0
11
40.43816
21
-16.899419
31
0
39
0
210
0
220
0
230
1
0
LINE
5
75
100
AcDbEntity
8
1
62
256
6
ByLayer
370
18
48
1
60
0
100
AcDbLine
10
15.499076
20
20.161925
30
0
11
14.059711
21
20.393386
31
0
39
0
210
0
220
0
230
1
0
LINE
5
76
100
AcDbEntity
8
1
62
256
6
ByLayer
370
18
48
1
60
0
100
AcDbLine
10
40.43816
20
17.04912
30
0
11
39.389132
21
17.04912
31
0
39
0
210
0
220
0
230
1
0
LINE
5
77
100
AcDbEntity
8
1
62
256
6
ByLayer
370
18
48
1
60
0
100
AcDbLine
10
15.940493
20
13.824282
30
0
11
16.876273
21
13.673802
31
0
39
0
210
0
220
0
230
1
0
LINE
5
78
100
AcDbEntity
8
1
62
256
6
ByLayer
370
18
48
1
60
0
100
AcDbLine
10
19.720909
20
8.871419
30
0
11
19.849815
21
8.871419
31
0
39
0
210
0
220
0
230
1
0
LINE
5
79
100
AcDbEntity
8
1
62
256
6
ByLayer
370
18
48
1
60
0
100
AcDbLine
10
20.557565
20
6.153473
30
0
11
20.212059
21
6.153473
31
0
39
0
210
0
220
0
230
1
0
LINE
5
7A
100
AcDbEntity
8
1
62
256
6
ByLayer
370
18
48
1
60
0
100
AcDbLine
10
21.821705
20
9.284528
30
0
11
22.167212
21
9.284528
31
0
39
0
210
0
220
0
230
1
0
LINE
5
7B
100
AcDbEntity
8
1
62
256
6
ByLayer
370
18
48
1
60
0
100
AcDbLine
10
20.774292
20
1.719001
30
0
11
21.141852
21
1.719001
31
0
39
0
210
0
220
0
230
1
0
LINE
5
7C
100
AcDbEntity
8
1
62
256
6
ByLayer
370
18
48
1
60
0
100
AcDbLine
10
21.141852
20
13.719001
30
0
11
20.774292
21
13.719001
31
0
39
0
210
0
220
0
230
1
0
LINE
5
7D
100
AcDbEntity
8
80
62
256
6
ByLayer
370
18
48
1
60
0
100
AcDbLine
10
0
20
0
30
0
11
-5
21
0
31
0
39
0
210
0
220
0
230
1
0
LINE
5
7E
100
AcDbEntity
8
81
62
256
6
ByLayer
370
18
48
1
60
0
100
AcDbLine
10
57.227764
20
1.0613
30
0
11
67.227764
21
1.0613
31
0
39
0
210
0
220
0
230
1
0
LINE
5
7F
100
AcDbEntity
8
1
62
256
6
ByLayer
370
18
48
1
60
0
100
AcDbLine
10
19.737652
20
8.872735
30
0
11
19.808297
21
8.872735
31
0
39
0
210
0
220
0
230
1
0
LINE
5
80
100
AcDbEntity
8
1
62
256
6
ByLayer
370
18
48
1
60
0
100
AcDbLine
10
1.449362
20
-14.386646
30
0
11
7.093584
21
1.291095
31
0
39
0
210
0
220
0
230
1
0
LINE
5
81
100
AcDbEntity
8
1
62
256
6
ByLayer
370
18
48
1
60
0
100
AcDbLine
10
16.308175
20
19.925
30
0
11
19.200435
21
19.925
31
0
39
0
210
0
220
0
230
1
0
LINE
5
82
100
AcDbEntity
8
1
62
256
6
ByLayer
370
18
48
1
60
0
100
AcDbLine
10
18.862091
20
18.985194
30
0
11
19.200435
21
19.925
31
0
39
0
210
0
220
0
230
1
0
LINE
5
83
100
AcDbEntity
8
1
62
256
6
ByLayer
370
18
48
1
60
0
100
AcDbLine
10
9.433495
20
-7.204264
30
0
11
11.923272
21
-0.288503
31
0
39
0
210
0
220
0
230
1
0
LINE
5
84
100
AcDbEntity
8
1
62
256
6
ByLayer
370
18
48
1
60
0
100
AcDbLine
10
27.158241
20
-4.738983
30
0
11
39.736297
21
-17.344739
31
0
39
0
210
0
220
0
230
1
0
LINE
5
85
100
AcDbEntity
8
1
62
256
6
ByLayer
370
18
48
1
60
0
100
AcDbLine
10
39.735168
20
17.398967
30
0
11
34.253556
21
11.857131
31
0
39
0
210
0
220
0
230
1
0
LINE
5
86
100
AcDbEntity
8
1
62
256
6
ByLayer
370
18
48
1
60
0
100
AcDbLine
10
27.343515
20
-4.757996
30
0
11
31.501552
21
-8.92519
31
0
39
0
210
0
220
0
230
1
0
LINE
5
87
100
AcDbEntity
8
1
62
256
6
ByLayer
370
18
48
1
60
0
100
AcDbLine
10
39.061207
20
-16.501493
30
0
11
39.771095
21
-17.212944
31
0
39
0
210
0
220
0
230
1
0
LINE
5
88
100
AcDbEntity
8
1
62
256
6
ByLayer
370
18
48
1
60
0
100
AcDbLine
10
1.397259
20
-14.449696
30
0
11
7.069641
21
1.306268
31
0
39
0
210
0
220
0
230
1
0
LINE
5
89
100
AcDbEntity
8
1
62
256
6
ByLayer
370
18
48
1
60
0
100
AcDbLine
10
1.188845
20
-12.362849
30
0
11
6.337235
21
1.937641
31
0
39
0
210
0
220
0
230
1
0
LINE
5
8A
100
AcDbEntity
8
1
62
256
6
ByLayer
370
18
48
1
60
0
100
AcDbLine
10
1.188845
20
19.925
30
0
11
11.67706
21
19.925
31
0
39
0
210
0
220
0
230
1
0
LINE
5
8B
100
AcDbEntity
8
1
62
256
6
ByLayer
370
18
48
1
60
0
100
AcDbLine
10
34.159282
20
11.928794
30
0
11
39.700372
21
17.53076
31
0
39
0
210
0
220
0
230
1
0
LINE
5
8C
100
AcDbEntity
8
1
62
256
6
ByLayer
370
18
48
1
60
0
100
AcDbLine
10
21.711317
20
17.936782
30
0
11
21.720045
21
17.961026
31
0
39
0
210
0
220
0
230
1
0
LINE
5
8D
100
AcDbEntity
8
1
62
256
6
ByLayer
370
18
48
1
60
0
100
AcDbLine
10
38.772835
20
16.351741
30
0
11
38.699309
21
16.351741
31
0
39
0
210
0
220
0
230
1
0
LINE
5
8E
100
AcDbEntity
8
1
62
256
6
ByLayer
370
18
48
1
60
0
100
AcDbLine
10
38.722346
20
-16.202041
30
0
11
38.772835
21
-16.202041
31
0
39
0
210
0
220
0
230
1
0
LINE
5
8F
100
AcDbEntity
8
1
62
256
6
ByLayer
370
18
48
1
60
0
100
AcDbLine
10
27.465516
20
-4.770494
30
0
11
38.772835
21
-16.202041
31
0
39
0
210
0
220
0
230
1
0
LINE
5
90
100
AcDbEntity
8
1
62
256
6
ByLayer
370
18
48
1
60
0
100
AcDbLine
10
38.772835
20
16.351741
30
0
11
34.295376
21
11.825092
31
0
39
0
210
0
220
0
230
1
0
LINE
5
91
100
AcDbEntity
8
1
62
256
6
ByLayer
370
18
48
1
60
0
100
AcDbLine
10
56.538169
20
1.758472
30
0
11
42.103485
21
16.351741
31
0
39
0
210
0
220
0
230
1
0
LINE
5
92
100
AcDbEntity
8
1
62
256
6
ByLayer
370
18
48
1
60
0
100
AcDbLine
10
42.103485
20
-16.202041
30
0
11
56.538169
21
-1.608771
31
0
39
0
210
0
220
0
230
1
0
LINE
5
93
100
AcDbEntity
8
1
62
256
6
ByLayer
370
18
48
1
60
0
100
AcDbLine
10
5.711889
20
5.449535
30
0
11
10.278985
21
18.135386
31
0
39
0
210
0
220
0
230
1
0
LINE
5
94
100
AcDbEntity
8
1
62
256
6
ByLayer
370
18
48
1
60
0
100
AcDbLine
10
22.267104
20
13.837583
30
0
11
21.655884
21
13.935871
31
0
39
0
210
0
220
0
230
1
0
LINE
5
95
100
AcDbEntity
8
1
62
256
6
ByLayer
370
18
48
1
60
0
100
AcDbLine
10
22.267104
20
13.837583
30
0
11
24.455732
21
13.032236
31
0
39
0
210
0
220
0
230
1
0
LINE
5
96
100
AcDbEntity
8
1
62
256
6
ByLayer
370
18
48
1
60
0
100
AcDbLine
10
9.63501
20
4.12894
30
0
11
20.817003
21
0.014313
31
0
39
0
210
0
220
0
230
1
0
LINE
5
97
100
AcDbEntity
8
1
62
256
6
ByLayer
370
18
48
1
60
0
100
AcDbLine
10
10.384401
20
18.500818
30
0
11
5.554183
21
5.084103
31
0
39
0
210
0
220
0
230
1
0
LINE
5
98
100
AcDbEntity
8
1
62
256
6
ByLayer
370
18
48
1
60
0
100
AcDbLine
10
8.86247
20
4.942899
30
0
11
5.711889
21
5.449535
31
0
39
0
210
0
220
0
230
1
0
LINE
5
99
100
AcDbEntity
8
1
62
256
6
ByLayer
370
18
48
1
60
0
100
AcDbLine
10
38.5905
20
-4.980299
30
0
11
40.346489
21
-4.072179
31
0
39
0
210
0
220
0
230
1
0
LINE
5
9A
100
AcDbEntity
8
1
62
256
6
ByLayer
370
18
48
1
60
0
100
AcDbLine
10
38.748065
20
1.098308
30
0
11
44.361938
21
-1.324012
31
0
39
0
210
0
220
0
230
1
0
LINE
5
9B
100
AcDbEntity
8
1
62
256
6
ByLayer
370
18
48
1
60
0
100
AcDbLine
10
13.344193
20
17.312209
30
0
11
12.526254
21
15.040249
31
0
39
0
210
0
220
0
230
1
0
LINE
5
9C
100
AcDbEntity
8
1
62
256
6
ByLayer
370
18
48
1
60
0
100
AcDbLine
10
12.526254
20
15.040249
30
0
11
12.409148
21
15.059081
31
0
39
0
210
0
220
0
230
1
0
LINE
5
9D
100
AcDbEntity
8
1
62
256
6
ByLayer
370
18
48
1
60
0
100
AcDbLine
10
9.174021
20
0.734473
30
0
11
7.949826
21
0.931333
31
0
39
0
210
0
220
0
230
1
0
LINE
5
9E
100
AcDbEntity
8
1
62
256
6
ByLayer
370
18
48
1
60
0
100
AcDbLine
10
16.198829
20
13.847664
30
0
11
15.300911
21
13.992056
31
0
39
0
210
0
220
0
230
1
0
LINE
5
9F
100
AcDbEntity
8
1
62
256
6
ByLayer
370
18
48
1
60
0
100
AcDbLine
10
9.819826
20
7.522708
30
0
11
9.702721
21
7.54154
31
0
39
0
210
0
220
0
230
1
0
LINE
5
A0
100
AcDbEntity
8
1
62
256
6
ByLayer
370
18
48
1
60
0
100
AcDbLine
10
20.294601
20
1.474016
30
0
11
18.105972
21
2.279364
31
0
39
0
210
0
220
0
230
1
0
LINE
5
A1
100
AcDbEntity
8
1
62
256
6
ByLayer
370
18
48
1
60
0
100
AcDbLine
10
43.004627
20
3.311232
30
0
11
42.236832
21
5.148055
31
0
39
0
210
0
220
0
230
1
0
LINE
5
A2
100
AcDbEntity
8
1
62
256
6
ByLayer
370
18
48
1
60
0
100
AcDbLine
10
9.174021
20
0.734473
30
0
11
14.792788
21
-1.333059
31
0
39
0
210
0
220
0
230
1
0
LINE
5
A3
100
AcDbEntity
8
1
62
256
6
ByLayer
370
18
48
1
60
0
100
AcDbLine
10
12.046386
20
-0.326169
30
0
11
14.77492
21
-1.330185
31
0
39
0
210
0
220
0
230
1
0
LINE
5
A4
100
AcDbEntity
8
1
62
256
6
ByLayer
370
18
48
1
60
0
100
AcDbLine
10
21.655884
20
13.935871
30
0
11
23.833802
21
13.132247
31
0
39
0
210
0
220
0
230
1
0
LINE
5
A5
100
AcDbEntity
8
1
62
256
6
ByLayer
370
18
48
1
60
0
100
AcDbLine
10
12.046386
20
-0.326169
30
0
11
8.618766
21
0.722729
31
0
39
0
210
0
220
0
230
1
0
LINE
5
A6
100
AcDbEntity
8
1
62
256
6
ByLayer
370
18
48
1
60
0
100
AcDbLine
10
24.455732
20
13.032236
30
0
11
23.833802
21
13.132247
31
0
39
0
210
0
220
0
230
1
0
LINE
5
A7
100
AcDbEntity
8
1
62
256
6
ByLayer
370
18
48
1
60
0
100
AcDbLine
10
25.710858
20
16.492531
30
0
11
21.720045
21
17.961026
31
0
39
0
210
0
220
0
230
1
0
LINE
5
A8
100
AcDbEntity
8
1
62
256
6
ByLayer
370
18
48
1
60
0
100
AcDbLine
10
13.429566
20
17.628749
30
0
11
10.278985
21
18.135386
31
0
39
0
210
0
220
0
230
1
0
LINE
5
A9
100
AcDbEntity
8
1
62
256
6
ByLayer
370
18
48
1
60
0
100
AcDbLine
10
14.792788
20
-1.333059
30
0
11
14.77492
21
-1.330185
31
0
39
0
210
0
220
0
230
1
0
LINE
5
AA
100
AcDbEntity
8
1
62
256
6
ByLayer
370
18
48
1
60
0
100
AcDbLine
10
14.792788
20
-1.333059
30
0
11
14.765015
21
-1.357698
31
0
39
0
210
0
220
0
230
1
0
LINE
5
AB
100
AcDbEntity
8
1
62
256
6
ByLayer
370
18
48
1
60
0
100
AcDbLine
10
18.755829
20
-2.826194
30
0
11
14.765015
21
-1.357698
31
0
39
0
210
0
220
0
230
1
0
LINE
5
AC
100
AcDbEntity
8
1
62
256
6
ByLayer
370
18
48
1
60
0
100
AcDbLine
10
12.409148
20
15.059081
30
0
11
9.702721
21
7.54154
31
0
39
0
210
0
220
0
230
1
0
LINE
5
AD
100
AcDbEntity
8
1
62
256
6
ByLayer
370
18
48
1
60
0
100
AcDbLine
10
21.728008
20
17.93064
30
0
11
16.109241
21
19.998172
31
0
39
0
210
0
220
0
230
1
0
LINE
5
AE
100
AcDbEntity
8
1
62
256
6
ByLayer
370
18
48
1
60
0
100
AcDbLine
10
9.819826
20
7.522708
30
0
11
9.001887
21
5.250748
31
0
39
0
210
0
220
0
230
1
0
LINE
5
AF
100
AcDbEntity
8
1
62
256
6
ByLayer
370
18
48
1
60
0
100
AcDbLine
10
15.300911
20
13.992056
30
0
11
12.409148
21
15.059081
31
0
39
0
210
0
220
0
230
1
0
LINE
5
B0
100
AcDbEntity
8
1
62
256
6
ByLayer
370
18
48
1
60
0
100
AcDbLine
10
14.544789
20
17.76665
30
0
11
25.726782
21
13.652024
31
0
39
0
210
0
220
0
230
1
0
LINE
5
B1
100
AcDbEntity
8
1
62
256
6
ByLayer
370
18
48
1
60
0
100
AcDbLine
10
14.77492
20
-1.330185
30
0
11
14.765015
21
-1.357698
31
0
39
0
210
0
220
0
230
1
0
LINE
5
B2
100
AcDbEntity
8
1
62
256
6
ByLayer
370
18
48
1
60
0
100
AcDbLine
10
21.720045
20
17.961026
30
0
11
21.728008
21
17.93064
31
0
39
0
210
0
220
0
230
1
0
LINE
5
B3
100
AcDbEntity
8
1
62
256
6
ByLayer
370
18
48
1
60
0
100
AcDbLine
10
39.736297
20
-17.344739
30
0
11
39.771095
21
-17.212944
31
0
39
0
210
0
220
0
230
1
0
LINE
5
B4
100
AcDbEntity
8
1
62
256
6
ByLayer
370
18
48
1
60
0
100
AcDbLine
10
2.005144
20
-19.951692
30
0
11
1.449362
21
-14.386646
31
0
39
0
210
0
220
0
230
1
0
LINE
5
B5
100
AcDbEntity
8
1
62
256
6
ByLayer
370
18
48
1
60
0
100
AcDbLine
10
1.188845
20
-12.362849
30
0
11
1.188845
21
19.925
31
0
39
0
210
0
220
0
230
1
0
LINE
5
B6
100
AcDbEntity
8
1
62
256
6
ByLayer
370
18
48
1
60
0
100
AcDbLine
10
39.700372
20
17.53076
30
0
11
39.735168
21
17.398967
31
0
39
0
210
0
220
0
230
1
0
LINE
5
B7
100
AcDbEntity
8
1
62
256
6
ByLayer
370
18
48
1
60
0
100
AcDbLine
10
39.700372
20
17.53076
30
0
11
37.33215
21
19.925
31
0
39
0
210
0
220
0
230
1
0
LINE
5
B8
100
AcDbEntity
8
1
62
256
6
ByLayer
370
18
48
1
60
0
100
AcDbLine
10
3.859003
20
-19.957314
30
0
11
2.005144
21
-19.951692
31
0
39
0
210
0
220
0
230
1
0
LINE
5
B9
100
AcDbEntity
8
1
62
256
6
ByLayer
370
18
48
1
60
0
100
AcDbLine
10
0.5
20
19.925
30
0
11
0.5
21
-19.927182
31
0
39
0
210
0
220
0
230
1
0
LINE
5
BA
100
AcDbEntity
8
1
62
256
6
ByLayer
370
18
48
1
60
0
100
AcDbLine
10
0
20
19.925
30
0
11
0.5
21
19.925
31
0
39
0
210
0
220
0
230
1
0
LINE
5
BB
100
AcDbEntity
8
1
62
256
6
ByLayer
370
18
48
1
60
0
100
AcDbLine
10
37.169907
20
-19.939325
30
0
11
9.433495
21
-19.957314
31
0
39
0
210
0
220
0
230
1
0
LINE
5
BC
100
AcDbEntity
8
1
62
256
6
ByLayer
370
18
48
1
60
0
100
AcDbLine
10
0
20
19.925
30
0
11
0
21
-19.925
31
0
39
0
210
0
220
0
230
1
0
LINE
5
BD
100
AcDbEntity
8
1
62
256
6
ByLayer
370
18
48
1
60
0
100
AcDbLine
10
9.433495
20
-7.204264
30
0
11
3.859003
21
-19.957314
31
0
39
0
210
0
220
0
230
1
0
LINE
5
BE
100
AcDbEntity
8
1
62
256
6
ByLayer
370
18
48
1
60
0
100
AcDbLine
10
1.188845
20
19.925
30
0
11
0.5
21
19.925
31
0
39
0
210
0
220
0
230
1
0
LINE
5
BF
100
AcDbEntity
8
1
62
256
6
ByLayer
370
18
48
1
60
0
100
AcDbLine
10
3.859003
20
-19.957314
30
0
11
9.433495
21
-19.957314
31
0
39
0
210
0
220
0
230
1
0
LINE
5
C0
100
AcDbEntity
8
1
62
256
6
ByLayer
370
18
48
1
60
0
100
AcDbLine
10
0.5
20
-19.927182
30
0
11
2.005144
21
-19.951692
31
0
39
0
210
0
220
0
230
1
0
LINE
5
C1
100
AcDbEntity
8
1
62
256
6
ByLayer
370
18
48
1
60
0
100
AcDbLine
10
1.449362
20
-14.386646
30
0
11
1.397259
21
-14.449696
31
0
39
0
210
0
220
0
230
1
0
LINE
5
C2
100
AcDbEntity
8
1
62
256
6
ByLayer
370
18
48
1
60
0
100
AcDbLine
10
37.169907
20
-19.939325
30
0
11
39.736297
21
-17.344739
31
0
39
0
210
0
220
0
230
1
0
LINE
5
C3
100
AcDbEntity
8
1
62
256
6
ByLayer
370
18
48
1
60
0
100
AcDbLine
10
0.5
20
-19.927182
30
0
11
0
21
-19.925
31
0
39
0
210
0
220
0
230
1
0
LINE
5
C4
100
AcDbEntity
8
1
62
256
6
ByLayer
370
18
48
1
60
0
100
AcDbLine
10
19.200435
20
19.925
30
0
11
37.33215
21
19.925
31
0
39
0
210
0
220
0
230
1
0
LINE
5
C5
100
AcDbEntity
8
1
62
256
6
ByLayer
370
18
48
1
60
0
100
AcDbLine
10
9.433495
20
-19.957314
30
0
11
9.433495
21
-7.204264
31
0
39
0
210
0
220
0
230
1
0
LINE
5
C6
100
AcDbEntity
8
SK1
62
256
6
ByLayer
370
18
48
1
60
0
100
AcDbLine
10
-194.122236
20
19.925
30
0
11
-194.122236
21
-19.925
31
0
39
0
210
0
220
0
230
1
0
LINE
5
C8
100
AcDbEntity
8
SK1
62
256
6
ByLayer
370
18
48
1
60
0
100
AcDbLine
10
0
20
19.925
30
0
11
0
21
-19.925
31
0
39
0
210
0
220
0
230
1
0
LINE
5
C9
100
AcDbEntity
8
SK1
62
256
6
ByLayer
370
18
48
1
60
0
100
AcDbLine
10
0
20
19.925
30
0
11
-194.122236
21
19.925
31
0
39
0
210
0
220
0
230
1
0
LINE
5
CA
100
AcDbEntity
8
SK1
62
256
6
ByLayer
370
18
48
1
60
0
100
AcDbLine
10
-194.122236
20
-19.925
30
0
11
0
21
-19.925
31
0
39
0
210
0
220
0
230
1
0
LINE
5
CB
100
AcDbEntity
8
1
62
256
6
ByLayer
370
18
48
1
60
0
100
AcDbLine
10
19.946826
20
6.097474
30
0
11
20.292333
21
6.097474
31
0
39
0
210
0
220
0
230
1
0
LINE
5
CC
100
AcDbEntity
8
1
62
256
6
ByLayer
370
18
48
1
60
0
100
AcDbLine
10
22.940932
20
7.592887
30
0
11
23.286438
21
7.592887
31
0
39
0
210
0
220
0
230
1
0
LINE
5
CD
100
AcDbEntity
8
1
62
256
6
ByLayer
370
18
48
1
60
0
100
AcDbLine
10
22.782233
20
8.502802
30
0
11
23.127739
21
8.502802
31
0
39
0
210
0
220
0
230
1
0
LINE
5
CE
100
AcDbEntity
8
1
62
256
6
ByLayer
370
18
48
1
60
0
100
AcDbLine
10
21.228142
20
9.656537
30
0
11
21.573648
21
9.656537
31
0
39
0
210
0
220
0
230
1
0
LINE
5
CF
100
AcDbEntity
8
1
62
256
6
ByLayer
370
18
48
1
60
0
100
AcDbLine
10
21.870877
20
5.971361
30
0
11
22.216383
21
5.971361
31
0
39
0
210
0
220
0
230
1
0
MTEXT
5
145
100
AcDbEntity
8
SK6
62
256
6
ByLayer
370
18
48
1
60
0
100
AcDbMText
10
-82.572236
20
-30.517086
30
0
210
0
220
0
230
1
1
\W0.7887;DSDNN 4040S 25
40
3.5
41
0
44
1.084337
50
0
71
7
72
5
7
iso_b_vert
0
DIMENSION
5
156
100
AcDbEntity
8
2
62
256
6
ByLayer
370
13
48
1
60
0
100
AcDbDimension
2
DimnDraft3D1
10
54.72982
20
3.586688
30
0
11
47.550512
21
24.605955
31
0
70
34
71
5
72
1
41
1
210
0
220
0
230
1
3
Standard
100
AcDb2LineAngularDimension
13
57.227764
23
1.0613
33
0
14
57.227764
24
-3.7017
34
0
15
57.227764
25
1.0613
35
0
16
49.261225
26
20.443809
36
0
40
0
0
DIMENSION
5
16C
100
AcDbEntity
8
SK2
62
256
6
ByLayer
370
13
48
1
60
0
100
AcDbDimension
2
DimnDraft3D2
10
-201.872236
20
19.925
30
0
11
-201.872236
21
-5.518421
31
0
70
32
71
5
72
1
41
1
210
0
220
0
230
1
3
Standard
100
AcDbAlignedDimension
13
-196.122236
23
-19.925
33
0
14
-196.122236
24
19.925
34
0
50
90
100
AcDbRotatedDimension
1001
ACAD
1000
DSTYLE
1002
{
1070
    74
1070
     0
1070
   279
1070
     0
1070
   172
1070
     1
1070
   173
1070
     1
1070
   340
1005
146
1070
    77
1070
     1
1070
    73
1070
     0
1070
   171
1070
     3
1070
   274
1070
     4
1070
   177
1070
     2
1070
   176
1070
     2
1070
   178
1070
     7
1070
    78
1070
     8
1070
    41
1041
3.175
1070
   147
1041
2.25
1070
    42
1041
2.0
1070
    44
1041
2.0
1070
   140
1041
4.5
1070
   343
1005
157
1070
   344
1005
157
1002
}
0
DIMENSION
5
17A
100
AcDbEntity
8
2
62
256
6
ByLayer
370
13
48
1
60
0
100
AcDbDimension
2
DimnDraft3D3
10
79.477764
20
1.0613
30
0
11
79.477764
21
-14.150929
31
0
70
32
71
5
72
1
41
1
210
0
220
0
230
1
3
Standard
100
AcDbAlignedDimension
13
2
23
-19.925
33
0
14
59.227764
24
1.0613
34
0
50
90
100
AcDbRotatedDimension
1001
ACAD
1000
DSTYLE
1002
{
1070
    74
1070
     0
1070
   279
1070
     0
1070
   172
1070
     1
1070
   173
1070
     1
1070
   340
1005
146
1070
    77
1070
     1
1070
    73
1070
     0
1070
   171
1070
     3
1070
   274
1070
     4
1070
   177
1070
     2
1070
   176
1070
     2
1070
   178
1070
     7
1070
    78
1070
     8
1070
    41
1041
3.175
1070
   147
1041
2.25
1070
    42
1041
2.0
1070
    44
1041
2.0
1070
   140
1041
4.5
1070
   343
1005
157
1070
   344
1005
157
1002
}
0
DIMENSION
5
188
100
AcDbEntity
8
2
62
256
6
ByLayer
370
13
48
1
60
0
100
AcDbDimension
2
DimnDraft3D4
10
57.227764
20
30.8113
30
0
11
23.332303
21
30.8113
31
0
70
32
71
5
72
1
41
1
210
0
220
0
230
1
3
Standard
100
AcDbAlignedDimension
13
0
23
21.925
33
0
14
57.227764
24
3.0613
34
0
50
0
100
AcDbRotatedDimension
1001
ACAD
1000
DSTYLE
1002
{
1070
   279
1070
     0
1070
   172
1070
     1
1070
   173
1070
     1
1070
   340
1005
146
1070
    77
1070
     1
1070
    73
1070
     0
1070
   171
1070
     3
1070
   274
1070
     4
1070
   177
1070
     2
1070
   176
1070
     2
1070
   178
1070
     7
1070
    78
1070
     8
1070
    41
1041
3.175
1070
   147
1041
2.25
1070
    42
1041
2.0
1070
    44
1041
2.0
1070
   140
1041
4.5
1070
   343
1005
157
1070
   344
1005
157
1002
}
0
DIMENSION
5
196
100
AcDbEntity
8
SK2
62
256
6
ByLayer
370
13
48
1
60
0
100
AcDbDimension
2
DimnDraft3D5
10
-194.122236
20
40.8113
30
0
11
-75.410394
21
40.8113
31
0
70
32
71
5
72
1
41
1
210
0
220
0
230
1
3
Standard
100
AcDbAlignedDimension
13
57.227764
23
3.0613
33
0
14
-194.122236
24
21.925
34
0
50
0
100
AcDbRotatedDimension
1001
ACAD
1000
DSTYLE
1002
{
1070
   279
1070
     0
1070
   172
1070
     1
1070
   173
1070
     1
1070
   340
1005
146
1070
    77
1070
     1
1070
    73
1070
     0
1070
   171
1070
     3
1070
   274
1070
     4
1070
   177
1070
     2
1070
   176
1070
     2
1070
   178
1070
     7
1070
    78
1070
     8
1070
    41
1041
3.175
1070
   147
1041
2.25
1070
    42
1041
2.0
1070
    44
1041
2.0
1070
   140
1041
4.5
1070
   343
1005
157
1070
   344
1005
157
1002
}
0
ENDSEC
0
SECTION
2
OBJECTS
0
DICTIONARY
5
200
330
0
100
AcDbDictionary
280
0
281
1
3
ACAD_GROUP
350
201
3
ACAD_MLINESTYLE
350
202
0
DICTIONARY
5
201
330
0
100
AcDbDictionary
280
0
281
1
0
DICTIONARY
5
202
330
0
100
AcDbDictionary
280
0
281
1
3
Standard
350
18
0
MLINESTYLE
5
18
330
202
100
AcDbMlineStyle
2
Standard
70
0
3

62
256
51
90
52
90
71
2
49
-0.5
62
256
6
ByLayer
49
0.5
62
256
6
ByLayer
0
RASTERVARIABLES
5
1ef
330

100
AcDbRasterVariables
90
0
70
1
71
1
72
1
0
ENDSEC
0
EOF
