0
SECTION
2
HEADER
9
$ACADVER
1
AC1015
9
$DWGCODEPAGE
3
ANSI_1252
9
$HANDSEED
5
214
9
$ANGBASE
50
0
9
$ANGDIR
70
0
9
$ATTMODE
70
1
9
$AUNITS
70
0
9
$AUPREC
70
0
9
$CECOLOR
62
256
9
$CELTSCALE
40
1
9
$CELTYPE
6
ByLayer
9
$CELWEIGHT
370
18
9
$CLAYER
8
0
9
$CMLJUST
70
0
9
$CMLSCALE
40
1
9
$CMLSTYLE
2
Standard
9
$DIMSTYLE
2
Standard
9
$TEXTSIZE
40
0.2
9
$TEXTSTYLE
7
Standard
9
$LUNITS
70
2
9
$LUPREC
70
4
9
$EXTNAMES
290
1
9
$INSUNITS
70
4
9
$LTSCALE
40
1
9
$LWDISPLAY
290
1
9
$PDMODE
70
0
9
$PDSIZE
40
0
9
$PLINEGEN
70
0
0
ENDSEC
0
SECTION
2
CLASSES
0
CLASS
1
RASTERVARIABLES
2
AcDbRasterVariables
3
ISM
90
0
280
0
281
0
0
ENDSEC
0
SECTION
2
TABLES
0
TABLE
2
VPORT
5
20a
100
AcDbSymbolTable
0
VPORT
5
1
100
AcDbSymbolTableRecord
100
AcDbViewportTableRecord
2
*Active
70
0
10
0
20
0
11
1
21
1
12
-1
22
1
13
0
23
0
14
0.5
24
0.5
15
10
25
10
16
0
26
0
36
1
17
0
27
0
37
0
0
ENDTAB
0
TABLE
2
LTYPE
5
20b
100
AcDbSymbolTable
0
LTYPE
5
14
100
AcDbSymbolTableRecord
100
AcDbLinetypeTableRecord
70
0
2
ByBlock
3

72
65
73
0
40
0
0
LTYPE
5
15
100
AcDbSymbolTableRecord
100
AcDbLinetypeTableRecord
70
0
2
ByLayer
3

72
65
73
0
40
0
0
LTYPE
5
16
100
AcDbSymbolTableRecord
100
AcDbLinetypeTableRecord
70
0
2
CONTINUOUS
3
Solid line
72
65
73
0
40
0
0
LTYPE
5
6A
100
AcDbSymbolTableRecord
100
AcDbLinetypeTableRecord
70
0
2
CENTER
3
____ _ ____ _ ____ _ ____
72
65
73
4
40
47.5
49
22
74
0
49
-8.5
74
0
49
8.5
74
0
49
-8.5
74
0
0
LTYPE
5
6B
100
AcDbSymbolTableRecord
100
AcDbLinetypeTableRecord
70
0
2
DASHED
3
__ __ __ __ __ __ __ __ __
72
65
73
2
40
25.72
49
12.86
74
0
49
-12.86
74
0
0
ENDTAB
0
TABLE
2
LAYER
5
20c
100
AcDbSymbolTable
0
LAYER
5
10
100
AcDbSymbolTableRecord
100
AcDbLayerTableRecord
2
0
70
0
62
7
6
CONTINUOUS
290
1
370
-3
390
0
0
LAYER
5
6D
100
AcDbSymbolTableRecord
100
AcDbLayerTableRecord
2
2
70
0
62
7
6
CONTINUOUS
290
1
370
-3
390
0
0
LAYER
5
6F
100
AcDbSymbolTableRecord
100
AcDbLayerTableRecord
2
80
70
0
62
-6
6
CONTINUOUS
290
1
370
-3
390
0
0
LAYER
5
71
100
AcDbSymbolTableRecord
100
AcDbLayerTableRecord
2
81
70
0
62
-3
6
CONTINUOUS
290
1
370
-3
390
0
0
LAYER
5
73
100
AcDbSymbolTableRecord
100
AcDbLayerTableRecord
2
1
70
0
62
4
6
CONTINUOUS
290
1
370
-3
390
0
0
LAYER
5
1f7
100
AcDbSymbolTableRecord
100
AcDbLayerTableRecord
2
SK1
70
0
62
4
6
CONTINUOUS
290
1
370
-3
390
0
0
LAYER
5
1f8
100
AcDbSymbolTableRecord
100
AcDbLayerTableRecord
2
SK6
70
0
62
5
6
CONTINUOUS
290
1
370
-3
390
0
0
LAYER
5
1f9
100
AcDbSymbolTableRecord
100
AcDbLayerTableRecord
2
SK2
70
0
62
7
6
CONTINUOUS
290
1
370
-3
390
0
0
ENDTAB
0
TABLE
2
STYLE
5
20d
100
AcDbSymbolTable
0
STYLE
5
11
100
AcDbSymbolTableRecord
100
AcDbTextStyleTableRecord
2
Standard
3
txt
70
0
71
0
40
0
41
1
42
0
50
0
0
STYLE
5
14D
100
AcDbSymbolTableRecord
100
AcDbTextStyleTableRecord
2
iso_b_vert
3
simplex.shx
70
0
71
0
40
0
41
1
42
0
50
0
0
STYLE
5
14E
100
AcDbSymbolTableRecord
100
AcDbTextStyleTableRecord
2
DWGDirectTextStyle
3
simplex
70
0
71
0
40
0
41
1
42
0
50
0
0
ENDTAB
0
TABLE
2
DIMSTYLE
5
20e
100
AcDbSymbolTable
100
AcDbDimStyleTable
0
DIMSTYLE
105
27
100
AcDbSymbolTableRecord
100
AcDbDimStyleTableRecord
2
Standard
70
0
3
<>
41
0.18
42
0.0625
44
0.18
140
0.18
147
0.09
73
0
74
0
77
1
271
2
275
0
278
52
280
0
340
11
0
ENDTAB
0
TABLE
2
VIEW
5
20f
100
AcDbSymbolTable
0
ENDTAB
0
TABLE
2
UCS
5
210
100
AcDbSymbolTable
0
ENDTAB
0
TABLE
2
APPID
5
211
100
AcDbSymbolTable
0
APPID
5
12
100
AcDbSymbolTableRecord
100
AcDbRegAppTableRecord
2
ACAD
70
0
0
ENDTAB
0
TABLE
2
BLOCK_RECORD
5
212
100
AcDbSymbolTable
0
BLOCK_RECORD
5
1F
100
AcDbSymbolTableRecord
100
AcDbBlockTableRecord
2
*Model_Space
340
0
70
0
0
BLOCK_RECORD
5
1B
100
AcDbSymbolTableRecord
100
AcDbBlockTableRecord
2
*Paper_Space
340
0
70
0
0
BLOCK_RECORD
5
23
100
AcDbSymbolTableRecord
100
AcDbBlockTableRecord
2
*Paper_Space0
340
0
70
0
0
BLOCK_RECORD
5
150
100
AcDbSymbolTableRecord
100
AcDbBlockTableRecord
2
DimnDraft3D1
340
0
70
0
0
BLOCK_RECORD
5
15E
100
AcDbSymbolTableRecord
100
AcDbBlockTableRecord
2
_CLOSED
340
0
70
0
0
BLOCK_RECORD
5
165
100
AcDbSymbolTableRecord
100
AcDbBlockTableRecord
2
DimnDraft3D2
340
0
70
0
0
BLOCK_RECORD
5
174
100
AcDbSymbolTableRecord
100
AcDbBlockTableRecord
2
DimnDraft3D3
340
0
70
0
0
BLOCK_RECORD
5
182
100
AcDbSymbolTableRecord
100
AcDbBlockTableRecord
2
DimnDraft3D4
340
0
70
0
0
BLOCK_RECORD
5
190
100
AcDbSymbolTableRecord
100
AcDbBlockTableRecord
2
DimnDraft3D5
340
0
70
0
0
ENDTAB
0
ENDSEC
0
SECTION
2
BLOCKS
0
BLOCK
5
20
100
AcDbEntity
8
0
100
AcDbBlockBegin
2
*Model_Space
70
0
10
0
20
0
30
0
3
*Model_Space
0
ENDBLK
5
21
100
AcDbEntity
8
0
100
AcDbBlockEnd
0
BLOCK
5
1C
100
AcDbEntity
8
0
100
AcDbBlockBegin
2
*Paper_Space
70
0
10
0
20
0
30
0
3
*Paper_Space
0
ENDBLK
5
1D
100
AcDbEntity
8
0
100
AcDbBlockEnd
0
BLOCK
5
24
100
AcDbEntity
8
0
100
AcDbBlockBegin
2
*Paper_Space0
70
0
10
0
20
0
30
0
3
*Paper_Space0
0
ENDBLK
5
25
100
AcDbEntity
8
0
100
AcDbBlockEnd
0
BLOCK
5
15B
100
AcDbEntity
8
0
100
AcDbBlockBegin
2
DimnDraft3D1
70
0
10
0
20
0
30
0
3
DimnDraft3D1
0
MTEXT
5
151
100
AcDbEntity
8
2
62
256
6
ByLayer
370
18
48
1
60
0
100
AcDbMText
10
33.464829
20
19.778996
30
0
210
0
220
0
230
1
1
\W0.7785;45%%d
40
4.5
41
0
44
1.084337
50
22.3434918549997
71
7
72
5
7
iso_b_vert
0
LINE
5
152
100
AcDbEntity
8
2
62
256
6
ByLayer
370
13
48
1
60
0
100
AcDbLine
10
44.778025
20
2.5557
30
0
11
44.778025
21
23.511544
31
0
39
0
210
0
220
0
230
1
0
LINE
5
153
100
AcDbEntity
8
2
62
256
6
ByLayer
370
13
48
1
60
0
100
AcDbLine
10
40.873614
20
4.503007
30
0
11
28.634713
21
16.87637
31
0
39
0
210
0
220
0
230
1
0
ARC
5
154
100
AcDbEntity
8
2
62
256
6
ByLayer
370
13
48
1
60
0
100
AcDbCircle
39
0
10
44.778025
20
0.5557
30
0
40
20.9558441220058
210
0
220
0
230
1
100
AcDbArc
50
90
51
134.686984
0
LINE
5
155
100
AcDbEntity
8
2
62
256
6
ByLayer
370
13
48
1
60
0
100
AcDbLine
10
44.778025
20
21.511544
30
0
11
41.621094
21
20.973844
31
0
39
0
210
0
220
0
230
1
0
LINE
5
156
100
AcDbEntity
8
2
62
256
6
ByLayer
370
13
48
1
60
0
100
AcDbLine
10
44.778025
20
21.511544
30
0
11
41.589494
21
21.80924
31
0
39
0
210
0
220
0
230
1
0
LINE
5
157
100
AcDbEntity
8
2
62
256
6
ByLayer
370
13
48
1
60
0
100
AcDbLine
10
41.621094
20
20.973844
30
0
11
41.589494
21
21.80924
31
0
39
0
210
0
220
0
230
1
0
LINE
5
158
100
AcDbEntity
8
2
62
256
6
ByLayer
370
13
48
1
60
0
100
AcDbLine
10
30.04118
20
15.454451
30
0
11
32.098744
21
17.90838
31
0
39
0
210
0
220
0
230
1
0
LINE
5
159
100
AcDbEntity
8
2
62
256
6
ByLayer
370
13
48
1
60
0
100
AcDbLine
10
30.04118
20
15.454451
30
0
11
32.66376
21
17.292229
31
0
39
0
210
0
220
0
230
1
0
LINE
5
15A
100
AcDbEntity
8
2
62
256
6
ByLayer
370
13
48
1
60
0
100
AcDbLine
10
32.098744
20
17.90838
30
0
11
32.66376
21
17.292229
31
0
39
0
210
0
220
0
230
1
0
ENDBLK
5
15C
100
AcDbEntity
8
0
100
AcDbBlockEnd
0
BLOCK
5
15F
100
AcDbEntity
8
0
100
AcDbBlockBegin
2
_CLOSED
70
0
10
0
20
0
30
0
3
_CLOSED
0
LINE
5
161
100
AcDbEntity
8
0
62
256
6
ByLayer
370
-2
48
1
60
0
100
AcDbLine
10
-1
20
0.166667
30
0
11
0
21
0
31
0
39
0
210
0
220
0
230
1
0
LINE
5
162
100
AcDbEntity
8
0
62
256
6
ByLayer
370
-2
48
1
60
0
100
AcDbLine
10
0
20
0
30
0
11
-1
21
-0.166667
31
0
39
0
210
0
220
0
230
1
0
LINE
5
163
100
AcDbEntity
8
0
62
256
6
ByLayer
370
-2
48
1
60
0
100
AcDbLine
10
-1
20
0.166667
30
0
11
-1
21
-0.166667
31
0
39
0
210
0
220
0
230
1
0
LINE
5
164
100
AcDbEntity
8
0
62
256
6
ByLayer
370
-2
48
1
60
0
100
AcDbLine
10
0
20
0
30
0
11
-1
21
0
31
0
39
0
210
0
220
0
230
1
0
ENDBLK
5
160
100
AcDbEntity
8
0
100
AcDbBlockEnd
0
BLOCK
5
171
100
AcDbEntity
8
0
100
AcDbBlockBegin
2
DimnDraft3D2
70
0
10
0
20
0
30
0
3
DimnDraft3D2
0
MTEXT
5
166
100
AcDbEntity
8
SK2
62
256
6
ByLayer
370
18
48
1
60
0
100
AcDbMText
10
-115.446975
20
-4.156579
30
0
210
0
220
0
230
1
1
\W0.7346;25.0
40
4.5
41
0
44
1.084337
50
90
71
7
72
5
7
iso_b_vert
0
LINE
5
168
100
AcDbEntity
8
SK2
62
256
6
ByLayer
370
13
48
1
60
0
100
AcDbLine
10
-108.571975
20
-12.4375
30
0
11
-116.321975
21
-12.4375
31
0
39
0
210
0
220
0
230
1
0
LINE
5
169
100
AcDbEntity
8
SK2
62
256
6
ByLayer
370
13
48
1
60
0
100
AcDbLine
10
-108.571975
20
12.4375
30
0
11
-116.321975
21
12.4375
31
0
39
0
210
0
220
0
230
1
0
LINE
5
16A
100
AcDbEntity
8
SK2
62
256
6
ByLayer
370
13
48
1
60
0
100
AcDbLine
10
-114.321975
20
-12.4375
30
0
11
-114.321975
21
12.4375
31
0
39
0
210
0
220
0
230
1
0
LINE
5
16B
100
AcDbEntity
8
SK2
62
256
6
ByLayer
370
13
48
1
60
0
100
AcDbLine
10
-114.321975
20
-12.4375
30
0
11
-114.739971
21
-9.262502
31
0
39
0
210
0
220
0
230
1
0
LINE
5
16C
100
AcDbEntity
8
SK2
62
256
6
ByLayer
370
13
48
1
60
0
100
AcDbLine
10
-114.321975
20
-12.4375
30
0
11
-113.903978
21
-9.262498
31
0
39
0
210
0
220
0
230
1
0
LINE
5
16D
100
AcDbEntity
8
SK2
62
256
6
ByLayer
370
13
48
1
60
0
100
AcDbLine
10
-114.739971
20
-9.262502
30
0
11
-113.903978
21
-9.262498
31
0
39
0
210
0
220
0
230
1
0
LINE
5
16E
100
AcDbEntity
8
SK2
62
256
6
ByLayer
370
13
48
1
60
0
100
AcDbLine
10
-114.321975
20
12.4375
30
0
11
-113.903978
21
9.262502
31
0
39
0
210
0
220
0
230
1
0
LINE
5
16F
100
AcDbEntity
8
SK2
62
256
6
ByLayer
370
13
48
1
60
0
100
AcDbLine
10
-114.321975
20
12.4375
30
0
11
-114.739971
21
9.262498
31
0
39
0
210
0
220
0
230
1
0
LINE
5
170
100
AcDbEntity
8
SK2
62
256
6
ByLayer
370
13
48
1
60
0
100
AcDbLine
10
-113.903978
20
9.262502
30
0
11
-114.739971
21
9.262498
31
0
39
0
210
0
220
0
230
1
0
ENDBLK
5
172
100
AcDbEntity
8
0
100
AcDbBlockEnd
0
BLOCK
5
17F
100
AcDbEntity
8
0
100
AcDbBlockBegin
2
DimnDraft3D3
70
0
10
0
20
0
30
0
3
DimnDraft3D3
0
MTEXT
5
175
100
AcDbEntity
8
2
62
256
6
ByLayer
370
18
48
1
60
0
100
AcDbMText
10
65.903025
20
11.9357
30
0
210
0
220
0
230
1
1
\W0.6562;13.0
40
4.5
41
0
44
1.084337
50
90
71
7
72
5
7
iso_b_vert
0
LINE
5
176
100
AcDbEntity
8
2
62
256
6
ByLayer
370
13
48
1
60
0
100
AcDbLine
10
2
20
-12.4375
30
0
11
69.028025
21
-12.4375
31
0
39
0
210
0
220
0
230
1
0
LINE
5
177
100
AcDbEntity
8
2
62
256
6
ByLayer
370
13
48
1
60
0
100
AcDbLine
10
46.778025
20
0.5557
30
0
11
69.028025
21
0.5557
31
0
39
0
210
0
220
0
230
1
0
LINE
5
178
100
AcDbEntity
8
2
62
256
6
ByLayer
370
13
48
1
60
0
100
AcDbLine
10
67.028025
20
-12.4375
30
0
11
67.028025
21
20.248858
31
0
39
0
210
0
220
0
230
1
0
LINE
5
179
100
AcDbEntity
8
2
62
256
6
ByLayer
370
13
48
1
60
0
100
AcDbLine
10
67.028025
20
-12.4375
30
0
11
66.610029
21
-9.262502
31
0
39
0
210
0
220
0
230
1
0
LINE
5
17A
100
AcDbEntity
8
2
62
256
6
ByLayer
370
13
48
1
60
0
100
AcDbLine
10
67.028025
20
-12.4375
30
0
11
67.446022
21
-9.262498
31
0
39
0
210
0
220
0
230
1
0
LINE
5
17B
100
AcDbEntity
8
2
62
256
6
ByLayer
370
13
48
1
60
0
100
AcDbLine
10
66.610029
20
-9.262502
30
0
11
67.446022
21
-9.262498
31
0
39
0
210
0
220
0
230
1
0
LINE
5
17C
100
AcDbEntity
8
2
62
256
6
ByLayer
370
13
48
1
60
0
100
AcDbLine
10
67.028025
20
0.5557
30
0
11
67.446022
21
-2.619298
31
0
39
0
210
0
220
0
230
1
0
LINE
5
17D
100
AcDbEntity
8
2
62
256
6
ByLayer
370
13
48
1
60
0
100
AcDbLine
10
67.028025
20
0.5557
30
0
11
66.610029
21
-2.619302
31
0
39
0
210
0
220
0
230
1
0
LINE
5
17E
100
AcDbEntity
8
2
62
256
6
ByLayer
370
13
48
1
60
0
100
AcDbLine
10
67.446022
20
-2.619298
30
0
11
66.610029
21
-2.619302
31
0
39
0
210
0
220
0
230
1
0
ENDBLK
5
180
100
AcDbEntity
8
0
100
AcDbBlockEnd
0
BLOCK
5
18D
100
AcDbEntity
8
0
100
AcDbBlockBegin
2
DimnDraft3D4
70
0
10
0
20
0
30
0
3
DimnDraft3D4
0
MTEXT
5
183
100
AcDbEntity
8
2
62
256
6
ByLayer
370
18
48
1
60
0
100
AcDbMText
10
17.75875
20
31.4307
30
0
210
0
220
0
230
1
1
\W0.7983;44.8
40
4.5
41
0
44
1.084337
50
0
71
7
72
5
7
iso_b_vert
0
LINE
5
184
100
AcDbEntity
8
2
62
256
6
ByLayer
370
13
48
1
60
0
100
AcDbLine
10
0
20
14.4375
30
0
11
0
21
32.3057
31
0
39
0
210
0
220
0
230
1
0
LINE
5
185
100
AcDbEntity
8
2
62
256
6
ByLayer
370
13
48
1
60
0
100
AcDbLine
10
44.778025
20
2.5557
30
0
11
44.778025
21
32.3057
31
0
39
0
210
0
220
0
230
1
0
LINE
5
186
100
AcDbEntity
8
2
62
256
6
ByLayer
370
13
48
1
60
0
100
AcDbLine
10
0
20
30.3057
30
0
11
44.778025
21
30.3057
31
0
39
0
210
0
220
0
230
1
0
LINE
5
187
100
AcDbEntity
8
2
62
256
6
ByLayer
370
13
48
1
60
0
100
AcDbLine
10
0
20
30.3057
30
0
11
3.174998
21
30.723697
31
0
39
0
210
0
220
0
230
1
0
LINE
5
188
100
AcDbEntity
8
2
62
256
6
ByLayer
370
13
48
1
60
0
100
AcDbLine
10
0
20
30.3057
30
0
11
3.175002
21
29.887703
31
0
39
0
210
0
220
0
230
1
0
LINE
5
189
100
AcDbEntity
8
2
62
256
6
ByLayer
370
13
48
1
60
0
100
AcDbLine
10
3.174998
20
30.723697
30
0
11
3.175002
21
29.887703
31
0
39
0
210
0
220
0
230
1
0
LINE
5
18A
100
AcDbEntity
8
2
62
256
6
ByLayer
370
13
48
1
60
0
100
AcDbLine
10
44.778025
20
30.3057
30
0
11
41.603027
21
29.887703
31
0
39
0
210
0
220
0
230
1
0
LINE
5
18B
100
AcDbEntity
8
2
62
256
6
ByLayer
370
13
48
1
60
0
100
AcDbLine
10
44.778025
20
30.3057
30
0
11
41.603024
21
30.723697
31
0
39
0
210
0
220
0
230
1
0
LINE
5
18C
100
AcDbEntity
8
2
62
256
6
ByLayer
370
13
48
1
60
0
100
AcDbLine
10
41.603027
20
29.887703
30
0
11
41.603024
21
30.723697
31
0
39
0
210
0
220
0
230
1
0
ENDBLK
5
18E
100
AcDbEntity
8
0
100
AcDbBlockEnd
0
BLOCK
5
19B
100
AcDbEntity
8
0
100
AcDbBlockBegin
2
DimnDraft3D5
70
0
10
0
20
0
30
0
3
DimnDraft3D5
0
MTEXT
5
191
100
AcDbEntity
8
SK2
62
256
6
ByLayer
370
18
48
1
60
0
100
AcDbMText
10
-36.172633
20
41.4307
30
0
210
0
220
0
230
1
1
\W0.6864;150.0
40
4.5
41
0
44
1.084337
50
0
71
7
72
5
7
iso_b_vert
0
LINE
5
192
100
AcDbEntity
8
SK2
62
256
6
ByLayer
370
13
48
1
60
0
100
AcDbLine
10
44.778025
20
2.5557
30
0
11
44.778025
21
42.3057
31
0
39
0
210
0
220
0
230
1
0
LINE
5
193
100
AcDbEntity
8
SK2
62
256
6
ByLayer
370
13
48
1
60
0
100
AcDbLine
10
-106.571975
20
14.4375
30
0
11
-106.571975
21
42.3057
31
0
39
0
210
0
220
0
230
1
0
LINE
5
194
100
AcDbEntity
8
SK2
62
256
6
ByLayer
370
13
48
1
60
0
100
AcDbLine
10
44.778025
20
40.3057
30
0
11
-106.571975
21
40.3057
31
0
39
0
210
0
220
0
230
1
0
LINE
5
195
100
AcDbEntity
8
SK2
62
256
6
ByLayer
370
13
48
1
60
0
100
AcDbLine
10
44.778025
20
40.3057
30
0
11
41.603027
21
39.887703
31
0
39
0
210
0
220
0
230
1
0
LINE
5
196
100
AcDbEntity
8
SK2
62
256
6
ByLayer
370
13
48
1
60
0
100
AcDbLine
10
44.778025
20
40.3057
30
0
11
41.603024
21
40.723697
31
0
39
0
210
0
220
0
230
1
0
LINE
5
197
100
AcDbEntity
8
SK2
62
256
6
ByLayer
370
13
48
1
60
0
100
AcDbLine
10
41.603027
20
39.887703
30
0
11
41.603024
21
40.723697
31
0
39
0
210
0
220
0
230
1
0
LINE
5
198
100
AcDbEntity
8
SK2
62
256
6
ByLayer
370
13
48
1
60
0
100
AcDbLine
10
-106.571975
20
40.3057
30
0
11
-103.396976
21
40.723697
31
0
39
0
210
0
220
0
230
1
0
LINE
5
199
100
AcDbEntity
8
SK2
62
256
6
ByLayer
370
13
48
1
60
0
100
AcDbLine
10
-106.571975
20
40.3057
30
0
11
-103.396973
21
39.887703
31
0
39
0
210
0
220
0
230
1
0
LINE
5
19A
100
AcDbEntity
8
SK2
62
256
6
ByLayer
370
13
48
1
60
0
100
AcDbLine
10
-103.396976
20
40.723697
30
0
11
-103.396973
21
39.887703
31
0
39
0
210
0
220
0
230
1
0
ENDBLK
5
19C
100
AcDbEntity
8
0
100
AcDbBlockEnd
0
ENDSEC
0
SECTION
2
ENTITIES
0
ELLIPSE
5
CB
100
AcDbEntity
8
1
62
256
6
ByLayer
370
18
48
1
60
0
100
AcDbEllipse
10
11.361537
20
8.193028
30
0
11
-0.0277897358213644
21
-2.99987128566927
31
0
210
0
220
0
230
1
40
0.986426
41
-0.0781155940000275
42
-0.0302614030741475
0
ELLIPSE
5
CC
100
AcDbEntity
8
1
62
256
6
ByLayer
370
18
48
1
60
0
100
AcDbEllipse
10
18.416275
20
1.544369
30
0
11
0.0477057131600357
21
5.14977904039891
31
0
210
0
220
0
230
1
40
0.986426
41
3.11128817515663
42
-0.0781155940000329
0
ELLIPSE
5
CD
100
AcDbEntity
8
1
62
256
6
ByLayer
370
18
48
1
60
0
100
AcDbEllipse
10
16.83446
20
0.41027
30
0
11
2.75536429610035E-17
21
0.45
31
0
210
0
220
0
230
1
40
0.989133
41
-2.79621986610819
42
-2.33587365257772
0
ELLIPSE
5
CE
100
AcDbEntity
8
1
62
256
6
ByLayer
370
18
48
1
60
0
100
AcDbEllipse
10
17.05545
20
2.96395
30
0
11
2.75536429610035E-17
21
0.45
31
0
210
0
220
0
230
1
40
0.989133
41
-0.980251926206387
42
-0.3453566877664
0
ELLIPSE
5
CF
100
AcDbEntity
8
1
62
256
6
ByLayer
370
18
48
1
60
0
100
AcDbEllipse
10
17.593265
20
1.622615
30
0
11
-2.57167334302699E-16
21
-1.4
31
0
210
0
220
0
230
1
40
0.989133
41
0.13615750420532
42
3.11242392339318
0
ELLIPSE
5
D0
100
AcDbEntity
8
1
62
256
6
ByLayer
370
18
48
1
60
0
100
AcDbEllipse
10
17.674128
20
1.622615
30
0
11
-2.57167334302699E-16
21
-1.4
31
0
210
0
220
0
230
1
40
0.989133
41
0.106731273571102
42
0.868329929424322
0
ELLIPSE
5
D1
100
AcDbEntity
8
1
62
256
6
ByLayer
370
18
48
1
60
0
100
AcDbEllipse
10
17.674128
20
1.622615
30
0
11
-2.57167334302699E-16
21
-1.4
31
0
210
0
220
0
230
1
40
0.989133
41
-0.749131456897868
42
-0.178867621772235
0
ELLIPSE
5
D2
100
AcDbEntity
8
1
62
256
6
ByLayer
370
18
48
1
60
0
100
AcDbEllipse
10
17.674128
20
1.622615
30
0
11
-2.57167334302699E-16
21
-1.4
31
0
210
0
220
0
230
1
40
0.989133
41
-1.98621899807783
42
-1.37505039054701
0
ELLIPSE
5
D3
100
AcDbEntity
8
1
62
256
6
ByLayer
370
18
48
1
60
0
100
AcDbEllipse
10
17.674128
20
1.622615
30
0
11
-2.57167334302699E-16
21
-1.4
31
0
210
0
220
0
230
1
40
0.989133
41
-3.13725795701181
42
-2.58038595254276
0
ELLIPSE
5
D4
100
AcDbEntity
8
1
62
256
6
ByLayer
370
18
48
1
60
0
100
AcDbEllipse
10
18.292806
20
0.281279
30
0
11
2.75536429610035E-17
21
0.45
31
0
210
0
220
0
230
1
40
0.989133
41
-2.79618756804851
42
-1.28867610138111
0
ELLIPSE
5
D5
100
AcDbEntity
8
1
62
256
6
ByLayer
370
18
48
1
60
0
100
AcDbEllipse
10
18.513796
20
2.83496
30
0
11
2.75536429610035E-17
21
0.45
31
0
210
0
220
0
230
1
40
0.989133
41
-2.02744947740298
42
-0.345433108590829
0
ELLIPSE
5
D6
100
AcDbEntity
8
1
62
256
6
ByLayer
370
18
48
1
60
0
100
AcDbEllipse
10
17.534455
20
1.622615
30
0
11
-9.18454765366783E-16
21
-5
31
0
210
0
220
0
230
1
40
0.989133
41
-0.126950957144948
42
-2.69380888020153E-16
0
ELLIPSE
5
D7
100
AcDbEntity
8
1
62
256
6
ByLayer
370
18
48
1
60
0
100
AcDbEllipse
10
34.162505
20
0.062527
30
0
11
-5.83218776007907E-16
21
-3.175
31
0
210
0
220
0
230
1
40
0.989133
41
0.18780821265871
42
2.7782478209057
0
ELLIPSE
5
D8
100
AcDbEntity
8
1
62
256
6
ByLayer
370
18
48
1
60
0
100
AcDbEllipse
10
34.162505
20
9.603519
30
0
11
7.29253083701226E-17
21
1.191
31
0
210
0
220
0
230
1
40
0.989133
41
-0.785398163394903
42
0.785398163399999
0
ELLIPSE
5
D9
100
AcDbEntity
8
1
62
256
6
ByLayer
370
18
48
1
60
0
100
AcDbEllipse
10
34.162505
20
-9.478465
30
0
11
7.29253083701226E-17
21
1.191
31
0
210
0
220
0
230
1
40
0.989133
41
2.35619449019488
42
-2.35619449018981
0
ELLIPSE
5
DA
100
AcDbEntity
8
1
62
256
6
ByLayer
370
18
48
1
60
0
100
AcDbEllipse
10
43.599814
20
0.062527
30
0
11
7.29253083701226E-17
21
1.191
31
0
210
0
220
0
230
1
40
0.989133
41
-2.3561944901898
42
-0.785398163394928
0
ELLIPSE
5
DB
100
AcDbEntity
8
1
62
256
6
ByLayer
370
18
48
1
60
0
100
AcDbEllipse
10
17.969161
20
1.622615
30
0
11
-2.57167334302699E-16
21
-1.4
31
0
210
0
220
0
230
1
40
0.989133
41
1.91552748062092
42
2.09872979897115
0
ELLIPSE
5
DC
100
AcDbEntity
8
1
62
256
6
ByLayer
370
18
48
1
60
0
100
AcDbEllipse
10
19.496733
20
0.545752
30
0
11
-9.18454765366783E-17
21
-0.5
31
0
210
0
220
0
230
1
40
0.989133
41
-1.80263775340785
42
-1.28867610138113
0
ELLIPSE
5
DD
100
AcDbEntity
8
1
62
256
6
ByLayer
370
18
48
1
60
0
100
AcDbEllipse
10
17.356849
20
2.96395
30
0
11
2.75536429610035E-17
21
0.45
31
0
210
0
220
0
230
1
40
0.989133
41
-0.980251926206387
42
1.85291655220863
0
ELLIPSE
5
DE
100
AcDbEntity
8
1
62
256
6
ByLayer
370
18
48
1
60
0
100
AcDbEllipse
10
17.674128
20
1.622615
30
0
11
-2.57167334302699E-16
21
-1.4
31
0
210
0
220
0
230
1
40
0.989133
41
2.09872979897113
42
2.96272503181755
0
ELLIPSE
5
DF
100
AcDbEntity
8
1
62
256
6
ByLayer
370
18
48
1
60
0
100
AcDbEllipse
10
17.83598
20
3.492923
30
0
11
-9.18454765366783E-17
21
-0.5
31
0
210
0
220
0
230
1
40
0.989133
41
-0.980251926206406
42
-0.346277511654881
0
ELLIPSE
5
E0
100
AcDbEntity
8
1
62
256
6
ByLayer
370
18
48
1
60
0
100
AcDbEllipse
10
18.13738
20
3.492923
30
0
11
-9.18454765366783E-17
21
-0.5
31
0
210
0
220
0
230
1
40
0.989133
41
0.291757348985389
42
0.805719001012067
0
ELLIPSE
5
E1
100
AcDbEntity
8
1
62
256
6
ByLayer
370
18
48
1
60
0
100
AcDbEllipse
10
17.813674
20
-0.247693
30
0
11
-9.18454765366783E-17
21
-0.5
31
0
210
0
220
0
230
1
40
0.989133
41
-2.8498353046044
42
-2.33587365257774
0
ELLIPSE
5
E2
100
AcDbEntity
8
1
62
256
6
ByLayer
370
18
48
1
60
0
100
AcDbEllipse
10
19.195334
20
0.545752
30
0
11
-9.18454765366783E-17
21
-0.5
31
0
210
0
220
0
230
1
40
0.989133
41
-3.0746470285996
42
-2.44067261404815
0
ELLIPSE
5
E3
100
AcDbEntity
8
1
62
256
6
ByLayer
370
18
48
1
60
0
100
AcDbEllipse
10
17.975527
20
1.622615
30
0
11
-2.61759608129533E-16
21
-1.425
31
0
210
0
220
0
230
1
40
0.989133
41
-2.31185846924816
42
-2.05146466073256
0
ELLIPSE
5
E4
100
AcDbEntity
8
1
62
256
6
ByLayer
370
18
48
1
60
0
100
AcDbEllipse
10
18.13738
20
3.492923
30
0
11
-9.18454765366783E-17
21
-0.5
31
0
210
0
220
0
230
1
40
0.989133
41
-0.980251926206363
42
-0.466290274179673
0
ELLIPSE
5
E5
100
AcDbEntity
8
1
62
256
6
ByLayer
370
18
48
1
60
0
100
AcDbEllipse
10
16.454321
20
2.699477
30
0
11
-9.18454765366783E-17
21
-0.5
31
0
210
0
220
0
230
1
40
0.989133
41
0.0669456249903117
42
0.580907277016974
0
ELLIPSE
5
E6
100
AcDbEntity
8
1
62
256
6
ByLayer
370
18
48
1
60
0
100
AcDbEllipse
10
17.975527
20
1.622615
30
0
11
-2.61759608129533E-16
21
-1.425
31
0
210
0
220
0
230
1
40
0.989133
41
-0.217463366854937
42
0.0429304416606892
0
ELLIPSE
5
E7
100
AcDbEntity
8
1
62
256
6
ByLayer
370
18
48
1
60
0
100
AcDbEllipse
10
19.433873
20
1.493624
30
0
11
2.75536429610035E-17
21
0.45
31
0
210
0
220
0
230
1
40
0.989133
41
-3.07464702859947
42
-0.241478550184534
0
ELLIPSE
5
E8
100
AcDbEntity
8
1
62
256
6
ByLayer
370
18
48
1
60
0
100
AcDbEllipse
10
17.969161
20
1.622615
30
0
11
-2.57167334302699E-16
21
-1.4
31
0
210
0
220
0
230
1
40
0.989133
41
-0.178867621772662
42
0.00433469657799683
0
ELLIPSE
5
E9
100
AcDbEntity
8
1
62
256
6
ByLayer
370
18
48
1
60
0
100
AcDbEllipse
10
16.454321
20
2.699477
30
0
11
-9.18454765366783E-17
21
-0.5
31
0
210
0
220
0
230
1
40
0.989133
41
1.33895490018194
42
1.85291655220865
0
ELLIPSE
5
EA
100
AcDbEntity
8
1
62
256
6
ByLayer
370
18
48
1
60
0
100
AcDbEllipse
10
19.658586
20
2.41606
30
0
11
-9.18454765366783E-17
21
-0.5
31
0
210
0
220
0
230
1
40
0.989133
41
-2.02744947740301
42
-1.51348782537629
0
ELLIPSE
5
EB
100
AcDbEntity
8
1
62
256
6
ByLayer
370
18
48
1
60
0
100
AcDbEllipse
10
17.674128
20
1.622615
30
0
11
-2.57167334302699E-16
21
-1.4
31
0
210
0
220
0
230
1
40
0.989133
41
1.05153224777457
42
1.91552748062092
0
ELLIPSE
5
EC
100
AcDbEntity
8
1
62
256
6
ByLayer
370
18
48
1
60
0
100
AcDbEllipse
10
17.975527
20
1.622615
30
0
11
1.53075794227797E-16
21
2.5
31
0
210
0
220
0
230
1
40
0.989133
41
0
42
6.28318530717959
0
ELLIPSE
5
ED
100
AcDbEntity
8
1
62
256
6
ByLayer
370
18
48
1
60
0
100
AcDbEllipse
10
16.292468
20
0.829169
30
0
11
-9.18454765366783E-17
21
-0.5
31
0
210
0
220
0
230
1
40
0.989133
41
1.11414317618683
42
1.6281048282135
0
ELLIPSE
5
EE
100
AcDbEntity
8
1
62
256
6
ByLayer
370
18
48
1
60
0
100
AcDbEllipse
10
18.815195
20
2.83496
30
0
11
2.75536429610035E-17
21
0.45
31
0
210
0
220
0
230
1
40
0.989133
41
-2.02744947740298
42
0.805719001012043
0
ELLIPSE
5
EF
100
AcDbEntity
8
1
62
256
6
ByLayer
370
18
48
1
60
0
100
AcDbEllipse
10
17.135859
20
0.41027
30
0
11
2.75536429610035E-17
21
0.45
31
0
210
0
220
0
230
1
40
0.989133
41
1.11414317618681
42
-2.33587365257772
0
ELLIPSE
5
F0
100
AcDbEntity
8
1
62
256
6
ByLayer
370
18
48
1
60
0
100
AcDbEllipse
10
17.975527
20
1.622615
30
0
11
-2.61759608129533E-16
21
-1.425
31
0
210
0
220
0
230
1
40
0.989133
41
-1.26466091805158
42
-1.00426710953594
0
ELLIPSE
5
F1
100
AcDbEntity
8
1
62
256
6
ByLayer
370
18
48
1
60
0
100
AcDbEllipse
10
18.594205
20
0.281279
30
0
11
2.75536429610035E-17
21
0.45
31
0
210
0
220
0
230
1
40
0.989133
41
2.16134072738337
42
-1.28867610138116
0
ELLIPSE
5
F2
100
AcDbEntity
8
1
62
256
6
ByLayer
370
18
48
1
60
0
100
AcDbEllipse
10
17.975527
20
1.622615
30
0
11
-2.61759608129533E-16
21
-1.425
31
0
210
0
220
0
230
1
40
0.989133
41
0.829734184341641
42
1.09012799285726
0
ELLIPSE
5
F3
100
AcDbEntity
8
1
62
256
6
ByLayer
370
18
48
1
60
0
100
AcDbEllipse
10
17.969161
20
1.622615
30
0
11
-2.57167334302699E-16
21
-1.4
31
0
210
0
220
0
230
1
40
0.989133
41
2.96272503181713
42
-3.13725795701137
0
ELLIPSE
5
F4
100
AcDbEntity
8
1
62
256
6
ByLayer
370
18
48
1
60
0
100
AcDbEllipse
10
17.975527
20
1.622615
30
0
11
-2.61759608129533E-16
21
-1.425
31
0
210
0
220
0
230
1
40
0.989133
41
1.87693173553822
42
2.13732554405383
0
ELLIPSE
5
F5
100
AcDbEntity
8
1
62
256
6
ByLayer
370
18
48
1
60
0
100
AcDbEllipse
10
17.512275
20
-0.247693
30
0
11
-9.18454765366783E-17
21
-0.5
31
0
210
0
220
0
230
1
40
0.989133
41
-2.9698480671291
42
-2.33587365257774
0
ELLIPSE
5
F6
100
AcDbEntity
8
1
62
256
6
ByLayer
370
18
48
1
60
0
100
AcDbEllipse
10
16.517181
20
1.751605
30
0
11
2.75536429610035E-17
21
0.45
31
0
210
0
220
0
230
1
40
0.989133
41
0.0669456249902603
42
2.90011410340529
0
ELLIPSE
5
F7
100
AcDbEntity
8
1
62
256
6
ByLayer
370
18
48
1
60
0
100
AcDbEllipse
10
19.658586
20
2.41606
30
0
11
-9.18454765366783E-17
21
-0.5
31
0
210
0
220
0
230
1
40
0.989133
41
-0.755440202211236
42
-0.241478550184465
0
ELLIPSE
5
F8
100
AcDbEntity
8
1
62
256
6
ByLayer
370
18
48
1
60
0
100
AcDbEllipse
10
17.969161
20
1.622615
30
0
11
-2.57167334302699E-16
21
-1.4
31
0
210
0
220
0
230
1
40
0.989133
41
-2.27326272416546
42
-2.09006040581525
0
ELLIPSE
5
F9
100
AcDbEntity
8
1
62
256
6
ByLayer
370
18
48
1
60
0
100
AcDbEllipse
10
17.813674
20
-0.247693
30
0
11
-9.18454765366783E-17
21
-0.5
31
0
210
0
220
0
230
1
40
0.989133
41
2.16134072738342
42
2.67530237941015
0
ELLIPSE
5
FA
100
AcDbEntity
8
1
62
256
6
ByLayer
370
18
48
1
60
0
100
AcDbEllipse
10
19.357187
20
2.41606
30
0
11
-9.18454765366783E-17
21
-0.5
31
0
210
0
220
0
230
1
40
0.989133
41
-2.027449477403
42
-1.39347506285152
0
ELLIPSE
5
FB
100
AcDbEntity
8
1
62
256
6
ByLayer
370
18
48
1
60
0
100
AcDbEllipse
10
19.496733
20
0.545752
30
0
11
-9.18454765366783E-17
21
-0.5
31
0
210
0
220
0
230
1
40
0.989133
41
-3.0746470285996
42
-2.56068537657289
0
ELLIPSE
5
FC
100
AcDbEntity
8
1
62
256
6
ByLayer
370
18
48
1
60
0
100
AcDbEllipse
10
17.969161
20
1.622615
30
0
11
-2.57167334302699E-16
21
-1.4
31
0
210
0
220
0
230
1
40
0.989133
41
0.868329929424323
42
1.05153224777457
0
ELLIPSE
5
FD
100
AcDbEntity
8
1
62
256
6
ByLayer
370
18
48
1
60
0
100
AcDbEllipse
10
17.776406
20
1.622615
30
0
11
3.06151588455594E-16
21
5
31
0
210
0
220
0
230
1
40
0.989133
41
0
42
6.28318530717959
0
ELLIPSE
5
FE
100
AcDbEntity
8
1
62
256
6
ByLayer
370
18
48
1
60
0
100
AcDbEllipse
10
17.969161
20
1.622615
30
0
11
-2.57167334302699E-16
21
-1.4
31
0
210
0
220
0
230
1
40
0.989133
41
-1.22606517296955
42
-1.04286285461863
0
ELLIPSE
5
FF
100
AcDbEntity
8
1
62
256
6
ByLayer
370
18
48
1
60
0
100
AcDbEllipse
10
16.292468
20
0.829169
30
0
11
-9.18454765366783E-17
21
-0.5
31
0
210
0
220
0
230
1
40
0.989133
41
2.38615245137858
42
2.90011410340528
0
ELLIPSE
5
100
100
AcDbEntity
8
1
62
256
6
ByLayer
370
18
48
1
60
0
100
AcDbEllipse
10
19.132474
20
1.493624
30
0
11
2.75536429610035E-17
21
0.45
31
0
210
0
220
0
230
1
40
0.989133
41
-3.0746470285995
42
-0.2414785501845
0
ELLIPSE
5
101
100
AcDbEntity
8
1
62
256
6
ByLayer
370
18
48
1
60
0
100
AcDbEllipse
10
19.195334
20
0.545752
30
0
11
-9.18454765366783E-17
21
-0.5
31
0
210
0
220
0
230
1
40
0.989133
41
-1.92265051593258
42
-1.28867610138116
0
ELLIPSE
5
102
100
AcDbEntity
8
1
62
256
6
ByLayer
370
18
48
1
60
0
100
AcDbEllipse
10
17.975527
20
1.622615
30
0
11
-2.61759608129533E-16
21
-1.425
31
0
210
0
220
0
230
1
40
0.989133
41
2.92412928673486
42
-3.09866221192909
0
ELLIPSE
5
103
100
AcDbEntity
8
1
62
256
6
ByLayer
370
18
48
1
60
0
100
AcDbEllipse
10
19.357187
20
2.41606
30
0
11
-9.18454765366783E-17
21
-0.5
31
0
210
0
220
0
230
1
40
0.989133
41
-0.875452964736006
42
-0.241478550184465
0
ELLIPSE
5
104
100
AcDbEntity
8
1
62
256
6
ByLayer
370
18
48
1
60
0
100
AcDbEllipse
10
34.843401
20
0.050325
30
0
11
-1.19871639763526
21
-2.63397578597386
31
0
210
0
220
0
230
1
40
0.79237
41
1.37991172005558
42
1.82962169607718
0
ELLIPSE
5
105
100
AcDbEntity
8
1
62
256
6
ByLayer
370
18
48
1
60
0
100
AcDbEllipse
10
12.568601
20
-3.30081
30
0
11
-4.00609644139667
21
-2.6079403923353
31
0
210
0
220
0
230
1
40
0.550156
41
-0.506459769819721
42
0.611512904350538
0
ELLIPSE
5
106
100
AcDbEntity
8
1
62
256
6
ByLayer
370
18
48
1
60
0
100
AcDbEllipse
10
4.677302
20
-6.200882
30
0
11
6.97393546380503
21
-0.603509856325907
31
0
210
0
220
0
230
1
40
0.012814
41
-0.840909598285884
42
-0.810230541128658
0
ELLIPSE
5
107
100
AcDbEntity
8
1
62
256
6
ByLayer
370
18
48
1
60
0
100
AcDbEllipse
10
10.181234
20
7.530615
30
0
11
-0.609597740867561
21
3.44711448692231
31
0
210
0
220
0
230
1
40
0.996219
41
0.136258235932633
42
1.3084930666446
0
ELLIPSE
5
108
100
AcDbEntity
8
1
62
256
6
ByLayer
370
18
48
1
60
0
100
AcDbEllipse
10
12.843731
20
-1.016475
30
0
11
5.4795207215611
21
-0.474186315684641
31
0
210
0
220
0
230
1
40
0.012814
41
1.91999927516228
42
2.32541844717921
0
ELLIPSE
5
109
100
AcDbEntity
8
1
62
256
6
ByLayer
370
18
48
1
60
0
100
AcDbEllipse
10
13.360983
20
4.960693
30
0
11
5.4795207215611
21
-0.474186315684641
31
0
210
0
220
0
230
1
40
0.012814
41
1.91999927516232
42
2.32541844717924
0
ELLIPSE
5
10A
100
AcDbEntity
8
1
62
256
6
ByLayer
370
18
48
1
60
0
100
AcDbEllipse
10
9.255353
20
-3.168516
30
0
11
-0.609597740972869
21
3.44711448690515
31
0
210
0
220
0
230
1
40
0.996219
41
1.30849306661396
42
2.48072789732563
0
ELLIPSE
5
10B
100
AcDbEntity
8
1
62
256
6
ByLayer
370
18
48
1
60
0
100
AcDbEllipse
10
13.494481
20
7.398321
30
0
11
-3.58574834815022
21
3.02098054367741
31
0
210
0
220
0
230
1
40
0.538785
41
-0.654777439978381
42
0.463195234192429
0
ELLIPSE
5
10C
100
AcDbEntity
8
1
62
256
6
ByLayer
370
18
48
1
60
0
100
AcDbEllipse
10
34.843401
20
0.050325
30
0
11
-0.943785008673789
21
2.69924741625769
31
0
210
0
220
0
230
1
40
0.788691
41
-1.92713882846618
42
-1.47742885244513
0
ELLIPSE
5
10D
100
AcDbEntity
8
1
62
256
6
ByLayer
370
18
48
1
60
0
100
AcDbEllipse
10
6.507695
20
-12.447206
30
0
11
-0.802990329035394
21
-5.18495173411189E-06
31
0
210
0
220
0
230
1
40
0.004348
41
-2.99496349742851
42
-1.42416717063427
0
ELLIPSE
5
10E
100
AcDbEntity
8
1
62
256
6
ByLayer
370
18
48
1
60
0
100
AcDbEllipse
10
31.365197
20
5.479754
30
0
11
-1.83930150744548
21
-3.41156528286019
31
0
210
0
220
0
230
1
40
0.524248
41
-2.36857225193606
42
-2.08115015631063
0
POINT
5
6C
100
AcDbEntity
8
2
62
256
6
ByLayer
370
18
48
1
60
0
100
AcDbPoint
10
44.778025
20
0.5557
30
0
39
0
210
0
220
0
230
1
50
360
0
POINT
5
6E
100
AcDbEntity
8
80
62
256
6
ByLayer
370
18
48
1
60
0
100
AcDbPoint
10
0
20
0
30
0
39
0
210
0
220
0
230
1
50
360
0
POINT
5
70
100
AcDbEntity
8
81
62
256
6
ByLayer
370
18
48
1
60
0
100
AcDbPoint
10
44.778025
20
0.5557
30
0
39
0
210
0
220
0
230
1
50
360
0
SPLINE
5
10F
100
AcDbEntity
8
1
62
256
6
ByLayer
370
18
48
1
60
0
100
AcDbSpline
70
4
71
3
72
8
73
4
40
0
40
0
40
0
40
0
40
1
40
1
40
1
40
1
41
1
10
10.6353501457516
20
11.0154142593068
30
0
41
1
10
10.1678872734708
20
11.0356190526354
30
0
41
1
10
9.65248264293632
20
11.0068856584077
30
0
41
1
10
9.11081104792038
20
10.8632862823375
30
0
0
SPLINE
5
110
100
AcDbEntity
8
1
62
256
6
ByLayer
370
18
48
1
60
0
100
AcDbSpline
70
4
71
3
72
10
73
6
40
0
40
0
40
0
40
0
40
0.537616842494932
40
0.537616842494932
40
1
40
1
40
1
40
1
41
1
10
19.0260999759133
20
0.718071789492086
30
0
41
1
10
19.0232103599439
20
0.707368193330154
30
0
41
1
10
19.0208978010346
20
0.696866279398449
30
0
41
1
10
19.0175074681844
20
0.677787842473521
30
0
41
1
10
19.0162985959544
20
0.669126926448911
30
0
41
1
10
19.0153989897883
20
0.660637329252722
30
0
0
SPLINE
5
111
100
AcDbEntity
8
1
62
256
6
ByLayer
370
18
48
1
60
0
100
AcDbSpline
70
4
71
3
72
10
73
6
40
0
40
0
40
0
40
0
40
0.355593196478058
40
0.355593196478058
40
1
40
1
40
1
40
1
41
1
10
19.2253238220732
20
0.963734841754672
30
0
41
1
10
19.2189313984239
20
0.96004612931867
30
0
41
1
10
19.2125231994959
20
0.956170014580067
30
0
41
1
10
19.1945406098139
20
0.944728050674911
30
0
41
1
10
19.1829238944177
20
0.936680592815236
30
0
41
1
10
19.1714106270039
20
0.927876872601956
30
0
0
SPLINE
5
112
100
AcDbEntity
8
1
62
256
6
ByLayer
370
18
48
1
60
0
100
AcDbSpline
70
4
71
3
72
10
73
6
40
0
40
0
40
0
40
0
40
0.769561481283422
40
0.769561481283422
40
1
40
1
40
1
40
1
41
1
10
17.915034478494
20
3.04630182032352
30
0
41
1
10
17.926048400225
20
3.03978135829757
30
0
41
1
10
17.9380232631615
20
3.03352707535586
30
0
41
1
10
17.955009631088
20
3.02596897887847
30
0
41
1
10
17.9590319877579
20
3.02426289069629
30
0
41
1
10
17.9631580367272
20
3.02260161972075
30
0
0
SPLINE
5
113
100
AcDbEntity
8
1
62
256
6
ByLayer
370
18
48
1
60
0
100
AcDbSpline
70
4
71
3
72
10
73
6
40
0
40
0
40
0
40
0
40
0.537616842495233
40
0.537616842495233
40
1
40
1
40
1
40
1
41
1
10
16.9122213151097
20
2.52715775534099
30
0
41
1
10
16.917105539768
20
2.53786135150295
30
0
41
1
10
16.921598947161
20
2.54836326543466
30
0
41
1
10
16.9292901566212
20
2.56744170235962
30
0
41
1
10
16.9325895573903
20
2.57610261838423
30
0
41
1
10
16.9356549498897
20
2.58459221558042
30
0
0
SPLINE
5
114
100
AcDbEntity
8
1
62
256
6
ByLayer
370
18
48
1
60
0
100
AcDbSpline
70
4
71
3
72
10
73
6
40
0
40
0
40
0
40
0
40
0.769561481283354
40
0.769561481283354
40
1
40
1
40
1
40
1
41
1
10
18.0360194611822
20
0.198927724509588
30
0
41
1
10
18.0214045137841
20
0.205448186535534
30
0
41
1
10
18.0060301266897
20
0.211702469477245
30
0
41
1
10
17.9850583236087
20
0.219260565954642
30
0
41
1
10
17.9801455551216
20
0.220966654136788
30
0
41
1
10
17.9751632542954
20
0.222627925112334
30
0
0
SPLINE
5
115
100
AcDbEntity
8
1
62
256
6
ByLayer
370
18
48
1
60
0
100
AcDbSpline
70
4
71
3
72
10
73
6
40
0
40
0
40
0
40
0
40
0.276054056491926
40
0.276054056491926
40
1
40
1
40
1
40
1
41
1
10
16.6658465753495
20
1.14949364772622
30
0
41
1
10
16.6626365716818
20
1.15400601595275
30
0
41
1
10
16.6594336636878
20
1.15837793070557
30
0
41
1
10
16.6479232357864
20
1.17366075719542
30
0
41
1
10
16.6396711567258
20
1.18380748154269
30
0
41
1
10
16.6315473780721
20
1.19315399010881
30
0
0
SPLINE
5
116
100
AcDbEntity
8
1
62
256
6
ByLayer
370
18
48
1
60
0
100
AcDbSpline
70
4
71
3
72
10
73
6
40
0
40
0
40
0
40
0
40
0.201157530231757
40
0.201157530231757
40
1
40
1
40
1
40
1
41
1
10
16.786222608948
20
0.857807655178874
30
0
41
1
10
16.7855342917237
20
0.861608527111997
30
0
41
1
10
16.7848079213792
20
0.865449716910831
30
0
41
1
10
16.7810127954338
20
0.884670421778395
30
0
41
1
10
16.7773459214054
20
0.900708980062518
30
0
41
1
10
16.7729132728025
20
0.917365824926634
30
0
0
SPLINE
5
117
100
AcDbEntity
8
1
62
256
6
ByLayer
370
18
48
1
60
0
100
AcDbSpline
70
4
71
3
72
10
73
6
40
0
40
0
40
0
40
0
40
0.201157530231495
40
0.201157530231495
40
1
40
1
40
1
40
1
41
1
10
19.1648313307289
20
2.38742188965424
30
0
41
1
10
19.1645743962359
20
2.38362101772111
30
0
41
1
10
19.1643701179618
20
2.37977982792231
30
0
41
1
10
19.1636391267926
20
2.36055912305469
30
0
41
1
10
19.1639356148438
20
2.34452056477056
30
0
41
1
10
19.1654080182204
20
2.32786371990642
30
0
0
SPLINE
5
118
100
AcDbEntity
8
1
62
256
6
ByLayer
370
18
48
1
60
0
100
AcDbSpline
70
4
71
3
72
10
73
6
40
0
40
0
40
0
40
0
40
0.230438518716714
40
0.230438518716714
40
1
40
1
40
1
40
1
41
1
10
18.2155353852719
20
3.00027888003197
30
0
41
1
10
18.2207338397296
20
3.00111540003868
30
0
41
1
10
18.225871775538
20
3.00201126168645
30
0
41
1
10
18.2478534308627
20
3.00612264218782
30
0
41
1
10
18.2640943123873
20
3.00988124664505
30
0
41
1
10
18.2796345416618
20
3.01405299788547
30
0
0
SPLINE
5
119
100
AcDbEntity
8
1
62
256
6
ByLayer
370
18
48
1
60
0
100
AcDbSpline
70
4
71
3
72
10
73
6
40
0
40
0
40
0
40
0
40
0.276054056492239
40
0.276054056492239
40
1
40
1
40
1
40
1
41
1
10
19.272474715673
20
2.09573589710689
30
0
41
1
10
19.2767127556728
20
2.09122352888036
30
0
41
1
10
19.2809929944036
20
2.08685161412754
30
0
41
1
10
19.2965402776038
20
2.07156878763769
30
0
41
1
10
19.3079980574205
20
2.06142206329045
30
0
41
1
10
19.319506561606
20
2.05207555472433
30
0
0
SPLINE
5
11A
100
AcDbEntity
8
1
62
256
6
ByLayer
370
18
48
1
60
0
100
AcDbSpline
70
4
71
3
72
10
73
6
40
0
40
0
40
0
40
0
40
0.230438518716762
40
0.230438518716762
40
1
40
1
40
1
40
1
41
1
10
17.7227859057508
20
0.244950664801138
30
0
41
1
10
17.7184437031499
20
0.244114144794423
30
0
41
1
10
17.7141961791586
20
0.243218283146632
30
0
41
1
10
17.6961999589885
20
0.23910690264529
30
0
41
1
10
17.6833586016218
20
0.235348298188057
30
0
41
1
10
17.6714193980143
20
0.231176546947665
30
0
0
SPLINE
5
11B
100
AcDbEntity
8
1
62
256
6
ByLayer
370
18
48
1
60
0
100
AcDbSpline
70
4
71
3
72
10
73
6
40
0
40
0
40
0
40
0
40
0.355593196477811
40
0.355593196477811
40
1
40
1
40
1
40
1
41
1
10
16.7257301176017
20
2.28149470307847
30
0
41
1
10
16.7304536611579
20
2.28518341551447
30
0
41
1
10
16.7352380429001
20
2.28905953025307
30
0
41
1
10
16.748823681463
20
2.30050149415823
30
0
41
1
10
16.7577853771679
20
2.30854895201787
30
0
41
1
10
16.766910664019
20
2.31735267223115
30
0
0
SPLINE
5
11C
100
AcDbEntity
8
1
62
256
6
ByLayer
370
18
48
1
60
0
100
AcDbSpline
70
4
71
3
72
8
73
4
40
0
40
0
40
0
40
0
40
1
40
1
40
1
40
1
41
1
10
8.39917207456335
20
-3.36632494435207
30
0
41
1
10
9.34490718350418
20
-2.72340258885376
30
0
41
1
10
10.5515988949598
20
-1.86240629407769
30
0
41
1
10
11.7834466568494
20
-0.94662978845605
30
0
0
SPLINE
5
11D
100
AcDbEntity
8
1
62
256
6
ByLayer
370
18
48
1
60
0
100
AcDbSpline
70
4
71
3
72
8
73
4
40
0
40
0
40
0
40
0
40
1
40
1
40
1
40
1
41
1
10
31.2458761802861
20
6.12481318720509
30
0
41
1
10
30.612848537407
20
6.27895570980212
30
0
41
1
10
29.8939398673563
20
6.59642763350982
30
0
41
1
10
29.1751608797366
20
6.9879768596459
30
0
0
SPLINE
5
11E
100
AcDbEntity
8
1
62
256
6
ByLayer
370
18
48
1
60
0
100
AcDbSpline
70
4
71
3
72
8
73
4
40
0
40
0
40
0
40
0
40
1
40
1
40
1
40
1
41
1
10
8.36941425244311
20
-4.51225355187785
30
0
41
1
10
8.37230159053934
20
-4.49886838743095
30
0
41
1
10
8.37516731711156
20
-4.48520615398073
30
0
41
1
10
8.37801066046342
20
-4.47131782935168
30
0
0
SPLINE
5
11F
100
AcDbEntity
8
1
62
256
6
ByLayer
370
18
48
1
60
0
100
AcDbSpline
70
4
71
3
72
8
73
4
40
0
40
0
40
0
40
0
40
1
40
1
40
1
40
1
41
1
10
18.4476989547271
20
-3.61088587766929
30
0
41
1
10
18.3725531336241
20
-3.60759619596749
30
0
41
1
10
18.2974270629627
20
-3.60265953927475
30
0
41
1
10
18.2223219464956
20
-3.5960165026716
30
0
0
SPLINE
5
120
100
AcDbEntity
8
1
62
256
6
ByLayer
370
18
48
1
60
0
100
AcDbSpline
70
4
71
3
72
8
73
4
40
0
40
0
40
0
40
0
40
1
40
1
40
1
40
1
41
1
10
12.110756674885
20
-1.0787523867352
30
0
41
1
10
12.4452687181273
20
-1.24663939063689
30
0
41
1
10
12.7340465782875
20
-1.47957237664897
30
0
41
1
10
12.9555169709115
20
-1.75573826718562
30
0
0
SPLINE
5
121
100
AcDbEntity
8
1
62
256
6
ByLayer
370
18
48
1
60
0
100
AcDbSpline
70
4
71
3
72
8
73
4
40
0
40
0
40
0
40
0
40
1
40
1
40
1
40
1
41
1
10
12.3163857977996
20
5.21181673261589
30
0
41
1
10
12.0377819965402
20
5.17166923405526
30
0
41
1
10
11.759601193748
20
5.16700247147691
30
0
41
1
10
11.4918800740585
20
5.18891249365225
30
0
0
SPLINE
5
122
100
AcDbEntity
8
1
62
256
6
ByLayer
370
18
48
1
60
0
100
AcDbSpline
70
4
71
3
72
10
73
6
40
0
40
0
40
0
40
0
40
0.731297369966776
40
0.731297369966776
40
1
40
1
40
1
40
1
41
1
10
11.7834466568494
20
-0.94662978845605
30
0
41
1
10
11.8640481367453
20
-0.972535197688018
30
0
41
1
10
11.9468275883235
20
-1.00350018608651
30
0
41
1
10
12.0542555280005
20
-1.05125437862608
30
0
41
1
10
12.0829447780839
20
-1.06479397740117
30
0
41
1
10
12.110756674885
20
-1.07875238673526
30
0
0
SPLINE
5
123
100
AcDbEntity
8
1
62
256
6
ByLayer
370
18
48
1
60
0
100
AcDbSpline
70
4
71
3
72
10
73
6
40
0
40
0
40
0
40
0
40
0.5
40
0.5
40
1
40
1
40
1
40
1
41
1
10
23.7356972721858
20
-0.173132558208266
30
0
41
1
10
23.3753544936028
20
-1.24978191764981
30
0
41
1
10
22.5923670081808
20
-2.1409829984778
30
0
41
1
10
20.6986266331053
20
-3.33481492813255
30
0
41
1
10
19.5737035019322
20
-3.66020224475633
30
0
41
1
10
18.4476989547271
20
-3.61088587766929
30
0
0
SPLINE
5
124
100
AcDbEntity
8
1
62
256
6
ByLayer
370
18
48
1
60
0
100
AcDbSpline
70
4
71
3
72
8
73
4
40
0
40
0
40
0
40
0
40
1
40
1
40
1
40
1
41
1
10
31.2458761802861
20
6.12481318720509
30
0
41
1
10
31.3987554923302
20
6.08758700431017
30
0
41
1
10
31.5511400360906
20
6.0473248025051
30
0
41
1
10
31.7025897727091
20
6.00264029021577
30
0
0
SPLINE
5
125
100
AcDbEntity
8
1
62
256
6
ByLayer
370
18
48
1
60
0
100
AcDbSpline
70
4
71
3
72
8
73
4
40
0
40
0
40
0
40
0
40
1
40
1
40
1
40
1
41
1
10
9.32390708107528
20
7.73344314615551
30
0
41
1
10
9.33570696603567
20
7.86979822856517
30
0
41
1
10
9.35968874179957
20
8.00137434386869
30
0
41
1
10
9.3939563511949
20
8.1290322116547
30
0
0
SPLINE
5
126
100
AcDbEntity
8
1
62
256
6
ByLayer
370
18
48
1
60
0
100
AcDbSpline
70
4
71
3
72
10
73
6
40
0
40
0
40
0
40
0
40
0.300434803509628
40
0.926576302243936
40
1
40
1
40
1
40
1
41
1.01906281214953
10
30.7199111747159
20
-5.35290557685992
30
0
41
1.01951662816455
10
31.0085882283725
20
-5.22101979882129
30
0
41
1.02128725997138
10
31.9537150920874
20
-4.76395185997302
30
0
41
1.02366220434836
10
33.5523983688464
20
-3.88962094988512
30
0
41
1.02527232143637
10
34.4770990438527
20
-3.29044832701635
30
0
41
1.02543997666398
10
34.5719125860805
20
-3.22791543968287
30
0
0
SPLINE
5
127
100
AcDbEntity
8
1
62
256
6
ByLayer
370
18
48
1
60
0
100
AcDbSpline
70
4
71
3
72
14
73
10
40
0
40
0
40
0
40
0
40
0.0560617400824647
40
0.0560617400824647
40
0.432699965147826
40
0.432699965147826
40
0.81134530467093
40
0.81134530467093
40
1
40
1
40
1
40
1
41
1
10
36.8750088714625
20
1.04309332948634
30
0
41
1
10
36.8577479604625
20
1.07649503478672
30
0
41
1
10
36.8400587614857
20
1.10984313515209
30
0
41
1
10
36.7014632803024
20
1.36430476934805
30
0
41
1
10
36.5597210069834
20
1.58449296498483
30
0
41
1
10
36.2504096252211
20
1.98472204054113
30
0
41
1
10
36.0784206865747
20
2.16967784293814
30
0
41
1
10
35.8189762157754
20
2.39848812888334
30
0
41
1
10
35.7310723940962
20
2.46793516594408
30
0
41
1
10
35.6439597469421
20
2.52937499570734
30
0
0
SPLINE
5
128
100
AcDbEntity
8
1
62
256
6
ByLayer
370
18
48
1
60
0
100
AcDbSpline
70
4
71
3
72
16
73
12
40
0
40
0
40
0
40
0
40
0.107738294188997
40
0.107738294188997
40
0.260376815889416
40
0.260376815889416
40
0.501548994683953
40
0.501548994683953
40
0.879664328740046
40
0.879664328740046
40
1
40
1
40
1
40
1
41
1
10
9.3939563511949
20
8.1290322116547
30
0
41
1
10
9.40778442738679
20
8.18054624351691
30
0
41
1
10
9.42048186620332
20
8.23514014292553
30
0
41
1
10
9.44819147059127
20
8.3619272598572
30
0
41
1
10
9.46262851613437
20
8.43474097542767
30
0
41
1
10
9.4956623552485
20
8.60841264164864
30
0
41
1
10
9.51251515667025
20
8.70512475552991
30
0
41
1
10
9.54626279451327
20
8.92277384626621
30
0
41
1
10
9.55818463954466
20
9.03127102668893
30
0
41
1
10
9.56185010616156
20
9.14742813324878
30
0
41
1
10
9.56183258937386
20
9.17373235041123
30
0
41
1
10
9.56094963172103
20
9.198285005868
30
0
0
SPLINE
5
129
100
AcDbEntity
8
1
62
256
6
ByLayer
370
18
48
1
60
0
100
AcDbSpline
70
4
71
3
72
12
73
8
40
0
40
0
40
0
40
0
40
0.499999999999989
40
0.499999999999989
40
0.749999999999994
40
0.749999999999994
40
1
40
1
40
1
40
1
41
1
10
32.7141975587824
20
-0.454783410763838
30
0
41
1
10
32.36920139539
20
-0.62419898741075
30
0
41
1
10
32.0163687448409
20
-0.81930932193373
30
0
41
1
10
31.5037746516762
20
-1.26249848973831
30
0
41
1
10
31.33179903412
20
-1.44339453006904
30
0
41
1
10
31.1409612740657
20
-1.81491000905007
30
0
41
1
10
31.1583330453244
20
-1.96853277296285
30
0
41
1
10
31.2299230782395
20
-2.05873821077458
30
0
0
SPLINE
5
12A
100
AcDbEntity
8
1
62
256
6
ByLayer
370
18
48
1
60
0
100
AcDbSpline
70
4
71
3
72
8
73
4
40
0
40
0
40
0
40
0
40
1
40
1
40
1
40
1
41
1
10
8.39802655338173
20
-2.96568791135226
30
0
41
1
10
8.38622666842127
20
-3.10204299376195
30
0
41
1
10
8.38728281290503
20
-3.23538694784705
30
0
41
1
10
8.39917207456335
20
-3.36632494435207
30
0
0
SPLINE
5
12B
100
AcDbEntity
8
1
62
256
6
ByLayer
370
18
48
1
60
0
100
AcDbSpline
70
4
71
3
72
10
73
6
40
0
40
0
40
0
40
0
40
0.0734657164133826
40
0.699676314776441
40
1
40
1
40
1
40
1
41
1.02544020896672
10
35.1312007170606
20
3.23357899779582
30
0
41
1.02527247753992
10
35.048532037525
20
3.31184249445121
30
0
41
1.02366228488755
10
34.2407642088549
20
4.06428325496902
30
0
41
1.02128760257541
10
32.8167023354607
20
5.20586303036824
30
0
41
1.01951717951064
10
31.9645004938308
20
5.82188264630333
30
0
41
1.01906346594983
10
31.7029731616488
20
6.00237570086865
30
0
0
SPLINE
5
12C
100
AcDbEntity
8
1
62
256
6
ByLayer
370
18
48
1
60
0
100
AcDbSpline
70
4
71
3
72
12
73
8
40
0
40
0
40
0
40
0
40
0.274077856982875
40
0.274077856982875
40
0.548155363965171
40
0.548155363965171
40
1
40
1
40
1
40
1
41
1
10
23.954050219852
20
2.35007290297597
30
0
41
1
10
23.9888956484406
20
2.1192511437923
30
0
41
1
10
24.008756800467
20
1.88534719199683
30
0
41
1
10
24.0180958898521
20
1.41780140822789
30
0
41
1
10
24.0075956294779
20
1.18308830524313
30
0
41
1
10
23.9401966132431
20
0.568982674370687
30
0
41
1
10
23.857119853272
20
0.189722121891919
30
0
41
1
10
23.7356972721858
20
-0.173132558208266
30
0
0
SPLINE
5
12D
100
AcDbEntity
8
1
62
256
6
ByLayer
370
18
48
1
60
0
100
AcDbSpline
70
4
71
1
72
4
73
2
40
0
40
0
40
1
40
1
41
1
10
19.1491031477652
20
8.38955244006621
30
0
41
1
10
18.6569335844484
20
10.3390158506664
30
0
0
SPLINE
5
12E
100
AcDbEntity
8
1
62
256
6
ByLayer
370
18
48
1
60
0
100
AcDbSpline
70
4
71
3
72
10
73
6
40
0
40
0
40
0
40
0
40
0.5
40
0.5
40
1
40
1
40
1
40
1
41
1
10
31.2299230782395
20
-2.05873821077458
30
0
41
1
10
31.5933798431491
20
-2.50334937385068
30
0
41
1
10
31.9768292523346
20
-2.93949174821637
30
0
41
1
10
33.0629352336589
20
-3.4006201247791
30
0
41
1
10
33.7185925172593
20
-3.52284376140525
30
0
41
1
10
34.5690419106022
20
-3.2298084090987
30
0
0
SPLINE
5
12F
100
AcDbEntity
8
1
62
256
6
ByLayer
370
18
48
1
60
0
100
AcDbSpline
70
4
71
3
72
8
73
4
40
0
40
0
40
0
40
0
40
1
40
1
40
1
40
1
41
1
10
13.6092215625586
20
5.79822889135227
30
0
41
1
10
13.3428620209041
20
5.56706492827908
30
0
41
1
10
13.0153986537946
20
5.38981479665506
30
0
41
1
10
12.6615123893252
20
5.28557583188484
30
0
0
SPLINE
5
130
100
AcDbEntity
8
1
62
256
6
ByLayer
370
18
48
1
60
0
100
AcDbSpline
70
4
71
3
72
11
73
7
40
0
40
0
40
0
40
0
40
0.425230898249521
40
0.744154071936662
40
0.956769521061423
40
1
40
1
40
1
40
1
41
1.0258173342201
10
17.9592049059948
20
-5.36046913724431
30
0
41
1.02559001729416
10
19.1003455351911
20
-5.35471597389481
30
0
41
1.0228008665691
10
23.1005013742675
20
-4.53062459729061
30
0
41
1.01953314781965
10
28.5800464103288
20
-2.77284730188257
30
0
41
1.01775466813744
10
30.471338858806
20
-2.16105025612833
30
0
41
1.01823166218986
10
31.1223709077651
20
-2.07068985617356
30
0
41
1.01834276704995
10
31.2299230782395
20
-2.05873821077454
30
0
0
SPLINE
5
131
100
AcDbEntity
8
1
62
256
6
ByLayer
370
18
48
1
60
0
100
AcDbSpline
70
4
71
3
72
8
73
4
40
0
40
0
40
0
40
0
40
1
40
1
40
1
40
1
41
1
10
19.334786610837
20
6.63996918047263
30
0
41
1
10
19.2598826907122
20
6.6498970997996
30
0
41
1
10
19.1850434146937
20
6.65817525049997
30
0
41
1
10
19.1102706834829
20
6.66478888767566
30
0
0
SPLINE
5
132
100
AcDbEntity
8
1
62
256
6
ByLayer
370
18
48
1
60
0
100
AcDbSpline
70
4
71
3
72
8
73
4
40
0
40
0
40
0
40
0
40
1
40
1
40
1
40
1
41
1
10
30.7199041981382
20
-5.3529087641964
30
0
41
1
10
30.5633008422956
20
-5.36777755908224
30
0
41
1
10
30.4065372462897
20
-5.37811805649096
30
0
41
1
10
30.2498081982238
20
-5.38537799136918
30
0
0
SPLINE
5
133
100
AcDbEntity
8
1
62
256
6
ByLayer
370
18
48
1
60
0
100
AcDbSpline
70
4
71
3
72
10
73
6
40
0
40
0
40
0
40
0
40
0.914968234315966
40
0.914968234315966
40
1
40
1
40
1
40
1
41
1
10
32.837413139288
20
0.96905001572236
30
0
41
1
10
33.1883359105518
20
0.706057239102847
30
0
41
1
10
33.5391753744059
20
0.452478302300705
30
0
41
1
10
33.921855808464
20
0.185415795585215
30
0
41
1
10
33.9543984853331
20
0.162786520313063
30
0
41
1
10
33.9869349800139
20
0.140245676137368
30
0
0
SPLINE
5
134
100
AcDbEntity
8
1
62
256
6
ByLayer
370
18
48
1
60
0
100
AcDbSpline
70
4
71
3
72
10
73
6
40
0
40
0
40
0
40
0
40
0.579529299651679
40
0.579529299651679
40
1
40
1
40
1
40
1
41
1
10
28.0636403675783
20
-5.85634082172393
30
0
41
1
10
28.5071741317583
20
-5.70789878268559
30
0
41
1
10
28.9556486974651
20
-5.58168340907068
30
0
41
1
10
29.6827282879768
20
-5.4359145053154
30
0
41
1
10
29.9797251228042
20
-5.39788866225919
30
0
41
1
10
30.2498081982238
20
-5.38537799136918
30
0
0
SPLINE
5
135
100
AcDbEntity
8
1
62
256
6
ByLayer
370
18
48
1
60
0
100
AcDbSpline
70
4
71
2
72
6
73
3
40
0
40
0
40
0
40
1
40
1
40
1
41
1.0258173342201
10
17.9592049059948
20
-5.36046913724431
30
0
41
1.0258173342201
10
17.5444176192802
20
-6.33520084254609
30
0
41
1.0258173342201
10
17.1296303325655
20
-7.30993254784793
30
0
0
SPLINE
5
136
100
AcDbEntity
8
1
62
256
6
ByLayer
370
18
48
1
60
0
100
AcDbSpline
70
4
71
3
72
8
73
4
40
0
40
0
40
0
40
0
40
1
40
1
40
1
40
1
41
1
10
9.56094963171336
20
9.19828500585774
30
0
41
1
10
10.3162075213171
20
8.36333700182578
30
0
41
1
10
11.5052639121382
20
6.8602615886835
30
0
41
1
10
12.6615123893252
20
5.28557583188481
30
0
0
SPLINE
5
137
100
AcDbEntity
8
1
62
256
6
ByLayer
370
18
48
1
60
0
100
AcDbSpline
70
4
71
3
72
10
73
6
40
0
40
0
40
0
40
0
40
0.731096563947304
40
0.731096563947304
40
1
40
1
40
1
40
1
41
1
10
12.6615123893252
20
5.28557583188481
30
0
41
1
10
12.5814980908976
20
5.26200722108436
30
0
41
1
10
12.4951496488874
20
5.24214849483414
30
0
41
1
10
12.3791073051248
20
5.22137339352449
30
0
41
1
10
12.3476052047112
20
5.21631552656049
30
0
41
1
10
12.3163857977996
20
5.21181673261589
30
0
0
SPLINE
5
138
100
AcDbEntity
8
1
62
256
6
ByLayer
370
18
48
1
60
0
100
AcDbSpline
70
4
71
3
72
11
73
7
40
0
40
0
40
0
40
0
40
0.425230898251468
40
0.744154071940069
40
0.956769521065803
40
1
40
1
40
1
40
1
41
1.0258173342201
10
19.1491031477651
20
8.38955244006621
30
0
41
1.02559001729416
10
20.2721140833775
20
8.18580560763575
30
0
41
1.0228008665691
10
24.0714360977106
20
6.68913599411708
30
0
41
1.01953314781965
10
29.1653396231984
20
3.99058340538954
30
0
41
1.01775466813745
10
30.9218696465395
20
3.0451159818496
30
0
41
1.01823166218985
10
31.546950057949
20
2.83558890916237
30
0
41
1.01834276704992
10
31.6507194476398
20
2.80382814667225
30
0
0
SPLINE
5
139
100
AcDbEntity
8
1
62
256
6
ByLayer
370
18
48
1
60
0
100
AcDbSpline
70
4
71
3
72
11
73
7
40
0
40
0
40
0
40
0
40
0.0598016998824445
40
0.468392215028714
40
0.740785891792894
40
1
40
1
40
1
40
1
41
1.0229825050537
10
23.9540502197699
20
2.35007290298697
30
0
41
1.02281639303114
10
24.1936617362825
20
2.31794731292534
30
0
41
1.02150796927553
10
26.0878671388624
20
2.05959658785406
30
0
41
1.01953314781965
10
29.1493550635167
20
1.58177047257433
30
0
41
1.01726237988674
10
31.3958466003345
20
1.16929099717214
30
0
41
1.01931548101018
10
32.2431833975595
20
1.06257831456962
30
0
41
1.02052415826821
10
32.8374131392879
20
0.969050015722349
30
0
0
SPLINE
5
13A
100
AcDbEntity
8
1
62
256
6
ByLayer
370
18
48
1
60
0
100
AcDbSpline
70
4
71
3
72
20
73
16
40
0
40
0
40
0
40
0
40
0.118962056339782
40
0.118962056339782
40
0.19117323028645
40
0.19117323028645
40
0.263712164126322
40
0.263712164126322
40
0.333306822588758
40
0.333306822588758
40
0.451479822004391
40
0.451479822004391
40
0.654414534009029
40
0.654414534009029
40
1
40
1
40
1
40
1
41
1
10
31.6507194476397
20
2.80382814667226
30
0
41
1
10
31.6108175371833
20
2.77054693461798
30
0
41
1
10
31.5780376097388
20
2.72480268195344
30
0
41
1
10
31.5528782830776
20
2.62426602824306
30
0
41
1
10
31.549823670882
20
2.57892194827051
30
0
41
1
10
31.5600768781499
20
2.47837083617756
30
0
41
1
10
31.5736467414308
20
2.4218850412625
30
0
41
1
10
31.6132501356444
20
2.30930764190975
30
0
41
1
10
31.6390214817193
20
2.25210944076011
30
0
41
1
10
31.7178848354421
20
2.10196192371498
30
0
41
1
10
31.7785593630866
20
2.00901357763675
30
0
41
1
10
31.9518929648748
20
1.77382614873343
30
0
41
1
10
32.0741790975778
20
1.63808937383547
30
0
41
1
10
32.4062145915349
20
1.30699053280426
30
0
41
1
10
32.6233161107397
20
1.12944595693776
30
0
41
1
10
32.837413139288
20
0.96905001572236
30
0
0
SPLINE
5
13B
100
AcDbEntity
8
1
62
256
6
ByLayer
370
18
48
1
60
0
100
AcDbSpline
70
4
71
3
72
16
73
12
40
0
40
0
40
0
40
0
40
0.47432043627442
40
0.47432043627442
40
0.658954025821057
40
0.658954025821057
40
0.845504004041771
40
0.845504004041771
40
0.957858191960718
40
0.957858191960718
40
1
40
1
40
1
40
1
41
1
10
8.3780106604637
20
-4.47131782935168
30
0
41
1
10
8.39827486575166
20
-4.37233721865371
30
0
41
1
10
8.40987115919103
20
-4.24296251416101
30
0
41
1
10
8.41580722559138
20
-4.00912907890302
30
0
41
1
10
8.41645583357501
20
-3.93626371990317
30
0
41
1
10
8.4158786239941
20
-3.77804525578046
30
0
41
1
10
8.41472997628648
20
-3.69082408669237
30
0
41
1
10
8.4102234840833
20
-3.54450494472289
30
0
41
1
10
8.40786469638829
20
-3.48674118217542
30
0
41
1
10
8.40270693245998
20
-3.40868900211248
30
0
41
1
10
8.40107401633031
20
-3.38727127824538
30
0
41
1
10
8.39917207456335
20
-3.36632494435207
30
0
0
SPLINE
5
13C
100
AcDbEntity
8
1
62
256
6
ByLayer
370
18
48
1
60
0
100
AcDbSpline
70
4
71
3
72
11
73
7
40
0
40
0
40
0
40
0
40
0.0598016998855041
40
0.468392215040456
40
0.740785891810424
40
1
40
1
40
1
40
1
41
1.02298250505371
10
23.7356972721027
20
-0.173132558204299
30
0
41
1.02281639303115
10
23.9770978582505
20
-0.184584324969992
30
0
41
1.02150796927554
10
25.8861381135808
20
-0.271509008567187
30
0
41
1.01953314781965
10
28.9810679016834
20
-0.362893386221704
30
0
41
1.0172623798868
10
31.2619164384147
20
-0.378356146818164
30
0
41
1.01931548101
10
32.1137200691124
20
-0.433451762630204
30
0
41
1.02052415826788
10
32.7141975586053
20
-0.454783410757551
30
0
0
SPLINE
5
13D
100
AcDbEntity
8
1
62
256
6
ByLayer
370
18
48
1
60
0
100
AcDbSpline
70
4
71
3
72
8
73
4
40
0
40
0
40
0
40
0
40
1
40
1
40
1
40
1
41
1
10
12.110756674885
20
-1.0787523867352
30
0
41
1
10
10.7023185849187
20
-2.43675961616071
30
0
41
1
10
9.26680535611456
20
-3.73884809795254
30
0
41
1
10
8.3780106604637
20
-4.47131782935168
30
0
0
SPLINE
5
13E
100
AcDbEntity
8
1
62
256
6
ByLayer
370
18
48
1
60
0
100
AcDbSpline
70
4
71
3
72
14
73
10
40
0
40
0
40
0
40
0
40
0.264998964150954
40
0.264998964150954
40
0.633007150607453
40
0.633007150607453
40
0.984533813617863
40
0.984533813617863
40
1
40
1
40
1
40
1
41
1
10
35.19796788102
20
-2.62434114947243
30
0
41
1
10
35.3324285597167
20
-2.56325546249107
30
0
41
1
10
35.4714969045795
20
-2.48637239831706
30
0
41
1
10
35.8002842723973
20
-2.26983289471193
30
0
41
1
10
35.9933517974903
20
-2.11370082373216
30
0
41
1
10
36.3419926913058
20
-1.77689504055692
30
0
41
1
10
36.5030753830798
20
-1.5939245138446
30
0
41
1
10
36.6525231785079
20
-1.39864130853118
30
0
41
1
10
36.6588508593285
20
-1.39032024978221
30
0
41
1
10
36.6651474081294
20
-1.38198769658172
30
0
0
SPLINE
5
13F
100
AcDbEntity
8
1
62
256
6
ByLayer
370
18
48
1
60
0
100
AcDbSpline
70
4
71
3
72
10
73
6
40
0
40
0
40
0
40
0
40
0.5
40
0.5
40
1
40
1
40
1
40
1
41
1
10
19.3347866106822
20
6.63996918049293
30
0
41
1
10
20.4503127272219
20
6.4915644347395
30
0
41
1
10
21.5074854868806
20
5.9765389754144
30
0
41
1
10
23.169772514069
20
4.47771228614349
30
0
41
1
10
23.7844184292533
20
3.47333860359686
30
0
41
1
10
23.954050219852
20
2.35007290297597
30
0
0
SPLINE
5
140
100
AcDbEntity
8
1
62
256
6
ByLayer
370
18
48
1
60
0
100
AcDbSpline
70
4
71
3
72
10
73
6
40
0
40
0
40
0
40
0
40
0.5
40
0.5
40
1
40
1
40
1
40
1
41
1
10
35.1285843156438
20
3.23605554849189
30
0
41
1
10
34.3417382049837
20
3.69070991132395
30
0
41
1
10
33.6790187929
20
3.70812556089732
30
0
41
1
10
32.5328725413339
20
3.49086237740062
30
0
41
1
10
32.0830300313883
20
3.15354735911072
30
0
41
1
10
31.6507194476397
20
2.80382814667226
30
0
0
SPLINE
5
141
100
AcDbEntity
8
1
62
256
6
ByLayer
370
18
48
1
60
0
100
AcDbSpline
70
4
71
3
72
8
73
4
40
0
40
0
40
0
40
0
40
1
40
1
40
1
40
1
41
1
10
16.0600682868934
20
-3.40476548167976
30
0
41
1
10
14.7995041821495
20
-3.29326877037235
30
0
41
1
10
13.6952832456905
20
-2.67820112844109
30
0
41
1
10
12.9555169709115
20
-1.75573826718562
30
0
0
SPLINE
5
142
100
AcDbEntity
8
1
62
256
6
ByLayer
370
18
48
1
60
0
100
AcDbSpline
70
4
71
3
72
8
73
4
40
0
40
0
40
0
40
0
40
1
40
1
40
1
40
1
41
1
10
11.7834466568494
20
-0.94662978845605
30
0
41
1
10
11.5157623440221
20
-0.86059573948171
30
0
41
1
10
11.242349502299
20
-0.810165717074909
30
0
41
1
10
10.9746283826095
20
-0.788255694899561
30
0
0
SPLINE
5
143
100
AcDbEntity
8
1
62
256
6
ByLayer
370
18
48
1
60
0
100
AcDbSpline
70
4
71
3
72
8
73
4
40
0
40
0
40
0
40
0
40
1
40
1
40
1
40
1
41
1
10
18.6569335844484
20
10.3390158506664
30
0
41
1
10
22.3754047460649
20
9.98764550141053
30
0
41
1
10
25.9040853667191
20
8.7698696358888
30
0
41
1
10
29.1751608797366
20
6.9879768596459
30
0
0
SPLINE
5
144
100
AcDbEntity
8
1
62
256
6
ByLayer
370
18
48
1
60
0
100
AcDbSpline
70
4
71
3
72
8
73
4
40
0
40
0
40
0
40
0
40
1
40
1
40
1
40
1
41
1
10
13.6092215625586
20
5.79822889135227
30
0
41
1
10
14.4977617977404
20
6.56936132700221
30
0
41
1
10
15.6733815566784
20
6.96878122993314
30
0
41
1
10
16.9480170238807
20
6.85603990866756
30
0
0
SPLINE
5
145
100
AcDbEntity
8
1
62
256
6
ByLayer
370
18
48
1
60
0
100
AcDbSpline
70
4
71
3
72
10
73
6
40
0
40
0
40
0
40
0
40
0.5
40
0.5
40
1
40
1
40
1
40
1
41
1
10
28.0636403675783
20
-5.85634082172396
30
0
41
1
10
26.3055671563542
20
-6.44473339367454
30
0
41
1
10
24.5154205342407
20
-6.87127041544466
30
0
41
1
10
20.8656815035422
20
-7.37389261537746
30
0
41
1
10
18.9906349310757
20
-7.46330304622916
30
0
41
1
10
17.1296303325655
20
-7.30993254784789
30
0
0
SPLINE
5
146
100
AcDbEntity
8
1
62
256
6
ByLayer
370
18
48
1
60
0
100
AcDbSpline
70
4
71
3
72
8
73
4
40
0
40
0
40
0
40
0
40
1
40
1
40
1
40
1
41
1
10
9.3216562157599
20
-6.66989235530934
30
0
41
1
10
8.79870493354412
20
-6.63067170747948
30
0
41
1
10
8.21289610416966
20
-6.52434966907836
30
0
41
1
10
7.62876929922265
20
-6.26263701741576
30
0
0
SPLINE
5
147
100
AcDbEntity
8
1
62
256
6
ByLayer
370
18
48
1
60
0
100
AcDbSpline
70
4
71
3
72
8
73
4
40
0
40
0
40
0
40
0
40
1
40
1
40
1
40
1
41
1
10
12.3163857977996
20
5.21181673261589
30
0
41
1
10
11.2599514522828
20
6.31953266557872
30
0
41
1
10
10.217061519606
20
7.36081687452796
30
0
41
1
10
9.3939563511949
20
8.1290322116547
30
0
0
SPLINE
5
148
100
AcDbEntity
8
1
62
256
6
ByLayer
370
18
48
1
60
0
100
AcDbSpline
70
4
71
3
72
10
73
6
40
0
40
0
40
0
40
0
40
0.311681797709778
40
0.311681797709778
40
1
40
1
40
1
40
1
41
1
10
33.9869349800297
20
0.140245676126312
30
0
41
1
10
33.8554984577312
20
0.0819231327115801
30
0
41
1
10
33.7237723478838
20
0.0224230699616044
30
0
41
1
10
33.300399034447
20
-0.171862584381131
30
0
41
1
10
33.0078130713805
20
-0.310536053437403
30
0
41
1
10
32.7141975587824
20
-0.454783410763838
30
0
0
SPLINE
5
149
100
AcDbEntity
8
1
62
256
6
ByLayer
370
18
48
1
60
0
100
AcDbSpline
70
4
71
2
72
6
73
3
40
0
40
0
40
0
40
1
40
1
40
1
41
0.943993462491077
10
18.4476989412192
20
-3.61088594374093
30
0
41
0.955129619920243
10
18.2109601205583
20
-4.7688555621186
30
0
41
1.0258173342201
10
17.9592049059948
20
-5.36046913724431
30
0
0
SPLINE
5
14A
100
AcDbEntity
8
1
62
256
6
ByLayer
370
18
48
1
60
0
100
AcDbSpline
70
4
71
3
72
8
73
4
40
0
40
0
40
0
40
0
40
1
40
1
40
1
40
1
41
1
10
19.3347866106822
20
6.63996918049293
30
0
41
1
10
19.3110505239312
20
7.39668613290232
30
0
41
1
10
19.2467086023622
20
8.00294124629445
30
0
41
1
10
19.1491031477652
20
8.38955244006621
30
0
0
SPLINE
5
14B
100
AcDbEntity
8
1
62
256
6
ByLayer
370
18
48
1
60
0
100
AcDbSpline
70
4
71
3
72
8
73
4
40
0
40
0
40
0
40
0
40
1
40
1
40
1
40
1
41
1
10
9.5609496317133
20
9.19828500585774
30
0
41
1
10
9.56046743223982
20
9.21169366423891
30
0
41
1
10
9.55992497161714
20
9.2248542520685
30
0
41
1
10
9.55931249421337
20
9.23776802543267
30
0
0
LINE
5
72
100
AcDbEntity
8
1
62
256
6
ByLayer
370
18
48
1
60
0
100
AcDbLine
10
11.476445
20
10.981688
30
0
11
10.628236
21
11.015556
31
0
39
0
210
0
220
0
230
1
0
LINE
5
74
100
AcDbEntity
8
1
62
256
6
ByLayer
370
18
48
1
60
0
100
AcDbLine
10
17.534455
20
-3.377385
30
0
11
17.776406
21
-3.377385
31
0
39
0
210
0
220
0
230
1
0
LINE
5
75
100
AcDbEntity
8
1
62
256
6
ByLayer
370
18
48
1
60
0
100
AcDbLine
10
17.776406
20
6.622615
30
0
11
17.535068
21
6.622615
31
0
39
0
210
0
220
0
230
1
0
LINE
5
76
100
AcDbEntity
8
1
62
256
6
ByLayer
370
18
48
1
60
0
100
AcDbLine
10
33.622475
20
-10.669465
30
0
11
34.162505
21
-10.669465
31
0
39
0
210
0
220
0
230
1
0
LINE
5
77
100
AcDbEntity
8
1
62
256
6
ByLayer
370
18
48
1
60
0
100
AcDbLine
10
34.162505
20
10.794519
30
0
11
33.606326
21
10.794519
31
0
39
0
210
0
220
0
230
1
0
LINE
5
78
100
AcDbEntity
8
1
62
256
6
ByLayer
370
18
48
1
60
0
100
AcDbLine
10
11.244302
20
5.195356
30
0
11
11.652551
21
5.179055
31
0
39
0
210
0
220
0
230
1
0
LINE
5
79
100
AcDbEntity
8
80
62
256
6
ByLayer
370
18
48
1
60
0
100
AcDbLine
10
0
20
0
30
0
11
-5
21
0
31
0
39
0
210
0
220
0
230
1
0
LINE
5
7A
100
AcDbEntity
8
81
62
256
6
ByLayer
370
18
48
1
60
0
100
AcDbLine
10
44.778025
20
0.5557
30
0
11
54.778025
21
0.5557
31
0
39
0
210
0
220
0
230
1
0
LINE
5
7B
100
AcDbEntity
8
1
62
256
6
ByLayer
370
18
48
1
60
0
100
AcDbLine
10
17.975163
20
0.222628
30
0
11
17.963154
21
0.222628
31
0
39
0
210
0
220
0
230
1
0
LINE
5
7C
100
AcDbEntity
8
1
62
256
6
ByLayer
370
18
48
1
60
0
100
AcDbLine
10
11.320059
20
-12.460407
30
0
11
11.805195
21
-6.854361
31
0
39
0
210
0
220
0
230
1
0
LINE
5
7D
100
AcDbEntity
8
1
62
256
6
ByLayer
370
18
48
1
60
0
100
AcDbLine
10
13.334807
20
10.821265
30
0
11
13.474672
21
12.4375
31
0
39
0
210
0
220
0
230
1
0
LINE
5
7E
100
AcDbEntity
8
1
62
256
6
ByLayer
370
18
48
1
60
0
100
AcDbLine
10
29.515145
20
6.810444
30
0
11
33.574629
21
10.914528
31
0
39
0
210
0
220
0
230
1
0
LINE
5
7F
100
AcDbEntity
8
1
62
256
6
ByLayer
370
18
48
1
60
0
100
AcDbLine
10
28.548463
20
-5.707882
30
0
11
33.596663
21
-10.767199
31
0
39
0
210
0
220
0
230
1
0
LINE
5
80
100
AcDbEntity
8
1
62
256
6
ByLayer
370
18
48
1
60
0
100
AcDbLine
10
7.331398
20
-12.447554
30
0
11
7.858501
21
-6.356548
31
0
39
0
210
0
220
0
230
1
0
LINE
5
81
100
AcDbEntity
8
1
62
256
6
ByLayer
370
18
48
1
60
0
100
AcDbLine
10
9.353502
20
10.919123
30
0
11
9.484899
21
12.4375
31
0
39
0
210
0
220
0
230
1
0
LINE
5
82
100
AcDbEntity
8
1
62
256
6
ByLayer
370
18
48
1
60
0
100
AcDbLine
10
29.530637
20
6.802318
30
0
11
30.703072
21
7.987633
31
0
39
0
210
0
220
0
230
1
0
LINE
5
83
100
AcDbEntity
8
1
62
256
6
ByLayer
370
18
48
1
60
0
100
AcDbLine
10
33.472012
20
-10.488425
30
0
11
33.628783
21
-10.645542
31
0
39
0
210
0
220
0
230
1
0
LINE
5
84
100
AcDbEntity
8
1
62
256
6
ByLayer
370
18
48
1
60
0
100
AcDbLine
10
7.302068
20
-12.446691
30
0
11
7.830129
21
-6.344621
31
0
39
0
210
0
220
0
230
1
0
LINE
5
85
100
AcDbEntity
8
1
62
256
6
ByLayer
370
18
48
1
60
0
100
AcDbLine
10
9.323496
20
10.912177
30
0
11
9.455494
21
12.4375
31
0
39
0
210
0
220
0
230
1
0
LINE
5
86
100
AcDbEntity
8
1
62
256
6
ByLayer
370
18
48
1
60
0
100
AcDbLine
10
6.390374
20
-12.443753
30
0
11
6.964868
21
-5.805124
31
0
39
0
210
0
220
0
230
1
0
LINE
5
87
100
AcDbEntity
8
1
62
256
6
ByLayer
370
18
48
1
60
0
100
AcDbLine
10
8.378391
20
10.52903
30
0
11
8.543546
21
12.4375
31
0
39
0
210
0
220
0
230
1
0
LINE
5
88
100
AcDbEntity
8
1
62
256
6
ByLayer
370
18
48
1
60
0
100
AcDbLine
10
28.715976
20
-5.656426
30
0
11
33.329493
21
-10.320629
31
0
39
0
210
0
220
0
230
1
0
LINE
5
89
100
AcDbEntity
8
1
62
256
6
ByLayer
370
18
48
1
60
0
100
AcDbLine
10
33.329493
20
10.445683
30
0
11
29.660149
21
6.736026
31
0
39
0
210
0
220
0
230
1
0
LINE
5
8A
100
AcDbEntity
8
1
62
256
6
ByLayer
370
18
48
1
60
0
100
AcDbLine
10
33.278378
20
-10.320629
30
0
11
33.329493
21
-10.320629
31
0
39
0
210
0
220
0
230
1
0
LINE
5
8B
100
AcDbEntity
8
1
62
256
6
ByLayer
370
18
48
1
60
0
100
AcDbLine
10
33.329493
20
10.445683
30
0
11
33.263324
21
10.445683
31
0
39
0
210
0
220
0
230
1
0
LINE
5
8C
100
AcDbEntity
8
1
62
256
6
ByLayer
370
18
48
1
60
0
100
AcDbLine
10
34.995518
20
-10.320629
30
0
11
44.432827
21
-0.779637
31
0
39
0
210
0
220
0
230
1
0
LINE
5
8D
100
AcDbEntity
8
1
62
256
6
ByLayer
370
18
48
1
60
0
100
AcDbLine
10
44.432827
20
0.904691
30
0
11
34.995518
21
10.445683
31
0
39
0
210
0
220
0
230
1
0
LINE
5
8E
100
AcDbEntity
8
1
62
256
6
ByLayer
370
18
48
1
60
0
100
AcDbLine
10
19.238917
20
1.930568
30
0
11
19.540316
21
1.930568
31
0
39
0
210
0
220
0
230
1
0
LINE
5
8F
100
AcDbEntity
8
1
62
256
6
ByLayer
370
18
48
1
60
0
100
AcDbLine
10
19.165408
20
2.327864
30
0
11
18.870375
21
2.327864
31
0
39
0
210
0
220
0
230
1
0
LINE
5
90
100
AcDbEntity
8
1
62
256
6
ByLayer
370
18
48
1
60
0
100
AcDbLine
10
18.720319
20
0.406556
30
0
11
19.021718
21
0.406556
31
0
39
0
210
0
220
0
230
1
0
LINE
5
91
100
AcDbEntity
8
1
62
256
6
ByLayer
370
18
48
1
60
0
100
AcDbLine
10
18.731067
20
0.718072
30
0
11
19.0261
21
0.718072
31
0
39
0
210
0
220
0
230
1
0
LINE
5
92
100
AcDbEntity
8
1
62
256
6
ByLayer
370
18
48
1
60
0
100
AcDbLine
10
17.15553
20
0.098603
30
0
11
17.456929
21
0.098603
31
0
39
0
210
0
220
0
230
1
0
LINE
5
93
100
AcDbEntity
8
1
62
256
6
ByLayer
370
18
48
1
60
0
100
AcDbLine
10
19.16225
20
1.044632
30
0
11
19.463649
21
1.044632
31
0
39
0
210
0
220
0
230
1
0
LINE
5
94
100
AcDbEntity
8
1
62
256
6
ByLayer
370
18
48
1
60
0
100
AcDbLine
10
18.913297
20
2.636534
30
0
11
19.214696
21
2.636534
31
0
39
0
210
0
220
0
230
1
0
LINE
5
95
100
AcDbEntity
8
1
62
256
6
ByLayer
370
18
48
1
60
0
100
AcDbLine
10
17.425175
20
3.214516
30
0
11
17.726574
21
3.214516
31
0
39
0
210
0
220
0
230
1
0
LINE
5
96
100
AcDbEntity
8
1
62
256
6
ByLayer
370
18
48
1
60
0
100
AcDbLine
10
18.977442
20
2.095736
30
0
11
19.272475
21
2.095736
31
0
39
0
210
0
220
0
230
1
0
LINE
5
97
100
AcDbEntity
8
1
62
256
6
ByLayer
370
18
48
1
60
0
100
AcDbLine
10
17.427753
20
0.244951
30
0
11
17.722786
21
0.244951
31
0
39
0
210
0
220
0
230
1
0
LINE
5
98
100
AcDbEntity
8
1
62
256
6
ByLayer
370
18
48
1
60
0
100
AcDbLine
10
17.963158
20
3.022602
30
0
11
17.668125
21
3.022602
31
0
39
0
210
0
220
0
230
1
0
LINE
5
99
100
AcDbEntity
8
1
62
256
6
ByLayer
370
18
48
1
60
0
100
AcDbLine
10
17.920503
20
3.000279
30
0
11
18.215535
21
3.000279
31
0
39
0
210
0
220
0
230
1
0
LINE
5
9A
100
AcDbEntity
8
1
62
256
6
ByLayer
370
18
48
1
60
0
100
AcDbLine
10
19.171411
20
0.927877
30
0
11
18.876378
21
0.927877
31
0
39
0
210
0
220
0
230
1
0
LINE
5
9B
100
AcDbEntity
8
1
62
256
6
ByLayer
370
18
48
1
60
0
100
AcDbLine
10
16.708239
20
6.865614
30
0
11
18.860249
21
6.674772
31
0
39
0
210
0
220
0
230
1
0
LINE
5
9C
100
AcDbEntity
8
1
62
256
6
ByLayer
370
18
48
1
60
0
100
AcDbLine
10
16.948017
20
6.85604
30
0
11
16.708239
21
6.865614
31
0
39
0
210
0
220
0
230
1
0
LINE
5
9D
100
AcDbEntity
8
1
62
256
6
ByLayer
370
18
48
1
60
0
100
AcDbLine
10
12.030254
20
-6.871109
30
0
11
9.479053
21
-6.68164
31
0
39
0
210
0
220
0
230
1
0
LINE
5
9E
100
AcDbEntity
8
1
62
256
6
ByLayer
370
18
48
1
60
0
100
AcDbLine
10
8.398027
20
-2.965688
30
0
11
5.780662
21
-2.86118
31
0
39
0
210
0
220
0
230
1
0
LINE
5
9F
100
AcDbEntity
8
1
62
256
6
ByLayer
370
18
48
1
60
0
100
AcDbLine
10
19.110271
20
6.664789
30
0
11
18.860249
21
6.674772
31
0
39
0
210
0
220
0
230
1
0
LINE
5
A0
100
AcDbEntity
8
1
62
256
6
ByLayer
370
18
48
1
60
0
100
AcDbLine
10
9.323907
20
7.733443
30
0
11
8.398027
21
-2.965688
31
0
39
0
210
0
220
0
230
1
0
LINE
5
A1
100
AcDbEntity
8
1
62
256
6
ByLayer
370
18
48
1
60
0
100
AcDbLine
10
17.12963
20
-7.309933
30
0
11
12.056162
21
-6.861185
31
0
39
0
210
0
220
0
230
1
0
LINE
5
A2
100
AcDbEntity
8
1
62
256
6
ByLayer
370
18
48
1
60
0
100
AcDbLine
10
12.030254
20
-6.871109
30
0
11
12.056162
21
-6.861185
31
0
39
0
210
0
220
0
230
1
0
LINE
5
A3
100
AcDbEntity
8
1
62
256
6
ByLayer
370
18
48
1
60
0
100
AcDbLine
10
13.559595
20
10.801385
30
0
11
11.641541
21
10.971036
31
0
39
0
210
0
220
0
230
1
0
LINE
5
A4
100
AcDbEntity
8
1
62
256
6
ByLayer
370
18
48
1
60
0
100
AcDbLine
10
34.574094
20
-3.224945
30
0
11
35.197968
21
-2.624341
31
0
39
0
210
0
220
0
230
1
0
LINE
5
A5
100
AcDbEntity
8
1
62
256
6
ByLayer
370
18
48
1
60
0
100
AcDbLine
10
16.948017
20
6.85604
30
0
11
19.110271
21
6.664789
31
0
39
0
210
0
220
0
230
1
0
LINE
5
A6
100
AcDbEntity
8
1
62
256
6
ByLayer
370
18
48
1
60
0
100
AcDbLine
10
10.1122
20
-6.701458
30
0
11
9.321656
21
-6.669892
31
0
39
0
210
0
220
0
230
1
0
LINE
5
A7
100
AcDbEntity
8
1
62
256
6
ByLayer
370
18
48
1
60
0
100
AcDbLine
10
11.49188
20
5.188912
30
0
11
11.102911
21
5.204444
31
0
39
0
210
0
220
0
230
1
0
LINE
5
A8
100
AcDbEntity
8
1
62
256
6
ByLayer
370
18
48
1
60
0
100
AcDbLine
10
33.986935
20
0.140246
30
0
11
37.167773
21
-0.193711
31
0
39
0
210
0
220
0
230
1
0
LINE
5
A9
100
AcDbEntity
8
1
62
256
6
ByLayer
370
18
48
1
60
0
100
AcDbLine
10
8.369414
20
-4.512254
30
0
11
17.959205
21
-5.360469
31
0
39
0
210
0
220
0
230
1
0
LINE
5
AA
100
AcDbEntity
8
1
62
256
6
ByLayer
370
18
48
1
60
0
100
AcDbLine
10
11.102911
20
5.204444
30
0
11
9.611864
21
5.336671
31
0
39
0
210
0
220
0
230
1
0
LINE
5
AB
100
AcDbEntity
8
1
62
256
6
ByLayer
370
18
48
1
60
0
100
AcDbLine
10
18.222322
20
-3.596017
30
0
11
16.060068
21
-3.404765
31
0
39
0
210
0
220
0
230
1
0
LINE
5
AC
100
AcDbEntity
8
1
62
256
6
ByLayer
370
18
48
1
60
0
100
AcDbLine
10
9.559312
20
9.237768
30
0
11
19.149103
21
8.389552
31
0
39
0
210
0
220
0
230
1
0
LINE
5
AD
100
AcDbEntity
8
1
62
256
6
ByLayer
370
18
48
1
60
0
100
AcDbLine
10
35.64396
20
2.529375
30
0
11
35.13291
21
3.230124
31
0
39
0
210
0
220
0
230
1
0
LINE
5
AE
100
AcDbEntity
8
1
62
256
6
ByLayer
370
18
48
1
60
0
100
AcDbLine
10
5.780662
20
-2.86118
30
0
11
6.706543
21
7.837951
31
0
39
0
210
0
220
0
230
1
0
LINE
5
AF
100
AcDbEntity
8
1
62
256
6
ByLayer
370
18
48
1
60
0
100
AcDbLine
10
13.559595
20
10.801385
30
0
11
13.583465
21
10.787763
31
0
39
0
210
0
220
0
230
1
0
LINE
5
B0
100
AcDbEntity
8
1
62
256
6
ByLayer
370
18
48
1
60
0
100
AcDbLine
10
10.1122
20
-6.701458
30
0
11
12.030254
21
-6.871109
31
0
39
0
210
0
220
0
230
1
0
LINE
5
B1
100
AcDbEntity
8
1
62
256
6
ByLayer
370
18
48
1
60
0
100
AcDbLine
10
9.323907
20
7.733443
30
0
11
6.706543
21
7.837951
31
0
39
0
210
0
220
0
230
1
0
LINE
5
B2
100
AcDbEntity
8
1
62
256
6
ByLayer
370
18
48
1
60
0
100
AcDbLine
10
18.656934
20
10.339016
30
0
11
13.583465
21
10.787763
31
0
39
0
210
0
220
0
230
1
0
LINE
5
B3
100
AcDbEntity
8
1
62
256
6
ByLayer
370
18
48
1
60
0
100
AcDbLine
10
9.611864
20
5.336671
30
0
11
9.094613
21
-0.640497
31
0
39
0
210
0
220
0
230
1
0
LINE
5
B4
100
AcDbEntity
8
1
62
256
6
ByLayer
370
18
48
1
60
0
100
AcDbLine
10
9.484899
20
12.4375
30
0
11
13.474672
21
12.4375
31
0
39
0
210
0
220
0
230
1
0
LINE
5
B5
100
AcDbEntity
8
1
62
256
6
ByLayer
370
18
48
1
60
0
100
AcDbLine
10
9.455494
20
12.4375
30
0
11
9.484899
21
12.4375
31
0
39
0
210
0
220
0
230
1
0
LINE
5
B6
100
AcDbEntity
8
1
62
256
6
ByLayer
370
18
48
1
60
0
100
AcDbLine
10
31.93508
20
-12.447037
30
0
11
11.320059
21
-12.460407
31
0
39
0
210
0
220
0
230
1
0
LINE
5
B7
100
AcDbEntity
8
1
62
256
6
ByLayer
370
18
48
1
60
0
100
AcDbLine
10
0
20
-12.4375
30
0
11
2.074612
21
-12.446552
31
0
39
0
210
0
220
0
230
1
0
LINE
5
B8
100
AcDbEntity
8
1
62
256
6
ByLayer
370
18
48
1
60
0
100
AcDbLine
10
33.596663
20
-10.767199
30
0
11
33.628783
21
-10.645542
31
0
39
0
210
0
220
0
230
1
0
LINE
5
B9
100
AcDbEntity
8
1
62
256
6
ByLayer
370
18
48
1
60
0
100
AcDbLine
10
0
20
12.4375
30
0
11
0
21
-12.4375
31
0
39
0
210
0
220
0
230
1
0
LINE
5
BA
100
AcDbEntity
8
1
62
256
6
ByLayer
370
18
48
1
60
0
100
AcDbLine
10
6.390374
20
-12.443753
30
0
11
2.074612
21
-12.446552
31
0
39
0
210
0
220
0
230
1
0
LINE
5
BB
100
AcDbEntity
8
1
62
256
6
ByLayer
370
18
48
1
60
0
100
AcDbLine
10
2.074612
20
-12.446552
30
0
11
2.074612
21
12.4375
31
0
39
0
210
0
220
0
230
1
0
LINE
5
BC
100
AcDbEntity
8
1
62
256
6
ByLayer
370
18
48
1
60
0
100
AcDbLine
10
2.074612
20
12.4375
30
0
11
8.543546
21
12.4375
31
0
39
0
210
0
220
0
230
1
0
LINE
5
BD
100
AcDbEntity
8
1
62
256
6
ByLayer
370
18
48
1
60
0
100
AcDbLine
10
13.474672
20
12.4375
30
0
11
32.068208
21
12.4375
31
0
39
0
210
0
220
0
230
1
0
LINE
5
BE
100
AcDbEntity
8
1
62
256
6
ByLayer
370
18
48
1
60
0
100
AcDbLine
10
33.574629
20
10.914528
30
0
11
33.606749
21
10.792872
31
0
39
0
210
0
220
0
230
1
0
LINE
5
BF
100
AcDbEntity
8
1
62
256
6
ByLayer
370
18
48
1
60
0
100
AcDbLine
10
11.320059
20
-12.460407
30
0
11
7.331398
21
-12.447554
31
0
39
0
210
0
220
0
230
1
0
LINE
5
C0
100
AcDbEntity
8
1
62
256
6
ByLayer
370
18
48
1
60
0
100
AcDbLine
10
2.074612
20
12.4375
30
0
11
0
21
12.4375
31
0
39
0
210
0
220
0
230
1
0
LINE
5
C1
100
AcDbEntity
8
1
62
256
6
ByLayer
370
18
48
1
60
0
100
AcDbLine
10
31.93508
20
-12.447037
30
0
11
33.596663
21
-10.767199
31
0
39
0
210
0
220
0
230
1
0
LINE
5
C2
100
AcDbEntity
8
1
62
256
6
ByLayer
370
18
48
1
60
0
100
AcDbLine
10
7.331398
20
-12.447554
30
0
11
7.302068
21
-12.446691
31
0
39
0
210
0
220
0
230
1
0
LINE
5
C3
100
AcDbEntity
8
1
62
256
6
ByLayer
370
18
48
1
60
0
100
AcDbLine
10
8.543546
20
12.4375
30
0
11
9.455494
21
12.4375
31
0
39
0
210
0
220
0
230
1
0
LINE
5
C4
100
AcDbEntity
8
1
62
256
6
ByLayer
370
18
48
1
60
0
100
AcDbLine
10
33.574629
20
10.914528
30
0
11
32.068208
21
12.4375
31
0
39
0
210
0
220
0
230
1
0
LINE
5
C5
100
AcDbEntity
8
1
62
256
6
ByLayer
370
18
48
1
60
0
100
AcDbLine
10
33.606749
20
10.792872
30
0
11
31.432864
21
8.595105
31
0
39
0
210
0
220
0
230
1
0
LINE
5
C6
100
AcDbEntity
8
SK1
62
256
6
ByLayer
370
18
48
1
60
0
100
AcDbLine
10
-106.571975
20
12.4375
30
0
11
-106.571975
21
-12.4375
31
0
39
0
210
0
220
0
230
1
0
LINE
5
C8
100
AcDbEntity
8
SK1
62
256
6
ByLayer
370
18
48
1
60
0
100
AcDbLine
10
0
20
12.4375
30
0
11
-106.571975
21
12.4375
31
0
39
0
210
0
220
0
230
1
0
LINE
5
C9
100
AcDbEntity
8
SK1
62
256
6
ByLayer
370
18
48
1
60
0
100
AcDbLine
10
0
20
12.4375
30
0
11
0
21
-12.4375
31
0
39
0
210
0
220
0
230
1
0
LINE
5
CA
100
AcDbEntity
8
SK1
62
256
6
ByLayer
370
18
48
1
60
0
100
AcDbLine
10
-106.571975
20
-12.4375
30
0
11
0
21
-12.4375
31
0
39
0
210
0
220
0
230
1
0
MTEXT
5
14C
100
AcDbEntity
8
SK6
62
256
6
ByLayer
370
18
48
1
60
0
100
AcDbMText
10
-45.021975
20
-23.323953
30
0
210
0
220
0
230
1
1
\W0.7528;DSDNN 2525M 15
40
3.5
41
0
44
1.084337
50
0
71
7
72
5
7
iso_b_vert
0
DIMENSION
5
15D
100
AcDbEntity
8
2
62
256
6
ByLayer
370
13
48
1
60
0
100
AcDbDimension
2
DimnDraft3D1
10
42.280081
20
3.081088
30
0
11
35.100774
21
24.100355
31
0
70
34
71
5
72
1
41
1
210
0
220
0
230
1
3
Standard
100
AcDb2LineAngularDimension
13
44.778025
23
0.5557
33
0
14
44.778025
24
-1.82555
34
0
15
44.778025
25
0.5557
35
0
16
36.811486
26
19.938209
36
0
40
0
0
DIMENSION
5
173
100
AcDbEntity
8
SK2
62
256
6
ByLayer
370
13
48
1
60
0
100
AcDbDimension
2
DimnDraft3D2
10
-114.321975
20
12.4375
30
0
11
-114.321975
21
-5.281579
31
0
70
32
71
5
72
1
41
1
210
0
220
0
230
1
3
Standard
100
AcDbAlignedDimension
13
-108.571975
23
-12.4375
33
0
14
-108.571975
24
12.4375
34
0
50
90
100
AcDbRotatedDimension
1001
ACAD
1000
DSTYLE
1002
{
1070
    74
1070
     0
1070
   279
1070
     0
1070
   172
1070
     1
1070
   173
1070
     1
1070
   340
1005
14D
1070
    77
1070
     1
1070
    73
1070
     0
1070
   171
1070
     3
1070
   274
1070
     4
1070
   177
1070
     2
1070
   176
1070
     2
1070
   178
1070
     7
1070
    78
1070
     8
1070
    41
1041
3.175
1070
   147
1041
2.25
1070
    42
1041
2.0
1070
    44
1041
2.0
1070
   140
1041
4.5
1070
   343
1005
15E
1070
   344
1005
15E
1002
}
0
DIMENSION
5
181
100
AcDbEntity
8
2
62
256
6
ByLayer
370
13
48
1
60
0
100
AcDbDimension
2
DimnDraft3D3
10
67.028025
20
0.5557
30
0
11
67.028025
21
10.8107
31
0
70
32
71
5
72
1
41
1
210
0
220
0
230
1
3
Standard
100
AcDbAlignedDimension
13
2
23
-12.4375
33
0
14
46.778025
24
0.5557
34
0
50
90
100
AcDbRotatedDimension
1001
ACAD
1000
DSTYLE
1002
{
1070
    74
1070
     0
1070
   279
1070
     0
1070
   172
1070
     1
1070
   173
1070
     1
1070
   340
1005
14D
1070
    77
1070
     1
1070
    73
1070
     0
1070
   171
1070
     3
1070
   274
1070
     4
1070
   177
1070
     2
1070
   176
1070
     2
1070
   178
1070
     7
1070
    78
1070
     8
1070
    41
1041
3.175
1070
   147
1041
2.25
1070
    42
1041
2.0
1070
    44
1041
2.0
1070
   140
1041
4.5
1070
   343
1005
15E
1070
   344
1005
15E
1002
}
0
DIMENSION
5
18F
100
AcDbEntity
8
2
62
256
6
ByLayer
370
13
48
1
60
0
100
AcDbDimension
2
DimnDraft3D4
10
44.778025
20
30.3057
30
0
11
16.63375
21
30.3057
31
0
70
32
71
5
72
1
41
1
210
0
220
0
230
1
3
Standard
100
AcDbAlignedDimension
13
0
23
14.4375
33
0
14
44.778025
24
2.5557
34
0
50
0
100
AcDbRotatedDimension
1001
ACAD
1000
DSTYLE
1002
{
1070
   279
1070
     0
1070
   172
1070
     1
1070
   173
1070
     1
1070
   340
1005
14D
1070
    77
1070
     1
1070
    73
1070
     0
1070
   171
1070
     3
1070
   274
1070
     4
1070
   177
1070
     2
1070
   176
1070
     2
1070
   178
1070
     7
1070
    78
1070
     8
1070
    41
1041
3.175
1070
   147
1041
2.25
1070
    42
1041
2.0
1070
    44
1041
2.0
1070
   140
1041
4.5
1070
   343
1005
15E
1070
   344
1005
15E
1002
}
0
DIMENSION
5
19D
100
AcDbEntity
8
SK2
62
256
6
ByLayer
370
13
48
1
60
0
100
AcDbDimension
2
DimnDraft3D5
10
-106.571975
20
40.3057
30
0
11
-37.297633
21
40.3057
31
0
70
32
71
5
72
1
41
1
210
0
220
0
230
1
3
Standard
100
AcDbAlignedDimension
13
44.778025
23
2.5557
33
0
14
-106.571975
24
14.4375
34
0
50
0
100
AcDbRotatedDimension
1001
ACAD
1000
DSTYLE
1002
{
1070
   279
1070
     0
1070
   172
1070
     1
1070
   173
1070
     1
1070
   340
1005
14D
1070
    77
1070
     1
1070
    73
1070
     0
1070
   171
1070
     3
1070
   274
1070
     4
1070
   177
1070
     2
1070
   176
1070
     2
1070
   178
1070
     7
1070
    78
1070
     8
1070
    41
1041
3.175
1070
   147
1041
2.25
1070
    42
1041
2.0
1070
    44
1041
2.0
1070
   140
1041
4.5
1070
   343
1005
15E
1070
   344
1005
15E
1002
}
0
ENDSEC
0
SECTION
2
OBJECTS
0
DICTIONARY
5
207
330
0
100
AcDbDictionary
280
0
281
1
3
ACAD_GROUP
350
208
3
ACAD_MLINESTYLE
350
209
0
DICTIONARY
5
208
330
0
100
AcDbDictionary
280
0
281
1
0
DICTIONARY
5
209
330
0
100
AcDbDictionary
280
0
281
1
3
Standard
350
18
0
MLINESTYLE
5
18
330
209
100
AcDbMlineStyle
2
Standard
70
0
3

62
256
51
90
52
90
71
2
49
-0.5
62
256
6
ByLayer
49
0.5
62
256
6
ByLayer
0
RASTERVARIABLES
5
1f6
330

100
AcDbRasterVariables
90
0
70
1
71
1
72
1
0
ENDSEC
0
EOF
