0
SECTION
2
HEADER
9
$ACADVER
1
AC1015
9
$DWGCODEPAGE
3
ANSI_1252
9
$HANDSEED
5
1f5
9
$ANGBASE
50
0
9
$ANGDIR
70
0
9
$ATTMODE
70
1
9
$AUNITS
70
0
9
$AUPREC
70
0
9
$CECOLOR
62
256
9
$CELTSCALE
40
1
9
$CELTYPE
6
ByLayer
9
$CELWEIGHT
370
18
9
$CLAYER
8
0
9
$CMLJUST
70
0
9
$CMLSCALE
40
1
9
$CMLSTYLE
2
Standard
9
$DIMSTYLE
2
Standard
9
$TEXTSIZE
40
0.2
9
$TEXTSTYLE
7
Standard
9
$LUNITS
70
2
9
$LUPREC
70
4
9
$EXTNAMES
290
1
9
$INSUNITS
70
4
9
$LTSCALE
40
1
9
$LWDISPLAY
290
1
9
$PDMODE
70
0
9
$PDSIZE
40
0
9
$PLINEGEN
70
0
0
ENDSEC
0
SECTION
2
CLASSES
0
CLASS
1
RASTERVARIABLES
2
AcDbRasterVariables
3
ISM
90
0
280
0
281
0
0
ENDSEC
0
SECTION
2
TABLES
0
TABLE
2
VPORT
5
1eb
100
AcDbSymbolTable
0
VPORT
5
1
100
AcDbSymbolTableRecord
100
AcDbViewportTableRecord
2
*Active
70
0
10
0
20
0
11
1
21
1
12
-1
22
1
13
0
23
0
14
0.5
24
0.5
15
10
25
10
16
0
26
0
36
1
17
0
27
0
37
0
0
ENDTAB
0
TABLE
2
LTYPE
5
1ec
100
AcDbSymbolTable
0
LTYPE
5
14
100
AcDbSymbolTableRecord
100
AcDbLinetypeTableRecord
70
0
2
ByBlock
3

72
65
73
0
40
0
0
LTYPE
5
15
100
AcDbSymbolTableRecord
100
AcDbLinetypeTableRecord
70
0
2
ByLayer
3

72
65
73
0
40
0
0
LTYPE
5
16
100
AcDbSymbolTableRecord
100
AcDbLinetypeTableRecord
70
0
2
CONTINUOUS
3
Solid line
72
65
73
0
40
0
0
LTYPE
5
6A
100
AcDbSymbolTableRecord
100
AcDbLinetypeTableRecord
70
0
2
CENTER
3
____ _ ____ _ ____ _ ____
72
65
73
4
40
47.5
49
22
74
0
49
-8.5
74
0
49
8.5
74
0
49
-8.5
74
0
0
LTYPE
5
6B
100
AcDbSymbolTableRecord
100
AcDbLinetypeTableRecord
70
0
2
DASHED
3
__ __ __ __ __ __ __ __ __
72
65
73
2
40
25.72
49
12.86
74
0
49
-12.86
74
0
0
ENDTAB
0
TABLE
2
LAYER
5
1ed
100
AcDbSymbolTable
0
LAYER
5
10
100
AcDbSymbolTableRecord
100
AcDbLayerTableRecord
2
0
70
0
62
7
6
CONTINUOUS
290
1
370
-3
390
0
0
LAYER
5
6D
100
AcDbSymbolTableRecord
100
AcDbLayerTableRecord
2
2
70
0
62
7
6
CONTINUOUS
290
1
370
-3
390
0
0
LAYER
5
6F
100
AcDbSymbolTableRecord
100
AcDbLayerTableRecord
2
80
70
0
62
-6
6
CONTINUOUS
290
1
370
-3
390
0
0
LAYER
5
71
100
AcDbSymbolTableRecord
100
AcDbLayerTableRecord
2
81
70
0
62
-3
6
CONTINUOUS
290
1
370
-3
390
0
0
LAYER
5
73
100
AcDbSymbolTableRecord
100
AcDbLayerTableRecord
2
1
70
0
62
4
6
CONTINUOUS
290
1
370
-3
390
0
0
LAYER
5
1d8
100
AcDbSymbolTableRecord
100
AcDbLayerTableRecord
2
SK1
70
0
62
4
6
CONTINUOUS
290
1
370
-3
390
0
0
LAYER
5
1d9
100
AcDbSymbolTableRecord
100
AcDbLayerTableRecord
2
SK6
70
0
62
5
6
CONTINUOUS
290
1
370
-3
390
0
0
LAYER
5
1da
100
AcDbSymbolTableRecord
100
AcDbLayerTableRecord
2
SK2
70
0
62
7
6
CONTINUOUS
290
1
370
-3
390
0
0
ENDTAB
0
TABLE
2
STYLE
5
1ee
100
AcDbSymbolTable
0
STYLE
5
11
100
AcDbSymbolTableRecord
100
AcDbTextStyleTableRecord
2
Standard
3
txt
70
0
71
0
40
0
41
1
42
0
50
0
0
STYLE
5
12E
100
AcDbSymbolTableRecord
100
AcDbTextStyleTableRecord
2
iso_b_vert
3
simplex.shx
70
0
71
0
40
0
41
1
42
0
50
0
0
STYLE
5
12F
100
AcDbSymbolTableRecord
100
AcDbTextStyleTableRecord
2
DWGDirectTextStyle
3
simplex
70
0
71
0
40
0
41
1
42
0
50
0
0
ENDTAB
0
TABLE
2
DIMSTYLE
5
1ef
100
AcDbSymbolTable
100
AcDbDimStyleTable
0
DIMSTYLE
105
27
100
AcDbSymbolTableRecord
100
AcDbDimStyleTableRecord
2
Standard
70
0
3
<>
41
0.18
42
0.0625
44
0.18
140
0.18
147
0.09
73
0
74
0
77
1
271
2
275
0
278
52
280
0
340
11
0
ENDTAB
0
TABLE
2
VIEW
5
1f0
100
AcDbSymbolTable
0
ENDTAB
0
TABLE
2
UCS
5
1f1
100
AcDbSymbolTable
0
ENDTAB
0
TABLE
2
APPID
5
1f2
100
AcDbSymbolTable
0
APPID
5
12
100
AcDbSymbolTableRecord
100
AcDbRegAppTableRecord
2
ACAD
70
0
0
ENDTAB
0
TABLE
2
BLOCK_RECORD
5
1f3
100
AcDbSymbolTable
0
BLOCK_RECORD
5
1F
100
AcDbSymbolTableRecord
100
AcDbBlockTableRecord
2
*Model_Space
340
0
70
0
0
BLOCK_RECORD
5
1B
100
AcDbSymbolTableRecord
100
AcDbBlockTableRecord
2
*Paper_Space
340
0
70
0
0
BLOCK_RECORD
5
23
100
AcDbSymbolTableRecord
100
AcDbBlockTableRecord
2
*Paper_Space0
340
0
70
0
0
BLOCK_RECORD
5
131
100
AcDbSymbolTableRecord
100
AcDbBlockTableRecord
2
DimnDraft3D1
340
0
70
0
0
BLOCK_RECORD
5
13F
100
AcDbSymbolTableRecord
100
AcDbBlockTableRecord
2
_CLOSED
340
0
70
0
0
BLOCK_RECORD
5
146
100
AcDbSymbolTableRecord
100
AcDbBlockTableRecord
2
DimnDraft3D2
340
0
70
0
0
BLOCK_RECORD
5
155
100
AcDbSymbolTableRecord
100
AcDbBlockTableRecord
2
DimnDraft3D3
340
0
70
0
0
BLOCK_RECORD
5
163
100
AcDbSymbolTableRecord
100
AcDbBlockTableRecord
2
DimnDraft3D4
340
0
70
0
0
BLOCK_RECORD
5
171
100
AcDbSymbolTableRecord
100
AcDbBlockTableRecord
2
DimnDraft3D5
340
0
70
0
0
ENDTAB
0
ENDSEC
0
SECTION
2
BLOCKS
0
BLOCK
5
20
100
AcDbEntity
8
0
100
AcDbBlockBegin
2
*Model_Space
70
0
10
0
20
0
30
0
3
*Model_Space
0
ENDBLK
5
21
100
AcDbEntity
8
0
100
AcDbBlockEnd
0
BLOCK
5
1C
100
AcDbEntity
8
0
100
AcDbBlockBegin
2
*Paper_Space
70
0
10
0
20
0
30
0
3
*Paper_Space
0
ENDBLK
5
1D
100
AcDbEntity
8
0
100
AcDbBlockEnd
0
BLOCK
5
24
100
AcDbEntity
8
0
100
AcDbBlockBegin
2
*Paper_Space0
70
0
10
0
20
0
30
0
3
*Paper_Space0
0
ENDBLK
5
25
100
AcDbEntity
8
0
100
AcDbBlockEnd
0
BLOCK
5
13C
100
AcDbEntity
8
0
100
AcDbBlockBegin
2
DimnDraft3D1
70
0
10
0
20
0
30
0
3
DimnDraft3D1
0
MTEXT
5
132
100
AcDbEntity
8
2
62
256
6
ByLayer
370
18
48
1
60
0
100
AcDbMText
10
25.506087
20
19.614596
30
0
210
0
220
0
230
1
1
\W0.7785;45%%d
40
4.5
41
0
44
1.084337
50
22.3434918549997
71
7
72
5
7
iso_b_vert
0
LINE
5
133
100
AcDbEntity
8
2
62
256
6
ByLayer
370
13
48
1
60
0
100
AcDbLine
10
36.819284
20
2.3913
30
0
11
36.819284
21
23.347144
31
0
39
0
210
0
220
0
230
1
0
LINE
5
134
100
AcDbEntity
8
2
62
256
6
ByLayer
370
13
48
1
60
0
100
AcDbLine
10
32.914872
20
4.338607
30
0
11
20.675972
21
16.71197
31
0
39
0
210
0
220
0
230
1
0
ARC
5
135
100
AcDbEntity
8
2
62
256
6
ByLayer
370
13
48
1
60
0
100
AcDbCircle
39
0
10
36.819284
20
0.3913
30
0
40
20.9558441220058
210
0
220
0
230
1
100
AcDbArc
50
90
51
134.686984
0
LINE
5
136
100
AcDbEntity
8
2
62
256
6
ByLayer
370
13
48
1
60
0
100
AcDbLine
10
36.819284
20
21.347144
30
0
11
33.662352
21
20.809444
31
0
39
0
210
0
220
0
230
1
0
LINE
5
137
100
AcDbEntity
8
2
62
256
6
ByLayer
370
13
48
1
60
0
100
AcDbLine
10
36.819284
20
21.347144
30
0
11
33.630752
21
21.64484
31
0
39
0
210
0
220
0
230
1
0
LINE
5
138
100
AcDbEntity
8
2
62
256
6
ByLayer
370
13
48
1
60
0
100
AcDbLine
10
33.662352
20
20.809444
30
0
11
33.630752
21
21.64484
31
0
39
0
210
0
220
0
230
1
0
LINE
5
139
100
AcDbEntity
8
2
62
256
6
ByLayer
370
13
48
1
60
0
100
AcDbLine
10
22.082438
20
15.290051
30
0
11
24.140003
21
17.74398
31
0
39
0
210
0
220
0
230
1
0
LINE
5
13A
100
AcDbEntity
8
2
62
256
6
ByLayer
370
13
48
1
60
0
100
AcDbLine
10
22.082438
20
15.290051
30
0
11
24.705019
21
17.127829
31
0
39
0
210
0
220
0
230
1
0
LINE
5
13B
100
AcDbEntity
8
2
62
256
6
ByLayer
370
13
48
1
60
0
100
AcDbLine
10
24.140003
20
17.74398
30
0
11
24.705019
21
17.127829
31
0
39
0
210
0
220
0
230
1
0
ENDBLK
5
13D
100
AcDbEntity
8
0
100
AcDbBlockEnd
0
BLOCK
5
140
100
AcDbEntity
8
0
100
AcDbBlockBegin
2
_CLOSED
70
0
10
0
20
0
30
0
3
_CLOSED
0
LINE
5
142
100
AcDbEntity
8
0
62
256
6
ByLayer
370
-2
48
1
60
0
100
AcDbLine
10
-1
20
0.166667
30
0
11
0
21
0
31
0
39
0
210
0
220
0
230
1
0
LINE
5
143
100
AcDbEntity
8
0
62
256
6
ByLayer
370
-2
48
1
60
0
100
AcDbLine
10
0
20
0
30
0
11
-1
21
-0.166667
31
0
39
0
210
0
220
0
230
1
0
LINE
5
144
100
AcDbEntity
8
0
62
256
6
ByLayer
370
-2
48
1
60
0
100
AcDbLine
10
-1
20
0.166667
30
0
11
-1
21
-0.166667
31
0
39
0
210
0
220
0
230
1
0
LINE
5
145
100
AcDbEntity
8
0
62
256
6
ByLayer
370
-2
48
1
60
0
100
AcDbLine
10
0
20
0
30
0
11
-1
21
0
31
0
39
0
210
0
220
0
230
1
0
ENDBLK
5
141
100
AcDbEntity
8
0
100
AcDbBlockEnd
0
BLOCK
5
152
100
AcDbEntity
8
0
100
AcDbBlockBegin
2
DimnDraft3D2
70
0
10
0
20
0
30
0
3
DimnDraft3D2
0
MTEXT
5
147
100
AcDbEntity
8
SK2
62
256
6
ByLayer
370
18
48
1
60
0
100
AcDbMText
10
-123.405716
20
-4.156579
30
0
210
0
220
0
230
1
1
\W0.7346;25.0
40
4.5
41
0
44
1.084337
50
90
71
7
72
5
7
iso_b_vert
0
LINE
5
149
100
AcDbEntity
8
SK2
62
256
6
ByLayer
370
13
48
1
60
0
100
AcDbLine
10
-116.530716
20
-12.4375
30
0
11
-124.280716
21
-12.4375
31
0
39
0
210
0
220
0
230
1
0
LINE
5
14A
100
AcDbEntity
8
SK2
62
256
6
ByLayer
370
13
48
1
60
0
100
AcDbLine
10
-116.530716
20
12.4375
30
0
11
-124.280716
21
12.4375
31
0
39
0
210
0
220
0
230
1
0
LINE
5
14B
100
AcDbEntity
8
SK2
62
256
6
ByLayer
370
13
48
1
60
0
100
AcDbLine
10
-122.280716
20
-12.4375
30
0
11
-122.280716
21
12.4375
31
0
39
0
210
0
220
0
230
1
0
LINE
5
14C
100
AcDbEntity
8
SK2
62
256
6
ByLayer
370
13
48
1
60
0
100
AcDbLine
10
-122.280716
20
-12.4375
30
0
11
-122.698713
21
-9.262502
31
0
39
0
210
0
220
0
230
1
0
LINE
5
14D
100
AcDbEntity
8
SK2
62
256
6
ByLayer
370
13
48
1
60
0
100
AcDbLine
10
-122.280716
20
-12.4375
30
0
11
-121.86272
21
-9.262498
31
0
39
0
210
0
220
0
230
1
0
LINE
5
14E
100
AcDbEntity
8
SK2
62
256
6
ByLayer
370
13
48
1
60
0
100
AcDbLine
10
-122.698713
20
-9.262502
30
0
11
-121.86272
21
-9.262498
31
0
39
0
210
0
220
0
230
1
0
LINE
5
14F
100
AcDbEntity
8
SK2
62
256
6
ByLayer
370
13
48
1
60
0
100
AcDbLine
10
-122.280716
20
12.4375
30
0
11
-121.86272
21
9.262502
31
0
39
0
210
0
220
0
230
1
0
LINE
5
150
100
AcDbEntity
8
SK2
62
256
6
ByLayer
370
13
48
1
60
0
100
AcDbLine
10
-122.280716
20
12.4375
30
0
11
-122.698713
21
9.262498
31
0
39
0
210
0
220
0
230
1
0
LINE
5
151
100
AcDbEntity
8
SK2
62
256
6
ByLayer
370
13
48
1
60
0
100
AcDbLine
10
-121.86272
20
9.262502
30
0
11
-122.698713
21
9.262498
31
0
39
0
210
0
220
0
230
1
0
ENDBLK
5
153
100
AcDbEntity
8
0
100
AcDbBlockEnd
0
BLOCK
5
160
100
AcDbEntity
8
0
100
AcDbBlockBegin
2
DimnDraft3D3
70
0
10
0
20
0
30
0
3
DimnDraft3D3
0
MTEXT
5
156
100
AcDbEntity
8
2
62
256
6
ByLayer
370
18
48
1
60
0
100
AcDbMText
10
57.944284
20
11.7713
30
0
210
0
220
0
230
1
1
\W0.6563;12.8
40
4.5
41
0
44
1.084337
50
90
71
7
72
5
7
iso_b_vert
0
LINE
5
157
100
AcDbEntity
8
2
62
256
6
ByLayer
370
13
48
1
60
0
100
AcDbLine
10
2
20
-12.4375
30
0
11
61.069284
21
-12.4375
31
0
39
0
210
0
220
0
230
1
0
LINE
5
158
100
AcDbEntity
8
2
62
256
6
ByLayer
370
13
48
1
60
0
100
AcDbLine
10
38.819284
20
0.3913
30
0
11
61.069284
21
0.3913
31
0
39
0
210
0
220
0
230
1
0
LINE
5
159
100
AcDbEntity
8
2
62
256
6
ByLayer
370
13
48
1
60
0
100
AcDbLine
10
59.069284
20
-12.4375
30
0
11
59.069284
21
20.084458
31
0
39
0
210
0
220
0
230
1
0
LINE
5
15A
100
AcDbEntity
8
2
62
256
6
ByLayer
370
13
48
1
60
0
100
AcDbLine
10
59.069284
20
-12.4375
30
0
11
58.651287
21
-9.262502
31
0
39
0
210
0
220
0
230
1
0
LINE
5
15B
100
AcDbEntity
8
2
62
256
6
ByLayer
370
13
48
1
60
0
100
AcDbLine
10
59.069284
20
-12.4375
30
0
11
59.48728
21
-9.262498
31
0
39
0
210
0
220
0
230
1
0
LINE
5
15C
100
AcDbEntity
8
2
62
256
6
ByLayer
370
13
48
1
60
0
100
AcDbLine
10
58.651287
20
-9.262502
30
0
11
59.48728
21
-9.262498
31
0
39
0
210
0
220
0
230
1
0
LINE
5
15D
100
AcDbEntity
8
2
62
256
6
ByLayer
370
13
48
1
60
0
100
AcDbLine
10
59.069284
20
0.3913
30
0
11
59.48728
21
-2.783698
31
0
39
0
210
0
220
0
230
1
0
LINE
5
15E
100
AcDbEntity
8
2
62
256
6
ByLayer
370
13
48
1
60
0
100
AcDbLine
10
59.069284
20
0.3913
30
0
11
58.651287
21
-2.783702
31
0
39
0
210
0
220
0
230
1
0
LINE
5
15F
100
AcDbEntity
8
2
62
256
6
ByLayer
370
13
48
1
60
0
100
AcDbLine
10
59.48728
20
-2.783698
30
0
11
58.651287
21
-2.783702
31
0
39
0
210
0
220
0
230
1
0
ENDBLK
5
161
100
AcDbEntity
8
0
100
AcDbBlockEnd
0
BLOCK
5
16E
100
AcDbEntity
8
0
100
AcDbBlockBegin
2
DimnDraft3D4
70
0
10
0
20
0
30
0
3
DimnDraft3D4
0
MTEXT
5
164
100
AcDbEntity
8
2
62
256
6
ByLayer
370
18
48
1
60
0
100
AcDbMText
10
14.253063
20
31.2663
30
0
210
0
220
0
230
1
1
\W0.7346;36.8
40
4.5
41
0
44
1.084337
50
0
71
7
72
5
7
iso_b_vert
0
LINE
5
165
100
AcDbEntity
8
2
62
256
6
ByLayer
370
13
48
1
60
0
100
AcDbLine
10
0
20
14.4375
30
0
11
0
21
32.1413
31
0
39
0
210
0
220
0
230
1
0
LINE
5
166
100
AcDbEntity
8
2
62
256
6
ByLayer
370
13
48
1
60
0
100
AcDbLine
10
36.819284
20
2.3913
30
0
11
36.819284
21
32.1413
31
0
39
0
210
0
220
0
230
1
0
LINE
5
167
100
AcDbEntity
8
2
62
256
6
ByLayer
370
13
48
1
60
0
100
AcDbLine
10
0
20
30.1413
30
0
11
36.819284
21
30.1413
31
0
39
0
210
0
220
0
230
1
0
LINE
5
168
100
AcDbEntity
8
2
62
256
6
ByLayer
370
13
48
1
60
0
100
AcDbLine
10
0
20
30.1413
30
0
11
3.174998
21
30.559297
31
0
39
0
210
0
220
0
230
1
0
LINE
5
169
100
AcDbEntity
8
2
62
256
6
ByLayer
370
13
48
1
60
0
100
AcDbLine
10
0
20
30.1413
30
0
11
3.175002
21
29.723303
31
0
39
0
210
0
220
0
230
1
0
LINE
5
16A
100
AcDbEntity
8
2
62
256
6
ByLayer
370
13
48
1
60
0
100
AcDbLine
10
3.174998
20
30.559297
30
0
11
3.175002
21
29.723303
31
0
39
0
210
0
220
0
230
1
0
LINE
5
16B
100
AcDbEntity
8
2
62
256
6
ByLayer
370
13
48
1
60
0
100
AcDbLine
10
36.819284
20
30.1413
30
0
11
33.644285
21
29.723303
31
0
39
0
210
0
220
0
230
1
0
LINE
5
16C
100
AcDbEntity
8
2
62
256
6
ByLayer
370
13
48
1
60
0
100
AcDbLine
10
36.819284
20
30.1413
30
0
11
33.644282
21
30.559297
31
0
39
0
210
0
220
0
230
1
0
LINE
5
16D
100
AcDbEntity
8
2
62
256
6
ByLayer
370
13
48
1
60
0
100
AcDbLine
10
33.644285
20
29.723303
30
0
11
33.644282
21
30.559297
31
0
39
0
210
0
220
0
230
1
0
ENDBLK
5
16F
100
AcDbEntity
8
0
100
AcDbBlockEnd
0
BLOCK
5
17C
100
AcDbEntity
8
0
100
AcDbBlockBegin
2
DimnDraft3D5
70
0
10
0
20
0
30
0
3
DimnDraft3D5
0
MTEXT
5
172
100
AcDbEntity
8
SK2
62
256
6
ByLayer
370
18
48
1
60
0
100
AcDbMText
10
-44.131374
20
41.2663
30
0
210
0
220
0
230
1
1
\W0.6864;150.0
40
4.5
41
0
44
1.084337
50
0
71
7
72
5
7
iso_b_vert
0
LINE
5
173
100
AcDbEntity
8
SK2
62
256
6
ByLayer
370
13
48
1
60
0
100
AcDbLine
10
36.819284
20
2.3913
30
0
11
36.819284
21
42.1413
31
0
39
0
210
0
220
0
230
1
0
LINE
5
174
100
AcDbEntity
8
SK2
62
256
6
ByLayer
370
13
48
1
60
0
100
AcDbLine
10
-114.530716
20
14.4375
30
0
11
-114.530716
21
42.1413
31
0
39
0
210
0
220
0
230
1
0
LINE
5
175
100
AcDbEntity
8
SK2
62
256
6
ByLayer
370
13
48
1
60
0
100
AcDbLine
10
36.819284
20
40.1413
30
0
11
-114.530716
21
40.1413
31
0
39
0
210
0
220
0
230
1
0
LINE
5
176
100
AcDbEntity
8
SK2
62
256
6
ByLayer
370
13
48
1
60
0
100
AcDbLine
10
36.819284
20
40.1413
30
0
11
33.644285
21
39.723303
31
0
39
0
210
0
220
0
230
1
0
LINE
5
177
100
AcDbEntity
8
SK2
62
256
6
ByLayer
370
13
48
1
60
0
100
AcDbLine
10
36.819284
20
40.1413
30
0
11
33.644282
21
40.559297
31
0
39
0
210
0
220
0
230
1
0
LINE
5
178
100
AcDbEntity
8
SK2
62
256
6
ByLayer
370
13
48
1
60
0
100
AcDbLine
10
33.644285
20
39.723303
30
0
11
33.644282
21
40.559297
31
0
39
0
210
0
220
0
230
1
0
LINE
5
179
100
AcDbEntity
8
SK2
62
256
6
ByLayer
370
13
48
1
60
0
100
AcDbLine
10
-114.530716
20
40.1413
30
0
11
-111.355718
21
40.559297
31
0
39
0
210
0
220
0
230
1
0
LINE
5
17A
100
AcDbEntity
8
SK2
62
256
6
ByLayer
370
13
48
1
60
0
100
AcDbLine
10
-114.530716
20
40.1413
30
0
11
-111.355715
21
39.723303
31
0
39
0
210
0
220
0
230
1
0
LINE
5
17B
100
AcDbEntity
8
SK2
62
256
6
ByLayer
370
13
48
1
60
0
100
AcDbLine
10
-111.355718
20
40.559297
30
0
11
-111.355715
21
39.723303
31
0
39
0
210
0
220
0
230
1
0
ENDBLK
5
17D
100
AcDbEntity
8
0
100
AcDbBlockEnd
0
ENDSEC
0
SECTION
2
ENTITIES
0
ELLIPSE
5
C8
100
AcDbEntity
8
1
62
256
6
ByLayer
370
18
48
1
60
0
100
AcDbEllipse
10
13.964703
20
0.306956
30
0
11
2.32675207226252E-17
21
0.38
31
0
210
0
220
0
230
1
40
0.989133
41
-2.82335026292606
42
-2.33498694719279
0
ELLIPSE
5
C9
100
AcDbEntity
8
1
62
256
6
ByLayer
370
18
48
1
60
0
100
AcDbEllipse
10
14.152097
20
2.472408
30
0
11
2.32675207226252E-17
21
0.38
31
0
210
0
220
0
230
1
40
0.989133
41
-0.981138631591298
42
-0.318248370710603
0
ELLIPSE
5
CA
100
AcDbEntity
8
1
62
256
6
ByLayer
370
18
48
1
60
0
100
AcDbEllipse
10
14.539552
20
-0.250066
30
0
11
-7.80686550561765E-17
21
-0.425
31
0
210
0
220
0
230
1
40
0.989133
41
3.14158979446546
42
-2.33498694719276
0
ELLIPSE
5
CB
100
AcDbEntity
8
1
62
256
6
ByLayer
370
18
48
1
60
0
100
AcDbEllipse
10
14.813887
20
2.92005
30
0
11
-7.80686550561765E-17
21
-0.425
31
0
210
0
220
0
230
1
40
0.989133
41
-0.981138631591354
42
-1.43719274782732E-06
0
ELLIPSE
5
CC
100
AcDbEntity
8
1
62
256
6
ByLayer
370
18
48
1
60
0
100
AcDbEllipse
10
15.201341
20
0.197576
30
0
11
2.32675207226252E-17
21
0.38
31
0
210
0
220
0
230
1
40
0.989133
41
-2.82330986815016
42
-1.28778939599616
0
ELLIPSE
5
CD
100
AcDbEntity
8
1
62
256
6
ByLayer
370
18
48
1
60
0
100
AcDbEllipse
10
15.388735
20
2.363028
30
0
11
2.32675207226252E-17
21
0.38
31
0
210
0
220
0
230
1
40
0.989133
41
-2.02833618278794
42
-0.318291371143953
0
ELLIPSE
5
CE
100
AcDbEntity
8
1
62
256
6
ByLayer
370
18
48
1
60
0
100
AcDbEllipse
10
14.5591
20
1.334992
30
0
11
-7.34763812293426E-16
21
-4
31
0
210
0
220
0
230
1
40
0.989133
41
-3.14150544065455
42
-2.24484073350127E-16
0
ELLIPSE
5
CF
100
AcDbEntity
8
1
62
256
6
ByLayer
370
18
48
1
60
0
100
AcDbEllipse
10
14.676719
20
1.334992
30
0
11
-2.1124459603436E-16
21
-1.15
31
0
210
0
220
0
230
1
40
0.989133
41
-0.776474845463013
42
-1.95203542043589E-16
0
ELLIPSE
5
D0
100
AcDbEntity
8
1
62
256
6
ByLayer
370
18
48
1
60
0
100
AcDbEllipse
10
14.676719
20
1.334992
30
0
11
-2.1124459603436E-16
21
-1.15
31
0
210
0
220
0
230
1
40
0.989133
41
-2.00935415818908
42
-1.32998488439504
0
ELLIPSE
5
D1
100
AcDbEntity
8
1
62
256
6
ByLayer
370
18
48
1
60
0
100
AcDbEllipse
10
14.676719
20
1.334992
30
0
11
-2.1124459603436E-16
21
-1.15
31
0
210
0
220
0
230
1
40
0.989133
41
0
42
-2.54882419699883
0
ELLIPSE
5
D2
100
AcDbEntity
8
1
62
256
6
ByLayer
370
18
48
1
60
0
100
AcDbEllipse
10
14.603207
20
1.334992
30
0
11
-2.1124459603436E-16
21
-1.15
31
0
210
0
220
0
230
1
40
0.989133
41
0.0322888802459632
42
3.10928245706517
0
ELLIPSE
5
D3
100
AcDbEntity
8
1
62
256
6
ByLayer
370
18
48
1
60
0
100
AcDbEllipse
10
9.360333
20
7.415538
30
0
11
-0.0277897358213911
21
-2.99987128566927
31
0
210
0
220
0
230
1
40
0.986426
41
-0.0781155940000275
42
-0.0302249081526444
0
ELLIPSE
5
D4
100
AcDbEntity
8
1
62
256
6
ByLayer
370
18
48
1
60
0
100
AcDbEllipse
10
15.26039
20
1.270814
30
0
11
0.0384424678862415
21
4.14982194517582
31
0
210
0
220
0
230
1
40
0.986426
41
-3.0776492864469
42
-0.0781155940000276
0
ELLIPSE
5
D5
100
AcDbEntity
8
1
62
256
6
ByLayer
370
18
48
1
60
0
100
AcDbEllipse
10
13.167339
20
1.456427
30
0
11
0.0240844377118621
21
2.59988844758003
31
0
210
0
220
0
230
1
40
0.986426
41
1.38660271625636
42
1.60027995937294
0
ELLIPSE
5
D6
100
AcDbEntity
8
1
62
256
6
ByLayer
370
18
48
1
60
0
100
AcDbEllipse
10
28.261826
20
0.062518
30
0
11
-4.7392265892926E-16
21
-2.58
31
0
210
0
220
0
230
1
40
0.989133
41
0.149127326751194
42
2.81486668551671
0
ELLIPSE
5
D7
100
AcDbEntity
8
1
62
256
6
ByLayer
370
18
48
1
60
0
100
AcDbEllipse
10
28.261826
20
-7.794853
30
0
11
4.86168722467484E-17
21
0.794
31
0
210
0
220
0
230
1
40
0.989133
41
2.35619449019488
42
-2.35619449018984
0
ELLIPSE
5
D8
100
AcDbEntity
8
1
62
256
6
ByLayer
370
18
48
1
60
0
100
AcDbEllipse
10
28.261826
20
7.919889
30
0
11
4.86168722467484E-17
21
0.794
31
0
210
0
220
0
230
1
40
0.989133
41
-0.785398163394866
42
0.785398163399997
0
ELLIPSE
5
D9
100
AcDbEntity
8
1
62
256
6
ByLayer
370
18
48
1
60
0
100
AcDbEllipse
10
36.03381
20
0.062518
30
0
11
4.86168722467484E-17
21
0.794
31
0
210
0
220
0
230
1
40
0.989133
41
-2.3561944901898
42
-0.785398163394891
0
ELLIPSE
5
DA
100
AcDbEntity
8
1
62
256
6
ByLayer
370
18
48
1
60
0
100
AcDbEllipse
10
10.778105
20
-2.49216
30
0
11
-3.64243100081754
21
-2.26382982644092
31
0
210
0
220
0
230
1
40
0.504382
41
0.231640784635273
42
0.591256517999432
0
ELLIPSE
5
DB
100
AcDbEntity
8
1
62
256
6
ByLayer
370
18
48
1
60
0
100
AcDbEllipse
10
8.239421
20
-2.348007
30
0
11
0.889602094624349
21
-1.79125880688413
31
0
210
0
220
0
230
1
40
0.772877
41
-2.01871033474675
42
-0.606034840487146
0
ELLIPSE
5
DC
100
AcDbEntity
8
1
62
256
6
ByLayer
370
18
48
1
60
0
100
AcDbEllipse
10
11.502257
20
5.875875
30
0
11
-3.2702796757551
21
2.63343312981449
31
0
210
0
220
0
230
1
40
0.491295
41
-0.63331589654001
42
-0.273700163183711
0
ELLIPSE
5
DD
100
AcDbEntity
8
1
62
256
6
ByLayer
370
18
48
1
60
0
100
AcDbEllipse
10
11.873459
20
6.346831
30
0
11
-5.46175125076201
21
0.677300827668524
31
0
210
0
220
0
230
1
40
0.224609
41
0.564282410728323
42
0.617274721084192
0
ELLIPSE
5
DE
100
AcDbEntity
8
1
62
256
6
ByLayer
370
18
48
1
60
0
100
AcDbEllipse
10
8.964699
20
6.033034
30
0
11
-1.13976113788093
21
-1.64345506436177
31
0
210
0
220
0
230
1
40
0.781085
41
-2.57061021776241
42
-1.1579347235028
0
ELLIPSE
5
DF
100
AcDbEntity
8
1
62
256
6
ByLayer
370
18
48
1
60
0
100
AcDbEllipse
10
11.046609
20
-3.20795
30
0
11
-5.49708531116596
21
0.268399503284508
31
0
210
0
220
0
230
1
40
0.2502
41
-0.618343682595856
42
-0.565351377243725
0
ELLIPSE
5
E0
100
AcDbEntity
8
1
62
256
6
ByLayer
370
18
48
1
60
0
100
AcDbEllipse
10
8.383117
20
6.000418
30
0
11
-0.522512349301888
21
2.95466956022142
31
0
210
0
220
0
230
1
40
0.996219
41
0.2568040035845
42
1.30849306664903
0
ELLIPSE
5
E1
100
AcDbEntity
8
1
62
256
6
ByLayer
370
18
48
1
60
0
100
AcDbEllipse
10
28.806431
20
0.052931
30
0
11
-0.944541369750829
21
-2.06704572403874
31
0
210
0
220
0
230
1
40
0.797432
41
0.977753711710912
42
1.83296504518685
0
ELLIPSE
5
E2
100
AcDbEntity
8
1
62
256
6
ByLayer
370
18
48
1
60
0
100
AcDbEllipse
10
7.658965
20
-2.367617
30
0
11
-0.522512349384015
21
2.95466956020874
31
0
210
0
220
0
230
1
40
0.996219
41
1.30849306662129
42
2.36018212968532
0
ELLIPSE
5
E3
100
AcDbEntity
8
1
62
256
6
ByLayer
370
18
48
1
60
0
100
AcDbEllipse
10
12.138646
20
8.21073
30
0
11
-3.46688495469701
21
0.523233329072077
31
0
210
0
220
0
230
1
40
0.359476
41
-0.0914273864296927
42
0.631790719966216
0
ELLIPSE
5
E4
100
AcDbEntity
8
1
62
256
6
ByLayer
370
18
48
1
60
0
100
AcDbEllipse
10
10.989199
20
-5.071848
30
0
11
-3.50547873783805
21
0.0751522978007144
31
0
210
0
220
0
230
1
40
0.384984
41
-0.633958720696314
42
0.0892593857048608
0
ELLIPSE
5
E5
100
AcDbEntity
8
1
62
256
6
ByLayer
370
18
48
1
60
0
100
AcDbEllipse
10
3.078379
20
-4.8972
30
0
11
6.97393546380503
21
-0.603509856325894
31
0
210
0
220
0
230
1
40
0.012814
41
-0.82501157786859
42
-0.810230541128627
0
ELLIPSE
5
E6
100
AcDbEntity
8
1
62
256
6
ByLayer
370
18
48
1
60
0
100
AcDbEllipse
10
11.235892
20
-1.020665
30
0
11
5.4795207215611
21
-0.474186315684632
31
0
210
0
220
0
230
1
40
0.012814
41
1.9705136958745
42
2.41228143516284
0
ELLIPSE
5
E7
100
AcDbEntity
8
1
62
256
6
ByLayer
370
18
48
1
60
0
100
AcDbEllipse
10
11.684177
20
4.159547
30
0
11
5.4795207215611
21
-0.474186315684632
31
0
210
0
220
0
230
1
40
0.012814
41
1.97051369587448
42
2.41228143516278
0
ELLIPSE
5
E8
100
AcDbEntity
8
1
62
256
6
ByLayer
370
18
48
1
60
0
100
AcDbEllipse
10
28.806431
20
0.052931
30
0
11
-0.745242470712217
21
2.11895893247648
31
0
210
0
220
0
230
1
40
0.793861
41
-1.93033197981147
42
-1.0751206463309
0
ELLIPSE
5
E9
100
AcDbEntity
8
1
62
256
6
ByLayer
370
18
48
1
60
0
100
AcDbEllipse
10
14.77479
20
-0.250066
30
0
11
-7.80686550561765E-17
21
-0.425
31
0
210
0
220
0
230
1
40
0.989133
41
2.16045402199844
42
-2.33498694719279
0
ELLIPSE
5
EA
100
AcDbEntity
8
1
62
256
6
ByLayer
370
18
48
1
60
0
100
AcDbEllipse
10
15.049125
20
2.92005
30
0
11
-7.80686550561765E-17
21
-0.425
31
0
210
0
220
0
230
1
40
0.989133
41
-0.981138631591349
42
0.80660570639707
0
ELLIPSE
5
EB
100
AcDbEntity
8
1
62
256
6
ByLayer
370
18
48
1
60
0
100
AcDbEllipse
10
15.43658
20
0.197576
30
0
11
2.32675207226252E-17
21
0.38
31
0
210
0
220
0
230
1
40
0.989133
41
2.16045402199845
42
-1.28778939599617
0
ELLIPSE
5
EC
100
AcDbEntity
8
1
62
256
6
ByLayer
370
18
48
1
60
0
100
AcDbEllipse
10
16.103086
20
2.007425
30
0
11
-7.80686550561765E-17
21
-0.425
31
0
210
0
220
0
230
1
40
0.989133
41
-2.02833618278791
42
-0.240591844799597
0
ELLIPSE
5
ED
100
AcDbEntity
8
1
62
256
6
ByLayer
370
18
48
1
60
0
100
AcDbEllipse
10
15.965919
20
0.422367
30
0
11
-7.80686550561765E-17
21
-0.425
31
0
210
0
220
0
230
1
40
0.989133
41
-3.07553373398452
42
-1.28778939599618
0
ELLIPSE
5
EE
100
AcDbEntity
8
1
62
256
6
ByLayer
370
18
48
1
60
0
100
AcDbEllipse
10
13.622758
20
2.247617
30
0
11
-7.80686550561765E-17
21
-0.425
31
0
210
0
220
0
230
1
40
0.989133
41
0.0660589196053412
42
1.85380325759361
0
ELLIPSE
5
EF
100
AcDbEntity
8
1
62
256
6
ByLayer
370
18
48
1
60
0
100
AcDbEllipse
10
13.675319
20
1.444372
30
0
11
2.32675207226252E-17
21
0.38
31
0
210
0
220
0
230
1
40
0.989133
41
0.0660589196053416
42
2.90100080879016
0
ELLIPSE
5
F0
100
AcDbEntity
8
1
62
256
6
ByLayer
370
18
48
1
60
0
100
AcDbEllipse
10
14.387335
20
2.472408
30
0
11
2.32675207226252E-17
21
0.38
31
0
210
0
220
0
230
1
40
0.989133
41
-0.981138631591344
42
1.85380325759364
0
ELLIPSE
5
F1
100
AcDbEntity
8
1
62
256
6
ByLayer
370
18
48
1
60
0
100
AcDbEllipse
10
14.911957
20
1.334992
30
0
11
1.40829730689573E-16
21
2.3
31
0
210
0
220
0
230
1
40
0.989133
41
0
42
6.28318530717959
0
ELLIPSE
5
F2
100
AcDbEntity
8
1
62
256
6
ByLayer
370
18
48
1
60
0
100
AcDbEllipse
10
15.623973
20
2.363028
30
0
11
2.32675207226252E-17
21
0.38
31
0
210
0
220
0
230
1
40
0.989133
41
-2.02833618278794
42
0.806605706396999
0
ELLIPSE
5
F3
100
AcDbEntity
8
1
62
256
6
ByLayer
370
18
48
1
60
0
100
AcDbEllipse
10
16.148596
20
1.225611
30
0
11
2.32675207226252E-17
21
0.38
31
0
210
0
220
0
230
1
40
0.989133
41
-3.07553373398445
42
-0.240591844799552
0
ELLIPSE
5
F4
100
AcDbEntity
8
1
62
256
6
ByLayer
370
18
48
1
60
0
100
AcDbEllipse
10
16.338324
20
2.007425
30
0
11
-7.80686550561765E-17
21
-0.425
31
0
210
0
220
0
230
1
40
0.989133
41
-2.02833618278794
42
-0.240591844799531
0
ELLIPSE
5
F5
100
AcDbEntity
8
1
62
256
6
ByLayer
370
18
48
1
60
0
100
AcDbEllipse
10
16.201157
20
0.422367
30
0
11
-7.80686550561765E-17
21
-0.425
31
0
210
0
220
0
230
1
40
0.989133
41
-3.07553373398445
42
-1.28778939599618
0
ELLIPSE
5
F6
100
AcDbEntity
8
1
62
256
6
ByLayer
370
18
48
1
60
0
100
AcDbEllipse
10
15.913357
20
1.225611
30
0
11
2.32675207226252E-17
21
0.38
31
0
210
0
220
0
230
1
40
0.989133
41
-3.07553373398445
42
-0.240591844799554
0
ELLIPSE
5
F7
100
AcDbEntity
8
1
62
256
6
ByLayer
370
18
48
1
60
0
100
AcDbEllipse
10
14.199942
20
0.306956
30
0
11
2.32675207226252E-17
21
0.38
31
0
210
0
220
0
230
1
40
0.989133
41
1.11325647080184
42
-2.33498694719272
0
ELLIPSE
5
F8
100
AcDbEntity
8
1
62
256
6
ByLayer
370
18
48
1
60
0
100
AcDbEllipse
10
13.485591
20
0.662559
30
0
11
-7.80686550561765E-17
21
-0.425
31
0
210
0
220
0
230
1
40
0.989133
41
1.11325647080188
42
2.9010008087902
0
ELLIPSE
5
F9
100
AcDbEntity
8
1
62
256
6
ByLayer
370
18
48
1
60
0
100
AcDbEllipse
10
14.804036
20
1.334992
30
0
11
2.44921270764475E-16
21
4
31
0
210
0
220
0
230
1
40
0.989133
41
0
42
6.28318530717959
0
ELLIPSE
5
FA
100
AcDbEntity
8
1
62
256
6
ByLayer
370
18
48
1
60
0
100
AcDbEllipse
10
4.602676
20
-12.445486
30
0
11
-0.802990329035308
21
-5.18495173411133E-06
31
0
210
0
220
0
230
1
40
0.004348
41
-2.9949634974285
42
-1.42416717063421
0
ELLIPSE
5
FB
100
AcDbEntity
8
1
62
256
6
ByLayer
370
18
48
1
60
0
100
AcDbEllipse
10
25.833505
20
4.540378
30
0
11
-1.29933666312086
21
-2.41003002344174
31
0
210
0
220
0
230
1
40
0.524248
41
-2.42348064183251
42
-2.08115015691596
0
POINT
5
6C
100
AcDbEntity
8
2
62
256
6
ByLayer
370
18
48
1
60
0
100
AcDbPoint
10
36.819284
20
0.3913
30
0
39
0
210
0
220
0
230
1
50
360
0
POINT
5
6E
100
AcDbEntity
8
80
62
256
6
ByLayer
370
18
48
1
60
0
100
AcDbPoint
10
0
20
0
30
0
39
0
210
0
220
0
230
1
50
360
0
POINT
5
70
100
AcDbEntity
8
81
62
256
6
ByLayer
370
18
48
1
60
0
100
AcDbPoint
10
36.819284
20
0.3913
30
0
39
0
210
0
220
0
230
1
50
360
0
SPLINE
5
FC
100
AcDbEntity
8
1
62
256
6
ByLayer
370
18
48
1
60
0
100
AcDbSpline
70
4
71
3
72
11
73
7
40
0
40
0
40
0
40
0
40
0.614629930772475
40
0.614629930772475
40
0.614629930772475
40
1
40
1
40
1
40
1
41
1
10
8.85809417344558
20
8.98383090482733
30
0
41
1
10
8.53695087533532
20
8.99723076248347
30
0
41
1
10
8.18645080262598
20
8.98392174961432
30
0
41
1
10
7.8248801914674
20
8.91879100324513
30
0
41
1
10
7.59633220727153
20
8.87762200241249
30
0
41
1
10
7.36113088576599
20
8.81505838625861
30
0
41
1
10
7.13011858589101
20
8.72598293374736
30
0
0
SPLINE
5
FD
100
AcDbEntity
8
1
62
256
6
ByLayer
370
18
48
1
60
0
100
AcDbSpline
70
4
71
3
72
8
73
4
40
0
40
0
40
0
40
0
40
1
40
1
40
1
40
1
41
1
10
29.777211121741
20
1.74911824445766
30
0
41
1
10
29.71601386921
20
1.80834013566886
30
0
41
1
10
29.6535714576615
20
1.8634074542357
30
0
41
1
10
29.5910692952054
20
1.91348575281791
30
0
0
SPLINE
5
FE
100
AcDbEntity
8
1
62
256
6
ByLayer
370
18
48
1
60
0
100
AcDbSpline
70
4
71
3
72
8
73
4
40
0
40
0
40
0
40
0
40
1
40
1
40
1
40
1
41
1
10
10.8578173557262
20
-1.43672062062049
30
0
41
1
10
9.85486929531294
20
-2.63997636618888
30
0
41
1
10
8.86718975504249
20
-3.70563156673566
30
0
41
1
10
8.18201137644155
20
-4.21190486472955
30
0
0
SPLINE
5
FF
100
AcDbEntity
8
1
62
256
6
ByLayer
370
18
48
1
60
0
100
AcDbSpline
70
4
71
3
72
8
73
4
40
0
40
0
40
0
40
0
40
1
40
1
40
1
40
1
41
1
10
7.16950915415515
20
6.19338691715043
30
0
41
1
10
7.17153685516837
20
6.21681827598849
30
0
41
1
10
7.17406454784089
20
6.24003551793732
30
0
41
1
10
7.1770691450746
20
6.26304894726655
30
0
0
SPLINE
5
100
100
AcDbEntity
8
1
62
256
6
ByLayer
370
18
48
1
60
0
100
AcDbSpline
70
4
71
1
72
4
73
2
40
0
40
0
40
1
40
1
41
1
10
16.7513632876847
20
7.23165839942925
30
0
41
1
10
16.4117966729278
20
8.34772329532933
30
0
0
SPLINE
5
101
100
AcDbEntity
8
1
62
256
6
ByLayer
370
18
48
1
60
0
100
AcDbSpline
70
4
71
3
72
8
73
4
40
0
40
0
40
0
40
0
40
1
40
1
40
1
40
1
41
1
10
16.9401533500131
20
5.22480693206182
30
0
41
1
10
16.662241606647
20
5.3066885685852
30
0
41
1
10
16.3815417665551
20
5.36079205301394
30
0
41
1
10
16.0981872002411
20
5.38585472309873
30
0
0
SPLINE
5
102
100
AcDbEntity
8
1
62
256
6
ByLayer
370
18
48
1
60
0
100
AcDbSpline
70
4
71
3
72
8
73
4
40
0
40
0
40
0
40
0
40
1
40
1
40
1
40
1
41
1
10
11.5747859803685
20
4.88896357792893
30
0
41
1
10
12.2780543400572
20
5.40092558275597
30
0
41
1
10
13.154725485695
20
5.64620348267073
30
0
41
1
10
14.0741598019833
20
5.56487965142446
30
0
0
SPLINE
5
103
100
AcDbEntity
8
1
62
256
6
ByLayer
370
18
48
1
60
0
100
AcDbSpline
70
4
71
3
72
10
73
6
40
0
40
0
40
0
40
0
40
0.5
40
0.5
40
1
40
1
40
1
40
1
41
1
10
7.49509636141067
20
-5.11729539987709
30
0
41
1
10
7.13321182671069
20
-4.8816089626236
30
0
41
1
10
6.93135705570069
20
-4.5780792479984
30
0
41
1
10
6.55280215531923
20
-3.65300464236648
30
0
41
1
10
6.40993440144086
20
-2.96718043719335
30
0
41
1
10
6.44084262337617
20
-2.24451094632704
30
0
0
SPLINE
5
104
100
AcDbEntity
8
1
62
256
6
ByLayer
370
18
48
1
60
0
100
AcDbSpline
70
4
71
3
72
8
73
4
40
0
40
0
40
0
40
0
40
1
40
1
40
1
40
1
41
1
10
27.8558207219149
20
3.77387164009511
30
0
41
1
10
28.1447673159105
20
3.48373861911352
30
0
41
1
10
28.4337995024816
20
3.19094320015805
30
0
41
1
10
28.7213929764687
20
2.89699443357998
30
0
0
SPLINE
5
105
100
AcDbEntity
8
1
62
256
6
ByLayer
370
18
48
1
60
0
100
AcDbSpline
70
4
71
3
72
8
73
4
40
0
40
0
40
0
40
0
40
1
40
1
40
1
40
1
41
1
10
11.5747859803686
20
4.88896357792896
30
0
41
1
10
11.5172890248651
20
4.84710721370402
30
0
41
1
10
11.4573388684585
20
4.80733491560886
30
0
41
1
10
11.394915403378
20
4.76978467933742
30
0
0
SPLINE
5
106
100
AcDbEntity
8
1
62
256
6
ByLayer
370
18
48
1
60
0
100
AcDbSpline
70
4
71
3
72
12
73
8
40
0
40
0
40
0
40
0
40
0.286978363858296
40
0.286978363858296
40
0.569998995185617
40
0.569998995185617
40
1
40
1
40
1
40
1
41
1
10
19.9284446294318
20
2.10016389692891
30
0
41
1
10
19.9739746354584
20
1.8710087878126
30
0
41
1
10
20.0008792482797
20
1.63696561985247
30
0
41
1
10
20.0164192132341
20
1.17221518039554
30
0
41
1
10
20.0056314136505
20
0.939910773548263
30
0
41
1
10
19.9326495310723
20
0.364404776868383
30
0
41
1
10
19.8460175827169
20
0.0209329005136567
30
0
41
1
10
19.7204399044325
20
-0.303461351462943
30
0
0
SPLINE
5
107
100
AcDbEntity
8
1
62
256
6
ByLayer
370
18
48
1
60
0
100
AcDbSpline
70
4
71
3
72
15
73
11
40
0
40
0
40
0
40
0
40
0.227604479949748
40
0.227604479949748
40
0.479423709218441
40
0.479423709218441
40
0.785574270382836
40
0.785574270382836
40
0.785574270382836
40
1
40
1
40
1
40
1
41
1
10
19.7204399044325
20
-0.303461351462943
30
0
41
1
10
19.5970287496611
20
-0.622211014035429
30
0
41
1
10
19.423354748406
20
-0.927349435798249
30
0
41
1
10
18.9854553257771
20
-1.50277889389625
30
0
41
1
10
18.7091736629084
20
-1.7732237530758
30
0
41
1
10
18.0387987563693
20
-2.2780536624318
30
0
41
1
10
17.622753202062
20
-2.49982204843869
30
0
41
1
10
17.1880726196884
20
-2.65197853435964
30
0
41
1
10
16.8817501101543
20
-2.75920429621604
30
0
41
1
10
16.5618516572869
20
-2.83342618257643
30
0
41
1
10
16.2396173223405
20
-2.87032705863456
30
0
0
SPLINE
5
108
100
AcDbEntity
8
1
62
256
6
ByLayer
370
18
48
1
60
0
100
AcDbSpline
70
4
71
3
72
8
73
4
40
0
40
0
40
0
40
0
40
1
40
1
40
1
40
1
41
1
10
6.44535678612669
20
-2.17464854682214
30
0
41
1
10
6.44332908511353
20
-2.19807990566019
30
0
41
1
10
6.44183256598512
20
-2.22136495874148
30
0
41
1
10
6.44084262337617
20
-2.24451094632704
30
0
0
SPLINE
5
109
100
AcDbEntity
8
1
62
256
6
ByLayer
370
18
48
1
60
0
100
AcDbSpline
70
4
71
3
72
10
73
6
40
0
40
0
40
0
40
0
40
0.5
40
0.5
40
1
40
1
40
1
40
1
41
1
10
16.4117966729278
20
8.34772329532933
30
0
41
1
10
17.736891330851
20
8.21784117024683
30
0
41
1
10
19.0058317228276
20
7.88358897598911
30
0
41
1
10
21.5037745431292
20
7.06973277391799
30
0
41
1
10
22.7262704760596
20
6.54019435652262
30
0
41
1
10
23.8952071338143
20
5.91815498192466
30
0
0
SPLINE
5
10A
100
AcDbEntity
8
1
62
256
6
ByLayer
370
18
48
1
60
0
100
AcDbSpline
70
4
71
3
72
8
73
4
40
0
40
0
40
0
40
0
40
1
40
1
40
1
40
1
41
1
10
9.22988491551718
20
7.89693206501298
30
0
41
1
10
9.82010880915334
20
7.31618176135763
30
0
41
1
10
10.6135466542927
20
6.11752717910471
30
0
41
1
10
11.3949154033701
20
4.76978467933387
30
0
0
SPLINE
5
10B
100
AcDbEntity
8
1
62
256
6
ByLayer
370
18
48
1
60
0
100
AcDbSpline
70
4
71
3
72
10
73
6
40
0
40
0
40
0
40
0
40
0.5
40
0.5
40
1
40
1
40
1
40
1
41
1
10
7.1770691450746
20
6.26304894726655
30
0
41
1
10
7.27110420939766
20
6.98330165967616
30
0
41
1
10
7.5260675160165
20
7.6184369249807
30
0
41
1
10
8.06005591602127
20
8.44549773405396
30
0
41
1
10
8.30943948301945
20
8.6910743017975
30
0
41
1
10
8.70341292769808
20
8.84556148606603
30
0
0
SPLINE
5
10C
100
AcDbEntity
8
1
62
256
6
ByLayer
370
18
48
1
60
0
100
AcDbSpline
70
4
71
3
72
12
73
8
40
0
40
0
40
0
40
0
40
0.471343086678522
40
0.471343086678522
40
0.892619726108233
40
0.892619726108233
40
1
40
1
40
1
40
1
41
1
10
9.83974328363854
20
-0.90277280713363
30
0
41
1
10
10.0106749900596
20
-0.951869370068607
30
0
41
1
10
10.1844485423184
20
-1.01702675254756
30
0
41
1
10
10.4957796660315
20
-1.17211937867782
30
0
41
1
10
10.6383182712374
20
-1.26062170899578
30
0
41
1
10
10.7961427955532
20
-1.38406964851467
30
0
41
1
10
10.8275697049314
20
-1.41012827458215
30
0
41
1
10
10.8578173557262
20
-1.43672062062049
30
0
0
SPLINE
5
10D
100
AcDbEntity
8
1
62
256
6
ByLayer
370
18
48
1
60
0
100
AcDbSpline
70
4
71
3
72
8
73
4
40
0
40
0
40
0
40
0
40
1
40
1
40
1
40
1
41
1
10
6.60629328557138
20
-2.19196489643778
30
0
41
1
10
7.40942725103622
20
-1.95282712085478
30
0
41
1
10
8.59080437852572
20
-1.46349878589515
30
0
41
1
10
9.83974328363854
20
-0.90277280713363
30
0
0
SPLINE
5
10E
100
AcDbEntity
8
1
62
256
6
ByLayer
370
18
48
1
60
0
100
AcDbSpline
70
4
71
3
72
8
73
4
40
0
40
0
40
0
40
0
40
1
40
1
40
1
40
1
41
1
10
25.4530912942553
20
-4.45346995234996
30
0
41
1
10
25.3491473119882
20
-4.46360911311294
30
0
41
1
10
25.2451067291932
20
-4.47142012190977
30
0
41
1
10
25.1410718148077
20
-4.47667570103971
30
0
0
SPLINE
5
10F
100
AcDbEntity
8
1
62
256
6
ByLayer
370
18
48
1
60
0
100
AcDbSpline
70
4
71
3
72
11
73
7
40
0
40
0
40
0
40
0
40
0.423407924939466
40
0.740963868644065
40
0.899741840496365
40
1
40
1
40
1
40
1
41
1.02805999725225
10
15.7034897486091
20
-4.87717853031328
30
0
41
1.02767136955277
10
16.5658922638827
20
-4.84382448926675
30
0
41
1.02349884684923
10
19.6893828022539
20
-3.86947115939291
30
0
41
1.01876555595691
10
23.5807746554955
20
-2.28051552976707
30
0
41
1.01635405201137
10
25.0444547399943
20
-1.6914834300558
30
0
41
1.01722454828226
10
25.5300300173055
20
-1.69095388779466
30
0
41
1.01774327987904
10
25.7307313759253
20
-1.69967813144206
30
0
0
SPLINE
5
110
100
AcDbEntity
8
1
62
256
6
ByLayer
370
18
48
1
60
0
100
AcDbSpline
70
4
71
2
72
6
73
3
40
0
40
0
40
0
40
1
40
1
40
1
41
0.937301687603847
10
16.2396173180049
20
-2.87032708280024
30
0
41
0.930554446910518
10
15.9856006130218
20
-4.28615916055588
30
0
41
1.02805999725225
10
15.7034897486091
20
-4.87717853031328
30
0
0
SPLINE
5
111
100
AcDbEntity
8
1
62
256
6
ByLayer
370
18
48
1
60
0
100
AcDbSpline
70
4
71
3
72
12
73
8
40
0
40
0
40
0
40
0
40
0.108854002841677
40
0.502629245107338
40
0.699516866240168
40
0.896404487372998
40
1
40
1
40
1
40
1
41
1.0244126255267
10
19.92844448252
20
2.10016392237749
30
0
41
1.02394775696077
10
20.2623023806173
20
2.04233126987302
30
0
41
1.02173322391444
10
21.8411309157432
20
1.76194006161993
30
0
41
1.01876555595691
10
24.0511925720735
20
1.32552861119391
30
0
41
1.01610930227499
10
25.5253695235694
20
1.00582777206058
30
0
41
1.01814069306376
10
26.2148515682765
20
0.950088209356781
30
0
41
1.0200519600697
10
26.8262416033361
20
0.880716851791993
30
0
41
1.02076673234771
10
27.0494274710594
20
0.852991236560906
30
0
0
SPLINE
5
112
100
AcDbEntity
8
1
62
256
6
ByLayer
370
18
48
1
60
0
100
AcDbSpline
70
4
71
2
72
6
73
3
40
0
40
0
40
0
40
1
40
1
40
1
41
1.02805999725224
10
16.7513632876847
20
7.23165839942926
30
0
41
0.93055444607248
10
16.9311829821188
20
6.64063902406112
30
0
41
0.937301687719828
10
16.9401533646396
20
5.22480692775574
30
0
0
SPLINE
5
113
100
AcDbEntity
8
1
62
256
6
ByLayer
370
18
48
1
60
0
100
AcDbSpline
70
4
71
3
72
10
73
6
40
0
40
0
40
0
40
0
40
0.967465556419471
40
0.967465556419471
40
1
40
1
40
1
40
1
41
1
10
27.0494274710772
20
0.852991236558694
30
0
41
1
10
27.3754331637199
20
0.606611534105753
30
0
41
1
10
27.7019169850382
20
0.371049185531461
30
0
41
1
10
28.0380395757637
20
0.145486561523768
30
0
41
1
10
28.0489833726172
20
0.138161851436252
30
0
41
1
10
28.0599257192904
20
0.130857857495641
30
0
0
SPLINE
5
114
100
AcDbEntity
8
1
62
256
6
ByLayer
370
18
48
1
60
0
100
AcDbSpline
70
4
71
3
72
10
73
6
40
0
40
0
40
0
40
0
40
0.655488757716275
40
0.655488757716275
40
1
40
1
40
1
40
1
41
1
10
7.80485208556138
20
-5.37235296524659
30
0
41
1
10
7.4346609914204
20
-5.34472763498002
30
0
41
1
10
7.02317505513258
20
-5.27727228705095
30
0
41
1
10
6.39056734338698
20
-5.05574835950259
30
0
41
1
10
6.16935204185995
20
-4.95669472996701
30
0
41
1
10
5.95685601419115
20
-4.8318030267765
30
0
0
SPLINE
5
115
100
AcDbEntity
8
1
62
256
6
ByLayer
370
18
48
1
60
0
100
AcDbSpline
70
4
71
3
72
12
73
8
40
0
40
0
40
0
40
0
40
0.108853988607134
40
0.502629237162306
40
0.699516861439892
40
0.896404485717479
40
1
40
1
40
1
40
1
41
1.02441262532206
10
19.7204399044325
20
-0.303461351462937
30
0
41
1.02394775682001
10
20.0590560064903
20
-0.306309420350982
30
0
41
1.02173322384668
10
21.6614892366372
20
-0.313932967707652
30
0
41
1.01876555595691
10
23.9114502141464
20
-0.289282109043963
30
0
41
1.01610930227499
10
25.4167229201879
20
-0.249651972635431
30
0
41
1.01814069306376
10
26.1045900345499
20
-0.324053069853253
30
0
41
1.02005196006971
10
26.7178804386534
20
-0.371464469507687
30
0
41
1.02076673234773
10
26.9421602687964
20
-0.38654866187365
30
0
0
SPLINE
5
116
100
AcDbEntity
8
1
62
256
6
ByLayer
370
18
48
1
60
0
100
AcDbSpline
70
4
71
3
72
11
73
7
40
0
40
0
40
0
40
0
40
0.564783939443775
40
0.564783939443775
40
0.564783939443775
40
1
40
1
40
1
40
1
41
1
10
25.9688037607084
20
5.08828684519628
30
0
41
1
10
25.6186394038912
20
5.17509734698828
30
0
41
1
10
25.2234973308628
20
5.29526707457626
30
0
41
1
10
24.8281378215542
20
5.46488166059655
30
0
41
1
10
24.520964956449
20
5.59666298145711
30
0
41
1
10
24.2065907016143
20
5.75245495148289
30
0
41
1
10
23.8952071338147
20
5.91815498192443
30
0
0
SPLINE
5
117
100
AcDbEntity
8
1
62
256
6
ByLayer
370
18
48
1
60
0
100
AcDbSpline
70
4
71
3
72
8
73
4
40
0
40
0
40
0
40
0
40
1
40
1
40
1
40
1
41
1.02417048357497
10
27.8557513422059
20
3.77393127216221
30
0
41
1.02233815524058
10
27.3066822792706
20
4.24585528510861
30
0
41
1.02059845272928
10
26.738259168321
20
4.67539250415322
30
0
41
1.01923193651505
10
26.2716998914002
20
5.00553859635902
30
0
0
SPLINE
5
118
100
AcDbEntity
8
1
62
256
6
ByLayer
370
18
48
1
60
0
100
AcDbSpline
70
4
71
3
72
11
73
7
40
0
40
0
40
0
40
0
40
0.423407924946042
40
0.740963868655573
40
0.899741840510338
40
1
40
1
40
1
40
1
41
1.02805999725224
10
16.7513632876847
20
7.23165839942926
30
0
41
1.02767136955277
10
17.5951379748035
20
7.04975618606533
30
0
41
1.02349884684923
10
20.5054207435407
20
5.56035981915516
30
0
41
1.01876555595691
10
24.065067239973
20
3.31578947584187
30
0
41
1.01635405201144
10
25.4049133233923
20
2.47384191121245
30
0
41
1.01722454828215
10
25.882585325422
20
2.38304414363097
30
0
41
1.0177432798788
10
26.0815302096431
20
2.35402273544551
30
0
0
SPLINE
5
119
100
AcDbEntity
8
1
62
256
6
ByLayer
370
18
48
1
60
0
100
AcDbSpline
70
4
71
3
72
8
73
4
40
0
40
0
40
0
40
0
40
1
40
1
40
1
40
1
41
1
10
27.2247459115836
20
-3.51859418768831
30
0
41
1
10
27.559315800941
20
-3.28152137338407
30
0
41
1
10
27.8943899438336
20
-3.04227306668722
30
0
41
1
10
28.2282067375708
20
-2.80208233928388
30
0
0
SPLINE
5
11A
100
AcDbEntity
8
1
62
256
6
ByLayer
370
18
48
1
60
0
100
AcDbSpline
70
4
71
3
72
8
73
4
40
0
40
0
40
0
40
0
40
1
40
1
40
1
40
1
41
1
10
29.2531741432149
20
-1.99110496565353
30
0
41
1
10
29.3232525670711
20
-1.95363480498872
30
0
41
1
10
29.3941401748032
20
-1.91111257709093
30
0
41
1
10
29.4645279299982
20
-1.86413243732312
30
0
0
SPLINE
5
11B
100
AcDbEntity
8
1
62
256
6
ByLayer
370
18
48
1
60
0
100
AcDbSpline
70
4
71
3
72
10
73
6
40
0
40
0
40
0
40
0
40
0.5
40
0.5
40
1
40
1
40
1
40
1
41
1
10
25.7307313759249
20
-1.69967813144203
30
0
41
1
10
25.9431721480313
20
-2.1287073285294
30
0
41
1
10
26.2008651948176
20
-2.51138076543592
30
0
41
1
10
26.9892583922482
20
-2.99706320417926
30
0
41
1
10
27.5403031465351
20
-3.07660853589906
30
0
41
1
10
28.2282067375708
20
-2.80208233928383
30
0
0
SPLINE
5
11C
100
AcDbEntity
8
1
62
256
6
ByLayer
370
18
48
1
60
0
100
AcDbSpline
70
4
71
3
72
15
73
11
40
0
40
0
40
0
40
0
40
0.322163720426454
40
0.322163720426454
40
0.644833452600228
40
0.644833452600228
40
0.912233455904555
40
0.912233455904555
40
0.912233455904555
40
1
40
1
40
1
40
1
41
1
10
16.9401533646396
20
5.22480692775238
30
0
41
1
10
17.4045349688884
20
5.0874922823003
30
0
41
1
10
17.8514465087759
20
4.86753306784209
30
0
41
1
10
18.642494539796
20
4.30744194349521
30
0
41
1
10
18.9978360035939
20
3.95961065522678
30
0
41
1
10
19.5150979252842
20
3.2398004741917
30
0
41
1
10
19.7050354490177
20
2.87281150907796
30
0
41
1
10
19.8278360907551
20
2.48891371237107
30
0
41
1
10
19.8686456698339
20
2.36133532783447
30
0
41
1
10
19.9023904908612
20
2.23126020567977
30
0
41
1
10
19.9284446294326
20
2.10016389692851
30
0
0
SPLINE
5
11D
100
AcDbEntity
8
1
62
256
6
ByLayer
370
18
48
1
60
0
100
AcDbSpline
70
4
71
3
72
20
73
16
40
0
40
0
40
0
40
0
40
0.110576036200126
40
0.110576036200126
40
0.197179369122805
40
0.197179369122805
40
0.284291117387364
40
0.284291117387364
40
0.365904217918071
40
0.365904217918071
40
0.497270233392053
40
0.497270233392053
40
0.733496364826649
40
0.733496364826649
40
1
40
1
40
1
40
1
41
1
10
26.0815302097258
20
2.35402273543343
30
0
41
1
10
26.0564619435527
20
2.32138169525035
30
0
41
1
10
26.0369666921047
20
2.28067255745435
30
0
41
1
10
26.0203037717645
20
2.1919856213035
30
0
41
1
10
26.019288002155
20
2.14649070568214
30
0
41
1
10
26.0330038814286
20
2.0470869758347
30
0
41
1
10
26.0480951848411
20
1.99184296238329
30
0
41
1
10
26.0899288177654
20
1.88423425629259
30
0
41
1
10
26.116208316506
20
1.8307335596366
30
0
41
1
10
26.1931615851709
20
1.69633850111651
30
0
41
1
10
26.2499980764092
20
1.61612341452087
30
0
41
1
10
26.4155169383222
20
1.4093795206968
30
0
41
1
10
26.5325362570779
20
1.2912707074546
30
0
41
1
10
26.781158102888
20
1.06317602744193
30
0
41
1
10
26.9155748724721
20
0.954110221323106
30
0
41
1
10
27.0494274710772
20
0.852991236558694
30
0
0
SPLINE
5
11E
100
AcDbEntity
8
1
62
256
6
ByLayer
370
18
48
1
60
0
100
AcDbSpline
70
4
71
3
72
8
73
4
40
0
40
0
40
0
40
0
40
1
40
1
40
1
40
1
41
1
10
22.9577853105218
20
-4.91434299550156
30
0
41
1
10
23.7317286660286
20
-4.66372259909886
30
0
41
1
10
24.4948103461716
20
-4.50932318584904
30
0
41
1
10
25.1410718148077
20
-4.47667570103968
30
0
0
SPLINE
5
11F
100
AcDbEntity
8
1
62
256
6
ByLayer
370
18
48
1
60
0
100
AcDbSpline
70
4
71
3
72
10
73
6
40
0
40
0
40
0
40
0
40
0.5
40
0.5
40
1
40
1
40
1
40
1
41
1
10
22.9577853105216
20
-4.91434299550164
30
0
41
1
10
21.7057075908374
20
-5.31979413375547
30
0
41
1
10
20.4290601035542
20
-5.62399496025247
30
0
41
1
10
17.8172059071923
20
-5.9910781132229
30
0
41
1
10
16.4940872368865
20
-6.09765157039232
30
0
41
1
10
15.1707592686367
20
-5.9932434262156
30
0
0
SPLINE
5
120
100
AcDbEntity
8
1
62
256
6
ByLayer
370
18
48
1
60
0
100
AcDbSpline
70
4
71
3
72
8
73
4
40
0
40
0
40
0
40
0
40
1
40
1
40
1
40
1
41
1
10
25.9688037607084
20
5.08828684519628
30
0
41
1
10
26.0702083418644
20
5.06314727172801
30
0
41
1
10
26.1711798878406
20
5.03549363239406
30
0
41
1
10
26.2716568381793
20
5.00556906154782
30
0
0
SPLINE
5
121
100
AcDbEntity
8
1
62
256
6
ByLayer
370
18
48
1
60
0
100
AcDbSpline
70
4
71
3
72
8
73
4
40
0
40
0
40
0
40
0
40
1
40
1
40
1
40
1
41
1
10
10.3002824297743
20
4.41904629829
30
0
41
1
10
10.0461648112964
20
4.39006720128674
30
0
41
1
10
9.7984857314712
20
4.38920907438509
30
0
41
1
10
9.55737460202147
20
4.40875994055327
30
0
0
SPLINE
5
122
100
AcDbEntity
8
1
62
256
6
ByLayer
370
18
48
1
60
0
100
AcDbSpline
70
4
71
3
72
8
73
4
40
0
40
0
40
0
40
0
40
1
40
1
40
1
40
1
41
1
10
13.358628295479
20
-2.70353634273889
30
0
41
1
10
12.4420001258688
20
-2.62246071475721
30
0
41
1
10
11.6162579005056
20
-2.21819849382513
30
0
41
1
10
11.0143696955539
20
-1.58699859931787
30
0
0
SPLINE
5
123
100
AcDbEntity
8
1
62
256
6
ByLayer
370
18
48
1
60
0
100
AcDbSpline
70
4
71
3
72
20
73
16
40
0
40
0
40
0
40
0
40
0.332873226652387
40
0.332873226652387
40
0.5016572616982
40
0.5016572616982
40
0.631212321676504
40
0.631212321676504
40
0.722542323637659
40
0.722542323637659
40
0.814765347404179
40
0.814765347404179
40
0.896421359038789
40
0.896421359038789
40
1
40
1
40
1
40
1
41
1
10
26.9421602688068
20
-0.386548661874372
30
0
41
1
10
26.7563478680149
20
-0.478893537239003
30
0
41
1
10
26.5668630777546
20
-0.583329055332598
30
0
41
1
10
26.2839654909725
20
-0.774903416368886
30
0
41
1
10
26.1881441261052
20
-0.846212067441968
30
0
41
1
10
26.0265932103368
20
-0.98774310593933
30
0
41
1
10
25.9578146744684
20
-1.05565014803557
30
0
41
1
10
25.8548262635373
20
-1.17915526905307
30
0
41
1
10
25.8156816740702
20
-1.23360900772852
30
0
41
1
10
25.7530601174139
20
-1.34203560630007
30
0
41
1
10
25.7290911269004
20
-1.39745839741735
30
0
41
1
10
25.70287373681
20
-1.49330883317396
30
0
41
1
10
25.6980093062053
20
-1.53586536072672
30
0
41
1
10
25.7012682511424
20
-1.62189112925793
30
0
41
1
10
25.7129717808547
20
-1.66381985890726
30
0
41
1
10
25.7307313759249
20
-1.69967813144203
30
0
0
SPLINE
5
124
100
AcDbEntity
8
1
62
256
6
ByLayer
370
18
48
1
60
0
100
AcDbSpline
70
4
71
3
72
12
73
8
40
0
40
0
40
0
40
0
40
0.46693897235862
40
0.46693897235862
40
0.928803236876552
40
0.928803236876552
40
1
40
1
40
1
40
1
41
1
10
11.394915403378
20
4.76978467933745
30
0
41
1
10
11.2479227312907
20
4.68136264829596
30
0
41
1
10
11.0788198789694
20
4.60547129347626
30
0
41
1
10
10.7350754542733
20
4.49274486809929
30
0
41
1
10
10.5560113135056
20
4.45347682614093
30
0
41
1
10
10.3544358148507
20
4.42554625655433
30
0
41
1
10
10.3273208162393
20
4.42212970521345
30
0
41
1
10
10.3002824297743
20
4.41904629829
30
0
0
SPLINE
5
125
100
AcDbEntity
8
1
62
256
6
ByLayer
370
18
48
1
60
0
100
AcDbSpline
70
4
71
2
72
6
73
3
40
0
40
0
40
0
40
1
40
1
40
1
41
1.02805999725224
10
15.7034897486091
20
-4.87717853031328
30
0
41
1.02805999725224
10
15.4371245086229
20
-5.43521097826444
30
0
41
1.02805999725224
10
15.1707592686368
20
-5.9932434262156
30
0
0
SPLINE
5
126
100
AcDbEntity
8
1
62
256
6
ByLayer
370
18
48
1
60
0
100
AcDbSpline
70
4
71
3
72
10
73
6
40
0
40
0
40
0
40
0
40
0.264715639145583
40
0.264715639145583
40
1
40
1
40
1
40
1
41
1
10
28.059925719277
20
0.130857857504481
30
0
41
1
10
27.9622371307363
20
0.0895367987811824
30
0
41
1
10
27.8642112967648
20
0.0468546542375634
30
0
41
1
10
27.4930020726395
20
-0.118750932850418
30
0
41
1
10
27.218045790294
20
-0.24937009707287
30
0
41
1
10
26.9421602688068
20
-0.386548661874372
30
0
0
SPLINE
5
127
100
AcDbEntity
8
1
62
256
6
ByLayer
370
18
48
1
60
0
100
AcDbSpline
70
4
71
3
72
8
73
4
40
0
40
0
40
0
40
0
40
1
40
1
40
1
40
1
41
1
10
16.2396173139006
20
-2.87032705959584
30
0
41
1
10
15.957451735636
20
-2.90246476400009
30
0
41
1
10
15.6676977181871
20
-2.9077731965757
30
0
41
1
10
15.3826556937369
20
-2.88256127106473
30
0
0
SPLINE
5
128
100
AcDbEntity
8
1
62
256
6
ByLayer
370
18
48
1
60
0
100
AcDbSpline
70
4
71
3
72
8
73
4
40
0
40
0
40
0
40
0
40
1
40
1
40
1
40
1
41
1
10
9.83974328363854
20
-0.90277280713363
30
0
41
1
10
9.59423584038518
20
-0.832255921231791
30
0
41
1
10
9.3502009322155
20
-0.791003355693135
30
0
41
1
10
9.10908980276577
20
-0.771452489524933
30
0
0
SPLINE
5
129
100
AcDbEntity
8
1
62
256
6
ByLayer
370
18
48
1
60
0
100
AcDbSpline
70
4
71
3
72
10
73
6
40
0
40
0
40
0
40
0
40
0.5
40
0.5
40
1
40
1
40
1
40
1
41
1
10
28.7213929764488
20
2.89699443359279
30
0
41
1
10
28.1028190081159
20
3.2926281093649
30
0
41
1
10
27.5414454827326
20
3.33540861296751
30
0
41
1
10
26.6892574627619
20
3.03817972261297
30
0
41
1
10
26.3631295574484
20
2.7207566448478
30
0
41
1
10
26.0815302097245
20
2.35402273543363
30
0
0
SPLINE
5
12A
100
AcDbEntity
8
1
62
256
6
ByLayer
370
18
48
1
60
0
100
AcDbSpline
70
4
71
3
72
8
73
4
40
0
40
0
40
0
40
0
40
1
40
1
40
1
40
1
41
1
10
10.3002824297743
20
4.41904629829
30
0
41
1
10
9.16450693414566
20
5.1786382064214
30
0
41
1
10
8.09121387761365
20
5.84082739999192
30
0
41
1
10
7.33157105808721
20
6.18907532327071
30
0
0
SPLINE
5
12B
100
AcDbEntity
8
1
62
256
6
ByLayer
370
18
48
1
60
0
100
AcDbSpline
70
4
71
3
72
8
73
4
40
0
40
0
40
0
40
0
40
1
40
1
40
1
40
1
41
1.01923193622652
10
25.4531388169674
20
-4.45344755968564
30
0
41
1.02059843499303
10
25.9693096978523
20
-4.21022749175894
30
0
41
1.02233811057541
10
26.6028654350922
20
-3.88701110278961
30
0
41
1.02417041321379
10
27.2246435090156
20
-3.51865485389771
30
0
0
SPLINE
5
12C
100
AcDbEntity
8
1
62
256
6
ByLayer
370
18
48
1
60
0
100
AcDbSpline
70
4
71
3
72
8
73
4
40
0
40
0
40
0
40
0
40
1
40
1
40
1
40
1
41
1
10
10.8578173557262
20
-1.43672062062049
30
0
41
1
10
10.9124528296637
20
-1.48475362122539
30
0
41
1
10
10.9647559341612
20
-1.53496866967379
30
0
41
1
10
11.0143696955539
20
-1.58699859931787
30
0
0
LINE
5
72
100
AcDbEntity
8
1
62
256
6
ByLayer
370
18
48
1
60
0
100
AcDbLine
10
9.490694
20
8.958585
30
0
11
8.854728
21
8.983978
31
0
39
0
210
0
220
0
230
1
0
LINE
5
74
100
AcDbEntity
8
1
62
256
6
ByLayer
370
18
48
1
60
0
100
AcDbLine
10
27.630007
20
-8.588853
30
0
11
28.261826
21
-8.588853
31
0
39
0
210
0
220
0
230
1
0
LINE
5
75
100
AcDbEntity
8
1
62
256
6
ByLayer
370
18
48
1
60
0
100
AcDbLine
10
14.813887
20
2.49505
30
0
11
15.049125
21
2.49505
31
0
39
0
210
0
220
0
230
1
0
LINE
5
76
100
AcDbEntity
8
1
62
256
6
ByLayer
370
18
48
1
60
0
100
AcDbLine
10
9.243114
20
4.417866
30
0
11
9.720422
21
4.398808
31
0
39
0
210
0
220
0
230
1
0
LINE
5
77
100
AcDbEntity
8
1
62
256
6
ByLayer
370
18
48
1
60
0
100
AcDbLine
10
14.77479
20
0.174934
30
0
11
14.539552
21
0.174934
31
0
39
0
210
0
220
0
230
1
0
LINE
5
78
100
AcDbEntity
8
1
62
256
6
ByLayer
370
18
48
1
60
0
100
AcDbLine
10
14.5591
20
-2.665008
30
0
11
14.804036
21
-2.665008
31
0
39
0
210
0
220
0
230
1
0
LINE
5
79
100
AcDbEntity
8
1
62
256
6
ByLayer
370
18
48
1
60
0
100
AcDbLine
10
14.804036
20
5.334992
30
0
11
14.5591
21
5.334992
31
0
39
0
210
0
220
0
230
1
0
LINE
5
7A
100
AcDbEntity
8
1
62
256
6
ByLayer
370
18
48
1
60
0
100
AcDbLine
10
28.261826
20
8.713889
30
0
11
27.630007
21
8.713889
31
0
39
0
210
0
220
0
230
1
0
LINE
5
7B
100
AcDbEntity
8
80
62
256
6
ByLayer
370
18
48
1
60
0
100
AcDbLine
10
0
20
0
30
0
11
-5
21
0
31
0
39
0
210
0
220
0
230
1
0
LINE
5
7C
100
AcDbEntity
8
81
62
256
6
ByLayer
370
18
48
1
60
0
100
AcDbLine
10
36.819284
20
0.3913
30
0
11
46.819284
21
0.3913
31
0
39
0
210
0
220
0
230
1
0
LINE
5
7D
100
AcDbEntity
8
1
62
256
6
ByLayer
370
18
48
1
60
0
100
AcDbLine
10
5.42638
20
-12.445834
30
0
11
6.08036
21
-4.888687
31
0
39
0
210
0
220
0
230
1
0
LINE
5
7E
100
AcDbEntity
8
1
62
256
6
ByLayer
370
18
48
1
60
0
100
AcDbLine
10
7.261675
20
8.762154
30
0
11
7.579732
21
12.4375
31
0
39
0
210
0
220
0
230
1
0
LINE
5
7F
100
AcDbEntity
8
1
62
256
6
ByLayer
370
18
48
1
60
0
100
AcDbLine
10
8.845232
20
-12.45685
30
0
11
9.447765
21
-5.494212
31
0
39
0
210
0
220
0
230
1
0
LINE
5
80
100
AcDbEntity
8
1
62
256
6
ByLayer
370
18
48
1
60
0
100
AcDbLine
10
10.689587
20
8.855825
30
0
11
10.999538
21
12.4375
31
0
39
0
210
0
220
0
230
1
0
LINE
5
81
100
AcDbEntity
8
1
62
256
6
ByLayer
370
18
48
1
60
0
100
AcDbLine
10
24.60563
20
5.567426
30
0
11
27.67395
21
8.669455
31
0
39
0
210
0
220
0
230
1
0
LINE
5
82
100
AcDbEntity
8
1
62
256
6
ByLayer
370
18
48
1
60
0
100
AcDbLine
10
23.84056
20
-4.667962
30
0
11
27.691149
21
-8.527031
31
0
39
0
210
0
220
0
230
1
0
LINE
5
83
100
AcDbEntity
8
1
62
256
6
ByLayer
370
18
48
1
60
0
100
AcDbLine
10
24.621815
20
5.559899
30
0
11
25.36576
21
6.312017
31
0
39
0
210
0
220
0
230
1
0
LINE
5
84
100
AcDbEntity
8
1
62
256
6
ByLayer
370
18
48
1
60
0
100
AcDbLine
10
27.691149
20
-8.527031
30
0
11
27.719721
21
-8.418815
31
0
39
0
210
0
220
0
230
1
0
LINE
5
85
100
AcDbEntity
8
1
62
256
6
ByLayer
370
18
48
1
60
0
100
AcDbLine
10
5.39705
20
-12.44497
30
0
11
6.052084
21
-4.875645
31
0
39
0
210
0
220
0
230
1
0
LINE
5
86
100
AcDbEntity
8
1
62
256
6
ByLayer
370
18
48
1
60
0
100
AcDbLine
10
7.231575
20
8.754117
30
0
11
7.550327
21
12.4375
31
0
39
0
210
0
220
0
230
1
0
LINE
5
87
100
AcDbEntity
8
1
62
256
6
ByLayer
370
18
48
1
60
0
100
AcDbLine
10
4.485356
20
-12.442033
30
0
11
5.208738
21
-4.082898
31
0
39
0
210
0
220
0
230
1
0
LINE
5
88
100
AcDbEntity
8
1
62
256
6
ByLayer
370
18
48
1
60
0
100
AcDbLine
10
6.264762
20
8.120124
30
0
11
6.638379
21
12.4375
31
0
39
0
210
0
220
0
230
1
0
LINE
5
89
100
AcDbEntity
8
1
62
256
6
ByLayer
370
18
48
1
60
0
100
AcDbLine
10
14.07416
20
5.56488
30
0
11
13.840931
21
5.574192
31
0
39
0
210
0
220
0
230
1
0
LINE
5
8A
100
AcDbEntity
8
1
62
256
6
ByLayer
370
18
48
1
60
0
100
AcDbLine
10
13.754297
20
5.57031
30
0
11
15.618156
21
5.405022
31
0
39
0
210
0
220
0
230
1
0
LINE
5
8B
100
AcDbEntity
8
1
62
256
6
ByLayer
370
18
48
1
60
0
100
AcDbLine
10
24.019406
20
-4.62871
30
0
11
27.706484
21
-8.356295
31
0
39
0
210
0
220
0
230
1
0
LINE
5
8C
100
AcDbEntity
8
1
62
256
6
ByLayer
370
18
48
1
60
0
100
AcDbLine
10
27.706484
20
8.481331
30
0
11
24.75568
21
5.498109
31
0
39
0
210
0
220
0
230
1
0
LINE
5
8D
100
AcDbEntity
8
1
62
256
6
ByLayer
370
18
48
1
60
0
100
AcDbLine
10
27.652717
20
-8.356295
30
0
11
27.706484
21
-8.356295
31
0
39
0
210
0
220
0
230
1
0
LINE
5
8E
100
AcDbEntity
8
1
62
256
6
ByLayer
370
18
48
1
60
0
100
AcDbLine
10
27.640317
20
8.481331
30
0
11
27.706484
21
8.481331
31
0
39
0
210
0
220
0
230
1
0
LINE
5
8F
100
AcDbEntity
8
1
62
256
6
ByLayer
370
18
48
1
60
0
100
AcDbLine
10
28.817167
20
-8.356295
30
0
11
36.589151
21
-0.498925
31
0
39
0
210
0
220
0
230
1
0
LINE
5
90
100
AcDbEntity
8
1
62
256
6
ByLayer
370
18
48
1
60
0
100
AcDbLine
10
36.589151
20
0.623961
30
0
11
28.817167
21
8.481331
31
0
39
0
210
0
220
0
230
1
0
LINE
5
91
100
AcDbEntity
8
1
62
256
6
ByLayer
370
18
48
1
60
0
100
AcDbLine
10
28.059926
20
0.130858
30
0
11
30.643239
21
-0.138812
31
0
39
0
210
0
220
0
230
1
0
LINE
5
92
100
AcDbEntity
8
1
62
256
6
ByLayer
370
18
48
1
60
0
100
AcDbLine
10
8.182011
20
-4.211905
30
0
11
15.70349
21
-4.877179
31
0
39
0
210
0
220
0
230
1
0
LINE
5
93
100
AcDbEntity
8
1
62
256
6
ByLayer
370
18
48
1
60
0
100
AcDbLine
10
9.809242
20
-5.521226
30
0
11
9.814588
21
-5.519491
31
0
39
0
210
0
220
0
230
1
0
LINE
5
94
100
AcDbEntity
8
1
62
256
6
ByLayer
370
18
48
1
60
0
100
AcDbLine
10
29.645407
20
-1.726907
30
0
11
29.464528
21
-1.864132
31
0
39
0
210
0
220
0
230
1
0
LINE
5
95
100
AcDbEntity
8
1
62
256
6
ByLayer
370
18
48
1
60
0
100
AcDbLine
10
9.229885
20
7.896932
30
0
11
16.751363
21
7.231658
31
0
39
0
210
0
220
0
230
1
0
LINE
5
96
100
AcDbEntity
8
1
62
256
6
ByLayer
370
18
48
1
60
0
100
AcDbLine
10
11.050646
20
8.823978
30
0
11
9.631878
21
8.949468
31
0
39
0
210
0
220
0
230
1
0
LINE
5
97
100
AcDbEntity
8
1
62
256
6
ByLayer
370
18
48
1
60
0
100
AcDbLine
10
7.602511
20
4.559904
30
0
11
7.154226
21
-0.620308
31
0
39
0
210
0
220
0
230
1
0
LINE
5
98
100
AcDbEntity
8
1
62
256
6
ByLayer
370
18
48
1
60
0
100
AcDbLine
10
4.680658
20
-2.104186
30
0
11
5.40481
21
6.263849
31
0
39
0
210
0
220
0
230
1
0
LINE
5
99
100
AcDbEntity
8
1
62
256
6
ByLayer
370
18
48
1
60
0
100
AcDbLine
10
9.557375
20
4.40876
30
0
11
9.101707
21
4.426954
31
0
39
0
210
0
220
0
230
1
0
LINE
5
9A
100
AcDbEntity
8
1
62
256
6
ByLayer
370
18
48
1
60
0
100
AcDbLine
10
29.448642
20
2.106336
30
0
11
28.721393
21
2.896994
31
0
39
0
210
0
220
0
230
1
0
LINE
5
9B
100
AcDbEntity
8
1
62
256
6
ByLayer
370
18
48
1
60
0
100
AcDbLine
10
7.169509
20
6.193387
30
0
11
6.445357
21
-2.174649
31
0
39
0
210
0
220
0
230
1
0
LINE
5
9C
100
AcDbEntity
8
1
62
256
6
ByLayer
370
18
48
1
60
0
100
AcDbLine
10
8.390474
20
-5.395736
30
0
11
9.809242
21
-5.521226
31
0
39
0
210
0
220
0
230
1
0
LINE
5
9D
100
AcDbEntity
8
1
62
256
6
ByLayer
370
18
48
1
60
0
100
AcDbLine
10
15.170759
20
-5.993243
30
0
11
9.814588
21
-5.519491
31
0
39
0
210
0
220
0
230
1
0
LINE
5
9E
100
AcDbEntity
8
1
62
256
6
ByLayer
370
18
48
1
60
0
100
AcDbLine
10
15.382656
20
-2.882561
30
0
11
13.358628
21
-2.703536
31
0
39
0
210
0
220
0
230
1
0
LINE
5
9F
100
AcDbEntity
8
1
62
256
6
ByLayer
370
18
48
1
60
0
100
AcDbLine
10
14.07416
20
5.56488
30
0
11
16.098187
21
5.385855
31
0
39
0
210
0
220
0
230
1
0
LINE
5
A0
100
AcDbEntity
8
1
62
256
6
ByLayer
370
18
48
1
60
0
100
AcDbLine
10
6.445357
20
-2.174649
30
0
11
4.680658
21
-2.104186
31
0
39
0
210
0
220
0
230
1
0
LINE
5
A1
100
AcDbEntity
8
1
62
256
6
ByLayer
370
18
48
1
60
0
100
AcDbLine
10
11.050646
20
8.823978
30
0
11
11.055626
21
8.821476
31
0
39
0
210
0
220
0
230
1
0
LINE
5
A2
100
AcDbEntity
8
1
62
256
6
ByLayer
370
18
48
1
60
0
100
AcDbLine
10
8.390474
20
-5.395736
30
0
11
7.804852
21
-5.372353
31
0
39
0
210
0
220
0
230
1
0
LINE
5
A3
100
AcDbEntity
8
1
62
256
6
ByLayer
370
18
48
1
60
0
100
AcDbLine
10
16.411797
20
8.347723
30
0
11
11.055626
21
8.821476
31
0
39
0
210
0
220
0
230
1
0
LINE
5
A4
100
AcDbEntity
8
1
62
256
6
ByLayer
370
18
48
1
60
0
100
AcDbLine
10
29.079787
20
-2.156021
30
0
11
29.253174
21
-1.991105
31
0
39
0
210
0
220
0
230
1
0
LINE
5
A5
100
AcDbEntity
8
1
62
256
6
ByLayer
370
18
48
1
60
0
100
AcDbLine
10
29.931682
20
1.581179
30
0
11
29.777211
21
1.749118
31
0
39
0
210
0
220
0
230
1
0
LINE
5
A6
100
AcDbEntity
8
1
62
256
6
ByLayer
370
18
48
1
60
0
100
AcDbLine
10
16.098187
20
5.385855
30
0
11
15.618156
21
5.405022
31
0
39
0
210
0
220
0
230
1
0
LINE
5
A7
100
AcDbEntity
8
1
62
256
6
ByLayer
370
18
48
1
60
0
100
AcDbLine
10
7.169509
20
6.193387
30
0
11
5.40481
21
6.263849
31
0
39
0
210
0
220
0
230
1
0
LINE
5
A8
100
AcDbEntity
8
1
62
256
6
ByLayer
370
18
48
1
60
0
100
AcDbLine
10
29.079787
20
-2.156021
30
0
11
28.228207
21
-2.802082
31
0
39
0
210
0
220
0
230
1
0
LINE
5
A9
100
AcDbEntity
8
1
62
256
6
ByLayer
370
18
48
1
60
0
100
AcDbLine
10
9.101707
20
4.426954
30
0
11
7.602511
21
4.559904
31
0
39
0
210
0
220
0
230
1
0
LINE
5
AA
100
AcDbEntity
8
1
62
256
6
ByLayer
370
18
48
1
60
0
100
AcDbLine
10
29.591069
20
1.913486
30
0
11
29.448642
21
2.106336
31
0
39
0
210
0
220
0
230
1
0
LINE
5
AB
100
AcDbEntity
8
1
62
256
6
ByLayer
370
18
48
1
60
0
100
AcDbLine
10
9.809242
20
-5.521226
30
0
11
7.88013
21
-5.377957
31
0
39
0
210
0
220
0
230
1
0
LINE
5
AC
100
AcDbEntity
8
1
62
256
6
ByLayer
370
18
48
1
60
0
100
AcDbLine
10
15.725944
20
2.195166
30
0
11
15.961183
21
2.195166
31
0
39
0
210
0
220
0
230
1
0
LINE
5
AD
100
AcDbEntity
8
1
62
256
6
ByLayer
370
18
48
1
60
0
100
AcDbLine
10
16.002919
20
1.594666
30
0
11
16.238157
21
1.594666
31
0
39
0
210
0
220
0
230
1
0
LINE
5
AE
100
AcDbEntity
8
1
62
256
6
ByLayer
370
18
48
1
60
0
100
AcDbLine
10
14.464495
20
2.683717
30
0
11
14.699733
21
2.683717
31
0
39
0
210
0
220
0
230
1
0
LINE
5
AF
100
AcDbEntity
8
1
62
256
6
ByLayer
370
18
48
1
60
0
100
AcDbLine
10
14.23606
20
0.044014
30
0
11
14.471299
21
0.044014
31
0
39
0
210
0
220
0
230
1
0
LINE
5
B0
100
AcDbEntity
8
1
62
256
6
ByLayer
370
18
48
1
60
0
100
AcDbLine
10
15.56226
20
0.303688
30
0
11
15.797498
21
0.303688
31
0
39
0
210
0
220
0
230
1
0
LINE
5
B1
100
AcDbEntity
8
1
62
256
6
ByLayer
370
18
48
1
60
0
100
AcDbLine
10
15.938169
20
0.84644
30
0
11
16.173407
21
0.84644
31
0
39
0
210
0
220
0
230
1
0
LINE
5
B2
100
AcDbEntity
8
1
62
256
6
ByLayer
370
18
48
1
60
0
100
AcDbLine
10
1.484794
20
-12.443979
30
0
11
1.484794
21
12.4375
31
0
39
0
210
0
220
0
230
1
0
LINE
5
B3
100
AcDbEntity
8
1
62
256
6
ByLayer
370
18
48
1
60
0
100
AcDbLine
10
8.845232
20
-12.45685
30
0
11
5.42638
21
-12.445834
31
0
39
0
210
0
220
0
230
1
0
LINE
5
B4
100
AcDbEntity
8
1
62
256
6
ByLayer
370
18
48
1
60
0
100
AcDbLine
10
0
20
-12.4375
30
0
11
1.484794
21
-12.443979
31
0
39
0
210
0
220
0
230
1
0
LINE
5
B5
100
AcDbEntity
8
1
62
256
6
ByLayer
370
18
48
1
60
0
100
AcDbLine
10
7.550327
20
12.4375
30
0
11
7.579732
21
12.4375
31
0
39
0
210
0
220
0
230
1
0
LINE
5
B6
100
AcDbEntity
8
1
62
256
6
ByLayer
370
18
48
1
60
0
100
AcDbLine
10
1.484794
20
12.4375
30
0
11
6.638379
21
12.4375
31
0
39
0
210
0
220
0
230
1
0
LINE
5
B7
100
AcDbEntity
8
1
62
256
6
ByLayer
370
18
48
1
60
0
100
AcDbLine
10
0
20
12.4375
30
0
11
0
21
-12.4375
31
0
39
0
210
0
220
0
230
1
0
LINE
5
B8
100
AcDbEntity
8
1
62
256
6
ByLayer
370
18
48
1
60
0
100
AcDbLine
10
10.999538
20
12.4375
30
0
11
23.946852
21
12.4375
31
0
39
0
210
0
220
0
230
1
0
LINE
5
B9
100
AcDbEntity
8
1
62
256
6
ByLayer
370
18
48
1
60
0
100
AcDbLine
10
4.485356
20
-12.442033
30
0
11
1.484794
21
-12.443979
31
0
39
0
210
0
220
0
230
1
0
LINE
5
BA
100
AcDbEntity
8
1
62
256
6
ByLayer
370
18
48
1
60
0
100
AcDbLine
10
27.67395
20
8.669455
30
0
11
27.706069
21
8.547799
31
0
39
0
210
0
220
0
230
1
0
LINE
5
BB
100
AcDbEntity
8
1
62
256
6
ByLayer
370
18
48
1
60
0
100
AcDbLine
10
27.67395
20
8.669455
30
0
11
23.946852
21
12.4375
31
0
39
0
210
0
220
0
230
1
0
LINE
5
BC
100
AcDbEntity
8
1
62
256
6
ByLayer
370
18
48
1
60
0
100
AcDbLine
10
7.579732
20
12.4375
30
0
11
10.999538
21
12.4375
31
0
39
0
210
0
220
0
230
1
0
LINE
5
BD
100
AcDbEntity
8
1
62
256
6
ByLayer
370
18
48
1
60
0
100
AcDbLine
10
1.484794
20
12.4375
30
0
11
0
21
12.4375
31
0
39
0
210
0
220
0
230
1
0
LINE
5
BE
100
AcDbEntity
8
1
62
256
6
ByLayer
370
18
48
1
60
0
100
AcDbLine
10
5.42638
20
-12.445834
30
0
11
5.39705
21
-12.44497
31
0
39
0
210
0
220
0
230
1
0
LINE
5
BF
100
AcDbEntity
8
1
62
256
6
ByLayer
370
18
48
1
60
0
100
AcDbLine
10
23.813638
20
-12.447142
30
0
11
27.691149
21
-8.527031
31
0
39
0
210
0
220
0
230
1
0
LINE
5
C0
100
AcDbEntity
8
1
62
256
6
ByLayer
370
18
48
1
60
0
100
AcDbLine
10
23.813638
20
-12.447142
30
0
11
8.845232
21
-12.45685
31
0
39
0
210
0
220
0
230
1
0
LINE
5
C1
100
AcDbEntity
8
1
62
256
6
ByLayer
370
18
48
1
60
0
100
AcDbLine
10
6.638379
20
12.4375
30
0
11
7.550327
21
12.4375
31
0
39
0
210
0
220
0
230
1
0
LINE
5
C2
100
AcDbEntity
8
1
62
256
6
ByLayer
370
18
48
1
60
0
100
AcDbLine
10
27.706069
20
8.547799
30
0
11
25.980663
21
6.803437
31
0
39
0
210
0
220
0
230
1
0
LINE
5
C3
100
AcDbEntity
8
SK1
62
256
6
ByLayer
370
18
48
1
60
0
100
AcDbLine
10
-114.530716
20
12.4375
30
0
11
-114.530716
21
-12.4375
31
0
39
0
210
0
220
0
230
1
0
LINE
5
C5
100
AcDbEntity
8
SK1
62
256
6
ByLayer
370
18
48
1
60
0
100
AcDbLine
10
-114.530716
20
-12.4375
30
0
11
0
21
-12.4375
31
0
39
0
210
0
220
0
230
1
0
LINE
5
C6
100
AcDbEntity
8
SK1
62
256
6
ByLayer
370
18
48
1
60
0
100
AcDbLine
10
0
20
12.4375
30
0
11
0
21
-12.4375
31
0
39
0
210
0
220
0
230
1
0
LINE
5
C7
100
AcDbEntity
8
SK1
62
256
6
ByLayer
370
18
48
1
60
0
100
AcDbLine
10
0
20
12.4375
30
0
11
-114.530716
21
12.4375
31
0
39
0
210
0
220
0
230
1
0
MTEXT
5
12D
100
AcDbEntity
8
SK6
62
256
6
ByLayer
370
18
48
1
60
0
100
AcDbMText
10
-52.980716
20
-23.322175
30
0
210
0
220
0
230
1
1
\W0.7528;DSDNN 2525M 12
40
3.5
41
0
44
1.084337
50
0
71
7
72
5
7
iso_b_vert
0
DIMENSION
5
13E
100
AcDbEntity
8
2
62
256
6
ByLayer
370
13
48
1
60
0
100
AcDbDimension
2
DimnDraft3D1
10
34.321339
20
2.916688
30
0
11
27.142032
21
23.935955
31
0
70
34
71
5
72
1
41
1
210
0
220
0
230
1
3
Standard
100
AcDb2LineAngularDimension
13
36.819284
23
0.3913
33
0
14
36.819284
24
-1.1962
34
0
15
36.819284
25
0.3913
35
0
16
28.852744
26
19.773809
36
0
40
0
0
DIMENSION
5
154
100
AcDbEntity
8
SK2
62
256
6
ByLayer
370
13
48
1
60
0
100
AcDbDimension
2
DimnDraft3D2
10
-122.280716
20
12.4375
30
0
11
-122.280716
21
-5.281579
31
0
70
32
71
5
72
1
41
1
210
0
220
0
230
1
3
Standard
100
AcDbAlignedDimension
13
-116.530716
23
-12.4375
33
0
14
-116.530716
24
12.4375
34
0
50
90
100
AcDbRotatedDimension
1001
ACAD
1000
DSTYLE
1002
{
1070
    74
1070
     0
1070
   279
1070
     0
1070
   172
1070
     1
1070
   173
1070
     1
1070
   340
1005
12E
1070
    77
1070
     1
1070
    73
1070
     0
1070
   171
1070
     3
1070
   274
1070
     4
1070
   177
1070
     2
1070
   176
1070
     2
1070
   178
1070
     7
1070
    78
1070
     8
1070
    41
1041
3.175
1070
   147
1041
2.25
1070
    42
1041
2.0
1070
    44
1041
2.0
1070
   140
1041
4.5
1070
   343
1005
13F
1070
   344
1005
13F
1002
}
0
DIMENSION
5
162
100
AcDbEntity
8
2
62
256
6
ByLayer
370
13
48
1
60
0
100
AcDbDimension
2
DimnDraft3D3
10
59.069284
20
0.3913
30
0
11
59.069284
21
10.6463
31
0
70
32
71
5
72
1
41
1
210
0
220
0
230
1
3
Standard
100
AcDbAlignedDimension
13
2
23
-12.4375
33
0
14
38.819284
24
0.3913
34
0
50
90
100
AcDbRotatedDimension
1001
ACAD
1000
DSTYLE
1002
{
1070
    74
1070
     0
1070
   279
1070
     0
1070
   172
1070
     1
1070
   173
1070
     1
1070
   340
1005
12E
1070
    77
1070
     1
1070
    73
1070
     0
1070
   171
1070
     3
1070
   274
1070
     4
1070
   177
1070
     2
1070
   176
1070
     2
1070
   178
1070
     7
1070
    78
1070
     8
1070
    41
1041
3.175
1070
   147
1041
2.25
1070
    42
1041
2.0
1070
    44
1041
2.0
1070
   140
1041
4.5
1070
   343
1005
13F
1070
   344
1005
13F
1002
}
0
DIMENSION
5
170
100
AcDbEntity
8
2
62
256
6
ByLayer
370
13
48
1
60
0
100
AcDbDimension
2
DimnDraft3D4
10
36.819284
20
30.1413
30
0
11
13.128063
21
30.1413
31
0
70
32
71
5
72
1
41
1
210
0
220
0
230
1
3
Standard
100
AcDbAlignedDimension
13
0
23
14.4375
33
0
14
36.819284
24
2.3913
34
0
50
0
100
AcDbRotatedDimension
1001
ACAD
1000
DSTYLE
1002
{
1070
   279
1070
     0
1070
   172
1070
     1
1070
   173
1070
     1
1070
   340
1005
12E
1070
    77
1070
     1
1070
    73
1070
     0
1070
   171
1070
     3
1070
   274
1070
     4
1070
   177
1070
     2
1070
   176
1070
     2
1070
   178
1070
     7
1070
    78
1070
     8
1070
    41
1041
3.175
1070
   147
1041
2.25
1070
    42
1041
2.0
1070
    44
1041
2.0
1070
   140
1041
4.5
1070
   343
1005
13F
1070
   344
1005
13F
1002
}
0
DIMENSION
5
17E
100
AcDbEntity
8
SK2
62
256
6
ByLayer
370
13
48
1
60
0
100
AcDbDimension
2
DimnDraft3D5
10
-114.530716
20
40.1413
30
0
11
-45.256374
21
40.1413
31
0
70
32
71
5
72
1
41
1
210
0
220
0
230
1
3
Standard
100
AcDbAlignedDimension
13
36.819284
23
2.3913
33
0
14
-114.530716
24
14.4375
34
0
50
0
100
AcDbRotatedDimension
1001
ACAD
1000
DSTYLE
1002
{
1070
   279
1070
     0
1070
   172
1070
     1
1070
   173
1070
     1
1070
   340
1005
12E
1070
    77
1070
     1
1070
    73
1070
     0
1070
   171
1070
     3
1070
   274
1070
     4
1070
   177
1070
     2
1070
   176
1070
     2
1070
   178
1070
     7
1070
    78
1070
     8
1070
    41
1041
3.175
1070
   147
1041
2.25
1070
    42
1041
2.0
1070
    44
1041
2.0
1070
   140
1041
4.5
1070
   343
1005
13F
1070
   344
1005
13F
1002
}
0
ENDSEC
0
SECTION
2
OBJECTS
0
DICTIONARY
5
1e8
330
0
100
AcDbDictionary
280
0
281
1
3
ACAD_GROUP
350
1e9
3
ACAD_MLINESTYLE
350
1ea
0
DICTIONARY
5
1e9
330
0
100
AcDbDictionary
280
0
281
1
0
DICTIONARY
5
1ea
330
0
100
AcDbDictionary
280
0
281
1
3
Standard
350
18
0
MLINESTYLE
5
18
330
1ea
100
AcDbMlineStyle
2
Standard
70
0
3

62
256
51
90
52
90
71
2
49
-0.5
62
256
6
ByLayer
49
0.5
62
256
6
ByLayer
0
RASTERVARIABLES
5
1d7
330

100
AcDbRasterVariables
90
0
70
1
71
1
72
1
0
ENDSEC
0
EOF
