0
SECTION
2
HEADER
9
$ACADVER
1
AC1015
9
$DWGCODEPAGE
3
ANSI_1252
9
$HANDSEED
5
22a
9
$ANGBASE
50
0
9
$ANGDIR
70
0
9
$ATTMODE
70
1
9
$AUNITS
70
0
9
$AUPREC
70
0
9
$CECOLOR
62
256
9
$CELTSCALE
40
1
9
$CELTYPE
6
ByLayer
9
$CELWEIGHT
370
18
9
$CLAYER
8
0
9
$CMLJUST
70
0
9
$CMLSCALE
40
1
9
$CMLSTYLE
2
Standard
9
$DIMSTYLE
2
Standard
9
$TEXTSIZE
40
0.2
9
$TEXTSTYLE
7
Standard
9
$LUNITS
70
2
9
$LUPREC
70
4
9
$EXTNAMES
290
1
9
$INSUNITS
70
4
9
$LTSCALE
40
1
9
$LWDISPLAY
290
1
9
$PDMODE
70
0
9
$PDSIZE
40
0
9
$PLINEGEN
70
0
0
ENDSEC
0
SECTION
2
CLASSES
0
CLASS
1
RASTERVARIABLES
2
AcDbRasterVariables
3
ISM
90
0
280
0
281
0
0
ENDSEC
0
SECTION
2
TABLES
0
TABLE
2
VPORT
5
220
100
AcDbSymbolTable
0
VPORT
5
1
100
AcDbSymbolTableRecord
100
AcDbViewportTableRecord
2
*Active
70
0
10
0
20
0
11
1
21
1
12
-1
22
1
13
0
23
0
14
0.5
24
0.5
15
10
25
10
16
0
26
0
36
1
17
0
27
0
37
0
0
ENDTAB
0
TABLE
2
LTYPE
5
221
100
AcDbSymbolTable
0
LTYPE
5
14
100
AcDbSymbolTableRecord
100
AcDbLinetypeTableRecord
70
0
2
ByBlock
3

72
65
73
0
40
0
0
LTYPE
5
15
100
AcDbSymbolTableRecord
100
AcDbLinetypeTableRecord
70
0
2
ByLayer
3

72
65
73
0
40
0
0
LTYPE
5
16
100
AcDbSymbolTableRecord
100
AcDbLinetypeTableRecord
70
0
2
CONTINUOUS
3
Solid line
72
65
73
0
40
0
0
LTYPE
5
6A
100
AcDbSymbolTableRecord
100
AcDbLinetypeTableRecord
70
0
2
CENTER
3
____ _ ____ _ ____ _ ____
72
65
73
4
40
47.5
49
22
74
0
49
-8.5
74
0
49
8.5
74
0
49
-8.5
74
0
0
LTYPE
5
6B
100
AcDbSymbolTableRecord
100
AcDbLinetypeTableRecord
70
0
2
DASHED
3
__ __ __ __ __ __ __ __ __
72
65
73
2
40
25.72
49
12.86
74
0
49
-12.86
74
0
0
ENDTAB
0
TABLE
2
LAYER
5
222
100
AcDbSymbolTable
0
LAYER
5
10
100
AcDbSymbolTableRecord
100
AcDbLayerTableRecord
2
0
70
0
62
7
6
CONTINUOUS
290
1
370
-3
390
0
0
LAYER
5
6D
100
AcDbSymbolTableRecord
100
AcDbLayerTableRecord
2
2
70
0
62
7
6
CONTINUOUS
290
1
370
-3
390
0
0
LAYER
5
6F
100
AcDbSymbolTableRecord
100
AcDbLayerTableRecord
2
80
70
0
62
-6
6
CONTINUOUS
290
1
370
-3
390
0
0
LAYER
5
71
100
AcDbSymbolTableRecord
100
AcDbLayerTableRecord
2
81
70
0
62
-3
6
CONTINUOUS
290
1
370
-3
390
0
0
LAYER
5
73
100
AcDbSymbolTableRecord
100
AcDbLayerTableRecord
2
1
70
0
62
4
6
CONTINUOUS
290
1
370
-3
390
0
0
LAYER
5
20d
100
AcDbSymbolTableRecord
100
AcDbLayerTableRecord
2
SK1
70
0
62
4
6
CONTINUOUS
290
1
370
-3
390
0
0
LAYER
5
20e
100
AcDbSymbolTableRecord
100
AcDbLayerTableRecord
2
SK6
70
0
62
5
6
CONTINUOUS
290
1
370
-3
390
0
0
LAYER
5
20f
100
AcDbSymbolTableRecord
100
AcDbLayerTableRecord
2
SK2
70
0
62
7
6
CONTINUOUS
290
1
370
-3
390
0
0
ENDTAB
0
TABLE
2
STYLE
5
223
100
AcDbSymbolTable
0
STYLE
5
11
100
AcDbSymbolTableRecord
100
AcDbTextStyleTableRecord
2
Standard
3
txt
70
0
71
0
40
0
41
1
42
0
50
0
0
STYLE
5
163
100
AcDbSymbolTableRecord
100
AcDbTextStyleTableRecord
2
iso_b_vert
3
simplex.shx
70
0
71
0
40
0
41
1
42
0
50
0
0
STYLE
5
164
100
AcDbSymbolTableRecord
100
AcDbTextStyleTableRecord
2
DWGDirectTextStyle
3
simplex
70
0
71
0
40
0
41
1
42
0
50
0
0
ENDTAB
0
TABLE
2
DIMSTYLE
5
224
100
AcDbSymbolTable
100
AcDbDimStyleTable
0
DIMSTYLE
105
27
100
AcDbSymbolTableRecord
100
AcDbDimStyleTableRecord
2
Standard
70
0
3
<>
41
0.18
42
0.0625
44
0.18
140
0.18
147
0.09
73
0
74
0
77
1
271
2
275
0
278
52
280
0
340
11
0
ENDTAB
0
TABLE
2
VIEW
5
225
100
AcDbSymbolTable
0
ENDTAB
0
TABLE
2
UCS
5
226
100
AcDbSymbolTable
0
ENDTAB
0
TABLE
2
APPID
5
227
100
AcDbSymbolTable
0
APPID
5
12
100
AcDbSymbolTableRecord
100
AcDbRegAppTableRecord
2
ACAD
70
0
0
ENDTAB
0
TABLE
2
BLOCK_RECORD
5
228
100
AcDbSymbolTable
0
BLOCK_RECORD
5
1F
100
AcDbSymbolTableRecord
100
AcDbBlockTableRecord
2
*Model_Space
340
0
70
0
0
BLOCK_RECORD
5
1B
100
AcDbSymbolTableRecord
100
AcDbBlockTableRecord
2
*Paper_Space
340
0
70
0
0
BLOCK_RECORD
5
23
100
AcDbSymbolTableRecord
100
AcDbBlockTableRecord
2
*Paper_Space0
340
0
70
0
0
BLOCK_RECORD
5
166
100
AcDbSymbolTableRecord
100
AcDbBlockTableRecord
2
DimnDraft3D11
340
0
70
0
0
BLOCK_RECORD
5
175
100
AcDbSymbolTableRecord
100
AcDbBlockTableRecord
2
DimnDraft3D2
340
0
70
0
0
BLOCK_RECORD
5
183
100
AcDbSymbolTableRecord
100
AcDbBlockTableRecord
2
_CLOSED
340
0
70
0
0
BLOCK_RECORD
5
18A
100
AcDbSymbolTableRecord
100
AcDbBlockTableRecord
2
DimnDraft3D3
340
0
70
0
0
BLOCK_RECORD
5
198
100
AcDbSymbolTableRecord
100
AcDbBlockTableRecord
2
DimnDraft3D4
340
0
70
0
0
BLOCK_RECORD
5
1A6
100
AcDbSymbolTableRecord
100
AcDbBlockTableRecord
2
DimnDraft3D5
340
0
70
0
0
ENDTAB
0
ENDSEC
0
SECTION
2
BLOCKS
0
BLOCK
5
20
100
AcDbEntity
8
0
100
AcDbBlockBegin
2
*Model_Space
70
0
10
0
20
0
30
0
3
*Model_Space
0
ENDBLK
5
21
100
AcDbEntity
8
0
100
AcDbBlockEnd
0
BLOCK
5
1C
100
AcDbEntity
8
0
100
AcDbBlockBegin
2
*Paper_Space
70
0
10
0
20
0
30
0
3
*Paper_Space
0
ENDBLK
5
1D
100
AcDbEntity
8
0
100
AcDbBlockEnd
0
BLOCK
5
24
100
AcDbEntity
8
0
100
AcDbBlockBegin
2
*Paper_Space0
70
0
10
0
20
0
30
0
3
*Paper_Space0
0
ENDBLK
5
25
100
AcDbEntity
8
0
100
AcDbBlockEnd
0
BLOCK
5
167
100
AcDbEntity
8
0
100
AcDbBlockBegin
2
DimnDraft3D11
70
0
10
0
20
0
30
0
3
DimnDraft3D11
0
LINE
5
169
100
AcDbEntity
8
SK2
62
256
6
ByLayer
370
25
48
1
60
0
100
AcDbLine
10
46.509524
20
-17.425
30
0
11
46.509524
21
-55.675
31
0
39
0
210
0
220
0
230
1
0
LINE
5
16B
100
AcDbEntity
8
SK2
62
256
6
ByLayer
370
25
48
1
60
0
100
AcDbLine
10
-204.840476
20
-21.925
30
0
11
-204.840476
21
-55.675
31
0
39
0
210
0
220
0
230
1
0
LINE
5
16C
100
AcDbEntity
8
SK2
62
256
6
ByLayer
370
25
48
1
60
0
100
AcDbLine
10
46.509524
20
-53.675
30
0
11
-204.840476
21
-53.675
31
0
39
0
210
0
220
0
230
1
0
LINE
5
16D
100
AcDbEntity
8
SK2
62
256
6
ByLayer
370
25
48
1
60
0
100
AcDbLine
10
46.509524
20
-53.675
30
0
11
43.334525
21
-54.092997
31
0
39
0
210
0
220
0
230
1
0
LINE
5
16E
100
AcDbEntity
8
SK2
62
256
6
ByLayer
370
25
48
1
60
0
100
AcDbLine
10
46.509524
20
-53.675
30
0
11
43.334522
21
-53.257003
31
0
39
0
210
0
220
0
230
1
0
LINE
5
16F
100
AcDbEntity
8
SK2
62
256
6
ByLayer
370
25
48
1
60
0
100
AcDbLine
10
43.334525
20
-54.092997
30
0
11
43.334522
21
-53.257003
31
0
39
0
210
0
220
0
230
1
0
LINE
5
170
100
AcDbEntity
8
SK2
62
256
6
ByLayer
370
25
48
1
60
0
100
AcDbLine
10
-204.840476
20
-53.675
30
0
11
-201.665478
21
-53.257003
31
0
39
0
210
0
220
0
230
1
0
LINE
5
171
100
AcDbEntity
8
SK2
62
256
6
ByLayer
370
25
48
1
60
0
100
AcDbLine
10
-204.840476
20
-53.675
30
0
11
-201.665475
21
-54.092997
31
0
39
0
210
0
220
0
230
1
0
LINE
5
172
100
AcDbEntity
8
SK2
62
256
6
ByLayer
370
25
48
1
60
0
100
AcDbLine
10
-201.665478
20
-53.257003
30
0
11
-201.665475
21
-54.092997
31
0
39
0
210
0
220
0
230
1
0
MTEXT
5
173
100
AcDbEntity
8
SK2
62
256
6
ByLayer
370
18
48
1
60
0
100
AcDbMText
10
-85.003634
20
-52.55
30
0
210
0
220
0
230
1
1
\W0.7468;250.0
40
4.5
41
0
44
1.084337
50
0
71
7
72
5
7
iso_b_vert
0
ENDBLK
5
168
100
AcDbEntity
8
0
100
AcDbBlockEnd
0
BLOCK
5
180
100
AcDbEntity
8
0
100
AcDbBlockBegin
2
DimnDraft3D2
70
0
10
0
20
0
30
0
3
DimnDraft3D2
0
MTEXT
5
176
100
AcDbEntity
8
2
62
256
6
ByLayer
370
18
48
1
60
0
100
AcDbMText
10
31.808069
20
-29.789197
30
0
210
0
220
0
230
1
1
\W0.7399;75%%d
40
4.5
41
0
44
1.084337
50
322.5
71
7
72
5
7
iso_b_vert
0
LINE
5
177
100
AcDbEntity
8
2
62
256
6
ByLayer
370
13
48
1
60
0
100
AcDbLine
10
41.583302
20
-16.744977
30
0
11
23.838701
21
-21.499629
31
0
39
0
210
0
220
0
230
1
0
LINE
5
178
100
AcDbEntity
8
2
62
256
6
ByLayer
370
13
48
1
60
0
100
AcDbLine
10
46.509524
20
-17.425
30
0
11
46.509524
21
-38.895563
31
0
39
0
210
0
220
0
230
1
0
ARC
5
179
100
AcDbEntity
8
2
62
256
6
ByLayer
370
13
48
1
60
0
100
AcDbCircle
39
0
10
46.509524
20
-15.425
30
0
40
21.4705627491871
210
0
220
0
230
1
100
AcDbArc
50
195
51
270
0
LINE
5
17A
100
AcDbEntity
8
2
62
256
6
ByLayer
370
13
48
1
60
0
100
AcDbLine
10
25.770553
20
-20.981991
30
0
11
27.104377
21
-23.89339
31
0
39
0
210
0
220
0
230
1
0
LINE
5
17B
100
AcDbEntity
8
2
62
256
6
ByLayer
370
13
48
1
60
0
100
AcDbLine
10
25.770553
20
-20.981991
30
0
11
26.305403
21
-24.139409
31
0
39
0
210
0
220
0
230
1
0
LINE
5
17C
100
AcDbEntity
8
2
62
256
6
ByLayer
370
13
48
1
60
0
100
AcDbLine
10
27.104377
20
-23.89339
30
0
11
26.305403
21
-24.139409
31
0
39
0
210
0
220
0
230
1
0
LINE
5
17D
100
AcDbEntity
8
2
62
256
6
ByLayer
370
13
48
1
60
0
100
AcDbLine
10
46.509524
20
-36.895563
30
0
11
43.321265
21
-37.196137
31
0
39
0
210
0
220
0
230
1
0
LINE
5
17E
100
AcDbEntity
8
2
62
256
6
ByLayer
370
13
48
1
60
0
100
AcDbLine
10
46.509524
20
-36.895563
30
0
11
43.352105
21
-36.360713
31
0
39
0
210
0
220
0
230
1
0
LINE
5
17F
100
AcDbEntity
8
2
62
256
6
ByLayer
370
13
48
1
60
0
100
AcDbLine
10
43.321265
20
-37.196137
30
0
11
43.352105
21
-36.360713
31
0
39
0
210
0
220
0
230
1
0
ENDBLK
5
181
100
AcDbEntity
8
0
100
AcDbBlockEnd
0
BLOCK
5
184
100
AcDbEntity
8
0
100
AcDbBlockBegin
2
_CLOSED
70
0
10
0
20
0
30
0
3
_CLOSED
0
LINE
5
186
100
AcDbEntity
8
0
62
256
6
ByLayer
370
-2
48
1
60
0
100
AcDbLine
10
-1
20
0.166667
30
0
11
0
21
0
31
0
39
0
210
0
220
0
230
1
0
LINE
5
187
100
AcDbEntity
8
0
62
256
6
ByLayer
370
-2
48
1
60
0
100
AcDbLine
10
0
20
0
30
0
11
-1
21
-0.166667
31
0
39
0
210
0
220
0
230
1
0
LINE
5
188
100
AcDbEntity
8
0
62
256
6
ByLayer
370
-2
48
1
60
0
100
AcDbLine
10
-1
20
0.166667
30
0
11
-1
21
-0.166667
31
0
39
0
210
0
220
0
230
1
0
LINE
5
189
100
AcDbEntity
8
0
62
256
6
ByLayer
370
-2
48
1
60
0
100
AcDbLine
10
0
20
0
30
0
11
-1
21
0
31
0
39
0
210
0
220
0
230
1
0
ENDBLK
5
185
100
AcDbEntity
8
0
100
AcDbBlockEnd
0
BLOCK
5
195
100
AcDbEntity
8
0
100
AcDbBlockBegin
2
DimnDraft3D3
70
0
10
0
20
0
30
0
3
DimnDraft3D3
0
MTEXT
5
18B
100
AcDbEntity
8
2
62
256
6
ByLayer
370
18
48
1
60
0
100
AcDbMText
10
18.861341
20
-42.55
30
0
210
0
220
0
230
1
1
\W0.7640;46.5
40
4.5
41
0
44
1.084337
50
0
71
7
72
5
7
iso_b_vert
0
LINE
5
18C
100
AcDbEntity
8
2
62
256
6
ByLayer
370
13
48
1
60
0
100
AcDbLine
10
0
20
-21.925
30
0
11
0
21
-45.675
31
0
39
0
210
0
220
0
230
1
0
LINE
5
18D
100
AcDbEntity
8
2
62
256
6
ByLayer
370
13
48
1
60
0
100
AcDbLine
10
46.509524
20
-17.425
30
0
11
46.509524
21
-45.675
31
0
39
0
210
0
220
0
230
1
0
LINE
5
18E
100
AcDbEntity
8
2
62
256
6
ByLayer
370
13
48
1
60
0
100
AcDbLine
10
0
20
-43.675
30
0
11
46.509524
21
-43.675
31
0
39
0
210
0
220
0
230
1
0
LINE
5
18F
100
AcDbEntity
8
2
62
256
6
ByLayer
370
13
48
1
60
0
100
AcDbLine
10
0
20
-43.675
30
0
11
3.174998
21
-43.257003
31
0
39
0
210
0
220
0
230
1
0
LINE
5
190
100
AcDbEntity
8
2
62
256
6
ByLayer
370
13
48
1
60
0
100
AcDbLine
10
0
20
-43.675
30
0
11
3.175002
21
-44.092997
31
0
39
0
210
0
220
0
230
1
0
LINE
5
191
100
AcDbEntity
8
2
62
256
6
ByLayer
370
13
48
1
60
0
100
AcDbLine
10
3.174998
20
-43.257003
30
0
11
3.175002
21
-44.092997
31
0
39
0
210
0
220
0
230
1
0
LINE
5
192
100
AcDbEntity
8
2
62
256
6
ByLayer
370
13
48
1
60
0
100
AcDbLine
10
46.509524
20
-43.675
30
0
11
43.334525
21
-44.092997
31
0
39
0
210
0
220
0
230
1
0
LINE
5
193
100
AcDbEntity
8
2
62
256
6
ByLayer
370
13
48
1
60
0
100
AcDbLine
10
46.509524
20
-43.675
30
0
11
43.334522
21
-43.257003
31
0
39
0
210
0
220
0
230
1
0
LINE
5
194
100
AcDbEntity
8
2
62
256
6
ByLayer
370
13
48
1
60
0
100
AcDbLine
10
43.334525
20
-44.092997
30
0
11
43.334522
21
-43.257003
31
0
39
0
210
0
220
0
230
1
0
ENDBLK
5
196
100
AcDbEntity
8
0
100
AcDbBlockEnd
0
BLOCK
5
1A3
100
AcDbEntity
8
0
100
AcDbBlockBegin
2
DimnDraft3D4
70
0
10
0
20
0
30
0
3
DimnDraft3D4
0
MTEXT
5
199
100
AcDbEntity
8
2
62
256
6
ByLayer
370
18
48
1
60
0
100
AcDbMText
10
67.634524
20
-1.906579
30
0
210
0
220
0
230
1
1
\W0.7346;35.0
40
4.5
41
0
44
1.084337
50
90
71
7
72
5
7
iso_b_vert
0
LINE
5
19A
100
AcDbEntity
8
2
62
256
6
ByLayer
370
13
48
1
60
0
100
AcDbLine
10
2
20
19.925
30
0
11
70.759524
21
19.925
31
0
39
0
210
0
220
0
230
1
0
LINE
5
19B
100
AcDbEntity
8
2
62
256
6
ByLayer
370
13
48
1
60
0
100
AcDbLine
10
48.509524
20
-15.425
30
0
11
70.759524
21
-15.425
31
0
39
0
210
0
220
0
230
1
0
LINE
5
19C
100
AcDbEntity
8
2
62
256
6
ByLayer
370
13
48
1
60
0
100
AcDbLine
10
68.759524
20
19.925
30
0
11
68.759524
21
-15.425
31
0
39
0
210
0
220
0
230
1
0
LINE
5
19D
100
AcDbEntity
8
2
62
256
6
ByLayer
370
13
48
1
60
0
100
AcDbLine
10
68.759524
20
19.925
30
0
11
69.17752
21
16.750002
31
0
39
0
210
0
220
0
230
1
0
LINE
5
19E
100
AcDbEntity
8
2
62
256
6
ByLayer
370
13
48
1
60
0
100
AcDbLine
10
68.759524
20
19.925
30
0
11
68.341527
21
16.749998
31
0
39
0
210
0
220
0
230
1
0
LINE
5
19F
100
AcDbEntity
8
2
62
256
6
ByLayer
370
13
48
1
60
0
100
AcDbLine
10
69.17752
20
16.750002
30
0
11
68.341527
21
16.749998
31
0
39
0
210
0
220
0
230
1
0
LINE
5
1A0
100
AcDbEntity
8
2
62
256
6
ByLayer
370
13
48
1
60
0
100
AcDbLine
10
68.759524
20
-15.425
30
0
11
68.341527
21
-12.250002
31
0
39
0
210
0
220
0
230
1
0
LINE
5
1A1
100
AcDbEntity
8
2
62
256
6
ByLayer
370
13
48
1
60
0
100
AcDbLine
10
68.759524
20
-15.425
30
0
11
69.17752
21
-12.249998
31
0
39
0
210
0
220
0
230
1
0
LINE
5
1A2
100
AcDbEntity
8
2
62
256
6
ByLayer
370
13
48
1
60
0
100
AcDbLine
10
68.341527
20
-12.250002
30
0
11
69.17752
21
-12.249998
31
0
39
0
210
0
220
0
230
1
0
ENDBLK
5
1A4
100
AcDbEntity
8
0
100
AcDbBlockEnd
0
BLOCK
5
1B1
100
AcDbEntity
8
0
100
AcDbBlockBegin
2
DimnDraft3D5
70
0
10
0
20
0
30
0
3
DimnDraft3D5
0
MTEXT
5
1A7
100
AcDbEntity
8
SK2
62
256
6
ByLayer
370
18
48
1
60
0
100
AcDbMText
10
-213.715476
20
-4.393421
30
0
210
0
220
0
230
1
1
\W0.7640;40.0
40
4.5
41
0
44
1.084337
50
90
71
7
72
5
7
iso_b_vert
0
LINE
5
1A8
100
AcDbEntity
8
SK2
62
256
6
ByLayer
370
13
48
1
60
0
100
AcDbLine
10
-206.840476
20
19.925
30
0
11
-214.590476
21
19.925
31
0
39
0
210
0
220
0
230
1
0
LINE
5
1A9
100
AcDbEntity
8
SK2
62
256
6
ByLayer
370
13
48
1
60
0
100
AcDbLine
10
-206.840476
20
-19.925
30
0
11
-214.590476
21
-19.925
31
0
39
0
210
0
220
0
230
1
0
LINE
5
1AA
100
AcDbEntity
8
SK2
62
256
6
ByLayer
370
13
48
1
60
0
100
AcDbLine
10
-212.590476
20
19.925
30
0
11
-212.590476
21
-19.925
31
0
39
0
210
0
220
0
230
1
0
LINE
5
1AB
100
AcDbEntity
8
SK2
62
256
6
ByLayer
370
13
48
1
60
0
100
AcDbLine
10
-212.590476
20
19.925
30
0
11
-212.17248
21
16.750002
31
0
39
0
210
0
220
0
230
1
0
LINE
5
1AC
100
AcDbEntity
8
SK2
62
256
6
ByLayer
370
13
48
1
60
0
100
AcDbLine
10
-212.590476
20
19.925
30
0
11
-213.008473
21
16.749998
31
0
39
0
210
0
220
0
230
1
0
LINE
5
1AD
100
AcDbEntity
8
SK2
62
256
6
ByLayer
370
13
48
1
60
0
100
AcDbLine
10
-212.17248
20
16.750002
30
0
11
-213.008473
21
16.749998
31
0
39
0
210
0
220
0
230
1
0
LINE
5
1AE
100
AcDbEntity
8
SK2
62
256
6
ByLayer
370
13
48
1
60
0
100
AcDbLine
10
-212.590476
20
-19.925
30
0
11
-213.008473
21
-16.750002
31
0
39
0
210
0
220
0
230
1
0
LINE
5
1AF
100
AcDbEntity
8
SK2
62
256
6
ByLayer
370
13
48
1
60
0
100
AcDbLine
10
-212.590476
20
-19.925
30
0
11
-212.17248
21
-16.749998
31
0
39
0
210
0
220
0
230
1
0
LINE
5
1B0
100
AcDbEntity
8
SK2
62
256
6
ByLayer
370
13
48
1
60
0
100
AcDbLine
10
-213.008473
20
-16.750002
30
0
11
-212.17248
21
-16.749998
31
0
39
0
210
0
220
0
230
1
0
ENDBLK
5
1B2
100
AcDbEntity
8
0
100
AcDbBlockEnd
0
ENDSEC
0
SECTION
2
ENTITIES
0
ELLIPSE
5
D3
100
AcDbEntity
8
1
62
256
6
ByLayer
370
18
48
1
60
0
100
AcDbEllipse
10
18.322605
20
0.67367
30
0
11
-0.22500000000008
21
-0.389711431702951
31
0
210
0
220
0
230
1
40
0.989133
41
2.33041044405899
42
2.79620028821702
0
ELLIPSE
5
D4
100
AcDbEntity
8
1
62
256
6
ByLayer
370
18
48
1
60
0
100
AcDbEllipse
10
17.224603
20
-1.6425
30
0
11
-0.22500000000008
21
-0.389711431702951
31
0
210
0
220
0
230
1
40
0.989133
41
0.345383300477924
42
0.974788717687637
0
ELLIPSE
5
D5
100
AcDbEntity
8
1
62
256
6
ByLayer
370
18
48
1
60
0
100
AcDbEllipse
10
18.365583
20
-0.756372
30
0
11
0.700000000000246
21
1.21243556529807
31
0
210
0
220
0
230
1
40
0.989133
41
-3.11243067028358
42
-0.136065937423043
0
ELLIPSE
5
D6
100
AcDbEntity
8
1
62
256
6
ByLayer
370
18
48
1
60
0
100
AcDbEllipse
10
18.435612
20
-0.796804
30
0
11
0.700000000000246
21
1.21243556529807
31
0
210
0
220
0
230
1
40
0.989133
41
2.57463896385633
42
3.13179474849303
0
ELLIPSE
5
D7
100
AcDbEntity
8
1
62
256
6
ByLayer
370
18
48
1
60
0
100
AcDbEllipse
10
18.435612
20
-0.796804
30
0
11
0.700000000000246
21
1.21243556529807
31
0
210
0
220
0
230
1
40
0.989133
41
1.36823719243158
42
1.97929811046098
0
ELLIPSE
5
D8
100
AcDbEntity
8
1
62
256
6
ByLayer
370
18
48
1
60
0
100
AcDbEllipse
10
18.435612
20
-0.796804
30
0
11
0.700000000000246
21
1.21243556529807
31
0
210
0
220
0
230
1
40
0.989133
41
0.173404413253496
42
0.743155178182774
0
ELLIPSE
5
D9
100
AcDbEntity
8
1
62
256
6
ByLayer
370
18
48
1
60
0
100
AcDbEllipse
10
18.435612
20
-0.796804
30
0
11
0.700000000000246
21
1.21243556529807
31
0
210
0
220
0
230
1
40
0.989133
41
-0.873793137943103
42
-0.106740703067376
0
ELLIPSE
5
DA
100
AcDbEntity
8
1
62
256
6
ByLayer
370
18
48
1
60
0
100
AcDbEllipse
10
19.646622
20
0.048892
30
0
11
-0.22500000000008
21
-0.389711431702951
31
0
210
0
220
0
230
1
40
0.989133
41
1.28321289286231
42
2.79616888446577
0
ELLIPSE
5
DB
100
AcDbEntity
8
1
62
256
6
ByLayer
370
18
48
1
60
0
100
AcDbEllipse
10
18.54862
20
-2.267278
30
0
11
-0.22500000000008
21
-0.389711431702951
31
0
210
0
220
0
230
1
40
0.989133
41
0.345414377018731
42
2.02198626888423
0
ELLIPSE
5
DC
100
AcDbEntity
8
1
62
256
6
ByLayer
370
18
48
1
60
0
100
AcDbEllipse
10
18.314652
20
-0.726967
30
0
11
2.50000000000088
21
4.33012701892168
31
0
210
0
220
0
230
1
40
0.989133
41
0.528343003110843
42
3.14149871281478
0
ELLIPSE
5
DD
100
AcDbEntity
8
1
62
256
6
ByLayer
370
18
48
1
60
0
100
AcDbEllipse
10
18.314652
20
-0.726967
30
0
11
2.50000000000088
21
4.33012701892168
31
0
210
0
220
0
230
1
40
0.989133
41
-1.03299065879922
42
-2.4693248068514E-16
0
ELLIPSE
5
DE
100
AcDbEntity
8
1
62
256
6
ByLayer
370
18
48
1
60
0
100
AcDbEllipse
10
18.314652
20
-0.726967
30
0
11
2.50000000000088
21
4.33012701892168
31
0
210
0
220
0
230
1
40
0.989133
41
0
42
0.528338808974089
0
ELLIPSE
5
DF
100
AcDbEntity
8
1
62
256
6
ByLayer
370
18
48
1
60
0
100
AcDbEllipse
10
35.264379
20
-8.630556
30
0
11
1.9850000000007
21
3.43812085302382
31
0
210
0
220
0
230
1
40
0.989133
41
-2.93178880447745
42
-0.0455487979976777
0
ELLIPSE
5
E0
100
AcDbEntity
8
1
62
256
6
ByLayer
370
18
48
1
60
0
100
AcDbEllipse
10
34.455853
20
-8.163753
30
0
11
1.9850000000007
21
3.43812085302382
31
0
210
0
220
0
230
1
40
0.989133
41
-1.03299053199071
42
-0.496956227940613
0
ELLIPSE
5
E1
100
AcDbEntity
8
1
62
256
6
ByLayer
370
18
48
1
60
0
100
AcDbEllipse
10
34.455853
20
-8.163753
30
0
11
1.9850000000007
21
3.43812085302382
31
0
210
0
220
0
230
1
40
0.989133
41
-0.496956481960158
42
-0.372078148229057
0
ELLIPSE
5
E2
100
AcDbEntity
8
1
62
256
6
ByLayer
370
18
48
1
60
0
100
AcDbEllipse
10
9.668449
20
-3.282107
30
0
11
1.47738106167429
21
2.61100463396873
31
0
210
0
220
0
230
1
40
0.986425
41
0.0284948362111218
42
0.0732243651096454
0
ELLIPSE
5
E3
100
AcDbEntity
8
1
62
256
6
ByLayer
370
18
48
1
60
0
100
AcDbEllipse
10
19.256556
20
-1.170733
30
0
11
-2.53617082254086
21
-4.48222462164631
31
0
210
0
220
0
230
1
40
0.986425
41
0.0732243651096413
42
3.12371075168525
0
ELLIPSE
5
E4
100
AcDbEntity
8
1
62
256
6
ByLayer
370
18
48
1
60
0
100
AcDbEllipse
10
33.866771
20
-7.822069
30
0
11
-1.78750000000064
21
-3.096040818529
31
0
210
0
220
0
230
1
40
0.989133
41
-3.11537564105838
42
-1.03299070227936
0
ELLIPSE
5
E5
100
AcDbEntity
8
1
62
256
6
ByLayer
370
18
48
1
60
0
100
AcDbEllipse
10
33.866771
20
-7.822069
30
0
11
-1.78750000000064
21
-3.096040818529
31
0
210
0
220
0
230
1
40
0.989133
41
3.14149863080468
42
-3.11537592384967
0
ELLIPSE
5
E6
100
AcDbEntity
8
1
62
256
6
ByLayer
370
18
48
1
60
0
100
AcDbEllipse
10
0.925581
20
-13.205515
30
0
11
-0.0568797666677981
21
-1.93356169336811
31
0
210
0
220
0
230
1
40
0.107804
41
-1.47681662610371
42
0.09397970069294
0
ELLIPSE
5
E7
100
AcDbEntity
8
1
62
256
6
ByLayer
370
18
48
1
60
0
100
AcDbEllipse
10
28.186033
20
-10.772882
30
0
11
-0.124955505087234
21
-3.8703276068557
31
0
210
0
220
0
230
1
40
0.523705
41
-1.06367112893181
42
-0.77627377241456
0
ELLIPSE
5
E8
100
AcDbEntity
8
1
62
256
6
ByLayer
370
18
48
1
60
0
100
AcDbEllipse
10
15.373133
20
17.270735
30
0
11
-0.782489192389579
21
0.216921785931536
31
0
210
0
220
0
230
1
40
0.036644
41
-3.00089456653103
42
-1.43009823974065
0
ELLIPSE
5
E9
100
AcDbEntity
8
1
62
256
6
ByLayer
370
18
48
1
60
0
100
AcDbEllipse
10
41.212476
20
1.544471
30
0
11
-0.595500000000212
21
-1.03143625590714
31
0
210
0
220
0
230
1
40
0.989133
41
2.3507312816708
42
-2.36165769871388
0
ELLIPSE
5
EA
100
AcDbEntity
8
1
62
256
6
ByLayer
370
18
48
1
60
0
100
AcDbEllipse
10
29.316283
20
-18.805582
30
0
11
-0.595500000000212
21
-1.03143625590714
31
0
210
0
220
0
230
1
40
0.989133
41
-0.790861371918971
42
0.779934954875938
0
ELLIPSE
5
EB
100
AcDbEntity
8
1
62
256
6
ByLayer
370
18
48
1
60
0
100
AcDbEllipse
10
45.328137
20
-14.515219
30
0
11
-0.595500000000212
21
-1.03143625590714
31
0
210
0
220
0
230
1
40
0.989133
41
0.779934954875922
42
2.3507312816708
0
ELLIPSE
5
EC
100
AcDbEntity
8
1
62
256
6
ByLayer
370
18
48
1
60
0
100
AcDbEllipse
10
17.406036
20
6.582254
30
0
11
-5.70099267861536
21
3.14424549107852
31
0
210
0
220
0
230
1
40
0.368786
41
0.650746894059993
42
0.719976957692937
0
ELLIPSE
5
ED
100
AcDbEntity
8
1
62
256
6
ByLayer
370
18
48
1
60
0
100
AcDbEllipse
10
13.375707
20
8.382644
30
0
11
-2.22594881320663
21
-2.70164223102967
31
0
210
0
220
0
230
1
40
0.996259
41
-2.51378498434067
42
-1.32342884383014
0
ELLIPSE
5
EE
100
AcDbEntity
8
1
62
256
6
ByLayer
370
18
48
1
60
0
100
AcDbEllipse
10
11.009326
20
13.290558
30
0
11
6.32524650364758
21
-2.99854242392767
31
0
210
0
220
0
230
1
40
0.012014
41
0.810298218555796
42
0.856286524597882
0
ELLIPSE
5
EF
100
AcDbEntity
8
1
62
256
6
ByLayer
370
18
48
1
60
0
100
AcDbEllipse
10
18.2832
20
8.115607
30
0
11
-3.85584133815107
21
2.35520378907192
31
0
210
0
220
0
230
1
40
0.524824
41
-0.486842297647399
42
0.752932470189294
0
ELLIPSE
5
F0
100
AcDbEntity
8
1
62
256
6
ByLayer
370
18
48
1
60
0
100
AcDbEllipse
10
13.476108
20
-1.707694
30
0
11
5.87344318195847
21
-2.78436082221855
31
0
210
0
220
0
230
1
40
0.012014
41
-2.31902223848671
42
-1.93749755565511
0
ELLIPSE
5
F1
100
AcDbEntity
8
1
62
256
6
ByLayer
370
18
48
1
60
0
100
AcDbEllipse
10
16.046102
20
3.713555
30
0
11
5.87344318195847
21
-2.78436082221855
31
0
210
0
220
0
230
1
40
0.012014
41
-2.31902223848695
42
-1.93749755565509
0
ELLIPSE
5
F2
100
AcDbEntity
8
1
62
256
6
ByLayer
370
18
48
1
60
0
100
AcDbEllipse
10
12.116174
20
-4.576394
30
0
11
-6.03980233172571
21
2.43016533069218
31
0
210
0
220
0
230
1
40
0.344859
41
-0.718096321107047
42
-0.648866255535667
0
ELLIPSE
5
F3
100
AcDbEntity
8
1
62
256
6
ByLayer
370
18
48
1
60
0
100
AcDbEllipse
10
11.474959
20
-6.245971
30
0
11
-4.2583035121519
21
1.50862020773737
31
0
210
0
220
0
230
1
40
0.501123
41
-0.748682307164026
42
0.491092460672928
0
ELLIPSE
5
F4
100
AcDbEntity
8
1
62
256
6
ByLayer
370
18
48
1
60
0
100
AcDbEllipse
10
10.963606
20
-3.90155
30
0
11
-4.38263686981002
21
-0.877556207461815
31
0
210
0
220
0
230
1
40
0.59688
41
0.497960299184472
42
0.677266502829627
0
ELLIPSE
5
F5
100
AcDbEntity
8
1
62
256
6
ByLayer
370
18
48
1
60
0
100
AcDbEllipse
10
13.74728
20
6.91709
30
0
11
1.74360049962318
21
0.979723071951354
31
0
210
0
220
0
230
1
40
0.695251
41
0.710675941121798
42
2.03678838018215
0
ELLIPSE
5
F6
100
AcDbEntity
8
1
62
256
6
ByLayer
370
18
48
1
60
0
100
AcDbEllipse
10
8.23572
20
-2.459853
30
0
11
-2.22594881302042
21
-2.70164223117995
31
0
210
0
220
0
230
1
40
0.996259
41
-1.32342884389874
42
-0.133072703387624
0
ELLIPSE
5
F7
100
AcDbEntity
8
1
62
256
6
ByLayer
370
18
48
1
60
0
100
AcDbEllipse
10
9.511191
20
-2.018686
30
0
11
-0.307066654850926
21
1.97628694006682
31
0
210
0
220
0
230
1
40
0.70503
41
1.13245539765851
42
2.45856783671883
0
ELLIPSE
5
F8
100
AcDbEntity
8
1
62
256
6
ByLayer
370
18
48
1
60
0
100
AcDbEllipse
10
35.838027
20
-8.948542
30
0
11
-2.84590562698914
21
-2.32163258141191
31
0
210
0
220
0
230
1
40
0.82989
41
1.62372223269637
42
1.91246389813944
0
ELLIPSE
5
F9
100
AcDbEntity
8
1
62
256
6
ByLayer
370
18
48
1
60
0
100
AcDbEllipse
10
35.838027
20
-8.948542
30
0
11
-0.288604748310829
21
-3.69593726299306
31
0
210
0
220
0
230
1
40
0.83264
41
1.31943015283857
42
1.60817181823305
0
ELLIPSE
5
FA
100
AcDbEntity
8
1
62
256
6
ByLayer
370
18
48
1
60
0
100
AcDbEllipse
10
16.103594
20
6.940947
30
0
11
-1.9442065765796
21
4.10390261776478
31
0
210
0
220
0
230
1
40
0.605738
41
-0.635596691696745
42
-0.456290488189575
0
ELLIPSE
5
FB
100
AcDbEntity
8
1
62
256
6
ByLayer
370
18
48
1
60
0
100
AcDbEllipse
10
18.691119
20
-0.944321
30
0
11
0.700000000000246
21
1.21243556529807
31
0
210
0
220
0
230
1
40
0.989133
41
-2.10419300748994
42
-1.9209906891397
0
ELLIPSE
5
FC
100
AcDbEntity
8
1
62
256
6
ByLayer
370
18
48
1
60
0
100
AcDbEllipse
10
17.485624
20
-1.7932
30
0
11
-0.22500000000008
21
-0.389711431702951
31
0
210
0
220
0
230
1
40
0.989133
41
-1.85837976072743
42
0.974788717687542
0
ELLIPSE
5
FD
100
AcDbEntity
8
1
62
256
6
ByLayer
370
18
48
1
60
0
100
AcDbEllipse
10
19.500806
20
0.748852
30
0
11
0.250000000000088
21
0.433012701892169
31
0
210
0
220
0
230
1
40
0.989133
41
-2.68076558792892
42
-2.16680393590224
0
ELLIPSE
5
FE
100
AcDbEntity
8
1
62
256
6
ByLayer
370
18
48
1
60
0
100
AcDbEllipse
10
17.892459
20
-2.64386
30
0
11
0.250000000000088
21
0.433012701892169
31
0
210
0
220
0
230
1
40
0.989133
41
0.460827065660888
42
0.974788717687667
0
ELLIPSE
5
FF
100
AcDbEntity
8
1
62
256
6
ByLayer
370
18
48
1
60
0
100
AcDbEllipse
10
18.696633
20
-0.947504
30
0
11
0.71250000000025
21
1.23408620039268
31
0
210
0
220
0
230
1
40
0.989133
41
-1.09559120137602
42
-0.835197392860396
0
ELLIPSE
5
100
100
AcDbEntity
8
1
62
256
6
ByLayer
370
18
48
1
60
0
100
AcDbEllipse
10
20.553278
20
-0.785705
30
0
11
0.250000000000088
21
0.433012701892169
31
0
210
0
220
0
230
1
40
0.989133
41
1.28321289286242
42
1.79717454488903
0
ELLIPSE
5
101
100
AcDbEntity
8
1
62
256
6
ByLayer
370
18
48
1
60
0
100
AcDbEllipse
10
18.524188
20
-0.847943
30
0
11
-2.50000000000089
21
-4.33012701892168
31
0
210
0
220
0
230
1
40
0.989133
41
0
42
6.28318530717959
0
ELLIPSE
5
102
100
AcDbEntity
8
1
62
256
6
ByLayer
370
18
48
1
60
0
100
AcDbEllipse
10
19.488084
20
-2.331361
30
0
11
0.250000000000088
21
0.433012701892169
31
0
210
0
220
0
230
1
40
0.989133
41
0.236015341665767
42
0.86998975621726
0
ELLIPSE
5
103
100
AcDbEntity
8
1
62
256
6
ByLayer
370
18
48
1
60
0
100
AcDbEllipse
10
19.749105
20
-2.482062
30
0
11
0.250000000000088
21
0.433012701892169
31
0
210
0
220
0
230
1
40
0.989133
41
0.236015341665766
42
0.749976993692493
0
ELLIPSE
5
104
100
AcDbEntity
8
1
62
256
6
ByLayer
370
18
48
1
60
0
100
AcDbEllipse
10
18.696633
20
-0.947504
30
0
11
0.71250000000025
21
1.23408620039268
31
0
210
0
220
0
230
1
40
0.989133
41
3.09319900341036
42
-2.92959249525359
0
ELLIPSE
5
105
100
AcDbEntity
8
1
62
256
6
ByLayer
370
18
48
1
60
0
100
AcDbEllipse
10
18.696633
20
-0.947504
30
0
11
0.71250000000025
21
1.23408620039268
31
0
210
0
220
0
230
1
40
0.989133
41
0.998803901017179
42
1.25919770953282
0
ELLIPSE
5
106
100
AcDbEntity
8
1
62
256
6
ByLayer
370
18
48
1
60
0
100
AcDbEllipse
10
18.696633
20
-0.947504
30
0
11
0.71250000000025
21
1.23408620039268
31
0
210
0
220
0
230
1
40
0.989133
41
-0.0483936501794169
42
0.212000158336223
0
ELLIPSE
5
107
100
AcDbEntity
8
1
62
256
6
ByLayer
370
18
48
1
60
0
100
AcDbEllipse
10
17.372616
20
-0.322725
30
0
11
-0.22500000000008
21
-0.389711431702951
31
0
210
0
220
0
230
1
40
0.989133
41
-2.90557731192405
42
-0.0724088335088863
0
ELLIPSE
5
108
100
AcDbEntity
8
1
62
256
6
ByLayer
370
18
48
1
60
0
100
AcDbEllipse
10
16.839987
20
-1.109303
30
0
11
0.250000000000088
21
0.433012701892169
31
0
210
0
220
0
230
1
40
0.989133
41
-1.85837976072746
42
-1.34441810870075
0
ELLIPSE
5
109
100
AcDbEntity
8
1
62
256
6
ByLayer
370
18
48
1
60
0
100
AcDbEllipse
10
20.292258
20
-0.635005
30
0
11
0.250000000000088
21
0.433012701892169
31
0
210
0
220
0
230
1
40
0.989133
41
2.43520940552928
42
3.06918382008076
0
ELLIPSE
5
10A
100
AcDbEntity
8
1
62
256
6
ByLayer
370
18
48
1
60
0
100
AcDbEllipse
10
19.907642
20
-0.101809
30
0
11
-0.22500000000008
21
-0.389711431702951
31
0
210
0
220
0
230
1
40
0.989133
41
1.28321289286233
42
-2.16680393590211
0
ELLIPSE
5
10B
100
AcDbEntity
8
1
62
256
6
ByLayer
370
18
48
1
60
0
100
AcDbEllipse
10
18.691119
20
-0.944321
30
0
11
0.700000000000246
21
1.21243556529807
31
0
210
0
220
0
230
1
40
0.989133
41
-1.05699545629335
42
-0.873793137943097
0
ELLIPSE
5
10C
100
AcDbEntity
8
1
62
256
6
ByLayer
370
18
48
1
60
0
100
AcDbEllipse
10
19.488084
20
-2.331361
30
0
11
0.250000000000088
21
0.433012701892169
31
0
210
0
220
0
230
1
40
0.989133
41
1.38801185433272
42
2.02198626888416
0
ELLIPSE
5
10D
100
AcDbEntity
8
1
62
256
6
ByLayer
370
18
48
1
60
0
100
AcDbEllipse
10
19.759629
20
-1.421583
30
0
11
-0.22500000000008
21
-0.389711431702951
31
0
210
0
220
0
230
1
40
0.989133
41
0.23601534166584
42
3.06918382008085
0
ELLIPSE
5
10E
100
AcDbEntity
8
1
62
256
6
ByLayer
370
18
48
1
60
0
100
AcDbEllipse
10
18.583626
20
0.52297
30
0
11
-0.22500000000008
21
-0.389711431702951
31
0
210
0
220
0
230
1
40
0.989133
41
2.33041044405895
42
-1.11960638470559
0
ELLIPSE
5
10F
100
AcDbEntity
8
1
62
256
6
ByLayer
370
18
48
1
60
0
100
AcDbEllipse
10
19.749105
20
-2.482062
30
0
11
0.250000000000088
21
0.433012701892169
31
0
210
0
220
0
230
1
40
0.989133
41
1.50802461685749
42
2.02198626888418
0
ELLIPSE
5
110
100
AcDbEntity
8
1
62
256
6
ByLayer
370
18
48
1
60
0
100
AcDbEllipse
10
20.292258
20
-0.635005
30
0
11
0.250000000000088
21
0.433012701892169
31
0
210
0
220
0
230
1
40
0.989133
41
1.28321289286236
42
1.91718730741376
0
ELLIPSE
5
111
100
AcDbEntity
8
1
62
256
6
ByLayer
370
18
48
1
60
0
100
AcDbEllipse
10
18.696633
20
-0.947504
30
0
11
-1.25000000000045
21
-2.16506350946084
31
0
210
0
220
0
230
1
40
0.989133
41
0
42
6.28318530717959
0
ELLIPSE
5
112
100
AcDbEntity
8
1
62
256
6
ByLayer
370
18
48
1
60
0
100
AcDbEllipse
10
17.892459
20
-2.64386
30
0
11
0.250000000000088
21
0.433012701892169
31
0
210
0
220
0
230
1
40
0.989133
41
-0.811182209530851
42
-0.297220557504151
0
ELLIPSE
5
113
100
AcDbEntity
8
1
62
256
6
ByLayer
370
18
48
1
60
0
100
AcDbEllipse
10
18.691119
20
-0.944321
30
0
11
0.700000000000246
21
1.21243556529807
31
0
210
0
220
0
230
1
40
0.989133
41
2.08459719729648
42
2.26779951564669
0
ELLIPSE
5
114
100
AcDbEntity
8
1
62
256
6
ByLayer
370
18
48
1
60
0
100
AcDbEllipse
10
18.696633
20
-0.947504
30
0
11
0.71250000000025
21
1.23408620039268
31
0
210
0
220
0
230
1
40
0.989133
41
-2.14278875257264
42
-1.88239494405701
0
ELLIPSE
5
115
100
AcDbEntity
8
1
62
256
6
ByLayer
370
18
48
1
60
0
100
AcDbEllipse
10
19.239786
20
0.899552
30
0
11
0.250000000000088
21
0.433012701892169
31
0
210
0
220
0
230
1
40
0.989133
41
2.33041044405898
42
2.96438485861038
0
ELLIPSE
5
116
100
AcDbEntity
8
1
62
256
6
ByLayer
370
18
48
1
60
0
100
AcDbEllipse
10
18.691119
20
-0.944321
30
0
11
0.700000000000246
21
1.21243556529807
31
0
210
0
220
0
230
1
40
0.989133
41
-0.00979790509670223
42
0.173404413253959
0
ELLIPSE
5
117
100
AcDbEntity
8
1
62
256
6
ByLayer
370
18
48
1
60
0
100
AcDbEllipse
10
17.644161
20
0.587053
30
0
11
0.250000000000088
21
0.433012701892169
31
0
210
0
220
0
230
1
40
0.989133
41
-1.63356803673228
42
-1.11960638470561
0
ELLIPSE
5
118
100
AcDbEntity
8
1
62
256
6
ByLayer
370
18
48
1
60
0
100
AcDbEllipse
10
20.553278
20
-0.785705
30
0
11
0.250000000000088
21
0.433012701892169
31
0
210
0
220
0
230
1
40
0.989133
41
2.55522216805409
42
3.06918382008082
0
ELLIPSE
5
119
100
AcDbEntity
8
1
62
256
6
ByLayer
370
18
48
1
60
0
100
AcDbEllipse
10
18.696633
20
-0.947504
30
0
11
0.71250000000025
21
1.23408620039268
31
0
210
0
220
0
230
1
40
0.989133
41
2.04600145221377
42
2.30639526072939
0
ELLIPSE
5
11A
100
AcDbEntity
8
1
62
256
6
ByLayer
370
18
48
1
60
0
100
AcDbEllipse
10
20.020649
20
-1.572283
30
0
11
-0.22500000000008
21
-0.389711431702951
31
0
210
0
220
0
230
1
40
0.989133
41
0.23601534166584
42
3.06918382008078
0
ELLIPSE
5
11B
100
AcDbEntity
8
1
62
256
6
ByLayer
370
18
48
1
60
0
100
AcDbEllipse
10
18.435612
20
-0.796804
30
0
11
0.700000000000246
21
1.21243556529807
31
0
210
0
220
0
230
1
40
0.989133
41
-2.9681882403363
42
-2.10419300748993
0
ELLIPSE
5
11C
100
AcDbEntity
8
1
62
256
6
ByLayer
370
18
48
1
60
0
100
AcDbEllipse
10
18.691119
20
-0.944321
30
0
11
0.700000000000246
21
1.21243556529807
31
0
210
0
220
0
230
1
40
0.989133
41
3.13179474849262
42
-2.96818824033588
0
ELLIPSE
5
11D
100
AcDbEntity
8
1
62
256
6
ByLayer
370
18
48
1
60
0
100
AcDbEllipse
10
18.691119
20
-0.944321
30
0
11
0.700000000000246
21
1.21243556529807
31
0
210
0
220
0
230
1
40
0.989133
41
1.03739964609987
42
1.22060196445076
0
ELLIPSE
5
11E
100
AcDbEntity
8
1
62
256
6
ByLayer
370
18
48
1
60
0
100
AcDbEllipse
10
16.839987
20
-1.109303
30
0
11
0.250000000000088
21
0.433012701892169
31
0
210
0
220
0
230
1
40
0.989133
41
-0.586370485535723
42
-0.072408833508979
0
ELLIPSE
5
11F
100
AcDbEntity
8
1
62
256
6
ByLayer
370
18
48
1
60
0
100
AcDbEllipse
10
19.500806
20
0.748852
30
0
11
0.250000000000088
21
0.433012701892169
31
0
210
0
220
0
230
1
40
0.989133
41
2.33041044405894
42
2.84437209608558
0
ELLIPSE
5
120
100
AcDbEntity
8
1
62
256
6
ByLayer
370
18
48
1
60
0
100
AcDbEllipse
10
17.631439
20
-2.49316
30
0
11
0.250000000000088
21
0.433012701892169
31
0
210
0
220
0
230
1
40
0.989133
41
0.340814303136112
42
0.974788717687624
0
ELLIPSE
5
121
100
AcDbEntity
8
1
62
256
6
ByLayer
370
18
48
1
60
0
100
AcDbEllipse
10
18.435612
20
-0.796804
30
0
11
0.700000000000246
21
1.21243556529807
31
0
210
0
220
0
230
1
40
0.989133
41
-1.92099068913969
42
-1.05699545629335
0
ELLIPSE
5
122
100
AcDbEntity
8
1
62
256
6
ByLayer
370
18
48
1
60
0
100
AcDbEllipse
10
17.644161
20
0.587053
30
0
11
0.250000000000088
21
0.433012701892169
31
0
210
0
220
0
230
1
40
0.989133
41
-2.90557731192392
42
-2.3916156598973
0
ELLIPSE
5
123
100
AcDbEntity
8
1
62
256
6
ByLayer
370
18
48
1
60
0
100
AcDbEllipse
10
18.80964
20
-2.417979
30
0
11
-0.22500000000008
21
-0.389711431702951
31
0
210
0
220
0
230
1
40
0.989133
41
-0.811182209530798
42
2.02198626888426
0
POINT
5
6C
100
AcDbEntity
8
2
62
256
6
ByLayer
370
18
48
1
60
0
100
AcDbPoint
10
46.509524
20
55.275
30
0
39
0
210
0
220
0
230
1
50
360
0
POINT
5
6E
100
AcDbEntity
8
80
62
256
6
ByLayer
370
18
48
1
60
0
100
AcDbPoint
10
0
20
0
30
0
39
0
210
0
220
0
230
1
50
360
0
POINT
5
70
100
AcDbEntity
8
81
62
256
6
ByLayer
370
18
48
1
60
0
100
AcDbPoint
10
46.509524
20
-15.425
30
0
39
0
210
0
220
0
230
1
50
360
0
SPLINE
5
124
100
AcDbEntity
8
1
62
256
6
ByLayer
370
18
48
1
60
0
100
AcDbSpline
70
4
71
3
72
8
73
4
40
0
40
0
40
0
40
0
40
1
40
1
40
1
40
1
41
1
10
6.86263703343252
20
-5.69303009383765
30
0
41
1
10
6.46495025253557
20
-5.48423339655648
30
0
41
1
10
6.05302702668166
20
-5.21396894984125
30
0
41
1
10
5.67233744205009
20
-4.84337561514553
30
0
0
SPLINE
5
125
100
AcDbEntity
8
1
62
256
6
ByLayer
370
18
48
1
60
0
100
AcDbSpline
70
4
71
2
72
6
73
3
40
0
40
0
40
0
40
1
40
1
40
1
41
1.02275914691308
10
16.7744855201545
20
-7.41825618316923
30
0
41
1.02275914691308
10
15.8472771428261
20
-8.471062506796
30
0
41
1.02275914691308
10
14.9200687654976
20
-9.52386883042273
30
0
0
SPLINE
5
126
100
AcDbEntity
8
1
62
256
6
ByLayer
370
18
48
1
60
0
100
AcDbSpline
70
4
71
3
72
20
73
16
40
0
40
0
40
0
40
0
40
0.180139434362033
40
0.180139434362033
40
0.338734027847005
40
0.338734027847005
40
0.497328642471092
40
0.497328642471092
40
0.65592325931144
40
0.65592325931144
40
0.814517859427958
40
0.814517859427958
40
0.97579222800936
40
0.97579222800936
40
1
40
1
40
1
40
1
41
1
10
38.606903382256
20
-10.3959288988185
30
0
41
1
10
38.6159838063529
20
-10.3785315078077
30
0
41
1
10
38.6249478900321
20
-10.3610640959343
30
0
41
1
10
38.6415790703233
20
-10.3280976672308
30
0
41
1
10
38.649273997638
20
-10.3126111909955
30
0
41
1
10
38.6644745188479
20
-10.2815461895651
30
0
41
1
10
38.6719808882266
20
-10.265966079382
30
0
41
1
10
38.686801187397
20
-10.234720163746
30
0
41
1
10
38.6941158738755
20
-10.219052762948
30
0
41
1
10
38.7085498901264
20
-10.1876387018878
30
0
41
1
10
38.7156699564217
20
-10.1718904388034
30
0
41
1
10
38.7298306366217
20
-10.1400544618223
30
0
41
1
10
38.7368686208466
20
-10.1239638318588
30
0
41
1
10
38.7448437568288
20
-10.1054185569699
30
0
41
1
10
38.7458823199213
20
-10.1029972915384
30
0
41
1
10
38.7469185485721
20
-10.1005752516168
30
0
0
SPLINE
5
127
100
AcDbEntity
8
1
62
256
6
ByLayer
370
18
48
1
60
0
100
AcDbSpline
70
4
71
2
72
6
73
3
40
0
40
0
40
0
40
1
40
1
40
1
41
1
10
32.6782245030309
20
-12.8867652162798
30
0
41
1
10
30.8463820154549
20
-13.0979826028315
30
0
41
1
10
28.9867307999015
20
-13.1075587221174
30
0
0
SPLINE
5
128
100
AcDbEntity
8
1
62
256
6
ByLayer
370
18
48
1
60
0
100
AcDbSpline
70
4
71
3
72
8
73
4
40
0
40
0
40
0
40
0
40
1
40
1
40
1
40
1
41
1
10
33.294158977536
20
-8.25919799826002
30
0
41
1
10
33.9588728995154
20
-8.35335365965452
30
0
41
1
10
34.596647942691
20
-8.48356249169208
30
0
41
1
10
35.1897713526527
20
-8.65130394084466
30
0
0
SPLINE
5
129
100
AcDbEntity
8
1
62
256
6
ByLayer
370
18
48
1
60
0
100
AcDbSpline
70
4
71
3
72
12
73
8
40
0
40
0
40
0
40
0
40
0.477525441753641
40
0.477525441753641
40
0.843795690072565
40
0.843795690072565
40
1
40
1
40
1
40
1
41
1
10
12.4597041497548
20
8.6881335765471
30
0
41
1
10
12.4323440271675
20
8.56388184937688
30
0
41
1
10
12.3980989114562
20
8.43115756788146
30
0
41
1
10
12.3203655154491
20
8.18424592412612
30
0
41
1
10
12.2801595637541
20
8.07089487800789
30
0
41
1
10
12.2125427119619
20
7.90821973988761
30
0
41
1
10
12.1907249748511
20
7.85884082715185
30
0
41
1
10
12.1677100162499
20
7.81029214387763
30
0
0
SPLINE
5
12A
100
AcDbEntity
8
1
62
256
6
ByLayer
370
18
48
1
60
0
100
AcDbSpline
70
4
71
3
72
10
73
6
40
0
40
0
40
0
40
0
40
0.5
40
0.5
40
1
40
1
40
1
40
1
41
1
10
32.4067211612105
20
0.54758406496822
30
0
41
1
10
31.0686735229814
20
1.99341224915943
30
0
41
1
10
29.5620348438833
20
3.26745073879755
30
0
41
1
10
26.4719291979731
20
5.70118460078729
30
0
41
1
10
24.793883672748
20
6.71149748871991
30
0
41
1
10
23.0388896729453
20
7.60229992036273
30
0
0
SPLINE
5
12B
100
AcDbEntity
8
1
62
256
6
ByLayer
370
18
48
1
60
0
100
AcDbSpline
70
4
71
2
72
10
73
7
40
0
40
0
40
0
40
0.327809911400262
40
0.54634985233377
40
0.764889793267278
40
0.983429734200787
40
1
40
1
40
1
41
1.02275914691308
10
22.5289535164393
20
4.72045103784614
30
0
41
1.0218723728006
10
24.2972634203198
20
3.43902371068614
30
0
41
1.01941804929199
10
26.6924039474603
20
0.934374163978088
30
0
41
1.01588036664668
10
29.8731068976835
20
-2.67699684041561
30
0
41
1.01357557431911
10
31.6686977308497
20
-4.62898043799899
30
0
41
1.01317993487853
10
32.6327834465557
20
-5.59936092519152
30
0
41
1.01314306577281
10
32.7014294147976
20
-5.6661303218639
30
0
0
SPLINE
5
12C
100
AcDbEntity
8
1
62
256
6
ByLayer
370
18
48
1
60
0
100
AcDbSpline
70
4
71
3
72
8
73
4
40
0
40
0
40
0
40
0
40
1
40
1
40
1
40
1
41
1
10
22.095733497028
20
3.15157095985873
30
0
41
1
10
21.988135185725
20
3.21217985851044
30
0
41
1
10
21.878730151632
20
3.26880906978838
30
0
41
1
10
21.7674601392323
20
3.32131533138767
30
0
0
SPLINE
5
12D
100
AcDbEntity
8
1
62
256
6
ByLayer
370
18
48
1
60
0
100
AcDbSpline
70
4
71
1
72
4
73
2
40
0
40
0
40
1
40
1
41
1
10
22.5289535164393
20
4.72045103784615
30
0
41
1
10
23.0388896729453
20
7.60229992036273
30
0
0
SPLINE
5
12E
100
AcDbEntity
8
1
62
256
6
ByLayer
370
18
48
1
60
0
100
AcDbSpline
70
4
71
2
72
9
73
6
40
0
40
0
40
0
40
0.21557873706068
40
0.50117395656965
40
0.786769176078619
40
1
40
1
40
1
41
1.01987110935361
10
24.7873018519168
20
-2.51081594119825
30
0
41
1.01898440041077
10
25.7607671460334
20
-3.05135370774135
30
0
41
1.01588036664668
10
29.0328834298599
20
-4.90056065091283
30
0
41
1.01357557431911
10
31.1151187977128
20
-6.06788969587662
30
0
41
1.01293324595055
10
32.8847759873118
20
-7.07776983262856
30
0
41
1.0117874761266
10
33.6698413732316
20
-7.46671838348874
30
0
0
SPLINE
5
12F
100
AcDbEntity
8
1
62
256
6
ByLayer
370
18
48
1
60
0
100
AcDbSpline
70
4
71
3
72
10
73
6
40
0
40
0
40
0
40
0
40
0.5
40
0.5
40
1
40
1
40
1
40
1
41
1
10
32.679172314455
20
-12.8861843129215
30
0
41
1
10
32.6877900812732
20
-12.0952163747256
30
0
41
1
10
32.4961516665422
20
-11.3675709424789
30
0
41
1
10
32.0624445712959
20
-9.93697437172762
30
0
41
1
10
31.7630009912468
20
-9.25673240342536
30
0
41
1
10
31.2807055472204
20
-8.66306263359004
30
0
0
SPLINE
5
130
100
AcDbEntity
8
1
62
256
6
ByLayer
370
18
48
1
60
0
100
AcDbSpline
70
4
71
3
72
10
73
6
40
0
40
0
40
0
40
0
40
0.137559836752847
40
0.137559836752847
40
1
40
1
40
1
40
1
41
1
10
15.7100459357868
20
4.33710461301735
30
0
41
1
10
15.7310220401661
20
4.34090748670008
30
0
41
1
10
15.751921246277
20
4.34497173609347
30
0
41
1
10
15.9020587934535
20
4.37615959405997
30
0
41
1
10
16.0284310283957
20
4.4132049920083
30
0
41
1
10
16.1490616337622
20
4.45939197851797
30
0
0
SPLINE
5
131
100
AcDbEntity
8
1
62
256
6
ByLayer
370
18
48
1
60
0
100
AcDbSpline
70
4
71
3
72
8
73
4
40
0
40
0
40
0
40
0
40
1
40
1
40
1
40
1
41
1
10
15.181138687786
20
11.3831749721321
30
0
41
1
10
14.7282906968084
20
11.6036599899614
30
0
41
1
10
14.2007071226204
20
11.7967207344139
30
0
41
1
10
13.5962744497591
20
11.8716971659437
30
0
0
SPLINE
5
132
100
AcDbEntity
8
1
62
256
6
ByLayer
370
18
48
1
60
0
100
AcDbSpline
70
4
71
2
72
10
73
7
40
0
40
0
40
0
40
0.327809911387052
40
0.546349852311753
40
0.764889793236455
40
0.983429734161156
40
1
40
1
40
1
41
1.02275914691308
10
16.7744855201545
20
-7.41825618316923
30
0
41
1.0218723728006
10
18.8869852296324
20
-7.97363563122656
30
0
41
1.01941804929199
10
22.3440374636481
20
-8.23824573098524
30
0
41
1.01588036664668
10
27.160931954221
20
-8.39816821274806
30
0
41
1.01357557431911
10
29.8172458464691
20
-8.53450782457485
30
0
41
1.01317993487846
10
31.1850942813291
20
-8.65317492440261
30
0
41
1.01314306577263
10
31.2807055472209
20
-8.66306263359013
30
0
0
SPLINE
5
133
100
AcDbEntity
8
1
62
256
6
ByLayer
370
18
48
1
60
0
100
AcDbSpline
70
4
71
3
72
12
73
8
40
0
40
0
40
0
40
0
40
0.46569331173834
40
0.46569331173834
40
0.925991506701032
40
0.925991506701032
40
1
40
1
40
1
40
1
41
1
10
12.7160916799687
20
-1.97846342349831
30
0
41
1
10
12.6313406530673
20
-1.82791354853873
30
0
41
1
10
12.5207713972497
20
-1.67725527651305
30
0
41
1
10
12.2755266619319
20
-1.40773373073253
30
0
41
1
10
12.1381999331123
20
-1.28447637137742
30
0
41
1
10
11.974488947411
20
-1.15918283092603
30
0
41
1
10
11.951471379307
20
-1.14203239108085
30
0
41
1
10
11.9283448348652
20
-1.12523902440137
30
0
0
SPLINE
5
134
100
AcDbEntity
8
1
62
256
6
ByLayer
370
18
48
1
60
0
100
AcDbSpline
70
4
71
2
72
6
73
3
40
0
40
0
40
0
40
1
40
1
40
1
41
1
10
34.7496434144696
20
-0.951038052465378
30
0
41
1
10
35.921963741479
20
-2.39134548843663
30
0
41
1
10
36.9204115397782
20
-3.93812453721699
30
0
0
SPLINE
5
135
100
AcDbEntity
8
1
62
256
6
ByLayer
370
18
48
1
60
0
100
AcDbSpline
70
4
71
3
72
8
73
4
40
0
40
0
40
0
40
0
40
1
40
1
40
1
40
1
41
1
10
12.9010940865019
20
-2.3920019548583
30
0
41
1
10
12.8533352183244
20
-2.25108200926485
30
0
41
1
10
12.7911433021762
20
-2.11178348759603
30
0
41
1
10
12.7160916799687
20
-1.97846342349831
30
0
0
SPLINE
5
136
100
AcDbEntity
8
1
62
256
6
ByLayer
370
18
48
1
60
0
100
AcDbSpline
70
4
71
3
72
14
73
10
40
0
40
0
40
0
40
0
40
0.185244445916092
40
0.185244445916092
40
0.469711312964408
40
0.469711312964408
40
0.755916846591524
40
0.755916846591524
40
1
40
1
40
1
40
1
41
1
10
37.9125803167196
20
-11.1842057922281
30
0
41
1
10
37.7341919471136
20
-11.3143668865338
30
0
41
1
10
37.5440995594765
20
-11.4382549619057
30
0
41
1
10
37.0416939021869
20
-11.7252857148982
30
0
41
1
10
36.7111745168349
20
-11.877209554123
30
0
41
1
10
36.0438752217862
20
-12.1040807579998
30
0
41
1
10
35.6977263380911
20
-12.181227017829
30
0
41
1
10
35.0956346278437
20
-12.241113207895
30
0
41
1
10
34.8271676948543
20
-12.2370052672519
30
0
41
1
10
34.5838745412252
20
-12.2046421864822
30
0
0
SPLINE
5
137
100
AcDbEntity
8
1
62
256
6
ByLayer
370
18
48
1
60
0
100
AcDbSpline
70
4
71
3
72
8
73
4
40
0
40
0
40
0
40
0
40
1
40
1
40
1
40
1
41
1
10
11.9283448348654
20
-1.12523902440148
30
0
41
1
10
10.4835341039579
20
-1.2799761580917
30
0
41
1
10
9.13140588957333
20
-1.38258087667825
30
0
41
1
10
8.11924885308252
20
-1.37589900457425
30
0
0
SPLINE
5
138
100
AcDbEntity
8
1
62
256
6
ByLayer
370
18
48
1
60
0
100
AcDbSpline
70
4
71
3
72
8
73
4
40
0
40
0
40
0
40
0
40
1
40
1
40
1
40
1
41
1
10
34.75119482756
20
-0.94899798674399
30
0
41
1
10
34.5551516889237
20
-0.878319645470526
30
0
41
1
10
34.3589206223602
20
-0.808099741504265
30
0
41
1
10
34.1626212553052
20
-0.738048245633365
30
0
0
SPLINE
5
139
100
AcDbEntity
8
1
62
256
6
ByLayer
370
18
48
1
60
0
100
AcDbSpline
70
4
71
3
72
8
73
4
40
0
40
0
40
0
40
0
40
1
40
1
40
1
40
1
41
1
10
11.9283448348654
20
-1.12523902440148
30
0
41
1
10
11.7395541997135
20
-0.988148488902738
30
0
41
1
10
11.5406009672009
20
-0.871963828864608
30
0
41
1
10
11.3390293683075
20
-0.775265329313697
30
0
0
SPLINE
5
13A
100
AcDbEntity
8
1
62
256
6
ByLayer
370
18
48
1
60
0
100
AcDbSpline
70
4
71
3
72
8
73
4
40
0
40
0
40
0
40
0
40
1
40
1
40
1
40
1
41
1
10
19.660951992333
20
4.31533757904197
30
0
41
1
10
18.517408831199
20
4.85495445400789
30
0
41
1
10
17.2534414039802
20
4.88223635862875
30
0
41
1
10
16.1490616337622
20
4.45939197851797
30
0
0
SPLINE
5
13B
100
AcDbEntity
8
1
62
256
6
ByLayer
370
18
48
1
60
0
100
AcDbSpline
70
4
71
3
72
8
73
4
40
0
40
0
40
0
40
0
40
1
40
1
40
1
40
1
41
1
10
8.86997557487234
20
-3.68826408511791
30
0
41
1
10
9.87485533235031
20
-3.37133548540285
30
0
41
1
10
11.2621100106557
20
-2.73160221709602
30
0
41
1
10
12.7160916799687
20
-1.97846342349823
30
0
0
SPLINE
5
13C
100
AcDbEntity
8
1
62
256
6
ByLayer
370
18
48
1
60
0
100
AcDbSpline
70
4
71
3
72
8
73
4
40
0
40
0
40
0
40
0
40
1
40
1
40
1
40
1
41
1
10
16.7744855201546
20
-7.41825618316923
30
0
41
1
10
17.0339725449265
20
-7.12361952191935
30
0
41
1
10
17.3498231843861
20
-6.68203484074652
30
0
41
1
10
17.6952971338399
20
-6.1308872433907
30
0
0
SPLINE
5
13D
100
AcDbEntity
8
1
62
256
6
ByLayer
370
18
48
1
60
0
100
AcDbSpline
70
4
71
3
72
10
73
6
40
0
40
0
40
0
40
0
40
0.5
40
0.5
40
1
40
1
40
1
40
1
41
1
10
17.6952971338399
20
-6.13088724339067
30
0
41
1
10
18.7345311065008
20
-6.53129018535054
30
0
41
1
10
19.9024826539292
20
-6.59407472948982
30
0
41
1
10
22.0686326271717
20
-6.09777781057934
30
0
41
1
10
23.0870442786649
20
-5.52652220238008
30
0
41
1
10
23.7801165095207
20
-4.6354133838278
30
0
0
SPLINE
5
13E
100
AcDbEntity
8
1
62
256
6
ByLayer
370
18
48
1
60
0
100
AcDbSpline
70
4
71
3
72
8
73
4
40
0
40
0
40
0
40
0
40
1
40
1
40
1
40
1
41
1
10
14.5507338379456
20
4.40653426003655
30
0
41
1
10
14.3257183712598
20
4.4672106727345
30
0
41
1
10
14.1105947060527
20
4.54928476890399
30
0
41
1
10
13.9090231071592
20
4.6459832684549
30
0
0
SPLINE
5
13F
100
AcDbEntity
8
1
62
256
6
ByLayer
370
18
48
1
60
0
100
AcDbSpline
70
4
71
3
72
14
73
10
40
0
40
0
40
0
40
0
40
0.124999999999986
40
0.124999999999986
40
0.249999999999973
40
0.249999999999973
40
0.499999999999973
40
0.499999999999973
40
1
40
1
40
1
40
1
41
1
10
31.2807055472205
20
-8.66306263359007
30
0
41
1
10
31.2203775107402
20
-8.6176201620035
30
0
41
1
10
31.1595710730796
20
-8.5637766646513
30
0
41
1
10
31.1966827210234
20
-8.40976863473668
30
0
41
1
10
31.3284217736625
20
-8.3394853400417
30
0
41
1
10
31.6672250338216
20
-8.22825610353581
30
0
41
1
10
31.8899953056453
20
-8.20831451061571
30
0
41
1
10
32.5273396828006
20
-8.17383332175746
30
0
41
1
10
32.9174014555946
20
-8.20598590614219
30
0
41
1
10
33.294158977536
20
-8.25919799826002
30
0
0
SPLINE
5
140
100
AcDbEntity
8
1
62
256
6
ByLayer
370
18
48
1
60
0
100
AcDbSpline
70
4
71
3
72
8
73
4
40
0
40
0
40
0
40
0
40
1
40
1
40
1
40
1
41
1
10
38.7469185485721
20
-10.1005752516168
30
0
41
1
10
38.5126223594588
20
-10.0655032238495
30
0
41
1
10
38.2771883982044
20
-10.0182221030652
30
0
41
1
10
38.040591487556
20
-9.95846171968145
30
0
0
SPLINE
5
141
100
AcDbEntity
8
1
62
256
6
ByLayer
370
18
48
1
60
0
100
AcDbSpline
70
4
71
3
72
8
73
4
40
0
40
0
40
0
40
0
40
1
40
1
40
1
40
1
41
1
10
22.0957334971042
20
3.15157096008309
30
0
41
1
10
22.3089983329923
20
3.77904952462637
30
0
41
1
10
22.4575985657642
20
4.31719627302615
30
0
41
1
10
22.5289535164393
20
4.72045103784615
30
0
0
SPLINE
5
142
100
AcDbEntity
8
1
62
256
6
ByLayer
370
18
48
1
60
0
100
AcDbSpline
70
4
71
3
72
8
73
4
40
0
40
0
40
0
40
0
40
1
40
1
40
1
40
1
41
1
10
12.355337654427
20
7.55987781353332
30
0
41
1
10
12.989614532809
20
6.75719236785704
30
0
41
1
10
13.759589740909
20
5.62955887174112
30
0
41
1
10
14.5507338379456
20
4.40653426003658
30
0
0
SPLINE
5
143
100
AcDbEntity
8
1
62
256
6
ByLayer
370
18
48
1
60
0
100
AcDbSpline
70
4
71
3
72
8
73
4
40
0
40
0
40
0
40
0
40
1
40
1
40
1
40
1
41
1
10
28.4451754402094
20
-12.79865938228
30
0
41
1
10
28.6253582098361
20
-12.9027078797326
30
0
41
1
10
28.8056282017436
20
-13.006596719263
30
0
41
1
10
28.9861343466608
20
-13.1100494226429
30
0
0
SPLINE
5
144
100
AcDbEntity
8
1
62
256
6
ByLayer
370
18
48
1
60
0
100
AcDbSpline
70
4
71
2
72
9
73
6
40
0
40
0
40
0
40
0.215578737053014
40
0.501173956564866
40
0.786769176076718
40
1
40
1
40
1
41
1.01987110935352
10
23.7801165095208
20
-4.63541338382782
30
0
41
1.01898440041071
10
24.8184953975654
20
-5.03901979332314
30
0
41
1.01588036664668
10
28.3373150912763
20
-6.36782059892719
30
0
41
1.01357557431911
10
30.5729104615288
20
-7.21164586055619
30
0
41
1.01293324595055
10
32.4890128649166
20
-7.91260854834001
30
0
41
1.01178747612661
10
33.2941589794868
20
-8.25919799909981
30
0
0
SPLINE
5
145
100
AcDbEntity
8
1
62
256
6
ByLayer
370
18
48
1
60
0
100
AcDbSpline
70
4
71
3
72
12
73
8
40
0
40
0
40
0
40
0
40
0.357928014296216
40
0.357928014296216
40
0.886263242629126
40
0.886263242629126
40
1
40
1
40
1
40
1
41
1
10
7.81027245016588
20
-1.38146265998915
30
0
41
1
10
7.75803735024238
20
-1.49164948960418
30
0
41
1
10
7.69878129293988
20
-1.59920876693314
30
0
41
1
10
7.55260708093829
20
-1.84061532240611
30
0
41
1
10
7.46269400846825
20
-1.96896504666878
30
0
41
1
10
7.35715104292649
20
-2.10693876711642
30
0
41
1
10
7.33838696279685
20
-2.13094590746266
30
0
41
1
10
7.3197166720513
20
-2.1543636189912
30
0
0
SPLINE
5
146
100
AcDbEntity
8
1
62
256
6
ByLayer
370
18
48
1
60
0
100
AcDbSpline
70
4
71
3
72
8
73
4
40
0
40
0
40
0
40
0
40
1
40
1
40
1
40
1
41
1
10
15.7100459357868
20
4.33710461301735
30
0
41
1
10
15.3765024758565
20
5.94576004225453
30
0
41
1
10
15.0013727544738
20
7.44474846765331
30
0
41
1
10
14.6244435711571
20
8.45044313589761
30
0
0
SPLINE
5
147
100
AcDbEntity
8
1
62
256
6
ByLayer
370
18
48
1
60
0
100
AcDbSpline
70
4
71
3
72
10
73
6
40
0
40
0
40
0
40
0
40
0.495114567541133
40
0.495114567541133
40
1
40
1
40
1
40
1
41
1
10
32.4067211612105
20
0.547584064968305
30
0
41
1
10
32.6739153568257
20
0.258867215406724
30
0
41
1
10
32.9612125078008
20
-0.0096438344921523
30
0
41
1
10
33.5518246542289
20
-0.45344694247251
30
0
41
1
10
33.8641858461217
20
-0.631548427789852
30
0
41
1
10
34.1626212553051
20
-0.73804824563328
30
0
0
SPLINE
5
148
100
AcDbEntity
8
1
62
256
6
ByLayer
370
18
48
1
60
0
100
AcDbSpline
70
4
71
3
72
12
73
8
40
0
40
0
40
0
40
0
40
0.250000000000001
40
0.250000000000001
40
0.500000000000001
40
0.500000000000001
40
1
40
1
40
1
40
1
41
1
10
15.4536290593197
20
11.14390325248
30
0
41
1
10
14.979036354937
20
11.2593263240538
30
0
41
1
10
14.5351579941175
20
11.2278750711674
30
0
41
1
10
13.8515578343761
20
10.9957906644739
30
0
41
1
10
13.5991350886359
20
10.8079317903249
30
0
41
1
10
12.956607957169
20
10.1345591125649
30
0
41
1
10
12.6438246269139
20
9.5242879914781
30
0
41
1
10
12.4597041497548
20
8.6881335765471
30
0
0
SPLINE
5
149
100
AcDbEntity
8
1
62
256
6
ByLayer
370
18
48
1
60
0
100
AcDbSpline
70
4
71
3
72
12
73
8
40
0
40
0
40
0
40
0
40
0.295831841262312
40
0.295831841262312
40
0.591663914161891
40
0.591663914161891
40
1
40
1
40
1
40
1
41
1
10
23.7801165095207
20
-4.63541338382782
30
0
41
1
10
23.9234462624264
20
-4.45111564694278
30
0
41
1
10
24.0552418754799
20
-4.25682470658623
30
0
41
1
10
24.2922804004687
20
-3.85367324295839
30
0
41
1
10
24.3980661786574
20
-3.6438882715274
30
0
41
1
10
24.6158571523046
20
-3.13249610075977
30
0
41
1
10
24.7159854847268
20
-2.823856491459
30
0
41
1
10
24.7873018519167
20
-2.51081594119825
30
0
0
SPLINE
5
14A
100
AcDbEntity
8
1
62
256
6
ByLayer
370
18
48
1
60
0
100
AcDbSpline
70
4
71
3
72
26
73
22
40
0
40
0
40
0
40
0
40
0.305559650062828
40
0.305559650062828
40
0.592938506760054
40
0.592938506760054
40
0.736855759596365
40
0.736855759596365
40
0.794364492020942
40
0.794364492020942
40
0.820930548617516
40
0.820930548617516
40
0.847991021748972
40
0.847991021748972
40
0.871122963339849
40
0.871122963339849
40
0.898335682818848
40
0.898335682818848
40
0.945305435562328
40
0.945305435562328
40
1
40
1
40
1
40
1
41
1
10
33.6698413713294
20
-7.46671838254633
30
0
41
1
10
33.4972481744798
20
-7.31295914511171
30
0
41
1
10
33.3267756011665
20
-7.14734511286395
30
0
41
1
10
33.0073774687951
20
-6.79514796527087
30
0
41
1
10
32.8556045974852
20
-6.60999321317877
30
0
41
1
10
32.6508451437378
20
-6.29493245130237
30
0
41
1
10
32.584688110914
20
-6.18213180374278
30
0
41
1
10
32.5119791572391
20
-6.00879482288985
30
0
41
1
10
32.4931841569159
20
-5.9563775330829
30
0
41
1
10
32.4754493909629
20
-5.87818644677304
30
0
41
1
10
32.4712747271852
20
-5.85283195349615
30
0
41
1
10
32.4680630141344
20
-5.80345247110191
30
0
41
1
10
32.4692240139613
20
-5.77878575529633
30
0
41
1
10
32.4778989050335
20
-5.73929849521016
30
0
41
1
10
32.4845944566292
20
-5.72312201654799
30
0
41
1
10
32.5030279709552
20
-5.69509695471319
30
0
41
1
10
32.515618895844
20
-5.68392696098539
30
0
41
1
10
32.5523563221051
20
-5.6623503780568
30
0
41
1
10
32.5788220510438
20
-5.65726962036655
30
0
41
1
10
32.6367772847876
20
-5.65493389329612
30
0
41
1
10
32.6690711295668
20
-5.65920593346047
30
0
41
1
10
32.7014294147974
20
-5.66613032186359
30
0
0
SPLINE
5
14B
100
AcDbEntity
8
1
62
256
6
ByLayer
370
18
48
1
60
0
100
AcDbSpline
70
4
71
3
72
8
73
4
40
0
40
0
40
0
40
0
40
1
40
1
40
1
40
1
41
1
10
35.1897713526527
20
-8.65130394084466
30
0
41
1
10
34.6788743748993
20
-8.31054786385511
30
0
41
1
10
34.1688712532458
20
-7.91091961724433
30
0
41
1
10
33.6698413713295
20
-7.46671838254633
30
0
0
SPLINE
5
14C
100
AcDbEntity
8
1
62
256
6
ByLayer
370
18
48
1
60
0
100
AcDbSpline
70
4
71
3
72
14
73
10
40
0
40
0
40
0
40
0
40
0.27225500321982
40
0.27225500321982
40
0.545341763696499
40
0.545341763696499
40
0.807341289944272
40
0.807341289944272
40
1
40
1
40
1
40
1
41
1
10
37.6008257411946
20
-5.84056346709971
30
0
41
1
10
37.8019400374069
20
-6.02275921448356
30
0
41
1
10
37.9956905557212
20
-6.25238731013735
30
0
41
1
10
38.3336757936497
20
-6.77879202942705
30
0
41
1
10
38.4820720105153
20
-7.0828863699457
30
0
41
1
10
38.7083303178844
20
-7.70454941883324
30
0
41
1
10
38.7918347527961
20
-8.02828516280482
30
0
41
1
10
38.8866733677719
20
-8.58321796374537
30
0
41
1
10
38.9120986280312
20
-8.81951055878096
30
0
41
1
10
38.9240489311733
20
-9.05057304250769
30
0
0
SPLINE
5
14D
100
AcDbEntity
8
1
62
256
6
ByLayer
370
18
48
1
60
0
100
AcDbSpline
70
4
71
3
72
12
73
8
40
0
40
0
40
0
40
0
40
0.470394739545286
40
0.470394739545286
40
0.888179192190577
40
0.888179192190577
40
1
40
1
40
1
40
1
41
1
10
14.5507338379456
20
4.40653426003658
30
0
41
1
10
14.7239187757867
20
4.35983417796541
30
0
41
1
10
14.9077669114503
20
4.32551426259931
30
0
41
1
10
15.2562777801657
20
4.29712004294319
30
0
41
1
10
15.4244105650195
20
4.29904185526235
30
0
41
1
10
15.6259028080198
20
4.32317293062783
30
0
41
1
10
15.6683859998036
20
4.32955185339571
30
0
41
1
10
15.7100459357868
20
4.33710461301735
30
0
0
SPLINE
5
14E
100
AcDbEntity
8
1
62
256
6
ByLayer
370
18
48
1
60
0
100
AcDbSpline
70
4
71
3
72
10
73
6
40
0
40
0
40
0
40
0
40
0.5
40
0.5
40
1
40
1
40
1
40
1
41
1
10
32.7014294147974
20
-5.66613032186362
30
0
41
1
10
33.4765063691873
20
-5.6409985224449
30
0
41
1
10
34.2053254043709
20
-5.41886353563336
30
0
41
1
10
35.6081814420227
20
-4.8035607500332
30
0
41
1
10
36.3031563722166
20
-4.4687637807267
30
0
41
1
10
36.9205627376782
20
-3.93922404332557
30
0
0
SPLINE
5
14F
100
AcDbEntity
8
1
62
256
6
ByLayer
370
18
48
1
60
0
100
AcDbSpline
70
4
71
3
72
8
73
4
40
0
40
0
40
0
40
0
40
1
40
1
40
1
40
1
41
1
10
17.6952971314128
20
-6.13088724244872
30
0
41
1
10
17.5801514718345
20
-6.08619902711797
30
0
41
1
10
17.4669075658215
20
-6.03766768934548
30
0
41
1
10
17.3556375542036
20
-5.98516142811513
30
0
0
SPLINE
5
150
100
AcDbEntity
8
1
62
256
6
ByLayer
370
18
48
1
60
0
100
AcDbSpline
70
4
71
3
72
10
73
6
40
0
40
0
40
0
40
0
40
0.5
40
0.5
40
1
40
1
40
1
40
1
41
1
10
24.7873018519167
20
-2.51081594119825
30
0
41
1
10
25.0377416298729
20
-1.41134504254654
30
0
41
1
10
24.8361962901365
20
-0.255951737282771
30
0
41
1
10
23.8527187108891
20
1.73839661145203
30
0
41
1
10
23.0655628144691
20
2.60455234149276
30
0
41
1
10
22.0957334970279
20
3.15157095985876
30
0
0
SPLINE
5
151
100
AcDbEntity
8
1
62
256
6
ByLayer
370
18
48
1
60
0
100
AcDbSpline
70
4
71
3
72
12
73
8
40
0
40
0
40
0
40
0
40
0.5
40
0.5
40
0.75
40
0.75
40
1
40
1
40
1
40
1
41
1
10
7.31971667205136
20
-2.1543636189902
30
0
41
1
10
6.79501988867543
20
-2.81247859322835
30
0
41
1
10
6.53162109142062
20
-3.41871443616276
30
0
41
1
10
6.43018045169629
20
-4.31183881946305
30
0
41
1
10
6.44905032828183
20
-4.61799878217363
30
0
41
1
10
6.7102939440602
20
-5.27640364347209
30
0
41
1
10
6.97043937183525
20
-5.63281844862189
30
0
41
1
10
7.36338571700617
20
-5.92198282813038
30
0
0
SPLINE
5
152
100
AcDbEntity
8
1
62
256
6
ByLayer
370
18
48
1
60
0
100
AcDbSpline
70
4
71
3
72
10
73
6
40
0
40
0
40
0
40
0
40
0.5
40
0.5
40
1
40
1
40
1
40
1
41
1
10
14.9200687654976
20
-9.52386883042274
30
0
41
1
10
16.7231126569076
20
-10.3120558431824
30
0
41
1
10
18.570411933085
20
-10.9654254205412
30
0
41
1
10
22.418337602022
20
-11.8050763611618
30
0
41
1
10
24.3596599888786
20
-12.1585196576009
30
0
41
1
10
26.328877300789
20
-12.2732652653842
30
0
0
SPLINE
5
153
100
AcDbEntity
8
1
62
256
6
ByLayer
370
18
48
1
60
0
100
AcDbSpline
70
4
71
3
72
10
73
6
40
0
40
0
40
0
40
0
40
0.493064313563142
40
0.493064313563142
40
1
40
1
40
1
40
1
41
1
10
28.4451754402093
20
-12.79865938228
30
0
41
1
10
28.1774686546378
20
-12.6440691911407
30
0
41
1
10
27.8489403997864
20
-12.5216388449944
30
0
41
1
10
27.1311358721961
20
-12.348775990543
30
0
41
1
10
26.7311863141048
20
-12.296707671649
30
0
41
1
10
26.3288773007891
20
-12.2732652653841
30
0
0
SPLINE
5
154
100
AcDbEntity
8
1
62
256
6
ByLayer
370
18
48
1
60
0
100
AcDbSpline
70
4
71
3
72
8
73
4
40
0
40
0
40
0
40
0
40
1
40
1
40
1
40
1
41
1
10
38.040591487556
20
-9.95846171968157
30
0
41
1
10
38.2396511124839
20
-10.0973992536791
30
0
41
1
10
38.4283692729691
20
-10.243290468029
30
0
41
1
10
38.606903382256
20
-10.3959288988185
30
0
0
SPLINE
5
155
100
AcDbEntity
8
1
62
256
6
ByLayer
370
18
48
1
60
0
100
AcDbSpline
70
4
71
3
72
8
73
4
40
0
40
0
40
0
40
0
40
1
40
1
40
1
40
1
41
1
10
12.9010940865019
20
-2.3920019548583
30
0
41
1
10
13.2807293071415
20
-3.51217453598352
30
0
41
1
10
14.1047495898747
20
-4.45112750285779
30
0
41
1
10
15.2491294073043
20
-4.99113918046083
30
0
0
SPLINE
5
156
100
AcDbEntity
8
1
62
256
6
ByLayer
370
18
48
1
60
0
100
AcDbSpline
70
4
71
3
72
10
73
6
40
0
40
0
40
0
40
0
40
0.76956148128345
40
0.76956148128345
40
1
40
1
40
1
40
1
41
1
10
17.9259170528319
20
-2.1460531100355
30
0
41
1
10
17.9387105248239
20
-2.14599208179351
30
0
41
1
10
17.9521994767397
20
-2.14664542760693
30
0
41
1
10
17.9706717992035
20
-2.14870426198789
30
0
41
1
10
17.9750038806174
20
-2.14926389134206
30
0
41
1
10
17.9794029039343
20
-2.1499144716849
30
0
0
SPLINE
5
157
100
AcDbEntity
8
1
62
256
6
ByLayer
370
18
48
1
60
0
100
AcDbSpline
70
4
71
3
72
10
73
6
40
0
40
0
40
0
40
0
40
0.276054056492214
40
0.276054056492214
40
1
40
1
40
1
40
1
41
1
10
17.8048035954033
20
0.122010784165497
30
0
41
1
10
17.7997567175125
20
0.119737994698852
30
0
41
1
10
17.7947869164265
20
0.117582996137088
30
0
41
1
10
17.7771433171539
20
0.110208990537842
30
0
41
1
10
17.7649033845304
20
0.105622316952861
30
0
41
1
10
17.7531783028036
20
0.101662142491989
30
0
0
SPLINE
5
158
100
AcDbEntity
8
1
62
256
6
ByLayer
370
18
48
1
60
0
100
AcDbSpline
70
4
71
3
72
10
73
6
40
0
40
0
40
0
40
0
40
0.537616842494921
40
0.537616842494921
40
1
40
1
40
1
40
1
41
1
10
20.0600209337296
20
-0.696936793155004
30
0
41
1
10
20.0629310502694
20
-0.686232896518504
30
0
41
1
10
20.0662377870179
20
-0.675993954150101
30
0
41
1
10
20.0729454135294
20
-0.657801714421623
30
0
41
1
10
20.0762756824454
20
-0.649709454842764
30
0
41
1
10
20.0797865701929
20
-0.641921026991497
30
0
0
SPLINE
5
159
100
AcDbEntity
8
1
62
256
6
ByLayer
370
18
48
1
60
0
100
AcDbSpline
70
4
71
3
72
10
73
6
40
0
40
0
40
0
40
0
40
0.769561481283334
40
0.769561481283334
40
1
40
1
40
1
40
1
41
1
10
19.4673484892024
20
0.251044771660389
30
0
41
1
10
19.4514364251965
20
0.252784263357142
30
0
41
1
10
19.4350033873813
20
0.255137377957112
30
0
41
1
10
19.4130795632083
20
0.259188937779015
30
0
41
1
10
19.4079763594979
20
0.260193774798637
30
0
41
1
10
19.4028357973946
20
0.261272482759381
30
0
0
SPLINE
5
15A
100
AcDbEntity
8
1
62
256
6
ByLayer
370
18
48
1
60
0
100
AcDbSpline
70
4
71
3
72
10
73
6
40
0
40
0
40
0
40
0
40
0.230438518716649
40
0.230438518716649
40
1
40
1
40
1
40
1
41
1
10
19.1737051784681
20
0.369394985474145
30
0
41
1
10
19.1703801264672
20
0.372311044289859
30
0
41
1
10
19.1671668013876
20
0.375230623443372
30
0
41
1
10
19.1537119858476
20
0.387873589592402
30
0
41
1
10
19.1445282596024
20
0.397608552328563
30
0
41
1
10
19.1363321019711
20
0.407245284689736
30
0
0
SPLINE
5
15B
100
AcDbEntity
8
1
62
256
6
ByLayer
370
18
48
1
60
0
100
AcDbSpline
70
4
71
3
72
10
73
6
40
0
40
0
40
0
40
0
40
0.230438518716681
40
0.230438518716681
40
1
40
1
40
1
40
1
41
1
10
18.2085335228608
20
-2.25803697439963
30
0
41
1
10
18.2126001136481
20
-2.26138116083328
30
0
41
1
10
18.2165845610242
20
-2.26474594765224
30
0
41
1
10
18.2334908782734
20
-2.27938163924225
30
0
41
1
10
18.2456186904179
20
-2.29081637076493
30
0
41
1
10
18.2569334400633
20
-2.30225362306481
30
0
0
SPLINE
5
15C
100
AcDbEntity
8
1
62
256
6
ByLayer
370
18
48
1
60
0
100
AcDbSpline
70
4
71
3
72
10
73
6
40
0
40
0
40
0
40
0
40
0.201157530231563
40
0.201157530231563
40
1
40
1
40
1
40
1
41
1
10
19.3373236900119
20
-2.20810221537479
30
0
41
1
10
19.339018773214
20
-2.20469344434963
30
0
41
1
10
19.3407796795364
20
-2.2012764112101
30
0
41
1
10
19.3498425228163
20
-2.18432479015004
30
0
41
1
10
19.3581880021994
20
-2.17063623786584
30
0
41
1
10
19.3678611932788
20
-2.15700650679852
30
0
0
SPLINE
5
15D
100
AcDbEntity
8
1
62
256
6
ByLayer
370
18
48
1
60
0
100
AcDbSpline
70
4
71
3
72
10
73
6
40
0
40
0
40
0
40
0
40
0.355593196477927
40
0.355593196477927
40
1
40
1
40
1
40
1
41
1
10
20.1080394081935
20
-1.00955327453329
30
0
41
1
10
20.1043804165274
20
-1.00314601319289
30
0
41
1
10
20.1008024461976
20
-0.996568894925559
30
0
41
1
10
20.0910472969275
20
-0.977624246681643
30
0
41
1
10
20.0850767998714
20
-0.964819292451494
30
0
41
1
10
20.0795776400086
20
-0.95141302957586
30
0
0
SPLINE
5
15E
100
AcDbEntity
8
1
62
256
6
ByLayer
370
18
48
1
60
0
100
AcDbSpline
70
4
71
3
72
10
73
6
40
0
40
0
40
0
40
0
40
0.355593196477726
40
0.355593196477726
40
1
40
1
40
1
40
1
41
1
10
17.2852261338397
20
-0.885455063841164
30
0
41
1
10
17.2874398272459
20
-0.891027881842206
30
0
41
1
10
17.2896115250923
20
-0.89679308831262
30
0
41
1
10
17.2955587879675
20
-0.913539252321414
30
0
41
1
10
17.2992299614498
20
-0.925016691467278
30
0
41
1
10
17.3026610613206
20
-0.937228959349852
30
0
0
SPLINE
5
15F
100
AcDbEntity
8
1
62
256
6
ByLayer
370
18
48
1
60
0
100
AcDbSpline
70
4
71
3
72
10
73
6
40
0
40
0
40
0
40
0
40
0.27605405649235
40
0.27605405649235
40
1
40
1
40
1
40
1
41
1
10
19.5774351059255
20
-2.01065277309095
30
0
41
1
10
19.5833722929093
20
-2.00889400381882
30
0
41
1
10
19.5892750934635
20
-2.00727767275112
30
0
41
1
10
19.6104147257721
20
-2.00192210276632
30
0
41
1
10
19.6254308876428
20
-1.99893828588461
30
0
41
1
10
19.6400872392325
20
-1.99667048086803
30
0
0
SPLINE
5
160
100
AcDbEntity
8
1
62
256
6
ByLayer
370
18
48
1
60
0
100
AcDbSpline
70
4
71
3
72
10
73
6
40
0
40
0
40
0
40
0
40
0.537616842495335
40
0.537616842495335
40
1
40
1
40
1
40
1
41
1
10
17.3222177675996
20
-1.19170519577062
30
0
41
1
10
17.3210350396718
20
-1.20340640068721
30
0
41
1
10
17.3196169805649
20
-1.21473577160052
30
0
41
1
10
17.3166340371545
20
-1.23507845812003
30
0
41
1
10
17.3151142262051
20
-1.24421598609331
30
0
41
1
10
17.313478971843
20
-1.25308731138455
30
0
0
SPLINE
5
161
100
AcDbEntity
8
1
62
256
6
ByLayer
370
18
48
1
60
0
100
AcDbSpline
70
4
71
3
72
10
73
6
40
0
40
0
40
0
40
0
40
0.201157530231856
40
0.201157530231856
40
1
40
1
40
1
40
1
41
1
10
18.0559418520231
20
0.313093876999318
30
0
41
1
10
18.0534281535904
20
0.310157733697906
30
0
41
1
10
18.0508612787418
20
0.307206026703966
30
0
41
1
10
18.0378786875922
20
0.292517473131653
30
0
41
1
10
18.0266143568139
20
0.280514120486174
30
0
41
1
10
18.0143775080504
20
0.268364517872897
30
0
0
INSERT
5
174
100
AcDbEntity
8
SK2
62
256
6
ByLayer
370
25
48
1
60
0
100
AcDbBlockReference
2
DimnDraft3D11
10
0
20
0
30
0
41
1
42
1
43
1
50
0
210
0
220
0
230
1
0
LINE
5
72
100
AcDbEntity
8
1
62
256
6
ByLayer
370
18
48
1
60
0
100
AcDbLine
10
6.857338
20
-5.690113
30
0
11
7.737317
21
-6.155185
31
0
39
0
210
0
220
0
230
1
0
LINE
5
74
100
AcDbEntity
8
1
62
256
6
ByLayer
370
18
48
1
60
0
100
AcDbLine
10
11.475498
20
-0.843971
30
0
11
11.072224
21
-0.63084
31
0
39
0
210
0
220
0
230
1
0
LINE
5
75
100
AcDbEntity
8
1
62
256
6
ByLayer
370
18
48
1
60
0
100
AcDbLine
10
15.814652
20
-5.057094
30
0
11
16.024188
21
-5.17807
31
0
39
0
210
0
220
0
230
1
0
LINE
5
76
100
AcDbEntity
8
1
62
256
6
ByLayer
370
18
48
1
60
0
100
AcDbLine
10
21.024188
20
3.482184
30
0
11
20.814652
21
3.60316
31
0
39
0
210
0
220
0
230
1
0
LINE
5
77
100
AcDbEntity
8
1
62
256
6
ByLayer
370
18
48
1
60
0
100
AcDbLine
10
28.226533
20
-19.551664
30
0
11
28.720783
21
-19.837019
31
0
39
0
210
0
220
0
230
1
0
LINE
5
78
100
AcDbEntity
8
1
62
256
6
ByLayer
370
18
48
1
60
0
100
AcDbLine
10
41.807976
20
2.575907
30
0
11
41.343175
21
2.84426
31
0
39
0
210
0
220
0
230
1
0
LINE
5
79
100
AcDbEntity
8
80
62
256
6
ByLayer
370
18
48
1
60
0
100
AcDbLine
10
0
20
0
30
0
11
-5
21
0
31
0
39
0
210
0
220
0
230
1
0
LINE
5
7A
100
AcDbEntity
8
81
62
256
6
ByLayer
370
18
48
1
60
0
100
AcDbLine
10
46.509524
20
-15.425
30
0
11
56.509524
21
-15.425
31
0
39
0
210
0
220
0
230
1
0
LINE
5
7B
100
AcDbEntity
8
1
62
256
6
ByLayer
370
18
48
1
60
0
100
AcDbLine
10
19.402836
20
0.261272
30
0
11
19.379333
21
0.274842
31
0
39
0
210
0
220
0
230
1
0
LINE
5
7C
100
AcDbEntity
8
1
62
256
6
ByLayer
370
18
48
1
60
0
100
AcDbLine
10
28.172167
20
-19.112147
30
0
11
26.42179
21
-12.282011
31
0
39
0
210
0
220
0
230
1
0
LINE
5
7D
100
AcDbEntity
8
1
62
256
6
ByLayer
370
18
48
1
60
0
100
AcDbLine
10
32.514173
20
0.4401
30
0
11
40.918395
21
2.692004
31
0
39
0
210
0
220
0
230
1
0
LINE
5
7E
100
AcDbEntity
8
1
62
256
6
ByLayer
370
18
48
1
60
0
100
AcDbLine
10
28.172167
20
-19.112147
30
0
11
28.108496
21
-19.075387
31
0
39
0
210
0
220
0
230
1
0
LINE
5
7F
100
AcDbEntity
8
1
62
256
6
ByLayer
370
18
48
1
60
0
100
AcDbLine
10
40.870831
20
2.719466
30
0
11
40.918395
21
2.692004
31
0
39
0
210
0
220
0
230
1
0
LINE
5
80
100
AcDbEntity
8
1
62
256
6
ByLayer
370
18
48
1
60
0
100
AcDbLine
10
20.563136
20
15.69744
30
0
11
17.890907
21
10.060533
31
0
39
0
210
0
220
0
230
1
0
LINE
5
81
100
AcDbEntity
8
1
62
256
6
ByLayer
370
18
48
1
60
0
100
AcDbLine
10
9.751331
20
-7.109418
30
0
11
2.956311
21
-21.443108
31
0
39
0
210
0
220
0
230
1
0
LINE
5
82
100
AcDbEntity
8
1
62
256
6
ByLayer
370
18
48
1
60
0
100
AcDbLine
10
16.17447
20
17.045275
30
0
11
13.713668
21
11.854361
31
0
39
0
210
0
220
0
230
1
0
LINE
5
83
100
AcDbEntity
8
1
62
256
6
ByLayer
370
18
48
1
60
0
100
AcDbLine
10
5.760273
20
-4.922852
30
0
11
0.941729
21
-15.087284
31
0
39
0
210
0
220
0
230
1
0
LINE
5
84
100
AcDbEntity
8
1
62
256
6
ByLayer
370
18
48
1
60
0
100
AcDbLine
10
26.242016
20
-12.263654
30
0
11
28.133456
21
-19.64423
31
0
39
0
210
0
220
0
230
1
0
LINE
5
85
100
AcDbEntity
8
1
62
256
6
ByLayer
370
18
48
1
60
0
100
AcDbLine
10
32.373095
20
0.580557
30
0
11
41.372628
21
2.949932
31
0
39
0
210
0
220
0
230
1
0
LINE
5
86
100
AcDbEntity
8
1
62
256
6
ByLayer
370
18
48
1
60
0
100
AcDbLine
10
32.470207
20
0.483996
30
0
11
32.86884
21
0.588947
31
0
39
0
210
0
220
0
230
1
0
LINE
5
87
100
AcDbEntity
8
1
62
256
6
ByLayer
370
18
48
1
60
0
100
AcDbLine
10
41.149073
20
2.768946
30
0
11
41.335888
21
2.818131
31
0
39
0
210
0
220
0
230
1
0
LINE
5
88
100
AcDbEntity
8
1
62
256
6
ByLayer
370
18
48
1
60
0
100
AcDbLine
10
26.269282
20
-12.266607
30
0
11
26.353533
21
-12.595366
31
0
39
0
210
0
220
0
230
1
0
LINE
5
89
100
AcDbEntity
8
1
62
256
6
ByLayer
370
18
48
1
60
0
100
AcDbLine
10
15.271271
20
17.329545
30
0
11
12.649139
21
11.798313
31
0
39
0
210
0
220
0
230
1
0
LINE
5
8A
100
AcDbEntity
8
1
62
256
6
ByLayer
370
18
48
1
60
0
100
AcDbLine
10
5.128281
20
-4.066489
30
0
11
0.712717
21
-13.380858
31
0
39
0
210
0
220
0
230
1
0
LINE
5
8B
100
AcDbEntity
8
1
62
256
6
ByLayer
370
18
48
1
60
0
100
AcDbLine
10
16.149005
20
17.059978
30
0
11
13.683243
21
11.858601
31
0
39
0
210
0
220
0
230
1
0
LINE
5
8C
100
AcDbEntity
8
1
62
256
6
ByLayer
370
18
48
1
60
0
100
AcDbLine
10
5.737534
20
-4.902398
30
0
11
0.888513
21
-15.13112
31
0
39
0
210
0
220
0
230
1
0
LINE
5
8D
100
AcDbEntity
8
1
62
256
6
ByLayer
370
18
48
1
60
0
100
AcDbLine
10
5.66617
20
19.938668
30
0
11
1.354164
21
19.941091
31
0
39
0
210
0
220
0
230
1
0
LINE
5
8E
100
AcDbEntity
8
1
62
256
6
ByLayer
370
18
48
1
60
0
100
AcDbLine
10
28.133456
20
-19.64423
30
0
11
28.229741
21
-19.548472
31
0
39
0
210
0
220
0
230
1
0
LINE
5
8F
100
AcDbEntity
8
1
62
256
6
ByLayer
370
18
48
1
60
0
100
AcDbLine
10
1.580108
20
-21.443108
30
0
11
0.772801
21
-21.443108
31
0
39
0
210
0
220
0
230
1
0
LINE
5
90
100
AcDbEntity
8
1
62
256
6
ByLayer
370
18
48
1
60
0
100
AcDbLine
10
0.5
20
19.927182
30
0
11
0
21
19.925
31
0
39
0
210
0
220
0
230
1
0
LINE
5
91
100
AcDbEntity
8
1
62
256
6
ByLayer
370
18
48
1
60
0
100
AcDbLine
10
1.354164
20
19.941091
30
0
11
0.712717
21
-13.380858
31
0
39
0
210
0
220
0
230
1
0
LINE
5
92
100
AcDbEntity
8
1
62
256
6
ByLayer
370
18
48
1
60
0
100
AcDbLine
10
16.149005
20
17.059978
30
0
11
16.17447
21
17.045275
31
0
39
0
210
0
220
0
230
1
0
LINE
5
93
100
AcDbEntity
8
1
62
256
6
ByLayer
370
18
48
1
60
0
100
AcDbLine
10
0.941729
20
-15.087284
30
0
11
1.580108
21
-21.443108
31
0
39
0
210
0
220
0
230
1
0
LINE
5
94
100
AcDbEntity
8
1
62
256
6
ByLayer
370
18
48
1
60
0
100
AcDbLine
10
41.372628
20
2.949932
30
0
11
41.335888
21
2.818131
31
0
39
0
210
0
220
0
230
1
0
LINE
5
95
100
AcDbEntity
8
1
62
256
6
ByLayer
370
18
48
1
60
0
100
AcDbLine
10
16.17447
20
17.045275
30
0
11
20.563136
21
15.69744
31
0
39
0
210
0
220
0
230
1
0
LINE
5
96
100
AcDbEntity
8
1
62
256
6
ByLayer
370
18
48
1
60
0
100
AcDbLine
10
0.888513
20
-15.13112
30
0
11
0.941729
21
-15.087284
31
0
39
0
210
0
220
0
230
1
0
LINE
5
97
100
AcDbEntity
8
1
62
256
6
ByLayer
370
18
48
1
60
0
100
AcDbLine
10
5.66617
20
19.938668
30
0
11
15.271271
21
17.329545
31
0
39
0
210
0
220
0
230
1
0
LINE
5
98
100
AcDbEntity
8
1
62
256
6
ByLayer
370
18
48
1
60
0
100
AcDbLine
10
0.5
20
-20.425
30
0
11
0.5
21
19.927182
31
0
39
0
210
0
220
0
230
1
0
LINE
5
99
100
AcDbEntity
8
1
62
256
6
ByLayer
370
18
48
1
60
0
100
AcDbLine
10
39.418374
20
10.575615
30
0
11
20.563136
21
15.69744
31
0
39
0
210
0
220
0
230
1
0
LINE
5
9A
100
AcDbEntity
8
1
62
256
6
ByLayer
370
18
48
1
60
0
100
AcDbLine
10
0.772801
20
-21.443108
30
0
11
0.5
21
-20.425
31
0
39
0
210
0
220
0
230
1
0
LINE
5
9B
100
AcDbEntity
8
1
62
256
6
ByLayer
370
18
48
1
60
0
100
AcDbLine
10
12.325478
20
19.75112
30
0
11
33.88357
21
13.771136
31
0
39
0
210
0
220
0
230
1
0
LINE
5
9C
100
AcDbEntity
8
1
62
256
6
ByLayer
370
18
48
1
60
0
100
AcDbLine
10
0
20
-19.925
30
0
11
0
21
19.925
31
0
39
0
210
0
220
0
230
1
0
LINE
5
9D
100
AcDbEntity
8
1
62
256
6
ByLayer
370
18
48
1
60
0
100
AcDbLine
10
0.5
20
19.927182
30
0
11
1.354164
21
19.941091
31
0
39
0
210
0
220
0
230
1
0
LINE
5
9E
100
AcDbEntity
8
1
62
256
6
ByLayer
370
18
48
1
60
0
100
AcDbLine
10
21.419952
20
-21.443108
30
0
11
2.956311
21
-21.443108
31
0
39
0
210
0
220
0
230
1
0
LINE
5
9F
100
AcDbEntity
8
1
62
256
6
ByLayer
370
18
48
1
60
0
100
AcDbLine
10
1.580108
20
-21.443108
30
0
11
2.956311
21
-21.443108
31
0
39
0
210
0
220
0
230
1
0
LINE
5
A0
100
AcDbEntity
8
1
62
256
6
ByLayer
370
18
48
1
60
0
100
AcDbLine
10
28.229741
20
-19.548472
30
0
11
26.676768
21
-13.488625
31
0
39
0
210
0
220
0
230
1
0
LINE
5
A1
100
AcDbEntity
8
1
62
256
6
ByLayer
370
18
48
1
60
0
100
AcDbLine
10
28.133456
20
-19.64423
30
0
11
21.419952
21
-21.443108
31
0
39
0
210
0
220
0
230
1
0
LINE
5
A2
100
AcDbEntity
8
1
62
256
6
ByLayer
370
18
48
1
60
0
100
AcDbLine
10
33.88357
20
13.771136
30
0
11
39.418374
21
10.575615
31
0
39
0
210
0
220
0
230
1
0
LINE
5
A3
100
AcDbEntity
8
1
62
256
6
ByLayer
370
18
48
1
60
0
100
AcDbLine
10
5.66617
20
19.938668
30
0
11
12.325478
21
19.75112
31
0
39
0
210
0
220
0
230
1
0
LINE
5
A4
100
AcDbEntity
8
1
62
256
6
ByLayer
370
18
48
1
60
0
100
AcDbLine
10
0.5
20
-20.425
30
0
11
0
21
-19.925
31
0
39
0
210
0
220
0
230
1
0
LINE
5
A5
100
AcDbEntity
8
1
62
256
6
ByLayer
370
18
48
1
60
0
100
AcDbLine
10
39.418374
20
10.575615
30
0
11
41.372628
21
2.949932
31
0
39
0
210
0
220
0
230
1
0
LINE
5
A6
100
AcDbEntity
8
SK1
62
256
6
ByLayer
370
18
48
1
60
0
100
AcDbLine
10
-204.840476
20
19.925
30
0
11
0
21
19.925
31
0
39
0
210
0
220
0
230
1
0
LINE
5
A8
100
AcDbEntity
8
SK1
62
256
6
ByLayer
370
18
48
1
60
0
100
AcDbLine
10
0
20
-19.925
30
0
11
-204.840476
21
-19.925
31
0
39
0
210
0
220
0
230
1
0
LINE
5
A9
100
AcDbEntity
8
SK1
62
256
6
ByLayer
370
18
48
1
60
0
100
AcDbLine
10
-204.840476
20
-19.925
30
0
11
-204.840476
21
19.925
31
0
39
0
210
0
220
0
230
1
0
LINE
5
AA
100
AcDbEntity
8
SK1
62
256
6
ByLayer
370
18
48
1
60
0
100
AcDbLine
10
0
20
-19.925
30
0
11
0
21
19.925
31
0
39
0
210
0
220
0
230
1
0
LINE
5
AB
100
AcDbEntity
8
1
62
256
6
ByLayer
370
18
48
1
60
0
100
AcDbLine
10
45.622218
20
-15.662753
30
0
11
29.610364
21
-19.953116
31
0
39
0
210
0
220
0
230
1
0
LINE
5
AC
100
AcDbEntity
8
1
62
256
6
ByLayer
370
18
48
1
60
0
100
AcDbLine
10
42.356592
20
1.851036
30
0
11
46.472252
21
-14.208654
31
0
39
0
210
0
220
0
230
1
0
LINE
5
AD
100
AcDbEntity
8
1
62
256
6
ByLayer
370
18
48
1
60
0
100
AcDbLine
10
18.093987
20
9.961451
30
0
11
15.395306
21
11.278769
31
0
39
0
210
0
220
0
230
1
0
LINE
5
AE
100
AcDbEntity
8
1
62
256
6
ByLayer
370
18
48
1
60
0
100
AcDbLine
10
15.249129
20
-4.991139
30
0
11
14.953863
21
-4.83509
31
0
39
0
210
0
220
0
230
1
0
LINE
5
AF
100
AcDbEntity
8
1
62
256
6
ByLayer
370
18
48
1
60
0
100
AcDbLine
10
12.459704
20
8.688134
30
0
11
10.221073
21
9.871257
31
0
39
0
210
0
220
0
230
1
0
LINE
5
B0
100
AcDbEntity
8
1
62
256
6
ByLayer
370
18
48
1
60
0
100
AcDbLine
10
14.624444
20
8.450443
30
0
11
22.528954
21
4.720451
31
0
39
0
210
0
220
0
230
1
0
LINE
5
B1
100
AcDbEntity
8
1
62
256
6
ByLayer
370
18
48
1
60
0
100
AcDbLine
10
7.810272
20
-1.381463
30
0
11
12.16771
21
7.810292
31
0
39
0
210
0
220
0
230
1
0
LINE
5
B2
100
AcDbEntity
8
1
62
256
6
ByLayer
370
18
48
1
60
0
100
AcDbLine
10
17.355638
20
-5.985161
30
0
11
17.050644
21
-5.823972
31
0
39
0
210
0
220
0
230
1
0
LINE
5
B3
100
AcDbEntity
8
1
62
256
6
ByLayer
370
18
48
1
60
0
100
AcDbLine
10
10.953446
20
-0.571483
30
0
11
9.455656
21
0.134903
31
0
39
0
210
0
220
0
230
1
0
LINE
5
B4
100
AcDbEntity
8
1
62
256
6
ByLayer
370
18
48
1
60
0
100
AcDbLine
10
16.014825
20
10.942569
30
0
11
15.181139
21
11.383175
31
0
39
0
210
0
220
0
230
1
0
LINE
5
B5
100
AcDbEntity
8
1
62
256
6
ByLayer
370
18
48
1
60
0
100
AcDbLine
10
9.455656
20
0.134903
30
0
11
12.02565
21
5.556151
31
0
39
0
210
0
220
0
230
1
0
LINE
5
B6
100
AcDbEntity
8
1
62
256
6
ByLayer
370
18
48
1
60
0
100
AcDbLine
10
35.189771
20
-8.651304
30
0
11
38.040591
21
-9.958462
31
0
39
0
210
0
220
0
230
1
0
LINE
5
B7
100
AcDbEntity
8
1
62
256
6
ByLayer
370
18
48
1
60
0
100
AcDbLine
10
16.014825
20
10.942569
30
0
11
18.093987
21
9.961451
31
0
39
0
210
0
220
0
230
1
0
LINE
5
B8
100
AcDbEntity
8
1
62
256
6
ByLayer
370
18
48
1
60
0
100
AcDbLine
10
36.919868
20
-3.937283
30
0
11
37.600826
21
-5.840563
31
0
39
0
210
0
220
0
230
1
0
LINE
5
B9
100
AcDbEntity
8
1
62
256
6
ByLayer
370
18
48
1
60
0
100
AcDbLine
10
18.093987
20
9.961451
30
0
11
18.120206
21
9.923336
31
0
39
0
210
0
220
0
230
1
0
LINE
5
BA
100
AcDbEntity
8
1
62
256
6
ByLayer
370
18
48
1
60
0
100
AcDbLine
10
9.955674
20
-7.205836
30
0
11
7.876512
21
-6.224718
31
0
39
0
210
0
220
0
230
1
0
LINE
5
BB
100
AcDbEntity
8
1
62
256
6
ByLayer
370
18
48
1
60
0
100
AcDbLine
10
9.955674
20
-7.205836
30
0
11
10.001385
21
-7.202833
31
0
39
0
210
0
220
0
230
1
0
LINE
5
BC
100
AcDbEntity
8
1
62
256
6
ByLayer
370
18
48
1
60
0
100
AcDbLine
10
15.249129
20
-4.991139
30
0
11
17.355638
21
-5.985161
31
0
39
0
210
0
220
0
230
1
0
LINE
5
BD
100
AcDbEntity
8
1
62
256
6
ByLayer
370
18
48
1
60
0
100
AcDbLine
10
23.03889
20
7.6023
30
0
11
18.120206
21
9.923336
31
0
39
0
210
0
220
0
230
1
0
LINE
5
BE
100
AcDbEntity
8
1
62
256
6
ByLayer
370
18
48
1
60
0
100
AcDbLine
10
8.869976
20
-3.688264
30
0
11
16.774486
21
-7.418256
31
0
39
0
210
0
220
0
230
1
0
LINE
5
BF
100
AcDbEntity
8
1
62
256
6
ByLayer
370
18
48
1
60
0
100
AcDbLine
10
7.319717
20
-2.154364
30
0
11
5.081086
21
-0.97124
31
0
39
0
210
0
220
0
230
1
0
LINE
5
C0
100
AcDbEntity
8
1
62
256
6
ByLayer
370
18
48
1
60
0
100
AcDbLine
10
14.953863
20
-4.83509
30
0
11
17.050644
21
-5.823972
31
0
39
0
210
0
220
0
230
1
0
LINE
5
C1
100
AcDbEntity
8
1
62
256
6
ByLayer
370
18
48
1
60
0
100
AcDbLine
10
14.920069
20
-9.523869
30
0
11
10.001385
21
-7.202833
31
0
39
0
210
0
220
0
230
1
0
LINE
5
C2
100
AcDbEntity
8
1
62
256
6
ByLayer
370
18
48
1
60
0
100
AcDbLine
10
11.339029
20
-0.775265
30
0
11
10.953446
21
-0.571483
31
0
39
0
210
0
220
0
230
1
0
LINE
5
C3
100
AcDbEntity
8
1
62
256
6
ByLayer
370
18
48
1
60
0
100
AcDbLine
10
21.76746
20
3.321315
30
0
11
19.660952
21
4.315338
31
0
39
0
210
0
220
0
230
1
0
LINE
5
C4
100
AcDbEntity
8
1
62
256
6
ByLayer
370
18
48
1
60
0
100
AcDbLine
10
10.221073
20
9.871257
30
0
11
5.081086
21
-0.97124
31
0
39
0
210
0
220
0
230
1
0
LINE
5
C5
100
AcDbEntity
8
1
62
256
6
ByLayer
370
18
48
1
60
0
100
AcDbLine
10
34.583875
20
-12.204642
30
0
11
32.677228
21
-12.88688
31
0
39
0
210
0
220
0
230
1
0
LINE
5
C6
100
AcDbEntity
8
1
62
256
6
ByLayer
370
18
48
1
60
0
100
AcDbLine
10
19.952449
20
-0.27506
30
0
11
20.21347
21
-0.42576
31
0
39
0
210
0
220
0
230
1
0
LINE
5
C7
100
AcDbEntity
8
1
62
256
6
ByLayer
370
18
48
1
60
0
100
AcDbLine
10
19.631002
20
-1.852531
30
0
11
19.892023
21
-2.003231
31
0
39
0
210
0
220
0
230
1
0
LINE
5
C8
100
AcDbEntity
8
1
62
256
6
ByLayer
370
18
48
1
60
0
100
AcDbLine
10
17.979403
20
-2.149914
30
0
11
17.723896
21
-2.002397
31
0
39
0
210
0
220
0
230
1
0
LINE
5
C9
100
AcDbEntity
8
1
62
256
6
ByLayer
370
18
48
1
60
0
100
AcDbLine
10
20.011927
20
-1.048993
30
0
11
20.272947
21
-1.199694
31
0
39
0
210
0
220
0
230
1
0
LINE
5
CA
100
AcDbEntity
8
1
62
256
6
ByLayer
370
18
48
1
60
0
100
AcDbLine
10
18.993629
20
-2.297633
30
0
11
19.25465
21
-2.448334
31
0
39
0
210
0
220
0
230
1
0
LINE
5
CB
100
AcDbEntity
8
1
62
256
6
ByLayer
370
18
48
1
60
0
100
AcDbLine
10
17.417315
20
-2.045444
30
0
11
17.678335
21
-2.196144
31
0
39
0
210
0
220
0
230
1
0
LINE
5
CC
100
AcDbEntity
8
1
62
256
6
ByLayer
370
18
48
1
60
0
100
AcDbLine
10
18.918198
20
0.516912
30
0
11
19.173705
21
0.369395
31
0
39
0
210
0
220
0
230
1
0
LINE
5
CD
100
AcDbEntity
8
1
62
256
6
ByLayer
370
18
48
1
60
0
100
AcDbLine
10
17.953027
20
-2.11052
30
0
11
18.208534
21
-2.258037
31
0
39
0
210
0
220
0
230
1
0
LINE
5
CE
100
AcDbEntity
8
1
62
256
6
ByLayer
370
18
48
1
60
0
100
AcDbLine
10
18.757059
20
0.780667
30
0
11
19.01808
21
0.629967
31
0
39
0
210
0
220
0
230
1
0
LINE
5
CF
100
AcDbEntity
8
1
62
256
6
ByLayer
370
18
48
1
60
0
100
AcDbLine
10
19.367861
20
-2.157007
30
0
11
19.112354
21
-2.00949
31
0
39
0
210
0
220
0
230
1
0
LINE
5
D0
100
AcDbEntity
8
1
62
256
6
ByLayer
370
18
48
1
60
0
100
AcDbLine
10
19.804514
20
-0.54942
30
0
11
20.060021
21
-0.696937
31
0
39
0
210
0
220
0
230
1
0
LINE
5
D1
100
AcDbEntity
8
1
62
256
6
ByLayer
370
18
48
1
60
0
100
AcDbLine
10
19.321928
20
-1.863136
30
0
11
19.577435
21
-2.010653
31
0
39
0
210
0
220
0
230
1
0
LINE
5
D2
100
AcDbEntity
8
1
62
256
6
ByLayer
370
18
48
1
60
0
100
AcDbLine
10
20.079578
20
-0.951413
30
0
11
19.824071
21
-0.803896
31
0
39
0
210
0
220
0
230
1
0
MTEXT
5
162
100
AcDbEntity
8
SK6
62
256
6
ByLayer
370
18
48
1
60
0
100
AcDbMText
10
-93.290476
20
28.298991
30
0
210
0
220
0
230
1
1
\W0.7797;DSBNL 4040S 19
40
3.5
41
0
44
1.084337
50
0
71
7
72
5
7
iso_b_vert
0
DIMENSION
5
182
100
AcDbEntity
8
2
62
256
6
ByLayer
370
13
48
1
60
0
100
AcDbDimension
2
DimnDraft3D2
10
46.509524
20
-13.04375
30
0
11
36.1785
21
-28.888653
31
0
70
34
71
5
72
1
41
1
210
0
220
0
230
1
3
Standard
100
AcDb2LineAngularDimension
13
46.509524
23
-15.425
33
0
14
43.515154
24
-16.227339
34
0
15
46.509524
25
-15.425
35
0
16
33.439073
26
-32.458743
36
0
40
0
0
DIMENSION
5
197
100
AcDbEntity
8
2
62
256
6
ByLayer
370
13
48
1
60
0
100
AcDbDimension
2
DimnDraft3D3
10
46.509524
20
-43.675
30
0
11
17.736341
21
-43.675
31
0
70
32
71
5
72
1
41
1
210
0
220
0
230
1
3
Standard
100
AcDbAlignedDimension
13
0
23
-21.925
33
0
14
46.509524
24
-17.425
34
0
50
0
100
AcDbRotatedDimension
1001
ACAD
1000
DSTYLE
1002
{
1070
   279
1070
     0
1070
   172
1070
     1
1070
   173
1070
     1
1070
   340
1005
163
1070
    77
1070
     1
1070
    73
1070
     0
1070
   171
1070
     3
1070
   274
1070
     4
1070
   177
1070
     2
1070
   176
1070
     2
1070
   178
1070
     7
1070
    78
1070
     8
1070
    41
1041
3.175
1070
   147
1041
2.25
1070
    42
1041
2.0
1070
    44
1041
2.0
1070
   140
1041
4.5
1070
   343
1005
183
1070
   344
1005
183
1002
}
0
DIMENSION
5
1A5
100
AcDbEntity
8
2
62
256
6
ByLayer
370
13
48
1
60
0
100
AcDbDimension
2
DimnDraft3D4
10
68.759524
20
-15.425
30
0
11
68.759524
21
-3.031579
31
0
70
32
71
5
72
1
41
1
210
0
220
0
230
1
3
Standard
100
AcDbAlignedDimension
13
2
23
19.925
33
0
14
48.509524
24
-15.425
34
0
50
90
100
AcDbRotatedDimension
1001
ACAD
1000
DSTYLE
1002
{
1070
    74
1070
     0
1070
   279
1070
     0
1070
   172
1070
     1
1070
   173
1070
     1
1070
   340
1005
163
1070
    77
1070
     1
1070
    73
1070
     0
1070
   171
1070
     3
1070
   274
1070
     4
1070
   177
1070
     2
1070
   176
1070
     2
1070
   178
1070
     7
1070
    78
1070
     8
1070
    41
1041
3.175
1070
   147
1041
2.25
1070
    42
1041
2.0
1070
    44
1041
2.0
1070
   140
1041
4.5
1070
   343
1005
183
1070
   344
1005
183
1002
}
0
DIMENSION
5
1B3
100
AcDbEntity
8
SK2
62
256
6
ByLayer
370
13
48
1
60
0
100
AcDbDimension
2
DimnDraft3D5
10
-212.590476
20
-19.925
30
0
11
-212.590476
21
-5.518421
31
0
70
32
71
5
72
1
41
1
210
0
220
0
230
1
3
Standard
100
AcDbAlignedDimension
13
-206.840476
23
19.925
33
0
14
-206.840476
24
-19.925
34
0
50
90
100
AcDbRotatedDimension
1001
ACAD
1000
DSTYLE
1002
{
1070
    74
1070
     0
1070
   279
1070
     0
1070
   172
1070
     1
1070
   173
1070
     1
1070
   340
1005
163
1070
    77
1070
     1
1070
    73
1070
     0
1070
   171
1070
     3
1070
   274
1070
     4
1070
   177
1070
     2
1070
   176
1070
     2
1070
   178
1070
     7
1070
    78
1070
     8
1070
    41
1041
3.175
1070
   147
1041
2.25
1070
    42
1041
2.0
1070
    44
1041
2.0
1070
   140
1041
4.5
1070
   343
1005
183
1070
   344
1005
183
1002
}
0
ENDSEC
0
SECTION
2
OBJECTS
0
DICTIONARY
5
21d
330
0
100
AcDbDictionary
280
0
281
1
3
ACAD_GROUP
350
21e
3
ACAD_MLINESTYLE
350
21f
0
DICTIONARY
5
21e
330
0
100
AcDbDictionary
280
0
281
1
0
DICTIONARY
5
21f
330
0
100
AcDbDictionary
280
0
281
1
3
Standard
350
18
0
MLINESTYLE
5
18
330
21f
100
AcDbMlineStyle
2
Standard
70
0
3

62
256
51
90
52
90
71
2
49
-0.5
62
256
6
ByLayer
49
0.5
62
256
6
ByLayer
0
RASTERVARIABLES
5
20c
330

100
AcDbRasterVariables
90
0
70
1
71
1
72
1
0
ENDSEC
0
EOF
