0
SECTION
2
HEADER
9
$ACADVER
1
AC1015
9
$DWGCODEPAGE
3
ANSI_1252
9
$HANDSEED
5
1fe
9
$ANGBASE
50
0
9
$ANGDIR
70
0
9
$ATTMODE
70
1
9
$AUNITS
70
0
9
$AUPREC
70
0
9
$CECOLOR
62
256
9
$CELTSCALE
40
1
9
$CELTYPE
6
ByLayer
9
$CELWEIGHT
370
18
9
$CLAYER
8
0
9
$CMLJUST
70
0
9
$CMLSCALE
40
1
9
$CMLSTYLE
2
Standard
9
$DIMSTYLE
2
Standard
9
$TEXTSIZE
40
0.2
9
$TEXTSTYLE
7
Standard
9
$LUNITS
70
2
9
$LUPREC
70
4
9
$EXTNAMES
290
1
9
$INSUNITS
70
4
9
$LTSCALE
40
1
9
$LWDISPLAY
290
1
9
$PDMODE
70
0
9
$PDSIZE
40
0
9
$PLINEGEN
70
0
0
ENDSEC
0
SECTION
2
CLASSES
0
CLASS
1
RASTERVARIABLES
2
AcDbRasterVariables
3
ISM
90
0
280
0
281
0
0
ENDSEC
0
SECTION
2
TABLES
0
TABLE
2
VPORT
5
1f4
100
AcDbSymbolTable
0
VPORT
5
1
100
AcDbSymbolTableRecord
100
AcDbViewportTableRecord
2
*Active
70
0
10
0
20
0
11
1
21
1
12
-1
22
1
13
0
23
0
14
0.5
24
0.5
15
10
25
10
16
0
26
0
36
1
17
0
27
0
37
0
0
ENDTAB
0
TABLE
2
LTYPE
5
1f5
100
AcDbSymbolTable
0
LTYPE
5
14
100
AcDbSymbolTableRecord
100
AcDbLinetypeTableRecord
70
0
2
ByBlock
3

72
65
73
0
40
0
0
LTYPE
5
15
100
AcDbSymbolTableRecord
100
AcDbLinetypeTableRecord
70
0
2
ByLayer
3

72
65
73
0
40
0
0
LTYPE
5
16
100
AcDbSymbolTableRecord
100
AcDbLinetypeTableRecord
70
0
2
CONTINUOUS
3
Solid line
72
65
73
0
40
0
0
LTYPE
5
6A
100
AcDbSymbolTableRecord
100
AcDbLinetypeTableRecord
70
0
2
CENTER
3
____ _ ____ _ ____ _ ____
72
65
73
4
40
47.5
49
22
74
0
49
-8.5
74
0
49
8.5
74
0
49
-8.5
74
0
0
LTYPE
5
6B
100
AcDbSymbolTableRecord
100
AcDbLinetypeTableRecord
70
0
2
DASHED
3
__ __ __ __ __ __ __ __ __
72
65
73
2
40
25.72
49
12.86
74
0
49
-12.86
74
0
0
ENDTAB
0
TABLE
2
LAYER
5
1f6
100
AcDbSymbolTable
0
LAYER
5
10
100
AcDbSymbolTableRecord
100
AcDbLayerTableRecord
2
0
70
0
62
7
6
CONTINUOUS
290
1
370
-3
390
0
0
LAYER
5
6D
100
AcDbSymbolTableRecord
100
AcDbLayerTableRecord
2
2
70
0
62
7
6
CONTINUOUS
290
1
370
-3
390
0
0
LAYER
5
6F
100
AcDbSymbolTableRecord
100
AcDbLayerTableRecord
2
80
70
0
62
-6
6
CONTINUOUS
290
1
370
-3
390
0
0
LAYER
5
71
100
AcDbSymbolTableRecord
100
AcDbLayerTableRecord
2
81
70
0
62
-3
6
CONTINUOUS
290
1
370
-3
390
0
0
LAYER
5
73
100
AcDbSymbolTableRecord
100
AcDbLayerTableRecord
2
1
70
0
62
4
6
CONTINUOUS
290
1
370
-3
390
0
0
LAYER
5
1e1
100
AcDbSymbolTableRecord
100
AcDbLayerTableRecord
2
SK1
70
0
62
4
6
CONTINUOUS
290
1
370
-3
390
0
0
LAYER
5
1e2
100
AcDbSymbolTableRecord
100
AcDbLayerTableRecord
2
SK6
70
0
62
5
6
CONTINUOUS
290
1
370
-3
390
0
0
LAYER
5
1e3
100
AcDbSymbolTableRecord
100
AcDbLayerTableRecord
2
SK2
70
0
62
7
6
CONTINUOUS
290
1
370
-3
390
0
0
ENDTAB
0
TABLE
2
STYLE
5
1f7
100
AcDbSymbolTable
0
STYLE
5
11
100
AcDbSymbolTableRecord
100
AcDbTextStyleTableRecord
2
Standard
3
txt
70
0
71
0
40
0
41
1
42
0
50
0
0
STYLE
5
137
100
AcDbSymbolTableRecord
100
AcDbTextStyleTableRecord
2
iso_b_vert
3
simplex.shx
70
0
71
0
40
0
41
1
42
0
50
0
0
STYLE
5
138
100
AcDbSymbolTableRecord
100
AcDbTextStyleTableRecord
2
DWGDirectTextStyle
3
simplex
70
0
71
0
40
0
41
1
42
0
50
0
0
ENDTAB
0
TABLE
2
DIMSTYLE
5
1f8
100
AcDbSymbolTable
100
AcDbDimStyleTable
0
DIMSTYLE
105
27
100
AcDbSymbolTableRecord
100
AcDbDimStyleTableRecord
2
Standard
70
0
3
<>
41
0.18
42
0.0625
44
0.18
140
0.18
147
0.09
73
0
74
0
77
1
271
2
275
0
278
52
280
0
340
11
0
ENDTAB
0
TABLE
2
VIEW
5
1f9
100
AcDbSymbolTable
0
ENDTAB
0
TABLE
2
UCS
5
1fa
100
AcDbSymbolTable
0
ENDTAB
0
TABLE
2
APPID
5
1fb
100
AcDbSymbolTable
0
APPID
5
12
100
AcDbSymbolTableRecord
100
AcDbRegAppTableRecord
2
ACAD
70
0
0
ENDTAB
0
TABLE
2
BLOCK_RECORD
5
1fc
100
AcDbSymbolTable
0
BLOCK_RECORD
5
1F
100
AcDbSymbolTableRecord
100
AcDbBlockTableRecord
2
*Model_Space
340
0
70
0
0
BLOCK_RECORD
5
1B
100
AcDbSymbolTableRecord
100
AcDbBlockTableRecord
2
*Paper_Space
340
0
70
0
0
BLOCK_RECORD
5
23
100
AcDbSymbolTableRecord
100
AcDbBlockTableRecord
2
*Paper_Space0
340
0
70
0
0
BLOCK_RECORD
5
13A
100
AcDbSymbolTableRecord
100
AcDbBlockTableRecord
2
DimnDraft3D11
340
0
70
0
0
BLOCK_RECORD
5
149
100
AcDbSymbolTableRecord
100
AcDbBlockTableRecord
2
DimnDraft3D2
340
0
70
0
0
BLOCK_RECORD
5
157
100
AcDbSymbolTableRecord
100
AcDbBlockTableRecord
2
_CLOSED
340
0
70
0
0
BLOCK_RECORD
5
15E
100
AcDbSymbolTableRecord
100
AcDbBlockTableRecord
2
DimnDraft3D3
340
0
70
0
0
BLOCK_RECORD
5
16C
100
AcDbSymbolTableRecord
100
AcDbBlockTableRecord
2
DimnDraft3D4
340
0
70
0
0
BLOCK_RECORD
5
17A
100
AcDbSymbolTableRecord
100
AcDbBlockTableRecord
2
DimnDraft3D5
340
0
70
0
0
ENDTAB
0
ENDSEC
0
SECTION
2
BLOCKS
0
BLOCK
5
20
100
AcDbEntity
8
0
100
AcDbBlockBegin
2
*Model_Space
70
0
10
0
20
0
30
0
3
*Model_Space
0
ENDBLK
5
21
100
AcDbEntity
8
0
100
AcDbBlockEnd
0
BLOCK
5
1C
100
AcDbEntity
8
0
100
AcDbBlockBegin
2
*Paper_Space
70
0
10
0
20
0
30
0
3
*Paper_Space
0
ENDBLK
5
1D
100
AcDbEntity
8
0
100
AcDbBlockEnd
0
BLOCK
5
24
100
AcDbEntity
8
0
100
AcDbBlockBegin
2
*Paper_Space0
70
0
10
0
20
0
30
0
3
*Paper_Space0
0
ENDBLK
5
25
100
AcDbEntity
8
0
100
AcDbBlockEnd
0
BLOCK
5
13B
100
AcDbEntity
8
0
100
AcDbBlockBegin
2
DimnDraft3D11
70
0
10
0
20
0
30
0
3
DimnDraft3D11
0
LINE
5
13D
100
AcDbEntity
8
SK2
62
256
6
ByLayer
370
25
48
1
60
0
100
AcDbLine
10
34.232183
20
-11.9125
30
0
11
34.232183
21
-50.1625
31
0
39
0
210
0
220
0
230
1
0
LINE
5
13F
100
AcDbEntity
8
SK2
62
256
6
ByLayer
370
25
48
1
60
0
100
AcDbLine
10
-137.117817
20
-14.4375
30
0
11
-137.117817
21
-50.1625
31
0
39
0
210
0
220
0
230
1
0
LINE
5
140
100
AcDbEntity
8
SK2
62
256
6
ByLayer
370
25
48
1
60
0
100
AcDbLine
10
34.232183
20
-48.1625
30
0
11
-137.117817
21
-48.1625
31
0
39
0
210
0
220
0
230
1
0
LINE
5
141
100
AcDbEntity
8
SK2
62
256
6
ByLayer
370
25
48
1
60
0
100
AcDbLine
10
34.232183
20
-48.1625
30
0
11
31.057185
21
-48.580497
31
0
39
0
210
0
220
0
230
1
0
LINE
5
142
100
AcDbEntity
8
SK2
62
256
6
ByLayer
370
25
48
1
60
0
100
AcDbLine
10
34.232183
20
-48.1625
30
0
11
31.057182
21
-47.744503
31
0
39
0
210
0
220
0
230
1
0
LINE
5
143
100
AcDbEntity
8
SK2
62
256
6
ByLayer
370
25
48
1
60
0
100
AcDbLine
10
31.057185
20
-48.580497
30
0
11
31.057182
21
-47.744503
31
0
39
0
210
0
220
0
230
1
0
LINE
5
144
100
AcDbEntity
8
SK2
62
256
6
ByLayer
370
25
48
1
60
0
100
AcDbLine
10
-137.117817
20
-48.1625
30
0
11
-133.942818
21
-47.744503
31
0
39
0
210
0
220
0
230
1
0
LINE
5
145
100
AcDbEntity
8
SK2
62
256
6
ByLayer
370
25
48
1
60
0
100
AcDbLine
10
-137.117817
20
-48.1625
30
0
11
-133.942815
21
-48.580497
31
0
39
0
210
0
220
0
230
1
0
LINE
5
146
100
AcDbEntity
8
SK2
62
256
6
ByLayer
370
25
48
1
60
0
100
AcDbLine
10
-133.942818
20
-47.744503
30
0
11
-133.942815
21
-48.580497
31
0
39
0
210
0
220
0
230
1
0
MTEXT
5
147
100
AcDbEntity
8
SK2
62
256
6
ByLayer
370
18
48
1
60
0
100
AcDbMText
10
-56.718475
20
-47.0375
30
0
210
0
220
0
230
1
1
\W0.6864;170.0
40
4.5
41
0
44
1.084337
50
0
71
7
72
5
7
iso_b_vert
0
ENDBLK
5
13C
100
AcDbEntity
8
0
100
AcDbBlockEnd
0
BLOCK
5
154
100
AcDbEntity
8
0
100
AcDbBlockBegin
2
DimnDraft3D2
70
0
10
0
20
0
30
0
3
DimnDraft3D2
0
MTEXT
5
14A
100
AcDbEntity
8
2
62
256
6
ByLayer
370
18
48
1
60
0
100
AcDbMText
10
19.530728
20
-24.276697
30
0
210
0
220
0
230
1
1
\W0.7399;75%%d
40
4.5
41
0
44
1.084337
50
322.5
71
7
72
5
7
iso_b_vert
0
LINE
5
14B
100
AcDbEntity
8
2
62
256
6
ByLayer
370
13
48
1
60
0
100
AcDbLine
10
29.305962
20
-11.232477
30
0
11
11.561361
21
-15.987129
31
0
39
0
210
0
220
0
230
1
0
LINE
5
14C
100
AcDbEntity
8
2
62
256
6
ByLayer
370
13
48
1
60
0
100
AcDbLine
10
34.232183
20
-11.9125
30
0
11
34.232183
21
-33.383063
31
0
39
0
210
0
220
0
230
1
0
ARC
5
14D
100
AcDbEntity
8
2
62
256
6
ByLayer
370
13
48
1
60
0
100
AcDbCircle
39
0
10
34.232183
20
-9.9125
30
0
40
21.4705627491871
210
0
220
0
230
1
100
AcDbArc
50
195
51
270
0
LINE
5
14E
100
AcDbEntity
8
2
62
256
6
ByLayer
370
13
48
1
60
0
100
AcDbLine
10
13.493212
20
-15.469491
30
0
11
14.827036
21
-18.38089
31
0
39
0
210
0
220
0
230
1
0
LINE
5
14F
100
AcDbEntity
8
2
62
256
6
ByLayer
370
13
48
1
60
0
100
AcDbLine
10
13.493212
20
-15.469491
30
0
11
14.028062
21
-18.626909
31
0
39
0
210
0
220
0
230
1
0
LINE
5
150
100
AcDbEntity
8
2
62
256
6
ByLayer
370
13
48
1
60
0
100
AcDbLine
10
14.827036
20
-18.38089
30
0
11
14.028062
21
-18.626909
31
0
39
0
210
0
220
0
230
1
0
LINE
5
151
100
AcDbEntity
8
2
62
256
6
ByLayer
370
13
48
1
60
0
100
AcDbLine
10
34.232183
20
-31.383063
30
0
11
31.043925
21
-31.683637
31
0
39
0
210
0
220
0
230
1
0
LINE
5
152
100
AcDbEntity
8
2
62
256
6
ByLayer
370
13
48
1
60
0
100
AcDbLine
10
34.232183
20
-31.383063
30
0
11
31.074765
21
-30.848213
31
0
39
0
210
0
220
0
230
1
0
LINE
5
153
100
AcDbEntity
8
2
62
256
6
ByLayer
370
13
48
1
60
0
100
AcDbLine
10
31.043925
20
-31.683637
30
0
11
31.074765
21
-30.848213
31
0
39
0
210
0
220
0
230
1
0
ENDBLK
5
155
100
AcDbEntity
8
0
100
AcDbBlockEnd
0
BLOCK
5
158
100
AcDbEntity
8
0
100
AcDbBlockBegin
2
_CLOSED
70
0
10
0
20
0
30
0
3
_CLOSED
0
LINE
5
15A
100
AcDbEntity
8
0
62
256
6
ByLayer
370
-2
48
1
60
0
100
AcDbLine
10
-1
20
0.166667
30
0
11
0
21
0
31
0
39
0
210
0
220
0
230
1
0
LINE
5
15B
100
AcDbEntity
8
0
62
256
6
ByLayer
370
-2
48
1
60
0
100
AcDbLine
10
0
20
0
30
0
11
-1
21
-0.166667
31
0
39
0
210
0
220
0
230
1
0
LINE
5
15C
100
AcDbEntity
8
0
62
256
6
ByLayer
370
-2
48
1
60
0
100
AcDbLine
10
-1
20
0.166667
30
0
11
-1
21
-0.166667
31
0
39
0
210
0
220
0
230
1
0
LINE
5
15D
100
AcDbEntity
8
0
62
256
6
ByLayer
370
-2
48
1
60
0
100
AcDbLine
10
0
20
0
30
0
11
-1
21
0
31
0
39
0
210
0
220
0
230
1
0
ENDBLK
5
159
100
AcDbEntity
8
0
100
AcDbBlockEnd
0
BLOCK
5
169
100
AcDbEntity
8
0
100
AcDbBlockBegin
2
DimnDraft3D3
70
0
10
0
20
0
30
0
3
DimnDraft3D3
0
MTEXT
5
15F
100
AcDbEntity
8
2
62
256
6
ByLayer
370
18
48
1
60
0
100
AcDbMText
10
12.722671
20
-37.0375
30
0
210
0
220
0
230
1
1
\W0.7640;34.2
40
4.5
41
0
44
1.084337
50
0
71
7
72
5
7
iso_b_vert
0
LINE
5
160
100
AcDbEntity
8
2
62
256
6
ByLayer
370
13
48
1
60
0
100
AcDbLine
10
0
20
-14.4375
30
0
11
0
21
-40.1625
31
0
39
0
210
0
220
0
230
1
0
LINE
5
161
100
AcDbEntity
8
2
62
256
6
ByLayer
370
13
48
1
60
0
100
AcDbLine
10
34.232183
20
-11.9125
30
0
11
34.232183
21
-40.1625
31
0
39
0
210
0
220
0
230
1
0
LINE
5
162
100
AcDbEntity
8
2
62
256
6
ByLayer
370
13
48
1
60
0
100
AcDbLine
10
0
20
-38.1625
30
0
11
34.232183
21
-38.1625
31
0
39
0
210
0
220
0
230
1
0
LINE
5
163
100
AcDbEntity
8
2
62
256
6
ByLayer
370
13
48
1
60
0
100
AcDbLine
10
0
20
-38.1625
30
0
11
3.174998
21
-37.744503
31
0
39
0
210
0
220
0
230
1
0
LINE
5
164
100
AcDbEntity
8
2
62
256
6
ByLayer
370
13
48
1
60
0
100
AcDbLine
10
0
20
-38.1625
30
0
11
3.175002
21
-38.580497
31
0
39
0
210
0
220
0
230
1
0
LINE
5
165
100
AcDbEntity
8
2
62
256
6
ByLayer
370
13
48
1
60
0
100
AcDbLine
10
3.174998
20
-37.744503
30
0
11
3.175002
21
-38.580497
31
0
39
0
210
0
220
0
230
1
0
LINE
5
166
100
AcDbEntity
8
2
62
256
6
ByLayer
370
13
48
1
60
0
100
AcDbLine
10
34.232183
20
-38.1625
30
0
11
31.057185
21
-38.580497
31
0
39
0
210
0
220
0
230
1
0
LINE
5
167
100
AcDbEntity
8
2
62
256
6
ByLayer
370
13
48
1
60
0
100
AcDbLine
10
34.232183
20
-38.1625
30
0
11
31.057182
21
-37.744503
31
0
39
0
210
0
220
0
230
1
0
LINE
5
168
100
AcDbEntity
8
2
62
256
6
ByLayer
370
13
48
1
60
0
100
AcDbLine
10
31.057185
20
-38.580497
30
0
11
31.057182
21
-37.744503
31
0
39
0
210
0
220
0
230
1
0
ENDBLK
5
16A
100
AcDbEntity
8
0
100
AcDbBlockEnd
0
BLOCK
5
177
100
AcDbEntity
8
0
100
AcDbBlockBegin
2
DimnDraft3D4
70
0
10
0
20
0
30
0
3
DimnDraft3D4
0
MTEXT
5
16D
100
AcDbEntity
8
2
62
256
6
ByLayer
370
18
48
1
60
0
100
AcDbMText
10
55.357183
20
-2.894079
30
0
210
0
220
0
230
1
1
\W0.7346;22.0
40
4.5
41
0
44
1.084337
50
90
71
7
72
5
7
iso_b_vert
0
LINE
5
16E
100
AcDbEntity
8
2
62
256
6
ByLayer
370
13
48
1
60
0
100
AcDbLine
10
2
20
12.4375
30
0
11
58.482183
21
12.4375
31
0
39
0
210
0
220
0
230
1
0
LINE
5
16F
100
AcDbEntity
8
2
62
256
6
ByLayer
370
13
48
1
60
0
100
AcDbLine
10
36.232183
20
-9.9125
30
0
11
58.482183
21
-9.9125
31
0
39
0
210
0
220
0
230
1
0
LINE
5
170
100
AcDbEntity
8
2
62
256
6
ByLayer
370
13
48
1
60
0
100
AcDbLine
10
56.482183
20
12.4375
30
0
11
56.482183
21
-9.9125
31
0
39
0
210
0
220
0
230
1
0
LINE
5
171
100
AcDbEntity
8
2
62
256
6
ByLayer
370
13
48
1
60
0
100
AcDbLine
10
56.482183
20
12.4375
30
0
11
56.90018
21
9.262502
31
0
39
0
210
0
220
0
230
1
0
LINE
5
172
100
AcDbEntity
8
2
62
256
6
ByLayer
370
13
48
1
60
0
100
AcDbLine
10
56.482183
20
12.4375
30
0
11
56.064187
21
9.262498
31
0
39
0
210
0
220
0
230
1
0
LINE
5
173
100
AcDbEntity
8
2
62
256
6
ByLayer
370
13
48
1
60
0
100
AcDbLine
10
56.90018
20
9.262502
30
0
11
56.064187
21
9.262498
31
0
39
0
210
0
220
0
230
1
0
LINE
5
174
100
AcDbEntity
8
2
62
256
6
ByLayer
370
13
48
1
60
0
100
AcDbLine
10
56.482183
20
-9.9125
30
0
11
56.064187
21
-6.737502
31
0
39
0
210
0
220
0
230
1
0
LINE
5
175
100
AcDbEntity
8
2
62
256
6
ByLayer
370
13
48
1
60
0
100
AcDbLine
10
56.482183
20
-9.9125
30
0
11
56.90018
21
-6.737498
31
0
39
0
210
0
220
0
230
1
0
LINE
5
176
100
AcDbEntity
8
2
62
256
6
ByLayer
370
13
48
1
60
0
100
AcDbLine
10
56.064187
20
-6.737502
30
0
11
56.90018
21
-6.737498
31
0
39
0
210
0
220
0
230
1
0
ENDBLK
5
178
100
AcDbEntity
8
0
100
AcDbBlockEnd
0
BLOCK
5
185
100
AcDbEntity
8
0
100
AcDbBlockBegin
2
DimnDraft3D5
70
0
10
0
20
0
30
0
3
DimnDraft3D5
0
MTEXT
5
17B
100
AcDbEntity
8
SK2
62
256
6
ByLayer
370
18
48
1
60
0
100
AcDbMText
10
-145.992817
20
-4.156579
30
0
210
0
220
0
230
1
1
\W0.7346;25.0
40
4.5
41
0
44
1.084337
50
90
71
7
72
5
7
iso_b_vert
0
LINE
5
17C
100
AcDbEntity
8
SK2
62
256
6
ByLayer
370
13
48
1
60
0
100
AcDbLine
10
-139.117817
20
12.4375
30
0
11
-146.867817
21
12.4375
31
0
39
0
210
0
220
0
230
1
0
LINE
5
17D
100
AcDbEntity
8
SK2
62
256
6
ByLayer
370
13
48
1
60
0
100
AcDbLine
10
-139.117817
20
-12.4375
30
0
11
-146.867817
21
-12.4375
31
0
39
0
210
0
220
0
230
1
0
LINE
5
17E
100
AcDbEntity
8
SK2
62
256
6
ByLayer
370
13
48
1
60
0
100
AcDbLine
10
-144.867817
20
12.4375
30
0
11
-144.867817
21
-12.4375
31
0
39
0
210
0
220
0
230
1
0
LINE
5
17F
100
AcDbEntity
8
SK2
62
256
6
ByLayer
370
13
48
1
60
0
100
AcDbLine
10
-144.867817
20
12.4375
30
0
11
-144.44982
21
9.262502
31
0
39
0
210
0
220
0
230
1
0
LINE
5
180
100
AcDbEntity
8
SK2
62
256
6
ByLayer
370
13
48
1
60
0
100
AcDbLine
10
-144.867817
20
12.4375
30
0
11
-145.285813
21
9.262498
31
0
39
0
210
0
220
0
230
1
0
LINE
5
181
100
AcDbEntity
8
SK2
62
256
6
ByLayer
370
13
48
1
60
0
100
AcDbLine
10
-144.44982
20
9.262502
30
0
11
-145.285813
21
9.262498
31
0
39
0
210
0
220
0
230
1
0
LINE
5
182
100
AcDbEntity
8
SK2
62
256
6
ByLayer
370
13
48
1
60
0
100
AcDbLine
10
-144.867817
20
-12.4375
30
0
11
-145.285813
21
-9.262502
31
0
39
0
210
0
220
0
230
1
0
LINE
5
183
100
AcDbEntity
8
SK2
62
256
6
ByLayer
370
13
48
1
60
0
100
AcDbLine
10
-144.867817
20
-12.4375
30
0
11
-144.44982
21
-9.262498
31
0
39
0
210
0
220
0
230
1
0
LINE
5
184
100
AcDbEntity
8
SK2
62
256
6
ByLayer
370
13
48
1
60
0
100
AcDbLine
10
-145.285813
20
-9.262502
30
0
11
-144.44982
21
-9.262498
31
0
39
0
210
0
220
0
230
1
0
ENDBLK
5
186
100
AcDbEntity
8
0
100
AcDbBlockEnd
0
ENDSEC
0
SECTION
2
ENTITIES
0
ELLIPSE
5
CC
100
AcDbEntity
8
1
62
256
6
ByLayer
370
18
48
1
60
0
100
AcDbEllipse
10
14.272283
20
1.626769
30
0
11
-0.189999999999999
21
-0.329089653438087
31
0
210
0
220
0
230
1
40
0.989133
41
2.32952373867375
42
2.82333618195266
0
ELLIPSE
5
CD
100
AcDbEntity
8
1
62
256
6
ByLayer
370
18
48
1
60
0
100
AcDbEllipse
10
13.341207
20
-0.33728
30
0
11
-0.189999999999999
21
-0.329089653438087
31
0
210
0
220
0
230
1
40
0.989133
41
0.318235013692987
42
0.975675423072444
0
ELLIPSE
5
CE
100
AcDbEntity
8
1
62
256
6
ByLayer
370
18
48
1
60
0
100
AcDbEllipse
10
15.049635
20
1.817483
30
0
11
0.212500000000012
21
0.36806079660838
31
0
210
0
220
0
230
1
40
0.989133
41
2.32952373867384
42
-3.14157757193105
0
ELLIPSE
5
CF
100
AcDbEntity
8
1
62
256
6
ByLayer
370
18
48
1
60
0
100
AcDbEllipse
10
13.686585
20
-1.05779
30
0
11
0.212500000000012
21
0.36806079660838
31
0
210
0
220
0
230
1
40
0.989133
41
1.32040315677826E-05
42
0.975675423072435
0
ELLIPSE
5
D0
100
AcDbEntity
8
1
62
256
6
ByLayer
370
18
48
1
60
0
100
AcDbEllipse
10
15.395013
20
1.096973
30
0
11
-0.189999999999999
21
-0.329089653438087
31
0
210
0
220
0
230
1
40
0.989133
41
1.28232618747712
42
2.82329333791912
0
ELLIPSE
5
D1
100
AcDbEntity
8
1
62
256
6
ByLayer
370
18
48
1
60
0
100
AcDbEllipse
10
14.463937
20
-0.867076
30
0
11
-0.189999999999999
21
-0.329089653438087
31
0
210
0
220
0
230
1
40
0.989133
41
0.318276219275717
42
2.02287297426898
0
ELLIPSE
5
D2
100
AcDbEntity
8
1
62
256
6
ByLayer
370
18
48
1
60
0
100
AcDbEllipse
10
14.266248
20
0.438656
30
0
11
2.00000000000011
21
3.46410161513769
31
0
210
0
220
0
230
1
40
0.989133
41
0.528343053518852
42
3.1414987633641
0
ELLIPSE
5
D3
100
AcDbEntity
8
1
62
256
6
ByLayer
370
18
48
1
60
0
100
AcDbEllipse
10
14.266248
20
0.438656
30
0
11
2.00000000000011
21
3.46410161513769
31
0
210
0
220
0
230
1
40
0.989133
41
-1.0329905585144
42
-2.52544582518893E-16
0
ELLIPSE
5
D4
100
AcDbEntity
8
1
62
256
6
ByLayer
370
18
48
1
60
0
100
AcDbEllipse
10
14.266248
20
0.438656
30
0
11
2.00000000000011
21
3.46410161513769
31
0
210
0
220
0
230
1
40
0.989133
41
0
42
0.528338758566072
0
ELLIPSE
5
D5
100
AcDbEntity
8
1
62
256
6
ByLayer
370
18
48
1
60
0
100
AcDbEllipse
10
14.36811
20
0.379846
30
0
11
0.575000000000032
21
0.995929214352086
31
0
210
0
220
0
230
1
40
0.989133
41
0.528343195976301
42
0.770578295902028
0
ELLIPSE
5
D6
100
AcDbEntity
8
1
62
256
6
ByLayer
370
18
48
1
60
0
100
AcDbEllipse
10
14.36811
20
0.379846
30
0
11
0.575000000000032
21
0.995929214352086
31
0
210
0
220
0
230
1
40
0.989133
41
1.33488662268253
42
2.0025729504581
0
ELLIPSE
5
D7
100
AcDbEntity
8
1
62
256
6
ByLayer
370
18
48
1
60
0
100
AcDbEllipse
10
14.36811
20
0.379846
30
0
11
0.575000000000032
21
0.995929214352086
31
0
210
0
220
0
230
1
40
0.989133
41
2.54312337602151
42
-2.44004427554486E-16
0
ELLIPSE
5
D8
100
AcDbEntity
8
1
62
256
6
ByLayer
370
18
48
1
60
0
100
AcDbEllipse
10
14.36811
20
0.379846
30
0
11
0.575000000000032
21
0.995929214352086
31
0
210
0
220
0
230
1
40
0.989133
41
0
42
0.528342736416294
0
ELLIPSE
5
D9
100
AcDbEntity
8
1
62
256
6
ByLayer
370
18
48
1
60
0
100
AcDbEllipse
10
14.304446
20
0.416603
30
0
11
0.575000000000032
21
0.995929214352086
31
0
210
0
220
0
230
1
40
0.989133
41
-3.1092888897002
42
-0.032295181936307
0
ELLIPSE
5
DA
100
AcDbEntity
8
1
62
256
6
ByLayer
370
18
48
1
60
0
100
AcDbEllipse
10
26.73542
20
-5.382871
30
0
11
1.29000000000007
21
2.23434554176381
31
0
210
0
220
0
230
1
40
0.989133
41
-2.82036055604638
42
-0.15471909496676
0
ELLIPSE
5
DB
100
AcDbEntity
8
1
62
256
6
ByLayer
370
18
48
1
60
0
100
AcDbEllipse
10
13.003473
20
1.036257
30
0
11
-1.2803969201173
21
-2.26287068277313
31
0
210
0
220
0
230
1
40
0.986425
41
-1.59039621695615
42
-1.39556830094463
0
ELLIPSE
5
DC
100
AcDbEntity
8
1
62
256
6
ByLayer
370
18
48
1
60
0
100
AcDbEllipse
10
6.709703
20
-2.186569
30
0
11
1.47738106167382
21
2.61100463396899
31
0
210
0
220
0
230
1
40
0.986425
41
0.0285627574976699
42
0.0732243651094722
0
ELLIPSE
5
DD
100
AcDbEntity
8
1
62
256
6
ByLayer
370
18
48
1
60
0
100
AcDbEllipse
10
14.903959
20
0.139952
30
0
11
-2.04371046864877
21
-3.61188974365711
31
0
210
0
220
0
230
1
40
0.986425
41
0.0732243651094664
42
3.07403438657678
0
ELLIPSE
5
DE
100
AcDbEntity
8
1
62
256
6
ByLayer
370
18
48
1
60
0
100
AcDbEllipse
10
9.337479
20
-1.935577
30
0
11
-4.15429074090294
21
-0.629982996541496
31
0
210
0
220
0
230
1
40
0.491679
41
0.272341365400612
42
0.631957098765025
0
ELLIPSE
5
DF
100
AcDbEntity
8
1
62
256
6
ByLayer
370
18
48
1
60
0
100
AcDbEllipse
10
6.577271
20
-0.476798
30
0
11
-1.90795612582245
21
-2.31569334070733
31
0
210
0
220
0
230
1
40
0.996259
41
-1.32342884373696
42
-0.271739780673406
0
ELLIPSE
5
E0
100
AcDbEntity
8
1
62
256
6
ByLayer
370
18
48
1
60
0
100
AcDbEllipse
10
10.357748
20
-0.550761
30
0
11
4.96983653858025
21
-2.35599761880031
31
0
210
0
220
0
230
1
40
0.012014
41
-2.41221375773582
42
-1.97044601844988
0
ELLIPSE
5
E1
100
AcDbEntity
8
1
62
256
6
ByLayer
370
18
48
1
60
0
100
AcDbEllipse
10
12.585076
20
4.147654
30
0
11
4.96983653858025
21
-2.35599761880031
31
0
210
0
220
0
230
1
40
0.012014
41
-2.41221375773582
42
-1.97044601844987
0
ELLIPSE
5
E2
100
AcDbEntity
8
1
62
256
6
ByLayer
370
18
48
1
60
0
100
AcDbEllipse
10
14.416926
20
7.770103
30
0
11
-3.06427310653895
21
1.70419149664637
31
0
210
0
220
0
230
1
40
0.384187
41
-0.0892499033993727
42
0.633968202998442
0
ELLIPSE
5
E3
100
AcDbEntity
8
1
62
256
6
ByLayer
370
18
48
1
60
0
100
AcDbEllipse
10
10.175263
20
7.11295
30
0
11
-1.90795612550561
21
-2.3156933409674
31
0
210
0
220
0
230
1
40
0.996259
41
-2.37511790693777
42
-1.32342884387417
0
ELLIPSE
5
E4
100
AcDbEntity
8
1
62
256
6
ByLayer
370
18
48
1
60
0
100
AcDbEllipse
10
9.417284
20
-2.534612
30
0
11
-5.05707547888847
21
2.17152273117777
31
0
210
0
220
0
230
1
40
0.225408
41
-0.617379041264169
42
-0.564386735250364
0
ELLIPSE
5
E5
100
AcDbEntity
8
1
62
256
6
ByLayer
370
18
48
1
60
0
100
AcDbEllipse
10
8.705837
20
-4.277099
30
0
11
-3.25716164032731
21
1.29770227531628
31
0
210
0
220
0
230
1
40
0.360272
41
-0.631934757204562
42
0.0912833491952676
0
ELLIPSE
5
E6
100
AcDbEntity
8
1
62
256
6
ByLayer
370
18
48
1
60
0
100
AcDbEllipse
10
13.525539
20
6.131505
30
0
11
-4.88114329354586
21
2.54252826721048
31
0
210
0
220
0
230
1
40
0.2494
41
0.565389392299013
42
0.618381695408989
0
ELLIPSE
5
E7
100
AcDbEntity
8
1
62
256
6
ByLayer
370
18
48
1
60
0
100
AcDbEllipse
10
27.211602
20
-5.647415
30
0
11
-1.70960390900051
21
-1.45808439435016
31
0
210
0
220
0
230
1
40
0.793963
41
1.07204547981492
42
1.92725681329112
0
ELLIPSE
5
E8
100
AcDbEntity
8
1
62
256
6
ByLayer
370
18
48
1
60
0
100
AcDbEllipse
10
10.66888
20
6.807202
30
0
11
1.67104041809719
21
1.09891943339153
31
0
210
0
220
0
230
1
40
0.773105
41
0.604901765675633
42
2.01757725993523
0
ELLIPSE
5
E9
100
AcDbEntity
8
1
62
256
6
ByLayer
370
18
48
1
60
0
100
AcDbEllipse
10
7.500089
20
11.613074
30
0
11
6.32524650364759
21
-2.99854242392766
31
0
210
0
220
0
230
1
40
0.012014
41
0.810298218555856
42
0.825079255295874
0
ELLIPSE
5
EA
100
AcDbEntity
8
1
62
256
6
ByLayer
370
18
48
1
60
0
100
AcDbEllipse
10
27.211602
20
-5.647415
30
0
11
-0.22180954293336
21
-2.26087573807936
31
0
210
0
220
0
230
1
40
0.797311
41
1.30560867626675
42
2.16082000974655
0
ELLIPSE
5
EB
100
AcDbEntity
8
1
62
256
6
ByLayer
370
18
48
1
60
0
100
AcDbEllipse
10
7.065297
20
-0.794341
30
0
11
-0.156208784236171
21
1.99389037204342
31
0
210
0
220
0
230
1
40
0.7808
41
1.15687686160026
42
2.56955235585983
0
ELLIPSE
5
EC
100
AcDbEntity
8
1
62
256
6
ByLayer
370
18
48
1
60
0
100
AcDbEllipse
10
12.93547
20
5.654171
30
0
11
-2.00696991912313
21
3.78708252110557
31
0
210
0
220
0
230
1
40
0.503949
41
-0.592532641155356
42
-0.232916907819408
0
ELLIPSE
5
ED
100
AcDbEntity
8
1
62
256
6
ByLayer
370
18
48
1
60
0
100
AcDbEllipse
10
15.941589
20
0.516968
30
0
11
0.212500000000012
21
0.36806079660838
31
0
210
0
220
0
230
1
40
0.989133
41
1.28232618747723
42
3.07007052546554
0
ELLIPSE
5
EE
100
AcDbEntity
8
1
62
256
6
ByLayer
370
18
48
1
60
0
100
AcDbEllipse
10
13.449103
20
0.792022
30
0
11
-0.189999999999999
21
-0.329089653438087
31
0
210
0
220
0
230
1
40
0.989133
41
-2.90646401730909
42
-0.0715221281241256
0
ELLIPSE
5
EF
100
AcDbEntity
8
1
62
256
6
ByLayer
370
18
48
1
60
0
100
AcDbEllipse
10
16.145312
20
0.399349
30
0
11
0.212500000000012
21
0.36806079660838
31
0
210
0
220
0
230
1
40
0.989133
41
1.28232618747717
42
3.07007052546547
0
ELLIPSE
5
F0
100
AcDbEntity
8
1
62
256
6
ByLayer
370
18
48
1
60
0
100
AcDbEllipse
10
13.54493
20
-0.4549
30
0
11
-0.189999999999999
21
-0.329089653438087
31
0
210
0
220
0
230
1
40
0.989133
41
-1.85926646611264
42
0.975675423072404
0
ELLIPSE
5
F1
100
AcDbEntity
8
1
62
256
6
ByLayer
370
18
48
1
60
0
100
AcDbEllipse
10
13.890308
20
-1.175409
30
0
11
0.212500000000012
21
0.36806079660838
31
0
210
0
220
0
230
1
40
0.989133
41
-0.812068914916055
42
0.975675423072354
0
ELLIPSE
5
F2
100
AcDbEntity
8
1
62
256
6
ByLayer
370
18
48
1
60
0
100
AcDbEllipse
10
13.679879
20
1.562741
30
0
11
0.212500000000012
21
0.36806079660838
31
0
210
0
220
0
230
1
40
0.989133
41
-2.90646401730929
42
-1.11871967932085
0
ELLIPSE
5
F3
100
AcDbEntity
8
1
62
256
6
ByLayer
370
18
48
1
60
0
100
AcDbEllipse
10
15.253358
20
1.699863
30
0
11
0.212500000000012
21
0.36806079660838
31
0
210
0
220
0
230
1
40
0.989133
41
2.32952373867374
42
-2.16591723051751
0
ELLIPSE
5
F4
100
AcDbEntity
8
1
62
256
6
ByLayer
370
18
48
1
60
0
100
AcDbEllipse
10
15.598736
20
0.979354
30
0
11
-0.189999999999999
21
-0.329089653438087
31
0
210
0
220
0
230
1
40
0.989133
41
1.28232618747729
42
-2.16591723051728
0
ELLIPSE
5
F5
100
AcDbEntity
8
1
62
256
6
ByLayer
370
18
48
1
60
0
100
AcDbEllipse
10
14.66766
20
-0.984696
30
0
11
-0.189999999999999
21
-0.329089653438087
31
0
210
0
220
0
230
1
40
0.989133
41
-0.812068914915991
42
2.02287297426902
0
ELLIPSE
5
F6
100
AcDbEntity
8
1
62
256
6
ByLayer
370
18
48
1
60
0
100
AcDbEllipse
10
14.571833
20
0.262227
30
0
11
-1.14999999999999
21
-1.99185842870421
31
0
210
0
220
0
230
1
40
0.989133
41
0
42
6.28318530717959
0
ELLIPSE
5
F7
100
AcDbEntity
8
1
62
256
6
ByLayer
370
18
48
1
60
0
100
AcDbEllipse
10
15.49084
20
-0.149949
30
0
11
-0.189999999999999
21
-0.329089653438087
31
0
210
0
220
0
230
1
40
0.989133
41
0.235128636280539
42
3.07007052546552
0
ELLIPSE
5
F8
100
AcDbEntity
8
1
62
256
6
ByLayer
370
18
48
1
60
0
100
AcDbEllipse
10
15.694563
20
-0.267569
30
0
11
-0.189999999999999
21
-0.329089653438087
31
0
210
0
220
0
230
1
40
0.989133
41
0.235128636280621
42
3.07007052546552
0
ELLIPSE
5
F9
100
AcDbEntity
8
1
62
256
6
ByLayer
370
18
48
1
60
0
100
AcDbEllipse
10
14.47837
20
0.316188
30
0
11
-1.99999999999999
21
-3.46410161513776
31
0
210
0
220
0
230
1
40
0.989133
41
0
42
6.28318530717959
0
ELLIPSE
5
FA
100
AcDbEntity
8
1
62
256
6
ByLayer
370
18
48
1
60
0
100
AcDbEllipse
10
15.260064
20
-0.920668
30
0
11
0.212500000000012
21
0.36806079660838
31
0
210
0
220
0
230
1
40
0.989133
41
0.235128636280571
42
2.02287297426892
0
ELLIPSE
5
FB
100
AcDbEntity
8
1
62
256
6
ByLayer
370
18
48
1
60
0
100
AcDbEllipse
10
14.476006
20
1.509149
30
0
11
-0.189999999999999
21
-0.329089653438087
31
0
210
0
220
0
230
1
40
0.989133
41
2.32952373867383
42
-1.11871967932078
0
ELLIPSE
5
FC
100
AcDbEntity
8
1
62
256
6
ByLayer
370
18
48
1
60
0
100
AcDbEllipse
10
12.998354
20
0.125105
30
0
11
0.212500000000012
21
0.36806079660838
31
0
210
0
220
0
230
1
40
0.989133
41
-1.85926646611262
42
-0.071522128124323
0
ELLIPSE
5
FD
100
AcDbEntity
8
1
62
256
6
ByLayer
370
18
48
1
60
0
100
AcDbEllipse
10
15.463787
20
-1.038287
30
0
11
0.212500000000012
21
0.36806079660838
31
0
210
0
220
0
230
1
40
0.989133
41
0.235128636280497
42
2.02287297426889
0
ELLIPSE
5
FE
100
AcDbEntity
8
1
62
256
6
ByLayer
370
18
48
1
60
0
100
AcDbEllipse
10
22.375773
20
-8.028989
30
0
11
-0.0882571527718718
21
-2.73364581670087
31
0
210
0
220
0
230
1
40
0.523705
41
-1.06367112878569
42
-0.721340643743573
0
ELLIPSE
5
FF
100
AcDbEntity
8
1
62
256
6
ByLayer
370
18
48
1
60
0
100
AcDbEllipse
10
1.564597
20
-5.970857
30
0
11
-0.598414804344714
21
-2.57912885662729
31
0
210
0
220
0
230
1
40
0.219299
41
-0.929623698915076
42
0.641172627879272
0
ELLIPSE
5
100
100
AcDbEntity
8
1
62
256
6
ByLayer
370
18
48
1
60
0
100
AcDbEllipse
10
9.648016
20
11.080633
30
0
11
-0.76875743186195
21
0.24590970379595
31
0
210
0
220
0
230
1
40
0.031267
41
-2.99870552743917
42
-1.42790920063876
0
ELLIPSE
5
101
100
AcDbEntity
8
1
62
256
6
ByLayer
370
18
48
1
60
0
100
AcDbEllipse
10
22.770023
20
-12.166222
30
0
11
-0.396999999999998
21
-0.687624170604846
31
0
210
0
220
0
230
1
40
0.989133
41
-0.790861371918948
42
0.779934954875868
0
ELLIPSE
5
102
100
AcDbEntity
8
1
62
256
6
ByLayer
370
18
48
1
60
0
100
AcDbEllipse
10
30.700818
20
1.400481
30
0
11
-0.396999999999998
21
-0.687624170604846
31
0
210
0
220
0
230
1
40
0.989133
41
2.35073128167081
42
-2.36165769871385
0
ELLIPSE
5
103
100
AcDbEntity
8
1
62
256
6
ByLayer
370
18
48
1
60
0
100
AcDbEllipse
10
33.444592
20
-9.305979
30
0
11
-0.396999999999998
21
-0.687624170604846
31
0
210
0
220
0
230
1
40
0.989133
41
0.779934954875739
42
2.35073128167091
0
POINT
5
6C
100
AcDbEntity
8
2
62
256
6
ByLayer
370
18
48
1
60
0
100
AcDbPoint
10
34.232183
20
34.7875
30
0
39
0
210
0
220
0
230
1
50
360
0
POINT
5
6E
100
AcDbEntity
8
80
62
256
6
ByLayer
370
18
48
1
60
0
100
AcDbPoint
10
0
20
0
30
0
39
0
210
0
220
0
230
1
50
360
0
POINT
5
70
100
AcDbEntity
8
81
62
256
6
ByLayer
370
18
48
1
60
0
100
AcDbPoint
10
34.232183
20
-9.9125
30
0
39
0
210
0
220
0
230
1
50
360
0
SPLINE
5
104
100
AcDbEntity
8
1
62
256
6
ByLayer
370
18
48
1
60
0
100
AcDbSpline
70
4
71
2
72
6
73
3
40
0
40
0
40
0
40
1
40
1
40
1
41
1
10
10.9388618550017
20
2.6375624400055
30
0
41
1
10
11.068733635427
20
2.80244138336798
30
0
41
1
10
11.2142174336437
20
2.94421044701576
30
0
0
SPLINE
5
105
100
AcDbEntity
8
1
62
256
6
ByLayer
370
18
48
1
60
0
100
AcDbSpline
70
4
71
3
72
11
73
7
40
0
40
0
40
0
40
0
40
0.617549143133885
40
0.617549143133885
40
0.617549143133885
40
1
40
1
40
1
40
1
41
1
10
5.49276696523424
20
-3.29682588352952
30
0
41
1
10
5.20542084420651
20
-3.14559721009849
30
0
41
1
10
4.90556272309146
20
-2.95568698845355
30
0
41
1
10
4.62273185516619
20
-2.7141649083016
30
0
41
1
10
4.44614803123682
20
-2.56337198817431
30
0
41
1
10
4.27462349968869
20
-2.39074094200686
30
0
41
1
10
4.12010228492511
20
-2.19732383503512
30
0
0
SPLINE
5
106
100
AcDbEntity
8
1
62
256
6
ByLayer
370
18
48
1
60
0
100
AcDbSpline
70
4
71
3
72
20
73
16
40
0
40
0
40
0
40
0
40
0.332873226652397
40
0.332873226652397
40
0.501657261698214
40
0.501657261698214
40
0.631212321676515
40
0.631212321676515
40
0.722542323637669
40
0.722542323637669
40
0.814765347404187
40
0.814765347404187
40
0.896421359038791
40
0.896421359038791
40
1
40
1
40
1
40
1
41
1
10
25.8246941397921
20
-4.32588217035953
30
0
41
1
10
25.7109353672021
20
-4.15229749591253
30
0
41
1
10
25.6001041371661
20
-3.96642811580452
30
0
41
1
10
25.4526116134941
20
-3.65817694517784
30
0
41
1
10
25.4058906551757
20
-3.54823097114169
30
0
41
1
10
25.3378642544564
20
-3.34448886458841
30
0
41
1
10
25.312760756036
20
-3.25114829004127
30
0
41
1
10
25.2861734334477
20
-3.09255978511339
30
0
41
1
10
25.2798549650088
20
-3.02580409377092
30
0
41
1
10
25.2804935897248
20
-2.90062824760278
30
0
41
1
10
25.2877572178693
20
-2.84070879067889
30
0
41
1
10
25.3134644691016
20
-2.74478398879074
30
0
41
1
10
25.3307243601277
20
-2.70561995487259
30
0
41
1
10
25.3769102057663
20
-2.63307067296245
30
0
41
1
10
25.4081483934309
20
-2.60282405937002
30
0
41
1
10
25.441551039518
20
-2.5808748375147
30
0
0
SPLINE
5
107
100
AcDbEntity
8
1
62
256
6
ByLayer
370
18
48
1
60
0
100
AcDbSpline
70
4
71
3
72
10
73
6
40
0
40
0
40
0
40
0
40
0.26471563914559
40
0.26471563914559
40
1
40
1
40
1
40
1
41
1
10
26.5282264488791
20
-5.33723034310799
30
0
41
1
10
26.4647747634928
20
-5.2522045580796
30
0
41
1
10
26.4017183597338
20
-5.16583434782277
30
0
41
1
10
26.1649371756357
20
-4.83533510113853
30
0
41
1
10
25.9935629126887
20
-4.58367225157502
30
0
41
1
10
25.8246941397921
20
-4.32588217035953
30
0
0
SPLINE
5
108
100
AcDbEntity
8
1
62
256
6
ByLayer
370
18
48
1
60
0
100
AcDbSpline
70
4
71
3
72
12
73
8
40
0
40
0
40
0
40
0
40
0.286978363858292
40
0.286978363858292
40
0.569998995185613
40
0.569998995185613
40
1
40
1
40
1
40
1
41
1
10
18.5160914891049
20
-2.93067033134409
30
0
41
1
10
18.6710399206784
20
-2.75582699318153
30
0
41
1
10
18.8123777354442
20
-2.56736054818708
30
0
41
1
10
19.0603360805107
20
-2.17398636348287
30
0
41
1
10
19.1682605655026
20
-1.96799104793683
30
0
41
1
10
19.3957022399257
20
-1.43430880905771
30
0
41
1
10
19.4942612992954
20
-1.09405037597548
30
0
41
1
10
19.5495745105044
20
-0.750599502425359
30
0
0
SPLINE
5
109
100
AcDbEntity
8
1
62
256
6
ByLayer
370
18
48
1
60
0
100
AcDbSpline
70
4
71
3
72
8
73
4
40
0
40
0
40
0
40
0
40
1
40
1
40
1
40
1
41
1
10
9.03420285972226
20
-0.0726849441094544
30
0
41
1
10
8.8294188934417
20
0.0805338034353156
30
0
41
1
10
8.61599415747878
20
0.206213430812824
30
0
41
1
10
8.39793223845641
20
0.310946187802529
30
0
0
SPLINE
5
10A
100
AcDbEntity
8
1
62
256
6
ByLayer
370
18
48
1
60
0
100
AcDbSpline
70
4
71
3
72
8
73
4
40
0
40
0
40
0
40
0
40
1
40
1
40
1
40
1
41
1
10
12.4707966056858
20
4.7013292021787
30
0
41
1
10
12.212059762774
20
6.2460481274633
30
0
41
1
10
11.8968361308546
20
7.66388267651325
30
0
41
1
10
11.5602670076419
20
8.44580048953713
30
0
0
SPLINE
5
10B
100
AcDbEntity
8
1
62
256
6
ByLayer
370
18
48
1
60
0
100
AcDbSpline
70
4
71
3
72
8
73
4
40
0
40
0
40
0
40
0
40
1
40
1
40
1
40
1
41
1
10
24.6687552159419
20
1.59168863973923
30
0
41
1
10
25.2103812480219
20
0.984657580560565
30
0
41
1
10
25.7911118599094
20
0.46604182494795
30
0
41
1
10
26.3323542107285
20
0.111352662108146
30
0
0
SPLINE
5
10C
100
AcDbEntity
8
1
62
256
6
ByLayer
370
18
48
1
60
0
100
AcDbSpline
70
4
71
3
72
12
73
8
40
0
40
0
40
0
40
0
40
0.108854002841676
40
0.502629245107332
40
0.69951686624016
40
0.896404487372989
40
1
40
1
40
1
40
1
41
1.0244126255267
10
18.5160913494481
20
-2.9306702791423
30
0
41
1.02394775696077
10
18.8334621379172
20
-3.04929849842605
30
0
41
1.02173322391444
10
20.3377886784449
20
-3.60436711268778
30
0
41
1.01876555595691
10
22.4655997405624
20
-4.34366007786809
30
0
41
1.01610930227499
10
23.8992686361587
20
-4.81223401818325
30
0
41
1.01814069306376
10
24.5224642151076
20
-5.11237163321542
30
0
41
1.0200519600697
10
25.0851241074665
20
-5.36132575429956
30
0
41
1.02076673234771
10
25.2917310914664
20
-5.45013595145409
30
0
0
SPLINE
5
10D
100
AcDbEntity
8
1
62
256
6
ByLayer
370
18
48
1
60
0
100
AcDbSpline
70
4
71
3
72
8
73
4
40
0
40
0
40
0
40
0
40
1
40
1
40
1
40
1
41
1
10
6.35384916686269
20
-2.53682759707198
30
0
41
1
10
7.15703872401178
20
-2.33237712281738
30
0
41
1
10
8.4473186467859
20
-1.69735889964369
30
0
41
1
10
9.80219514463317
20
-0.927926507728785
30
0
0
SPLINE
5
10E
100
AcDbEntity
8
1
62
256
6
ByLayer
370
18
48
1
60
0
100
AcDbSpline
70
4
71
3
72
8
73
4
40
0
40
0
40
0
40
0
40
1
40
1
40
1
40
1
41
1
10
22.2197220945268
20
-8.56399963780007
30
0
41
1
10
22.319920029698
20
-8.59352917327283
30
0
41
1
10
22.4210129824558
20
-8.62066960729487
30
0
41
1
10
22.5228251289449
20
-8.6455997292382
30
0
0
SPLINE
5
10F
100
AcDbEntity
8
1
62
256
6
ByLayer
370
18
48
1
60
0
100
AcDbSpline
70
4
71
3
72
8
73
4
40
0
40
0
40
0
40
0
40
1
40
1
40
1
40
1
41
1
10
9.89730118380396
20
-1.12164544141152
30
0
41
1
10
9.86879828950424
20
-1.05647418983781
30
0
41
1
10
9.83712525385283
20
-0.991864923413203
30
0
41
1
10
9.80219514463829
20
-0.927926507735918
30
0
0
SPLINE
5
110
100
AcDbEntity
8
1
62
256
6
ByLayer
370
18
48
1
60
0
100
AcDbSpline
70
4
71
3
72
10
73
6
40
0
40
0
40
0
40
0
40
0.5
40
0.5
40
1
40
1
40
1
40
1
41
1
10
5.40629752757917
20
-0.0901232175000928
30
0
41
1
10
5.12400415431659
20
-0.75935307373004
30
0
41
1
10
5.02341800391281
20
-1.4366260298471
30
0
41
1
10
5.06659620809325
20
-2.42085603012453
30
0
41
1
10
5.15769710240124
20
-2.75916687110336
30
0
41
1
10
5.41961835008112
20
-3.09176850221894
30
0
0
SPLINE
5
111
100
AcDbEntity
8
1
62
256
6
ByLayer
370
18
48
1
60
0
100
AcDbSpline
70
4
71
3
72
8
73
4
40
0
40
0
40
0
40
0
40
1
40
1
40
1
40
1
41
1
10
12.4707966056858
20
4.7013292021787
30
0
41
1
10
12.5421952623577
20
4.71520696003032
30
0
41
1
10
12.6126810951778
20
4.73214475520649
30
0
41
1
10
12.6817606006297
20
4.75200571999383
30
0
0
SPLINE
5
112
100
AcDbEntity
8
1
62
256
6
ByLayer
370
18
48
1
60
0
100
AcDbSpline
70
4
71
3
72
8
73
4
40
0
40
0
40
0
40
0
40
1
40
1
40
1
40
1
41
1
10
5.43492677756649
20
-0.0261690133058323
30
0
41
1
10
5.42485203253557
20
-0.0474210874047003
30
0
41
1
10
5.41531733199474
20
-0.0687400644261515
30
0
41
1
10
5.40629752757923
20
-0.0901232175000928
30
0
0
SPLINE
5
113
100
AcDbEntity
8
1
62
256
6
ByLayer
370
18
48
1
60
0
100
AcDbSpline
70
4
71
3
72
8
73
4
40
0
40
0
40
0
40
0
40
1
40
1
40
1
40
1
41
1
10
9.03420285972226
20
-0.0726849441094544
30
0
41
1
10
7.67019967372727
20
-0.155478769645867
30
0
41
1
10
6.4091281227511
20
-0.186003245588751
30
0
41
1
10
5.5771117929346
20
-0.104064370962419
30
0
0
SPLINE
5
114
100
AcDbEntity
8
1
62
256
6
ByLayer
370
18
48
1
60
0
100
AcDbSpline
70
4
71
3
72
10
73
6
40
0
40
0
40
0
40
0
40
0.5
40
0.5
40
1
40
1
40
1
40
1
41
1
10
25.441551039518
20
-2.5808748375147
30
0
41
1
10
25.8411605788652
20
-2.31823868014655
30
0
41
1
10
26.2564412809651
20
-2.11846148933915
30
0
41
1
10
27.1815468553202
20
-2.09813543455346
30
0
41
1
10
27.6970947075802
20
-2.30810911505174
30
0
41
1
10
28.1522021313793
20
-2.89265703057228
30
0
0
SPLINE
5
115
100
AcDbEntity
8
1
62
256
6
ByLayer
370
18
48
1
60
0
100
AcDbSpline
70
4
71
3
72
8
73
4
40
0
40
0
40
0
40
0
40
1
40
1
40
1
40
1
41
1
10
9.18069466198773
20
7.49747888591986
30
0
41
1
10
9.75381274739289
20
6.88648241943821
30
0
41
1
10
10.527053726754
20
5.86833976517289
30
0
41
1
10
11.3224171693741
20
4.7541667443063
30
0
0
SPLINE
5
116
100
AcDbEntity
8
1
62
256
6
ByLayer
370
18
48
1
60
0
100
AcDbSpline
70
4
71
3
72
11
73
7
40
0
40
0
40
0
40
0
40
0.423407924946021
40
0.740963868655537
40
0.899741840510294
40
1
40
1
40
1
40
1
41
1.02805999725224
10
13.1825166546345
20
-5.75914953049069
30
0
41
1.02767136955277
10
14.0027439609611
20
-6.02796464269825
30
0
41
1.02349884684923
10
17.2669978764517
20
-6.21069001218577
30
0
41
1.01876555595691
10
21.4726920652808
20
-6.06965933253131
30
0
41
1.01635405201144
10
23.0541453116606
20
-6.01925229667901
30
0
41
1.01722454828215
10
23.5122395708307
20
-6.18211965076217
30
0
41
1.0177432798788
10
23.698587562683
20
-6.25755239566084
30
0
0
SPLINE
5
117
100
AcDbEntity
8
1
62
256
6
ByLayer
370
18
48
1
60
0
100
AcDbSpline
70
4
71
3
72
12
73
8
40
0
40
0
40
0
40
0
40
0.108853988607134
40
0.502629237162306
40
0.699516861439892
40
0.896404485717478
40
1
40
1
40
1
40
1
41
1.02441262532206
10
19.5495745105044
20
-0.750599502425387
30
0
41
1.02394775682001
10
19.8433036218582
20
-0.919098320007301
30
0
41
1.02173322384668
10
21.2303486305517
20
-1.72156521722886
30
0
41
1.01876555595691
10
23.1599174022949
20
-2.87903835791891
30
0
41
1.01610930227499
10
24.4390853154521
20
-3.67352291105777
30
0
41
1.01814069306376
10
25.0703047654637
20
-3.95673464837971
30
0
41
1.02005196006971
10
25.6235225687702
20
-4.22560629349598
30
0
41
1.02076673234773
10
25.8246941397827
20
-4.32588217035487
30
0
0
SPLINE
5
118
100
AcDbEntity
8
1
62
256
6
ByLayer
370
18
48
1
60
0
100
AcDbSpline
70
4
71
2
72
6
73
3
40
0
40
0
40
0
40
1
40
1
40
1
41
1.02805999725224
10
13.1825166546345
20
-5.75914953049069
30
0
41
1.02805999725224
10
12.7537217019876
20
-6.15624338388754
30
0
41
1.02805999725224
10
12.3249267493406
20
-6.55333723728439
30
0
0
SPLINE
5
119
100
AcDbEntity
8
1
62
256
6
ByLayer
370
18
48
1
60
0
100
AcDbSpline
70
4
71
3
72
8
73
4
40
0
40
0
40
0
40
0
40
1
40
1
40
1
40
1
41
1
10
27.647489765225
20
-1.76769569465537
30
0
41
1
10
27.8166962072562
20
-2.14118952868975
30
0
41
1
10
27.9852332086173
20
-2.51682775483286
30
0
41
1
10
28.1522021313793
20
-2.89265703057231
30
0
0
SPLINE
5
11A
100
AcDbEntity
8
1
62
256
6
ByLayer
370
18
48
1
60
0
100
AcDbSpline
70
4
71
3
72
8
73
4
40
0
40
0
40
0
40
0
40
1
40
1
40
1
40
1
41
1
10
28.6276504489233
20
-4.1102946293602
30
0
41
1
10
28.6692217080545
20
-4.1780406879837
30
0
41
1
10
28.7089438880954
20
-4.25055321587294
30
0
41
1
10
28.7459871248295
20
-4.32665797210816
30
0
0
SPLINE
5
11B
100
AcDbEntity
8
1
62
256
6
ByLayer
370
18
48
1
60
0
100
AcDbSpline
70
4
71
3
72
10
73
6
40
0
40
0
40
0
40
0
40
0.5
40
0.5
40
1
40
1
40
1
40
1
41
1
10
12.3249267493406
20
-6.55333723728438
30
0
41
1
10
13.5343636978291
20
-7.11008424640528
30
0
41
1
10
14.7984653597194
20
-7.46205110334958
30
0
41
1
10
17.3655472495373
20
-8.02034134498621
30
0
41
1
10
18.6881112572634
20
-8.18027150493887
30
0
41
1
10
20.0111228556159
20
-8.23330918831766
30
0
0
SPLINE
5
11C
100
AcDbEntity
8
1
62
256
6
ByLayer
370
18
48
1
60
0
100
AcDbSpline
70
4
71
2
72
6
73
3
40
0
40
0
40
0
40
1
40
1
40
1
41
1
10
26.5897933650957
20
-0.0664681979043849
30
0
41
1
10
27.1651145695432
20
-0.897725301420593
30
0
41
1
10
27.6474524392619
20
-1.76758002924862
30
0
0
SPLINE
5
11D
100
AcDbEntity
8
1
62
256
6
ByLayer
370
18
48
1
60
0
100
AcDbSpline
70
4
71
3
72
10
73
6
40
0
40
0
40
0
40
0
40
0.5
40
0.5
40
1
40
1
40
1
40
1
41
1
10
25.7017789270156
20
-8.06167871235971
30
0
41
1
10
24.9683061058504
20
-8.09068809420106
30
0
41
1
10
24.4623971908139
20
-7.8437594075543
30
0
41
1
10
23.8773297374328
20
-7.15599577811582
30
0
41
1
10
23.7562982859631
20
-6.71681712052498
30
0
41
1
10
23.698587562759
20
-6.25755239569159
30
0
0
SPLINE
5
11E
100
AcDbEntity
8
1
62
256
6
ByLayer
370
18
48
1
60
0
100
AcDbSpline
70
4
71
3
72
8
73
4
40
0
40
0
40
0
40
0
40
1
40
1
40
1
40
1
41
1
10
17.8399514773445
20
3.22204858683833
30
0
41
1
10
18.1582483570775
20
4.09026455317792
30
0
41
1
10
18.3541407471419
20
4.80443036035999
30
0
41
1
10
18.3889344954138
20
5.22347855611844
30
0
0
SPLINE
5
11F
100
AcDbEntity
8
1
62
256
6
ByLayer
370
18
48
1
60
0
100
AcDbSpline
70
4
71
3
72
20
73
16
40
0
40
0
40
0
40
0
40
0.110576036200127
40
0.110576036200127
40
0.197179369122807
40
0.197179369122807
40
0.284291117387369
40
0.284291117387369
40
0.365904217918076
40
0.365904217918076
40
0.497270233392068
40
0.497270233392068
40
0.733496364826701
40
0.733496364826701
40
1
40
1
40
1
40
1
41
1
10
23.6985875627602
20
-6.25755239569207
30
0
41
1
10
23.6934470673755
20
-6.21667335123635
30
0
41
1
10
23.6971894365862
20
-6.17164179594911
30
0
41
1
10
23.7276075714253
20
-6.08658980380818
30
0
41
1
10
23.7497095113649
20
-6.04676856037031
30
0
41
1
10
23.8117484538564
20
-5.9678200668059
30
0
41
1
10
23.8526701064401
20
-5.92772108602668
30
0
41
1
10
23.9431105821676
20
-5.8559028700696
30
0
41
1
10
23.9928038822726
20
-5.82296807142396
30
0
41
1
10
24.1270714246672
20
-5.7457667497022
30
0
41
1
10
24.2166192146204
20
-5.70520365630816
30
0
41
1
10
24.4638344777761
20
-5.61028133023777
30
0
41
1
10
24.6244415943526
20
-5.56741302387627
30
0
41
1
10
24.954134202518
20
-5.49606947153927
30
0
41
1
10
25.1251828669085
20
-5.46981234156715
30
0
41
1
10
25.2917310914829
20
-5.45013595146119
30
0
0
SPLINE
5
120
100
AcDbEntity
8
1
62
256
6
ByLayer
370
18
48
1
60
0
100
AcDbSpline
70
4
71
3
72
8
73
4
40
0
40
0
40
0
40
0
40
1
40
1
40
1
40
1
41
1
10
17.8399514620978
20
3.22204856889067
30
0
41
1
10
17.6125763109833
20
3.39219880610287
30
0
41
1
10
17.3651165725896
20
3.54302804526426
30
0
41
1
10
17.1063300536766
20
3.66514461887976
30
0
0
SPLINE
5
121
100
AcDbEntity
8
1
62
256
6
ByLayer
370
18
48
1
60
0
100
AcDbSpline
70
4
71
3
72
15
73
11
40
0
40
0
40
0
40
0
40
0.227604479949749
40
0.227604479949749
40
0.479423709218441
40
0.479423709218441
40
0.785574270382836
40
0.785574270382836
40
0.785574270382836
40
1
40
1
40
1
40
1
41
1
10
19.5495745105044
20
-0.750599502425359
30
0
41
1
10
19.6039091842648
20
-0.413115481168489
30
0
41
1
10
19.607971868127
20
-0.0620336294844037
30
0
41
1
10
19.520325582176
20
0.655725668970149
30
0
41
1
10
19.4182849643919
20
1.02861865856551
30
0
41
1
10
19.0942974137411
20
1.8027302488502
30
0
41
1
10
18.8470324108054
20
2.20413699022345
30
0
41
1
10
18.5485577307086
20
2.55486769255756
30
0
41
1
10
18.3382204928674
20
2.8020301223192
30
0
41
1
10
18.099512314853
20
3.02756075139396
30
0
41
1
10
17.8399514688989
20
3.22204856380125
30
0
0
SPLINE
5
122
100
AcDbEntity
8
1
62
256
6
ByLayer
370
18
48
1
60
0
100
AcDbSpline
70
4
71
3
72
10
73
6
40
0
40
0
40
0
40
0
40
0.655488757716282
40
0.655488757716282
40
1
40
1
40
1
40
1
41
1
10
11.8182236645235
20
9.6343888446427
30
0
41
1
10
11.484553418248
20
9.79712685790267
30
0
41
1
10
11.0951463111649
20
9.9463445443202
30
0
41
1
10
10.4370576830361
20
10.074094811137
30
0
41
1
10
10.1960428349351
20
10.1001401767731
30
0
41
1
10
9.94952249397551
20
10.0994906109953
30
0
0
SPLINE
5
123
100
AcDbEntity
8
1
62
256
6
ByLayer
370
18
48
1
60
0
100
AcDbSpline
70
4
71
3
72
8
73
4
40
0
40
0
40
0
40
0
40
1
40
1
40
1
40
1
41
1
10
24.5119595392265
20
-8.38190979978611
30
0
41
1
10
24.9078478569105
20
-8.27723172951019
30
0
41
1
10
25.3051468741452
20
-8.1703101195441
30
0
41
1
10
25.7017789270395
20
-8.0616787123588
30
0
0
SPLINE
5
124
100
AcDbEntity
8
1
62
256
6
ByLayer
370
18
48
1
60
0
100
AcDbSpline
70
4
71
3
72
8
73
4
40
0
40
0
40
0
40
0
40
1
40
1
40
1
40
1
41
1
10
14.3592992449075
20
-4.12017979019083
30
0
41
1
10
14.078053517049
20
-4.05061138886049
30
0
41
1
10
13.8084265424959
20
-3.95564291419365
30
0
41
1
10
13.5511720482651
20
-3.83424927470028
30
0
0
SPLINE
5
125
100
AcDbEntity
8
1
62
256
6
ByLayer
370
18
48
1
60
0
100
AcDbSpline
70
4
71
3
72
10
73
6
40
0
40
0
40
0
40
0
40
0.967465556419482
40
0.967465556419482
40
1
40
1
40
1
40
1
41
1
10
25.2917310914829
20
-5.45013595146119
30
0
41
1
10
25.6974186627999
20
-5.40212777710948
30
0
41
1
10
26.0980551665022
20
-5.36370757891874
30
0
41
1
10
26.5019565264901
20
-5.33880153391894
30
0
41
1
10
26.515097344817
20
-5.33800735583179
30
0
41
1
10
26.5282264488952
20
-5.33723034310702
30
0
0
SPLINE
5
126
100
AcDbEntity
8
1
62
256
6
ByLayer
370
18
48
1
60
0
100
AcDbSpline
70
4
71
3
72
8
73
4
40
0
40
0
40
0
40
0
40
1
40
1
40
1
40
1
41
1
10
15.2687378404239
20
4.5322704093866
30
0
41
1
10
14.4365412069329
20
4.92496861439031
30
0
41
1
10
13.5197970318164
20
4.99294855740206
30
0
41
1
10
12.6817606006297
20
4.75200571999383
30
0
0
SPLINE
5
127
100
AcDbEntity
8
1
62
256
6
ByLayer
370
18
48
1
60
0
100
AcDbSpline
70
4
71
1
72
4
73
2
40
0
40
0
40
1
40
1
41
1
10
18.3889344954138
20
5.22347855611844
30
0
41
1
10
18.4910899759404
20
6.45381653140669
30
0
0
SPLINE
5
128
100
AcDbEntity
8
1
62
256
6
ByLayer
370
18
48
1
60
0
100
AcDbSpline
70
4
71
3
72
10
73
6
40
0
40
0
40
0
40
0
40
0.5
40
0.5
40
1
40
1
40
1
40
1
41
1
10
11.4232062768999
20
9.57244236250887
30
0
41
1
10
10.9920768876527
20
9.55200687593864
30
0
41
1
10
10.6648869584092
20
9.39227787616252
30
0
41
1
10
9.8716293054635
20
8.78540629323263
30
0
41
1
10
9.40233202358081
20
8.26570085966338
30
0
41
1
10
9.0642798646528
20
7.62617247448236
30
0
0
SPLINE
5
129
100
AcDbEntity
8
1
62
256
6
ByLayer
370
18
48
1
60
0
100
AcDbSpline
70
4
71
3
72
8
73
4
40
0
40
0
40
0
40
0
40
1
40
1
40
1
40
1
41
1
10
9.89730118380396
20
-1.12164544141143
30
0
41
1
10
10.2459315337943
20
-1.91878119915268
30
0
41
1
10
10.8788355318164
20
-2.57322308095919
30
0
41
1
10
11.7135798350125
20
-2.96712348419334
30
0
0
SPLINE
5
12A
100
AcDbEntity
8
1
62
256
6
ByLayer
370
18
48
1
60
0
100
AcDbSpline
70
4
71
3
72
8
73
4
40
0
40
0
40
0
40
0
40
1
40
1
40
1
40
1
41
1
10
13.1825166546346
20
-5.75914953049067
30
0
41
1
10
13.4746083505025
20
-5.48865237015477
30
0
41
1
10
13.8945170722246
20
-4.90382244142765
30
0
41
1
10
14.3592992597094
20
-4.12017979385223
30
0
0
SPLINE
5
12B
100
AcDbEntity
8
1
62
256
6
ByLayer
370
18
48
1
60
0
100
AcDbSpline
70
4
71
3
72
11
73
7
40
0
40
0
40
0
40
0
40
0.423407924939448
40
0.740963868644034
40
0.899741840496327
40
1
40
1
40
1
40
1
41
1.02805999725224
10
18.3889344954138
20
5.22347855611843
30
0
41
1.02767136955277
10
19.116608403797
20
4.75942756788021
30
0
41
1.02349884684923
10
21.3215276820673
20
2.34209892678881
30
0
41
1.01876555595691
10
23.8789266518821
20
-0.993850904990474
30
0
41
1.01635405201137
10
24.8451037906339
20
-2.24133214232651
30
0
41
1.01722454828226
10
25.263930188003
20
-2.48703271020874
30
0
41
1.01774327987904
10
25.4415510395186
20
-2.58087483751501
30
0
0
SPLINE
5
12C
100
AcDbEntity
8
1
62
256
6
ByLayer
370
18
48
1
60
0
100
AcDbSpline
70
4
71
3
72
8
73
4
40
0
40
0
40
0
40
0
40
1
40
1
40
1
40
1
41
1
10
26.5899134681788
20
-0.0663193120444987
30
0
41
1
10
26.5053274622522
20
-0.0050516734107191
30
0
41
1
10
26.4194831892641
20
0.0542549416338431
30
0
41
1
10
26.3323542107283
20
0.111352662108175
30
0
0
SPLINE
5
12D
100
AcDbEntity
8
1
62
256
6
ByLayer
370
18
48
1
60
0
100
AcDbSpline
70
4
71
3
72
8
73
4
40
0
40
0
40
0
40
0
40
1
40
1
40
1
40
1
41
1
10
27.192403331276
20
-7.60385037728565
30
0
41
1
10
27.1096965719406
20
-7.62407010002829
30
0
41
1
10
27.0280139659118
20
-7.64007058954766
30
0
41
1
10
26.9487996314959
20
-7.65173035437726
30
0
0
SPLINE
5
12E
100
AcDbEntity
8
1
62
256
6
ByLayer
370
18
48
1
60
0
100
AcDbSpline
70
4
71
3
72
10
73
6
40
0
40
0
40
0
40
0
40
0.5
40
0.5
40
1
40
1
40
1
40
1
41
1
10
24.6687552159418
20
1.5916886397394
30
0
41
1
10
23.7925181084805
20
2.57373733741983
30
0
41
1
10
22.8439728939085
20
3.48077779269573
30
0
41
1
10
20.7745443885175
20
5.11608516435834
30
0
41
1
10
19.6861458136563
20
5.87596934727995
30
0
41
1
10
18.4910899759404
20
6.45381653140669
30
0
0
SPLINE
5
12F
100
AcDbEntity
8
1
62
256
6
ByLayer
370
18
48
1
60
0
100
AcDbSpline
70
4
71
3
72
8
73
4
40
0
40
0
40
0
40
0
40
1
40
1
40
1
40
1
41
1
10
11.3224171693741
20
4.7541667443063
30
0
41
1
10
11.0748530695853
20
4.81714335028963
30
0
41
1
10
10.8433220644835
20
4.90462888221231
30
0
41
1
10
10.6252601454611
20
5.00936163920201
30
0
0
SPLINE
5
130
100
AcDbEntity
8
1
62
256
6
ByLayer
370
18
48
1
60
0
100
AcDbSpline
70
4
71
3
72
12
73
8
40
0
40
0
40
0
40
0
40
0.471343086678509
40
0.471343086678509
40
0.892619726108212
40
0.892619726108212
40
1
40
1
40
1
40
1
41
1
10
11.3224171693741
20
4.7541667443063
30
0
41
1
10
11.494780799025
20
4.71032001370338
30
0
41
1
10
11.6776962236087
20
4.67889243630532
30
0
41
1
10
12.0247457035355
20
4.6556703887012
30
0
41
1
10
12.1924586908152
20
4.66012834881036
30
0
41
1
10
12.3909909061755
20
4.68701788921368
30
0
41
1
10
12.431268411299
20
4.69364610650749
30
0
41
1
10
12.4707966056858
20
4.7013292021787
30
0
0
SPLINE
5
131
100
AcDbEntity
8
1
62
256
6
ByLayer
370
18
48
1
60
0
100
AcDbSpline
70
4
71
3
72
11
73
7
40
0
40
0
40
0
40
0
40
0.564783939443781
40
0.564783939443781
40
0.564783939443781
40
1
40
1
40
1
40
1
41
1
10
22.2197220945267
20
-8.56399963780007
30
0
41
1
10
21.8737244569088
20
-8.46202997648842
30
0
41
1
10
21.4720396112966
20
-8.36619843582534
30
0
41
1
10
21.0451849970784
20
-8.31299257523122
30
0
41
1
10
20.7135421460892
20
-8.27165451138228
30
0
41
1
10
20.3635491988252
20
-8.24743746718437
30
0
41
1
10
20.0111228556163
20
-8.23330918831763
30
0
0
SPLINE
5
132
100
AcDbEntity
8
1
62
256
6
ByLayer
370
18
48
1
60
0
100
AcDbSpline
70
4
71
3
72
12
73
8
40
0
40
0
40
0
40
0
40
0.466938972358633
40
0.466938972358633
40
0.928803236876555
40
0.928803236876555
40
1
40
1
40
1
40
1
41
1
10
9.80219514463829
20
-0.92792650773589
30
0
41
1
10
9.71994290050009
20
-0.77736648103226
30
0
41
1
10
9.61226751350864
20
-0.626485333586345
30
0
41
1
10
9.37240287003914
20
-0.355682627273183
30
0
41
1
10
9.23762394616904
20
-0.23142779814296
30
0
41
1
10
9.07767916667672
20
-0.10561678562749
30
0
41
1
10
9.05599209281564
20
-0.0889875827640196
30
0
41
1
10
9.03420285972231
20
-0.0726849441094544
30
0
0
SPLINE
5
133
100
AcDbEntity
8
1
62
256
6
ByLayer
370
18
48
1
60
0
100
AcDbSpline
70
4
71
2
72
6
73
3
40
0
40
0
40
0
40
1
40
1
40
1
41
1
10
24.511872621725
20
-8.3819440697369
30
0
41
1
10
23.5315112965527
20
-8.56177966669293
30
0
41
1
10
22.5228643773727
20
-8.64541222380956
30
0
0
SPLINE
5
134
100
AcDbEntity
8
1
62
256
6
ByLayer
370
18
48
1
60
0
100
AcDbSpline
70
4
71
3
72
15
73
11
40
0
40
0
40
0
40
0
40
0.322163720426454
40
0.322163720426454
40
0.64483345260023
40
0.64483345260023
40
0.912233455904555
40
0.912233455904555
40
0.912233455904555
40
1
40
1
40
1
40
1
41
1
10
14.3592992597094
20
-4.12017979385223
30
0
41
1
10
14.8294978310825
20
-4.23600558947118
30
0
41
1
10
15.326323810753
20
-4.27166494856607
30
0
41
1
10
16.2919219913908
20
-4.18732626568374
30
0
41
1
10
16.7742501353472
20
-4.06634142958188
30
0
41
1
10
17.5841016976993
20
-3.70592590041284
30
0
41
1
10
17.9332951133945
20
-3.48494106675469
30
0
41
1
10
18.2330503318056
20
-3.21549648485663
30
0
41
1
10
18.3326661328061
20
-3.12595363054598
30
0
41
1
10
18.4274416167028
20
-3.03069210806058
30
0
41
1
10
18.5160914891058
20
-2.93067033134412
30
0
0
SPLINE
5
135
100
AcDbEntity
8
1
62
256
6
ByLayer
370
18
48
1
60
0
100
AcDbSpline
70
4
71
3
72
8
73
4
40
0
40
0
40
0
40
0
40
1
40
1
40
1
40
1
41
1
10
9.03291801195883
20
7.5635790235703
30
0
41
1
10
9.04299275698975
20
7.58483109766919
30
0
41
1
10
9.05345257614442
20
7.60568936809545
30
0
41
1
10
9.0642798646528
20
7.62617247448239
30
0
0
INSERT
5
148
100
AcDbEntity
8
SK2
62
256
6
ByLayer
370
25
48
1
60
0
100
AcDbBlockReference
2
DimnDraft3D11
10
0
20
0
30
0
41
1
42
1
43
1
50
0
210
0
220
0
230
1
0
LINE
5
72
100
AcDbEntity
8
1
62
256
6
ByLayer
370
18
48
1
60
0
100
AcDbLine
10
12.266248
20
-3.025445
30
0
11
12.47837
21
-3.147914
31
0
39
0
210
0
220
0
230
1
0
LINE
5
74
100
AcDbEntity
8
1
62
256
6
ByLayer
370
18
48
1
60
0
100
AcDbLine
10
16.47837
20
3.78029
30
0
11
16.266248
21
3.902758
31
0
39
0
210
0
220
0
230
1
0
LINE
5
75
100
AcDbEntity
8
1
62
256
6
ByLayer
370
18
48
1
60
0
100
AcDbLine
10
21.819002
20
-12.533982
30
0
11
22.373023
21
-12.853846
31
0
39
0
210
0
220
0
230
1
0
LINE
5
76
100
AcDbEntity
8
1
62
256
6
ByLayer
370
18
48
1
60
0
100
AcDbLine
10
5.489636
20
-3.295185
30
0
11
6.049693
21
-3.591177
31
0
39
0
210
0
220
0
230
1
0
LINE
5
77
100
AcDbEntity
8
1
62
256
6
ByLayer
370
18
48
1
60
0
100
AcDbLine
10
14.837135
20
1.449422
30
0
11
15.040858
21
1.331802
31
0
39
0
210
0
220
0
230
1
0
LINE
5
78
100
AcDbEntity
8
1
62
256
6
ByLayer
370
18
48
1
60
0
100
AcDbLine
10
14.102808
20
-0.807349
30
0
11
13.899085
21
-0.689729
31
0
39
0
210
0
220
0
230
1
0
LINE
5
79
100
AcDbEntity
8
1
62
256
6
ByLayer
370
18
48
1
60
0
100
AcDbLine
10
31.097818
20
2.088105
30
0
11
30.557416
21
2.400106
31
0
39
0
210
0
220
0
230
1
0
LINE
5
7A
100
AcDbEntity
8
1
62
256
6
ByLayer
370
18
48
1
60
0
100
AcDbLine
10
8.534699
20
0.242083
30
0
11
8.113452
21
0.464713
31
0
39
0
210
0
220
0
230
1
0
LINE
5
7B
100
AcDbEntity
8
80
62
256
6
ByLayer
370
18
48
1
60
0
100
AcDbLine
10
0
20
0
30
0
11
-5
21
0
31
0
39
0
210
0
220
0
230
1
0
LINE
5
7C
100
AcDbEntity
8
81
62
256
6
ByLayer
370
18
48
1
60
0
100
AcDbLine
10
34.232183
20
-9.9125
30
0
11
44.232183
21
-9.9125
31
0
39
0
210
0
220
0
230
1
0
LINE
5
7D
100
AcDbEntity
8
1
62
256
6
ByLayer
370
18
48
1
60
0
100
AcDbLine
10
13.675047
20
9.705485
30
0
11
13.298648
21
8.911494
31
0
39
0
210
0
220
0
230
1
0
LINE
5
7E
100
AcDbEntity
8
1
62
256
6
ByLayer
370
18
48
1
60
0
100
AcDbLine
10
7.128742
20
-4.103555
30
0
11
4.138411
21
-10.411481
31
0
39
0
210
0
220
0
230
1
0
LINE
5
7F
100
AcDbEntity
8
1
62
256
6
ByLayer
370
18
48
1
60
0
100
AcDbLine
10
10.435499
20
10.82595
30
0
11
10.084776
21
10.086121
31
0
39
0
210
0
220
0
230
1
0
LINE
5
80
100
AcDbEntity
8
1
62
256
6
ByLayer
370
18
48
1
60
0
100
AcDbLine
10
4.215401
20
-2.294978
30
0
11
1.626136
21
-7.756877
31
0
39
0
210
0
220
0
230
1
0
LINE
5
81
100
AcDbEntity
8
1
62
256
6
ByLayer
370
18
48
1
60
0
100
AcDbLine
10
20.802302
20
-8.294368
30
0
11
21.884314
21
-12.51648
31
0
39
0
210
0
220
0
230
1
0
LINE
5
82
100
AcDbEntity
8
1
62
256
6
ByLayer
370
18
48
1
60
0
100
AcDbLine
10
25.306815
20
0.933027
30
0
11
30.577753
21
2.320747
31
0
39
0
210
0
220
0
230
1
0
LINE
5
83
100
AcDbEntity
8
1
62
256
6
ByLayer
370
18
48
1
60
0
100
AcDbLine
10
20.819913
20
-8.295634
30
0
11
21.081463
21
-9.316225
31
0
39
0
210
0
220
0
230
1
0
LINE
5
84
100
AcDbEntity
8
1
62
256
6
ByLayer
370
18
48
1
60
0
100
AcDbLine
10
30.577753
20
2.320747
30
0
11
30.547586
21
2.212526
31
0
39
0
210
0
220
0
230
1
0
LINE
5
85
100
AcDbEntity
8
1
62
256
6
ByLayer
370
18
48
1
60
0
100
AcDbLine
10
9.546154
20
11.139443
30
0
11
8.925715
21
9.830664
31
0
39
0
210
0
220
0
230
1
0
LINE
5
86
100
AcDbEntity
8
1
62
256
6
ByLayer
370
18
48
1
60
0
100
AcDbLine
10
3.678911
20
-1.237157
30
0
11
0.753396
21
-7.408357
31
0
39
0
210
0
220
0
230
1
0
LINE
5
87
100
AcDbEntity
8
1
62
256
6
ByLayer
370
18
48
1
60
0
100
AcDbLine
10
10.410034
20
10.840652
30
0
11
10.053795
21
10.089189
31
0
39
0
210
0
220
0
230
1
0
LINE
5
88
100
AcDbEntity
8
1
62
256
6
ByLayer
370
18
48
1
60
0
100
AcDbLine
10
4.193626
20
-2.27249
30
0
11
1.423336
21
-8.116252
31
0
39
0
210
0
220
0
230
1
0
LINE
5
89
100
AcDbEntity
8
1
62
256
6
ByLayer
370
18
48
1
60
0
100
AcDbLine
10
22.007279
20
-12.370598
30
0
11
20.965845
21
-8.306828
31
0
39
0
210
0
220
0
230
1
0
LINE
5
8A
100
AcDbEntity
8
1
62
256
6
ByLayer
370
18
48
1
60
0
100
AcDbLine
10
25.441349
20
0.808765
30
0
11
30.504764
21
2.165503
31
0
39
0
210
0
220
0
230
1
0
LINE
5
8B
100
AcDbEntity
8
1
62
256
6
ByLayer
370
18
48
1
60
0
100
AcDbLine
10
21.949976
20
-12.337515
30
0
11
22.007279
21
-12.370598
31
0
39
0
210
0
220
0
230
1
0
LINE
5
8C
100
AcDbEntity
8
1
62
256
6
ByLayer
370
18
48
1
60
0
100
AcDbLine
10
30.4582
20
2.192387
30
0
11
30.504764
21
2.165503
31
0
39
0
210
0
220
0
230
1
0
LINE
5
8D
100
AcDbEntity
8
1
62
256
6
ByLayer
370
18
48
1
60
0
100
AcDbLine
10
11.71358
20
-2.967123
30
0
11
11.514371
21
-2.861841
31
0
39
0
210
0
220
0
230
1
0
LINE
5
8E
100
AcDbEntity
8
1
62
256
6
ByLayer
370
18
48
1
60
0
100
AcDbLine
10
11.443802
20
-2.81621
30
0
11
13.12638
21
-3.609745
31
0
39
0
210
0
220
0
230
1
0
LINE
5
8F
100
AcDbEntity
8
1
62
256
6
ByLayer
370
18
48
1
60
0
100
AcDbLine
10
13.624539
20
8.752679
30
0
11
13.628281
21
8.748486
31
0
39
0
210
0
220
0
230
1
0
LINE
5
90
100
AcDbEntity
8
1
62
256
6
ByLayer
370
18
48
1
60
0
100
AcDbLine
10
11.71358
20
-2.967123
30
0
11
13.551172
21
-3.834249
31
0
39
0
210
0
220
0
230
1
0
LINE
5
91
100
AcDbEntity
8
1
62
256
6
ByLayer
370
18
48
1
60
0
100
AcDbLine
10
28.83286
20
-4.536458
30
0
11
28.745987
21
-4.326658
31
0
39
0
210
0
220
0
230
1
0
LINE
5
92
100
AcDbEntity
8
1
62
256
6
ByLayer
370
18
48
1
60
0
100
AcDbLine
10
28.561202
20
-3.880399
30
0
11
28.62765
21
-4.110295
31
0
39
0
210
0
220
0
230
1
0
LINE
5
93
100
AcDbEntity
8
1
62
256
6
ByLayer
370
18
48
1
60
0
100
AcDbLine
10
7.471291
20
8.388904
30
0
11
3.873299
21
0.799156
31
0
39
0
210
0
220
0
230
1
0
LINE
5
94
100
AcDbEntity
8
1
62
256
6
ByLayer
370
18
48
1
60
0
100
AcDbLine
10
7.456554
20
-4.258318
30
0
11
6.168471
21
-3.650495
31
0
39
0
210
0
220
0
230
1
0
LINE
5
95
100
AcDbEntity
8
1
62
256
6
ByLayer
370
18
48
1
60
0
100
AcDbLine
10
9.032918
20
7.563579
30
0
11
7.471291
21
8.388904
31
0
39
0
210
0
220
0
230
1
0
LINE
5
96
100
AcDbEntity
8
1
62
256
6
ByLayer
370
18
48
1
60
0
100
AcDbLine
10
7.9947
20
0.524056
30
0
11
6.633433
21
1.166055
31
0
39
0
210
0
220
0
230
1
0
LINE
5
97
100
AcDbEntity
8
1
62
256
6
ByLayer
370
18
48
1
60
0
100
AcDbLine
10
5.434927
20
-0.026169
30
0
11
9.032918
21
7.563579
31
0
39
0
210
0
220
0
230
1
0
LINE
5
98
100
AcDbEntity
8
1
62
256
6
ByLayer
370
18
48
1
60
0
100
AcDbLine
10
26.528226
20
-5.33723
30
0
11
28.893076
21
-6.410638
31
0
39
0
210
0
220
0
230
1
0
LINE
5
99
100
AcDbEntity
8
1
62
256
6
ByLayer
370
18
48
1
60
0
100
AcDbLine
10
12.336456
20
9.360502
30
0
11
13.624539
21
8.752679
31
0
39
0
210
0
220
0
230
1
0
LINE
5
9A
100
AcDbEntity
8
1
62
256
6
ByLayer
370
18
48
1
60
0
100
AcDbLine
10
11.560267
20
8.4458
30
0
11
18.388934
21
5.223479
31
0
39
0
210
0
220
0
230
1
0
LINE
5
9B
100
AcDbEntity
8
1
62
256
6
ByLayer
370
18
48
1
60
0
100
AcDbLine
10
6.353849
20
-2.536828
30
0
11
13.182517
21
-5.75915
31
0
39
0
210
0
220
0
230
1
0
LINE
5
9C
100
AcDbEntity
8
1
62
256
6
ByLayer
370
18
48
1
60
0
100
AcDbLine
10
17.10633
20
3.665145
30
0
11
15.268738
21
4.53227
31
0
39
0
210
0
220
0
230
1
0
LINE
5
9D
100
AcDbEntity
8
1
62
256
6
ByLayer
370
18
48
1
60
0
100
AcDbLine
10
6.633433
20
1.166055
30
0
11
8.860761
21
5.86447
31
0
39
0
210
0
220
0
230
1
0
LINE
5
9E
100
AcDbEntity
8
1
62
256
6
ByLayer
370
18
48
1
60
0
100
AcDbLine
10
12.336456
20
9.360502
30
0
11
11.818224
21
9.634389
31
0
39
0
210
0
220
0
230
1
0
LINE
5
9F
100
AcDbEntity
8
1
62
256
6
ByLayer
370
18
48
1
60
0
100
AcDbLine
10
26.9488
20
-7.65173
30
0
11
26.728523
21
-7.746326
31
0
39
0
210
0
220
0
230
1
0
LINE
5
A0
100
AcDbEntity
8
1
62
256
6
ByLayer
370
18
48
1
60
0
100
AcDbLine
10
26.728523
20
-7.746326
30
0
11
25.701779
21
-8.061679
31
0
39
0
210
0
220
0
230
1
0
LINE
5
A1
100
AcDbEntity
8
1
62
256
6
ByLayer
370
18
48
1
60
0
100
AcDbLine
10
5.434927
20
-0.026169
30
0
11
3.873299
21
0.799156
31
0
39
0
210
0
220
0
230
1
0
LINE
5
A2
100
AcDbEntity
8
1
62
256
6
ByLayer
370
18
48
1
60
0
100
AcDbLine
10
8.397932
20
0.310946
30
0
11
7.9947
21
0.524056
31
0
39
0
210
0
220
0
230
1
0
LINE
5
A3
100
AcDbEntity
8
1
62
256
6
ByLayer
370
18
48
1
60
0
100
AcDbLine
10
27.410488
20
-7.536868
30
0
11
27.192403
21
-7.60385
31
0
39
0
210
0
220
0
230
1
0
LINE
5
A4
100
AcDbEntity
8
1
62
256
6
ByLayer
370
18
48
1
60
0
100
AcDbLine
10
7.456554
20
-4.258318
30
0
11
7.462118
21
-4.258668
31
0
39
0
210
0
220
0
230
1
0
LINE
5
A5
100
AcDbEntity
8
1
62
256
6
ByLayer
370
18
48
1
60
0
100
AcDbLine
10
28.561202
20
-3.880399
30
0
11
28.152202
21
-2.892657
31
0
39
0
210
0
220
0
230
1
0
LINE
5
A6
100
AcDbEntity
8
1
62
256
6
ByLayer
370
18
48
1
60
0
100
AcDbLine
10
18.49109
20
6.453817
30
0
11
13.628281
21
8.748486
31
0
39
0
210
0
220
0
230
1
0
LINE
5
A7
100
AcDbEntity
8
1
62
256
6
ByLayer
370
18
48
1
60
0
100
AcDbLine
10
12.324927
20
-6.553337
30
0
11
7.462118
21
-4.258668
31
0
39
0
210
0
220
0
230
1
0
LINE
5
A8
100
AcDbEntity
8
1
62
256
6
ByLayer
370
18
48
1
60
0
100
AcDbLine
10
13.624539
20
8.752679
30
0
11
11.886069
21
9.601285
31
0
39
0
210
0
220
0
230
1
0
LINE
5
A9
100
AcDbEntity
8
1
62
256
6
ByLayer
370
18
48
1
60
0
100
AcDbLine
10
13.551172
20
-3.834249
30
0
11
13.12638
21
-3.609745
31
0
39
0
210
0
220
0
230
1
0
LINE
5
AA
100
AcDbEntity
8
1
62
256
6
ByLayer
370
18
48
1
60
0
100
AcDbLine
10
15.381902
20
-0.513767
30
0
11
15.585625
21
-0.631386
31
0
39
0
210
0
220
0
230
1
0
LINE
5
AB
100
AcDbEntity
8
1
62
256
6
ByLayer
370
18
48
1
60
0
100
AcDbLine
10
15.653024
20
0.823182
30
0
11
15.856747
21
0.705563
31
0
39
0
210
0
220
0
230
1
0
LINE
5
AC
100
AcDbEntity
8
1
62
256
6
ByLayer
370
18
48
1
60
0
100
AcDbLine
10
13.504243
20
-0.677397
30
0
11
13.707966
21
-0.795016
31
0
39
0
210
0
220
0
230
1
0
LINE
5
AD
100
AcDbEntity
8
1
62
256
6
ByLayer
370
18
48
1
60
0
100
AcDbLine
10
15.703616
20
0.164869
30
0
11
15.907339
21
0.047249
31
0
39
0
210
0
220
0
230
1
0
LINE
5
AE
100
AcDbEntity
8
1
62
256
6
ByLayer
370
18
48
1
60
0
100
AcDbLine
10
14.839748
20
-0.892374
30
0
11
15.043472
21
-1.009994
31
0
39
0
210
0
220
0
230
1
0
LINE
5
AF
100
AcDbEntity
8
1
62
256
6
ByLayer
370
18
48
1
60
0
100
AcDbLine
10
14.639232
20
1.716795
30
0
11
14.842955
21
1.599176
31
0
39
0
210
0
220
0
230
1
0
LINE
5
B0
100
AcDbEntity
8
1
62
256
6
ByLayer
370
18
48
1
60
0
100
AcDbLine
10
30.003036
20
4.563345
30
0
11
13.675047
21
9.705485
31
0
39
0
210
0
220
0
230
1
0
LINE
5
B1
100
AcDbEntity
8
1
62
256
6
ByLayer
370
18
48
1
60
0
100
AcDbLine
10
0.579527
20
-13.017027
30
0
11
0
21
-12.4375
31
0
39
0
210
0
220
0
230
1
0
LINE
5
B2
100
AcDbEntity
8
1
62
256
6
ByLayer
370
18
48
1
60
0
100
AcDbLine
10
21.884314
20
-12.51648
30
0
11
21.973192
21
-12.428087
31
0
39
0
210
0
220
0
230
1
0
LINE
5
B3
100
AcDbEntity
8
1
62
256
6
ByLayer
370
18
48
1
60
0
100
AcDbLine
10
5.401804
20
12.444614
30
0
11
9.325172
21
12.298527
31
0
39
0
210
0
220
0
230
1
0
LINE
5
B4
100
AcDbEntity
8
1
62
256
6
ByLayer
370
18
48
1
60
0
100
AcDbLine
10
5.401804
20
12.444614
30
0
11
2.06072
21
12.446492
31
0
39
0
210
0
220
0
230
1
0
LINE
5
B5
100
AcDbEntity
8
1
62
256
6
ByLayer
370
18
48
1
60
0
100
AcDbLine
10
30.003036
20
4.563345
30
0
11
30.577753
21
2.320747
31
0
39
0
210
0
220
0
230
1
0
LINE
5
B6
100
AcDbEntity
8
1
62
256
6
ByLayer
370
18
48
1
60
0
100
AcDbLine
10
5.401804
20
12.444614
30
0
11
9.546154
21
11.139443
31
0
39
0
210
0
220
0
230
1
0
LINE
5
B7
100
AcDbEntity
8
1
62
256
6
ByLayer
370
18
48
1
60
0
100
AcDbLine
10
0
20
12.4375
30
0
11
2.06072
21
12.446492
31
0
39
0
210
0
220
0
230
1
0
LINE
5
B8
100
AcDbEntity
8
1
62
256
6
ByLayer
370
18
48
1
60
0
100
AcDbLine
10
1.423336
20
-8.116252
30
0
11
1.626136
21
-7.756877
31
0
39
0
210
0
220
0
230
1
0
LINE
5
B9
100
AcDbEntity
8
1
62
256
6
ByLayer
370
18
48
1
60
0
100
AcDbLine
10
1.626136
20
-7.756877
30
0
11
4.138411
21
-10.411481
31
0
39
0
210
0
220
0
230
1
0
LINE
5
BA
100
AcDbEntity
8
1
62
256
6
ByLayer
370
18
48
1
60
0
100
AcDbLine
10
10.410034
20
10.840652
30
0
11
10.435499
21
10.82595
31
0
39
0
210
0
220
0
230
1
0
LINE
5
BB
100
AcDbEntity
8
1
62
256
6
ByLayer
370
18
48
1
60
0
100
AcDbLine
10
2.06072
20
12.446492
30
0
11
0.753396
21
-7.408357
31
0
39
0
210
0
220
0
230
1
0
LINE
5
BC
100
AcDbEntity
8
1
62
256
6
ByLayer
370
18
48
1
60
0
100
AcDbLine
10
3.966851
20
-13.017027
30
0
11
0.579527
21
-13.017027
31
0
39
0
210
0
220
0
230
1
0
LINE
5
BD
100
AcDbEntity
8
1
62
256
6
ByLayer
370
18
48
1
60
0
100
AcDbLine
10
0
20
-12.4375
30
0
11
0
21
12.4375
31
0
39
0
210
0
220
0
230
1
0
LINE
5
BE
100
AcDbEntity
8
1
62
256
6
ByLayer
370
18
48
1
60
0
100
AcDbLine
10
20.016246
20
-13.017027
30
0
11
3.966851
21
-13.017027
31
0
39
0
210
0
220
0
230
1
0
LINE
5
BF
100
AcDbEntity
8
1
62
256
6
ByLayer
370
18
48
1
60
0
100
AcDbLine
10
10.435499
20
10.82595
30
0
11
13.675047
21
9.705485
31
0
39
0
210
0
220
0
230
1
0
LINE
5
C0
100
AcDbEntity
8
1
62
256
6
ByLayer
370
18
48
1
60
0
100
AcDbLine
10
21.973192
20
-12.428087
30
0
11
21.364065
21
-10.051218
31
0
39
0
210
0
220
0
230
1
0
LINE
5
C1
100
AcDbEntity
8
1
62
256
6
ByLayer
370
18
48
1
60
0
100
AcDbLine
10
21.884314
20
-12.51648
30
0
11
20.016246
21
-13.017027
31
0
39
0
210
0
220
0
230
1
0
LINE
5
C2
100
AcDbEntity
8
1
62
256
6
ByLayer
370
18
48
1
60
0
100
AcDbLine
10
9.325172
20
12.298527
30
0
11
25.65572
21
7.073269
31
0
39
0
210
0
220
0
230
1
0
LINE
5
C3
100
AcDbEntity
8
1
62
256
6
ByLayer
370
18
48
1
60
0
100
AcDbLine
10
4.138411
20
-10.411481
30
0
11
3.966851
21
-13.017027
31
0
39
0
210
0
220
0
230
1
0
LINE
5
C4
100
AcDbEntity
8
1
62
256
6
ByLayer
370
18
48
1
60
0
100
AcDbLine
10
25.65572
20
7.073269
30
0
11
30.003036
21
4.563345
31
0
39
0
210
0
220
0
230
1
0
LINE
5
C5
100
AcDbEntity
8
SK1
62
256
6
ByLayer
370
18
48
1
60
0
100
AcDbLine
10
0
20
-12.4375
30
0
11
0
21
12.4375
31
0
39
0
210
0
220
0
230
1
0
LINE
5
C7
100
AcDbEntity
8
SK1
62
256
6
ByLayer
370
18
48
1
60
0
100
AcDbLine
10
-137.117817
20
-12.4375
30
0
11
-137.117817
21
12.4375
31
0
39
0
210
0
220
0
230
1
0
LINE
5
C8
100
AcDbEntity
8
SK1
62
256
6
ByLayer
370
18
48
1
60
0
100
AcDbLine
10
0
20
-12.4375
30
0
11
-137.117817
21
-12.4375
31
0
39
0
210
0
220
0
230
1
0
LINE
5
C9
100
AcDbEntity
8
SK1
62
256
6
ByLayer
370
18
48
1
60
0
100
AcDbLine
10
-137.117817
20
12.4375
30
0
11
0
21
12.4375
31
0
39
0
210
0
220
0
230
1
0
LINE
5
CA
100
AcDbEntity
8
1
62
256
6
ByLayer
370
18
48
1
60
0
100
AcDbLine
10
33.640646
20
-10.071002
30
0
11
22.966077
21
-12.931244
31
0
39
0
210
0
220
0
230
1
0
LINE
5
CB
100
AcDbEntity
8
1
62
256
6
ByLayer
370
18
48
1
60
0
100
AcDbLine
10
31.463562
20
1.604857
30
0
11
34.207336
21
-9.101603
31
0
39
0
210
0
220
0
230
1
0
MTEXT
5
136
100
AcDbEntity
8
SK6
62
256
6
ByLayer
370
18
48
1
60
0
100
AcDbMText
10
-65.567817
20
21.277232
30
0
210
0
220
0
230
1
1
\W0.7578;DSBNL 3225P 12
40
3.5
41
0
44
1.084337
50
0
71
7
72
5
7
iso_b_vert
0
DIMENSION
5
156
100
AcDbEntity
8
2
62
256
6
ByLayer
370
13
48
1
60
0
100
AcDbDimension
2
DimnDraft3D2
10
34.232183
20
-8.325
30
0
11
23.901159
21
-23.376153
31
0
70
34
71
5
72
1
41
1
210
0
220
0
230
1
3
Standard
100
AcDb2LineAngularDimension
13
34.232183
23
-9.9125
33
0
14
31.237813
24
-10.714839
34
0
15
34.232183
25
-9.9125
35
0
16
21.161733
26
-26.946243
36
0
40
0
0
DIMENSION
5
16B
100
AcDbEntity
8
2
62
256
6
ByLayer
370
13
48
1
60
0
100
AcDbDimension
2
DimnDraft3D3
10
34.232183
20
-38.1625
30
0
11
11.597671
21
-38.1625
31
0
70
32
71
5
72
1
41
1
210
0
220
0
230
1
3
Standard
100
AcDbAlignedDimension
13
0
23
-14.4375
33
0
14
34.232183
24
-11.9125
34
0
50
0
100
AcDbRotatedDimension
1001
ACAD
1000
DSTYLE
1002
{
1070
   279
1070
     0
1070
   172
1070
     1
1070
   173
1070
     1
1070
   340
1005
137
1070
    77
1070
     1
1070
    73
1070
     0
1070
   171
1070
     3
1070
   274
1070
     4
1070
   177
1070
     2
1070
   176
1070
     2
1070
   178
1070
     7
1070
    78
1070
     8
1070
    41
1041
3.175
1070
   147
1041
2.25
1070
    42
1041
2.0
1070
    44
1041
2.0
1070
   140
1041
4.5
1070
   343
1005
157
1070
   344
1005
157
1002
}
0
DIMENSION
5
179
100
AcDbEntity
8
2
62
256
6
ByLayer
370
13
48
1
60
0
100
AcDbDimension
2
DimnDraft3D4
10
56.482183
20
-9.9125
30
0
11
56.482183
21
-4.019079
31
0
70
32
71
5
72
1
41
1
210
0
220
0
230
1
3
Standard
100
AcDbAlignedDimension
13
2
23
12.4375
33
0
14
36.232183
24
-9.9125
34
0
50
90
100
AcDbRotatedDimension
1001
ACAD
1000
DSTYLE
1002
{
1070
    74
1070
     0
1070
   279
1070
     0
1070
   172
1070
     1
1070
   173
1070
     1
1070
   340
1005
137
1070
    77
1070
     1
1070
    73
1070
     0
1070
   171
1070
     3
1070
   274
1070
     4
1070
   177
1070
     2
1070
   176
1070
     2
1070
   178
1070
     7
1070
    78
1070
     8
1070
    41
1041
3.175
1070
   147
1041
2.25
1070
    42
1041
2.0
1070
    44
1041
2.0
1070
   140
1041
4.5
1070
   343
1005
157
1070
   344
1005
157
1002
}
0
DIMENSION
5
187
100
AcDbEntity
8
SK2
62
256
6
ByLayer
370
13
48
1
60
0
100
AcDbDimension
2
DimnDraft3D5
10
-144.867817
20
-12.4375
30
0
11
-144.867817
21
-5.281579
31
0
70
32
71
5
72
1
41
1
210
0
220
0
230
1
3
Standard
100
AcDbAlignedDimension
13
-139.117817
23
12.4375
33
0
14
-139.117817
24
-12.4375
34
0
50
90
100
AcDbRotatedDimension
1001
ACAD
1000
DSTYLE
1002
{
1070
    74
1070
     0
1070
   279
1070
     0
1070
   172
1070
     1
1070
   173
1070
     1
1070
   340
1005
137
1070
    77
1070
     1
1070
    73
1070
     0
1070
   171
1070
     3
1070
   274
1070
     4
1070
   177
1070
     2
1070
   176
1070
     2
1070
   178
1070
     7
1070
    78
1070
     8
1070
    41
1041
3.175
1070
   147
1041
2.25
1070
    42
1041
2.0
1070
    44
1041
2.0
1070
   140
1041
4.5
1070
   343
1005
157
1070
   344
1005
157
1002
}
0
ENDSEC
0
SECTION
2
OBJECTS
0
DICTIONARY
5
1f1
330
0
100
AcDbDictionary
280
0
281
1
3
ACAD_GROUP
350
1f2
3
ACAD_MLINESTYLE
350
1f3
0
DICTIONARY
5
1f2
330
0
100
AcDbDictionary
280
0
281
1
0
DICTIONARY
5
1f3
330
0
100
AcDbDictionary
280
0
281
1
3
Standard
350
18
0
MLINESTYLE
5
18
330
1f3
100
AcDbMlineStyle
2
Standard
70
0
3

62
256
51
90
52
90
71
2
49
-0.5
62
256
6
ByLayer
49
0.5
62
256
6
ByLayer
0
RASTERVARIABLES
5
1e0
330

100
AcDbRasterVariables
90
0
70
1
71
1
72
1
0
ENDSEC
0
EOF
