0
SECTION
2
HEADER
9
$ACADVER
1
AC1015
9
$DWGCODEPAGE
3
ANSI_1252
9
$HANDSEED
5
211
9
$ANGBASE
50
0
9
$ANGDIR
70
0
9
$ATTMODE
70
1
9
$AUNITS
70
0
9
$AUPREC
70
0
9
$CECOLOR
62
256
9
$CELTSCALE
40
1
9
$CELTYPE
6
ByLayer
9
$CELWEIGHT
370
18
9
$CLAYER
8
0
9
$CMLJUST
70
0
9
$CMLSCALE
40
1
9
$CMLSTYLE
2
Standard
9
$DIMSTYLE
2
Standard
9
$TEXTSIZE
40
0.2
9
$TEXTSTYLE
7
Standard
9
$LUNITS
70
2
9
$LUPREC
70
4
9
$EXTNAMES
290
1
9
$INSUNITS
70
4
9
$LTSCALE
40
1
9
$LWDISPLAY
290
1
9
$PDMODE
70
0
9
$PDSIZE
40
0
9
$PLINEGEN
70
0
0
ENDSEC
0
SECTION
2
CLASSES
0
CLASS
1
RASTERVARIABLES
2
AcDbRasterVariables
3
ISM
90
0
280
0
281
0
0
ENDSEC
0
SECTION
2
TABLES
0
TABLE
2
VPORT
5
207
100
AcDbSymbolTable
0
VPORT
5
1
100
AcDbSymbolTableRecord
100
AcDbViewportTableRecord
2
*Active
70
0
10
0
20
0
11
1
21
1
12
-1
22
1
13
0
23
0
14
0.5
24
0.5
15
10
25
10
16
0
26
0
36
1
17
0
27
0
37
0
0
ENDTAB
0
TABLE
2
LTYPE
5
208
100
AcDbSymbolTable
0
LTYPE
5
14
100
AcDbSymbolTableRecord
100
AcDbLinetypeTableRecord
70
0
2
ByBlock
3

72
65
73
0
40
0
0
LTYPE
5
15
100
AcDbSymbolTableRecord
100
AcDbLinetypeTableRecord
70
0
2
ByLayer
3

72
65
73
0
40
0
0
LTYPE
5
16
100
AcDbSymbolTableRecord
100
AcDbLinetypeTableRecord
70
0
2
CONTINUOUS
3
Solid line
72
65
73
0
40
0
0
LTYPE
5
6A
100
AcDbSymbolTableRecord
100
AcDbLinetypeTableRecord
70
0
2
CENTER
3
____ _ ____ _ ____ _ ____
72
65
73
4
40
47.5
49
22
74
0
49
-8.5
74
0
49
8.5
74
0
49
-8.5
74
0
0
LTYPE
5
6B
100
AcDbSymbolTableRecord
100
AcDbLinetypeTableRecord
70
0
2
DASHED
3
__ __ __ __ __ __ __ __ __
72
65
73
2
40
25.72
49
12.86
74
0
49
-12.86
74
0
0
ENDTAB
0
TABLE
2
LAYER
5
209
100
AcDbSymbolTable
0
LAYER
5
10
100
AcDbSymbolTableRecord
100
AcDbLayerTableRecord
2
0
70
0
62
7
6
CONTINUOUS
290
1
370
-3
390
0
0
LAYER
5
6D
100
AcDbSymbolTableRecord
100
AcDbLayerTableRecord
2
2
70
0
62
7
6
CONTINUOUS
290
1
370
-3
390
0
0
LAYER
5
6F
100
AcDbSymbolTableRecord
100
AcDbLayerTableRecord
2
80
70
0
62
-6
6
CONTINUOUS
290
1
370
-3
390
0
0
LAYER
5
71
100
AcDbSymbolTableRecord
100
AcDbLayerTableRecord
2
81
70
0
62
-3
6
CONTINUOUS
290
1
370
-3
390
0
0
LAYER
5
73
100
AcDbSymbolTableRecord
100
AcDbLayerTableRecord
2
1
70
0
62
4
6
CONTINUOUS
290
1
370
-3
390
0
0
LAYER
5
1f4
100
AcDbSymbolTableRecord
100
AcDbLayerTableRecord
2
SK1
70
0
62
4
6
CONTINUOUS
290
1
370
-3
390
0
0
LAYER
5
1f5
100
AcDbSymbolTableRecord
100
AcDbLayerTableRecord
2
SK6
70
0
62
5
6
CONTINUOUS
290
1
370
-3
390
0
0
LAYER
5
1f6
100
AcDbSymbolTableRecord
100
AcDbLayerTableRecord
2
SK2
70
0
62
7
6
CONTINUOUS
290
1
370
-3
390
0
0
ENDTAB
0
TABLE
2
STYLE
5
20a
100
AcDbSymbolTable
0
STYLE
5
11
100
AcDbSymbolTableRecord
100
AcDbTextStyleTableRecord
2
Standard
3
txt
70
0
71
0
40
0
41
1
42
0
50
0
0
STYLE
5
14A
100
AcDbSymbolTableRecord
100
AcDbTextStyleTableRecord
2
iso_b_vert
3
simplex.shx
70
0
71
0
40
0
41
1
42
0
50
0
0
STYLE
5
14B
100
AcDbSymbolTableRecord
100
AcDbTextStyleTableRecord
2
DWGDirectTextStyle
3
simplex
70
0
71
0
40
0
41
1
42
0
50
0
0
ENDTAB
0
TABLE
2
DIMSTYLE
5
20b
100
AcDbSymbolTable
100
AcDbDimStyleTable
0
DIMSTYLE
105
27
100
AcDbSymbolTableRecord
100
AcDbDimStyleTableRecord
2
Standard
70
0
3
<>
41
0.18
42
0.0625
44
0.18
140
0.18
147
0.09
73
0
74
0
77
1
271
2
275
0
278
52
280
0
340
11
0
ENDTAB
0
TABLE
2
VIEW
5
20c
100
AcDbSymbolTable
0
ENDTAB
0
TABLE
2
UCS
5
20d
100
AcDbSymbolTable
0
ENDTAB
0
TABLE
2
APPID
5
20e
100
AcDbSymbolTable
0
APPID
5
12
100
AcDbSymbolTableRecord
100
AcDbRegAppTableRecord
2
ACAD
70
0
0
ENDTAB
0
TABLE
2
BLOCK_RECORD
5
20f
100
AcDbSymbolTable
0
BLOCK_RECORD
5
1F
100
AcDbSymbolTableRecord
100
AcDbBlockTableRecord
2
*Model_Space
340
0
70
0
0
BLOCK_RECORD
5
1B
100
AcDbSymbolTableRecord
100
AcDbBlockTableRecord
2
*Paper_Space
340
0
70
0
0
BLOCK_RECORD
5
23
100
AcDbSymbolTableRecord
100
AcDbBlockTableRecord
2
*Paper_Space0
340
0
70
0
0
BLOCK_RECORD
5
14D
100
AcDbSymbolTableRecord
100
AcDbBlockTableRecord
2
DimnDraft3D11
340
0
70
0
0
BLOCK_RECORD
5
15C
100
AcDbSymbolTableRecord
100
AcDbBlockTableRecord
2
DimnDraft3D2
340
0
70
0
0
BLOCK_RECORD
5
16A
100
AcDbSymbolTableRecord
100
AcDbBlockTableRecord
2
_CLOSED
340
0
70
0
0
BLOCK_RECORD
5
171
100
AcDbSymbolTableRecord
100
AcDbBlockTableRecord
2
DimnDraft3D3
340
0
70
0
0
BLOCK_RECORD
5
17F
100
AcDbSymbolTableRecord
100
AcDbBlockTableRecord
2
DimnDraft3D4
340
0
70
0
0
BLOCK_RECORD
5
18D
100
AcDbSymbolTableRecord
100
AcDbBlockTableRecord
2
DimnDraft3D5
340
0
70
0
0
ENDTAB
0
ENDSEC
0
SECTION
2
BLOCKS
0
BLOCK
5
20
100
AcDbEntity
8
0
100
AcDbBlockBegin
2
*Model_Space
70
0
10
0
20
0
30
0
3
*Model_Space
0
ENDBLK
5
21
100
AcDbEntity
8
0
100
AcDbBlockEnd
0
BLOCK
5
1C
100
AcDbEntity
8
0
100
AcDbBlockBegin
2
*Paper_Space
70
0
10
0
20
0
30
0
3
*Paper_Space
0
ENDBLK
5
1D
100
AcDbEntity
8
0
100
AcDbBlockEnd
0
BLOCK
5
24
100
AcDbEntity
8
0
100
AcDbBlockBegin
2
*Paper_Space0
70
0
10
0
20
0
30
0
3
*Paper_Space0
0
ENDBLK
5
25
100
AcDbEntity
8
0
100
AcDbBlockEnd
0
BLOCK
5
14E
100
AcDbEntity
8
0
100
AcDbBlockBegin
2
DimnDraft3D11
70
0
10
0
20
0
30
0
3
DimnDraft3D11
0
LINE
5
150
100
AcDbEntity
8
SK2
62
256
6
ByLayer
370
25
48
1
60
0
100
AcDbLine
10
41.635724
20
-11.9125
30
0
11
41.635724
21
-50.1625
31
0
39
0
210
0
220
0
230
1
0
LINE
5
152
100
AcDbEntity
8
SK2
62
256
6
ByLayer
370
25
48
1
60
0
100
AcDbLine
10
-109.714276
20
-14.4375
30
0
11
-109.714276
21
-50.1625
31
0
39
0
210
0
220
0
230
1
0
LINE
5
153
100
AcDbEntity
8
SK2
62
256
6
ByLayer
370
25
48
1
60
0
100
AcDbLine
10
41.635724
20
-48.1625
30
0
11
-109.714276
21
-48.1625
31
0
39
0
210
0
220
0
230
1
0
LINE
5
154
100
AcDbEntity
8
SK2
62
256
6
ByLayer
370
25
48
1
60
0
100
AcDbLine
10
41.635724
20
-48.1625
30
0
11
38.460726
21
-48.580497
31
0
39
0
210
0
220
0
230
1
0
LINE
5
155
100
AcDbEntity
8
SK2
62
256
6
ByLayer
370
25
48
1
60
0
100
AcDbLine
10
41.635724
20
-48.1625
30
0
11
38.460723
21
-47.744503
31
0
39
0
210
0
220
0
230
1
0
LINE
5
156
100
AcDbEntity
8
SK2
62
256
6
ByLayer
370
25
48
1
60
0
100
AcDbLine
10
38.460726
20
-48.580497
30
0
11
38.460723
21
-47.744503
31
0
39
0
210
0
220
0
230
1
0
LINE
5
157
100
AcDbEntity
8
SK2
62
256
6
ByLayer
370
25
48
1
60
0
100
AcDbLine
10
-109.714276
20
-48.1625
30
0
11
-106.539277
21
-47.744503
31
0
39
0
210
0
220
0
230
1
0
LINE
5
158
100
AcDbEntity
8
SK2
62
256
6
ByLayer
370
25
48
1
60
0
100
AcDbLine
10
-109.714276
20
-48.1625
30
0
11
-106.539274
21
-48.580497
31
0
39
0
210
0
220
0
230
1
0
LINE
5
159
100
AcDbEntity
8
SK2
62
256
6
ByLayer
370
25
48
1
60
0
100
AcDbLine
10
-106.539277
20
-47.744503
30
0
11
-106.539274
21
-48.580497
31
0
39
0
210
0
220
0
230
1
0
MTEXT
5
15A
100
AcDbEntity
8
SK2
62
256
6
ByLayer
370
18
48
1
60
0
100
AcDbMText
10
-39.314934
20
-47.0375
30
0
210
0
220
0
230
1
1
\W0.6864;150.0
40
4.5
41
0
44
1.084337
50
0
71
7
72
5
7
iso_b_vert
0
ENDBLK
5
14F
100
AcDbEntity
8
0
100
AcDbBlockEnd
0
BLOCK
5
167
100
AcDbEntity
8
0
100
AcDbBlockBegin
2
DimnDraft3D2
70
0
10
0
20
0
30
0
3
DimnDraft3D2
0
MTEXT
5
15D
100
AcDbEntity
8
2
62
256
6
ByLayer
370
18
48
1
60
0
100
AcDbMText
10
26.934269
20
-24.276697
30
0
210
0
220
0
230
1
1
\W0.7399;75%%d
40
4.5
41
0
44
1.084337
50
322.5
71
7
72
5
7
iso_b_vert
0
LINE
5
15E
100
AcDbEntity
8
2
62
256
6
ByLayer
370
13
48
1
60
0
100
AcDbLine
10
36.709503
20
-11.232477
30
0
11
18.964902
21
-15.987129
31
0
39
0
210
0
220
0
230
1
0
LINE
5
15F
100
AcDbEntity
8
2
62
256
6
ByLayer
370
13
48
1
60
0
100
AcDbLine
10
41.635724
20
-11.9125
30
0
11
41.635724
21
-33.383063
31
0
39
0
210
0
220
0
230
1
0
ARC
5
160
100
AcDbEntity
8
2
62
256
6
ByLayer
370
13
48
1
60
0
100
AcDbCircle
39
0
10
41.635724
20
-9.9125
30
0
40
21.4705627491871
210
0
220
0
230
1
100
AcDbArc
50
195
51
270
0
LINE
5
161
100
AcDbEntity
8
2
62
256
6
ByLayer
370
13
48
1
60
0
100
AcDbLine
10
20.896753
20
-15.469491
30
0
11
22.230578
21
-18.38089
31
0
39
0
210
0
220
0
230
1
0
LINE
5
162
100
AcDbEntity
8
2
62
256
6
ByLayer
370
13
48
1
60
0
100
AcDbLine
10
20.896753
20
-15.469491
30
0
11
21.431603
21
-18.626909
31
0
39
0
210
0
220
0
230
1
0
LINE
5
163
100
AcDbEntity
8
2
62
256
6
ByLayer
370
13
48
1
60
0
100
AcDbLine
10
22.230578
20
-18.38089
30
0
11
21.431603
21
-18.626909
31
0
39
0
210
0
220
0
230
1
0
LINE
5
164
100
AcDbEntity
8
2
62
256
6
ByLayer
370
13
48
1
60
0
100
AcDbLine
10
41.635724
20
-31.383063
30
0
11
38.447466
21
-31.683637
31
0
39
0
210
0
220
0
230
1
0
LINE
5
165
100
AcDbEntity
8
2
62
256
6
ByLayer
370
13
48
1
60
0
100
AcDbLine
10
41.635724
20
-31.383063
30
0
11
38.478306
21
-30.848213
31
0
39
0
210
0
220
0
230
1
0
LINE
5
166
100
AcDbEntity
8
2
62
256
6
ByLayer
370
13
48
1
60
0
100
AcDbLine
10
38.447466
20
-31.683637
30
0
11
38.478306
21
-30.848213
31
0
39
0
210
0
220
0
230
1
0
ENDBLK
5
168
100
AcDbEntity
8
0
100
AcDbBlockEnd
0
BLOCK
5
16B
100
AcDbEntity
8
0
100
AcDbBlockBegin
2
_CLOSED
70
0
10
0
20
0
30
0
3
_CLOSED
0
LINE
5
16D
100
AcDbEntity
8
0
62
256
6
ByLayer
370
-2
48
1
60
0
100
AcDbLine
10
-1
20
0.166667
30
0
11
0
21
0
31
0
39
0
210
0
220
0
230
1
0
LINE
5
16E
100
AcDbEntity
8
0
62
256
6
ByLayer
370
-2
48
1
60
0
100
AcDbLine
10
0
20
0
30
0
11
-1
21
-0.166667
31
0
39
0
210
0
220
0
230
1
0
LINE
5
16F
100
AcDbEntity
8
0
62
256
6
ByLayer
370
-2
48
1
60
0
100
AcDbLine
10
-1
20
0.166667
30
0
11
-1
21
-0.166667
31
0
39
0
210
0
220
0
230
1
0
LINE
5
170
100
AcDbEntity
8
0
62
256
6
ByLayer
370
-2
48
1
60
0
100
AcDbLine
10
0
20
0
30
0
11
-1
21
0
31
0
39
0
210
0
220
0
230
1
0
ENDBLK
5
16C
100
AcDbEntity
8
0
100
AcDbBlockEnd
0
BLOCK
5
17C
100
AcDbEntity
8
0
100
AcDbBlockBegin
2
DimnDraft3D3
70
0
10
0
20
0
30
0
3
DimnDraft3D3
0
MTEXT
5
172
100
AcDbEntity
8
2
62
256
6
ByLayer
370
18
48
1
60
0
100
AcDbMText
10
16.986941
20
-37.0375
30
0
210
0
220
0
230
1
1
\W0.6856;41.6
40
4.5
41
0
44
1.084337
50
0
71
7
72
5
7
iso_b_vert
0
LINE
5
173
100
AcDbEntity
8
2
62
256
6
ByLayer
370
13
48
1
60
0
100
AcDbLine
10
0
20
-14.4375
30
0
11
0
21
-40.1625
31
0
39
0
210
0
220
0
230
1
0
LINE
5
174
100
AcDbEntity
8
2
62
256
6
ByLayer
370
13
48
1
60
0
100
AcDbLine
10
41.635724
20
-11.9125
30
0
11
41.635724
21
-40.1625
31
0
39
0
210
0
220
0
230
1
0
LINE
5
175
100
AcDbEntity
8
2
62
256
6
ByLayer
370
13
48
1
60
0
100
AcDbLine
10
0
20
-38.1625
30
0
11
41.635724
21
-38.1625
31
0
39
0
210
0
220
0
230
1
0
LINE
5
176
100
AcDbEntity
8
2
62
256
6
ByLayer
370
13
48
1
60
0
100
AcDbLine
10
0
20
-38.1625
30
0
11
3.174998
21
-37.744503
31
0
39
0
210
0
220
0
230
1
0
LINE
5
177
100
AcDbEntity
8
2
62
256
6
ByLayer
370
13
48
1
60
0
100
AcDbLine
10
0
20
-38.1625
30
0
11
3.175002
21
-38.580497
31
0
39
0
210
0
220
0
230
1
0
LINE
5
178
100
AcDbEntity
8
2
62
256
6
ByLayer
370
13
48
1
60
0
100
AcDbLine
10
3.174998
20
-37.744503
30
0
11
3.175002
21
-38.580497
31
0
39
0
210
0
220
0
230
1
0
LINE
5
179
100
AcDbEntity
8
2
62
256
6
ByLayer
370
13
48
1
60
0
100
AcDbLine
10
41.635724
20
-38.1625
30
0
11
38.460726
21
-38.580497
31
0
39
0
210
0
220
0
230
1
0
LINE
5
17A
100
AcDbEntity
8
2
62
256
6
ByLayer
370
13
48
1
60
0
100
AcDbLine
10
41.635724
20
-38.1625
30
0
11
38.460723
21
-37.744503
31
0
39
0
210
0
220
0
230
1
0
LINE
5
17B
100
AcDbEntity
8
2
62
256
6
ByLayer
370
13
48
1
60
0
100
AcDbLine
10
38.460726
20
-38.580497
30
0
11
38.460723
21
-37.744503
31
0
39
0
210
0
220
0
230
1
0
ENDBLK
5
17D
100
AcDbEntity
8
0
100
AcDbBlockEnd
0
BLOCK
5
18A
100
AcDbEntity
8
0
100
AcDbBlockBegin
2
DimnDraft3D4
70
0
10
0
20
0
30
0
3
DimnDraft3D4
0
MTEXT
5
180
100
AcDbEntity
8
2
62
256
6
ByLayer
370
18
48
1
60
0
100
AcDbMText
10
62.760724
20
-2.894079
30
0
210
0
220
0
230
1
1
\W0.7346;22.0
40
4.5
41
0
44
1.084337
50
90
71
7
72
5
7
iso_b_vert
0
LINE
5
181
100
AcDbEntity
8
2
62
256
6
ByLayer
370
13
48
1
60
0
100
AcDbLine
10
2
20
12.4375
30
0
11
65.885724
21
12.4375
31
0
39
0
210
0
220
0
230
1
0
LINE
5
182
100
AcDbEntity
8
2
62
256
6
ByLayer
370
13
48
1
60
0
100
AcDbLine
10
43.635724
20
-9.9125
30
0
11
65.885724
21
-9.9125
31
0
39
0
210
0
220
0
230
1
0
LINE
5
183
100
AcDbEntity
8
2
62
256
6
ByLayer
370
13
48
1
60
0
100
AcDbLine
10
63.885724
20
12.4375
30
0
11
63.885724
21
-9.9125
31
0
39
0
210
0
220
0
230
1
0
LINE
5
184
100
AcDbEntity
8
2
62
256
6
ByLayer
370
13
48
1
60
0
100
AcDbLine
10
63.885724
20
12.4375
30
0
11
64.303721
21
9.262502
31
0
39
0
210
0
220
0
230
1
0
LINE
5
185
100
AcDbEntity
8
2
62
256
6
ByLayer
370
13
48
1
60
0
100
AcDbLine
10
63.885724
20
12.4375
30
0
11
63.467728
21
9.262498
31
0
39
0
210
0
220
0
230
1
0
LINE
5
186
100
AcDbEntity
8
2
62
256
6
ByLayer
370
13
48
1
60
0
100
AcDbLine
10
64.303721
20
9.262502
30
0
11
63.467728
21
9.262498
31
0
39
0
210
0
220
0
230
1
0
LINE
5
187
100
AcDbEntity
8
2
62
256
6
ByLayer
370
13
48
1
60
0
100
AcDbLine
10
63.885724
20
-9.9125
30
0
11
63.467728
21
-6.737502
31
0
39
0
210
0
220
0
230
1
0
LINE
5
188
100
AcDbEntity
8
2
62
256
6
ByLayer
370
13
48
1
60
0
100
AcDbLine
10
63.885724
20
-9.9125
30
0
11
64.303721
21
-6.737498
31
0
39
0
210
0
220
0
230
1
0
LINE
5
189
100
AcDbEntity
8
2
62
256
6
ByLayer
370
13
48
1
60
0
100
AcDbLine
10
63.467728
20
-6.737502
30
0
11
64.303721
21
-6.737498
31
0
39
0
210
0
220
0
230
1
0
ENDBLK
5
18B
100
AcDbEntity
8
0
100
AcDbBlockEnd
0
BLOCK
5
198
100
AcDbEntity
8
0
100
AcDbBlockBegin
2
DimnDraft3D5
70
0
10
0
20
0
30
0
3
DimnDraft3D5
0
MTEXT
5
18E
100
AcDbEntity
8
SK2
62
256
6
ByLayer
370
18
48
1
60
0
100
AcDbMText
10
-118.589276
20
-4.156579
30
0
210
0
220
0
230
1
1
\W0.7346;25.0
40
4.5
41
0
44
1.084337
50
90
71
7
72
5
7
iso_b_vert
0
LINE
5
18F
100
AcDbEntity
8
SK2
62
256
6
ByLayer
370
13
48
1
60
0
100
AcDbLine
10
-111.714276
20
12.4375
30
0
11
-119.464276
21
12.4375
31
0
39
0
210
0
220
0
230
1
0
LINE
5
190
100
AcDbEntity
8
SK2
62
256
6
ByLayer
370
13
48
1
60
0
100
AcDbLine
10
-111.714276
20
-12.4375
30
0
11
-119.464276
21
-12.4375
31
0
39
0
210
0
220
0
230
1
0
LINE
5
191
100
AcDbEntity
8
SK2
62
256
6
ByLayer
370
13
48
1
60
0
100
AcDbLine
10
-117.464276
20
12.4375
30
0
11
-117.464276
21
-12.4375
31
0
39
0
210
0
220
0
230
1
0
LINE
5
192
100
AcDbEntity
8
SK2
62
256
6
ByLayer
370
13
48
1
60
0
100
AcDbLine
10
-117.464276
20
12.4375
30
0
11
-117.046279
21
9.262502
31
0
39
0
210
0
220
0
230
1
0
LINE
5
193
100
AcDbEntity
8
SK2
62
256
6
ByLayer
370
13
48
1
60
0
100
AcDbLine
10
-117.464276
20
12.4375
30
0
11
-117.882272
21
9.262498
31
0
39
0
210
0
220
0
230
1
0
LINE
5
194
100
AcDbEntity
8
SK2
62
256
6
ByLayer
370
13
48
1
60
0
100
AcDbLine
10
-117.046279
20
9.262502
30
0
11
-117.882272
21
9.262498
31
0
39
0
210
0
220
0
230
1
0
LINE
5
195
100
AcDbEntity
8
SK2
62
256
6
ByLayer
370
13
48
1
60
0
100
AcDbLine
10
-117.464276
20
-12.4375
30
0
11
-117.882272
21
-9.262502
31
0
39
0
210
0
220
0
230
1
0
LINE
5
196
100
AcDbEntity
8
SK2
62
256
6
ByLayer
370
13
48
1
60
0
100
AcDbLine
10
-117.464276
20
-12.4375
30
0
11
-117.046279
21
-9.262498
31
0
39
0
210
0
220
0
230
1
0
LINE
5
197
100
AcDbEntity
8
SK2
62
256
6
ByLayer
370
13
48
1
60
0
100
AcDbLine
10
-117.882272
20
-9.262502
30
0
11
-117.046279
21
-9.262498
31
0
39
0
210
0
220
0
230
1
0
ENDBLK
5
199
100
AcDbEntity
8
0
100
AcDbBlockEnd
0
ENDSEC
0
SECTION
2
ENTITIES
0
ELLIPSE
5
C8
100
AcDbEntity
8
1
62
256
6
ByLayer
370
18
48
1
60
0
100
AcDbEllipse
10
32.307573
20
-4.238995
30
0
11
1.5875
21
2.7496306570156
31
0
210
0
220
0
230
1
40
0.989133
41
-2.78374135523397
42
-0.193301935217302
0
ELLIPSE
5
C9
100
AcDbEntity
8
1
62
256
6
ByLayer
370
18
48
1
60
0
100
AcDbEllipse
10
8.524233
20
0.256136
30
0
11
1.47738106167382
21
2.61100463396899
31
0
210
0
220
0
230
1
40
0.986425
41
0.0284948362109407
42
0.0732243651094677
0
ELLIPSE
5
CA
100
AcDbEntity
8
1
62
256
6
ByLayer
370
18
48
1
60
0
100
AcDbEllipse
10
17.96958
20
2.434839
30
0
11
-2.53617082254003
21
-4.48222462164678
31
0
210
0
220
0
230
1
40
0.986425
41
0.0732243651094592
42
-3.11313592358349
0
ELLIPSE
5
CB
100
AcDbEntity
8
1
62
256
6
ByLayer
370
18
48
1
60
0
100
AcDbEllipse
10
17.176821
20
4.213061
30
0
11
-0.224999999999993
21
-0.389711431703001
31
0
210
0
220
0
230
1
40
0.989133
41
2.33041044405874
42
2.79620028821676
0
ELLIPSE
5
CC
100
AcDbEntity
8
1
62
256
6
ByLayer
370
18
48
1
60
0
100
AcDbEllipse
10
16.078819
20
1.896891
30
0
11
-0.224999999999993
21
-0.389711431703001
31
0
210
0
220
0
230
1
40
0.989133
41
0.345383300477648
42
0.97478871768736
0
ELLIPSE
5
CD
100
AcDbEntity
8
1
62
256
6
ByLayer
370
18
48
1
60
0
100
AcDbEllipse
10
17.219798
20
2.783018
30
0
11
0.699999999999999
21
1.21243556529822
31
0
210
0
220
0
230
1
40
0.989133
41
-3.11243067028359
42
-0.136065937423052
0
ELLIPSE
5
CE
100
AcDbEntity
8
1
62
256
6
ByLayer
370
18
48
1
60
0
100
AcDbEllipse
10
17.289828
20
2.742586
30
0
11
0.699999999999999
21
1.21243556529822
31
0
210
0
220
0
230
1
40
0.989133
41
2.57463896385615
42
3.13179474849284
0
ELLIPSE
5
CF
100
AcDbEntity
8
1
62
256
6
ByLayer
370
18
48
1
60
0
100
AcDbEllipse
10
17.289828
20
2.742586
30
0
11
0.699999999999999
21
1.21243556529822
31
0
210
0
220
0
230
1
40
0.989133
41
1.36823719243134
42
1.97929811046074
0
ELLIPSE
5
D0
100
AcDbEntity
8
1
62
256
6
ByLayer
370
18
48
1
60
0
100
AcDbEllipse
10
17.289828
20
2.742586
30
0
11
0.699999999999999
21
1.21243556529822
31
0
210
0
220
0
230
1
40
0.989133
41
0.173404413253299
42
0.74315517818258
0
ELLIPSE
5
D1
100
AcDbEntity
8
1
62
256
6
ByLayer
370
18
48
1
60
0
100
AcDbEllipse
10
17.289828
20
2.742586
30
0
11
0.699999999999999
21
1.21243556529822
31
0
210
0
220
0
230
1
40
0.989133
41
-0.873793137943299
42
-0.106740703067573
0
ELLIPSE
5
D2
100
AcDbEntity
8
1
62
256
6
ByLayer
370
18
48
1
60
0
100
AcDbEllipse
10
18.500838
20
3.588282
30
0
11
-0.224999999999993
21
-0.389711431703001
31
0
210
0
220
0
230
1
40
0.989133
41
1.28321289286205
42
2.79616888446551
0
ELLIPSE
5
D3
100
AcDbEntity
8
1
62
256
6
ByLayer
370
18
48
1
60
0
100
AcDbEllipse
10
17.402835
20
1.272112
30
0
11
-0.224999999999993
21
-0.389711431703001
31
0
210
0
220
0
230
1
40
0.989133
41
0.345414377018472
42
2.02198626888397
0
ELLIPSE
5
D4
100
AcDbEntity
8
1
62
256
6
ByLayer
370
18
48
1
60
0
100
AcDbEllipse
10
17.168868
20
2.812423
30
0
11
2.49999999999999
21
4.33012701892219
31
0
210
0
220
0
230
1
40
0.989133
41
0
42
0.121442227583236
0
ELLIPSE
5
D5
100
AcDbEntity
8
1
62
256
6
ByLayer
370
18
48
1
60
0
100
AcDbEllipse
10
18.60332
20
1.057329
30
0
11
0.25
21
0.43301270189222
31
0
210
0
220
0
230
1
40
0.989133
41
1.5080246168573
42
2.021986268884
0
ELLIPSE
5
D6
100
AcDbEntity
8
1
62
256
6
ByLayer
370
18
48
1
60
0
100
AcDbEllipse
10
16.746675
20
0.89553
30
0
11
0.25
21
0.43301270189222
31
0
210
0
220
0
230
1
40
0.989133
41
0.460827065660734
42
0.974788717687436
0
ELLIPSE
5
D7
100
AcDbEntity
8
1
62
256
6
ByLayer
370
18
48
1
60
0
100
AcDbEllipse
10
19.146474
20
2.904385
30
0
11
0.25
21
0.43301270189222
31
0
210
0
220
0
230
1
40
0.989133
41
1.28321289286222
42
1.91718730741359
0
ELLIPSE
5
D8
100
AcDbEntity
8
1
62
256
6
ByLayer
370
18
48
1
60
0
100
AcDbEllipse
10
17.550849
20
2.591886
30
0
11
0.712499999999999
21
1.23408620039282
31
0
210
0
220
0
230
1
40
0.989133
41
2.04600145221357
42
2.30639526072918
0
ELLIPSE
5
D9
100
AcDbEntity
8
1
62
256
6
ByLayer
370
18
48
1
60
0
100
AcDbEllipse
10
16.498377
20
4.126444
30
0
11
0.25
21
0.43301270189222
31
0
210
0
220
0
230
1
40
0.989133
41
-2.90557731192427
42
-2.39161565989753
0
ELLIPSE
5
DA
100
AcDbEntity
8
1
62
256
6
ByLayer
370
18
48
1
60
0
100
AcDbEllipse
10
17.545335
20
2.595069
30
0
11
0.699999999999999
21
1.21243556529822
31
0
210
0
220
0
230
1
40
0.989133
41
1.03739964609965
42
1.22060196445056
0
ELLIPSE
5
DB
100
AcDbEntity
8
1
62
256
6
ByLayer
370
18
48
1
60
0
100
AcDbEllipse
10
17.289828
20
2.742586
30
0
11
0.699999999999999
21
1.21243556529822
31
0
210
0
220
0
230
1
40
0.989133
41
-1.92099068913991
42
-1.05699545629355
0
ELLIPSE
5
DC
100
AcDbEntity
8
1
62
256
6
ByLayer
370
18
48
1
60
0
100
AcDbEllipse
10
19.146474
20
2.904385
30
0
11
0.25
21
0.43301270189222
31
0
210
0
220
0
230
1
40
0.989133
41
2.43520940552917
42
3.06918382008056
0
ELLIPSE
5
DD
100
AcDbEntity
8
1
62
256
6
ByLayer
370
18
48
1
60
0
100
AcDbEllipse
10
16.226832
20
3.216665
30
0
11
-0.224999999999993
21
-0.389711431703001
31
0
210
0
220
0
230
1
40
0.989133
41
-2.90557731192423
42
-0.0724088335092011
0
ELLIPSE
5
DE
100
AcDbEntity
8
1
62
256
6
ByLayer
370
18
48
1
60
0
100
AcDbEllipse
10
18.761858
20
3.437582
30
0
11
-0.224999999999993
21
-0.389711431703001
31
0
210
0
220
0
230
1
40
0.989133
41
1.28321289286214
42
-2.1668039359024
0
ELLIPSE
5
DF
100
AcDbEntity
8
1
62
256
6
ByLayer
370
18
48
1
60
0
100
AcDbEllipse
10
17.545335
20
2.595069
30
0
11
0.699999999999999
21
1.21243556529822
31
0
210
0
220
0
230
1
40
0.989133
41
2.08459719729625
42
2.26779951564647
0
ELLIPSE
5
E0
100
AcDbEntity
8
1
62
256
6
ByLayer
370
18
48
1
60
0
100
AcDbEllipse
10
17.663856
20
1.121412
30
0
11
-0.224999999999993
21
-0.389711431703001
31
0
210
0
220
0
230
1
40
0.989133
41
-0.811182209531037
42
2.02198626888401
0
ELLIPSE
5
E1
100
AcDbEntity
8
1
62
256
6
ByLayer
370
18
48
1
60
0
100
AcDbEllipse
10
17.550849
20
2.591886
30
0
11
-1.24999999999996
21
-2.16506350946112
31
0
210
0
220
0
230
1
40
0.989133
41
0
42
6.28318530717959
0
ELLIPSE
5
E2
100
AcDbEntity
8
1
62
256
6
ByLayer
370
18
48
1
60
0
100
AcDbEllipse
10
17.550849
20
2.591886
30
0
11
0.712499999999999
21
1.23408620039282
31
0
210
0
220
0
230
1
40
0.989133
41
0.998803901016952
42
1.25919770953259
0
ELLIPSE
5
E3
100
AcDbEntity
8
1
62
256
6
ByLayer
370
18
48
1
60
0
100
AcDbEllipse
10
18.355022
20
4.288242
30
0
11
0.25
21
0.43301270189222
31
0
210
0
220
0
230
1
40
0.989133
41
-2.68076558792908
42
-2.16680393590236
0
ELLIPSE
5
E4
100
AcDbEntity
8
1
62
256
6
ByLayer
370
18
48
1
60
0
100
AcDbEllipse
10
17.437841
20
4.062361
30
0
11
-0.224999999999993
21
-0.389711431703001
31
0
210
0
220
0
230
1
40
0.989133
41
2.33041044405874
42
-1.11960638470579
0
ELLIPSE
5
E5
100
AcDbEntity
8
1
62
256
6
ByLayer
370
18
48
1
60
0
100
AcDbEllipse
10
16.746675
20
0.89553
30
0
11
0.25
21
0.43301270189222
31
0
210
0
220
0
230
1
40
0.989133
41
-0.811182209531057
42
-0.297220557504336
0
ELLIPSE
5
E6
100
AcDbEntity
8
1
62
256
6
ByLayer
370
18
48
1
60
0
100
AcDbEllipse
10
19.407494
20
2.753685
30
0
11
0.25
21
0.43301270189222
31
0
210
0
220
0
230
1
40
0.989133
41
2.55522216805392
42
3.06918382008061
0
ELLIPSE
5
E7
100
AcDbEntity
8
1
62
256
6
ByLayer
370
18
48
1
60
0
100
AcDbEllipse
10
19.407494
20
2.753685
30
0
11
0.25
21
0.43301270189222
31
0
210
0
220
0
230
1
40
0.989133
41
1.28321289286213
42
1.79717454488882
0
ELLIPSE
5
E8
100
AcDbEntity
8
1
62
256
6
ByLayer
370
18
48
1
60
0
100
AcDbEllipse
10
16.485655
20
1.04623
30
0
11
0.25
21
0.43301270189222
31
0
210
0
220
0
230
1
40
0.989133
41
0.340814303135941
42
0.974788717687461
0
ELLIPSE
5
E9
100
AcDbEntity
8
1
62
256
6
ByLayer
370
18
48
1
60
0
100
AcDbEllipse
10
15.694203
20
2.430087
30
0
11
0.25
21
0.43301270189222
31
0
210
0
220
0
230
1
40
0.989133
41
-1.85837976072767
42
-1.34441810870093
0
ELLIPSE
5
EA
100
AcDbEntity
8
1
62
256
6
ByLayer
370
18
48
1
60
0
100
AcDbEllipse
10
18.613845
20
2.117808
30
0
11
-0.224999999999993
21
-0.389711431703001
31
0
210
0
220
0
230
1
40
0.989133
41
0.236015341665598
42
3.06918382008059
0
ELLIPSE
5
EB
100
AcDbEntity
8
1
62
256
6
ByLayer
370
18
48
1
60
0
100
AcDbEllipse
10
17.550849
20
2.591886
30
0
11
0.712499999999999
21
1.23408620039282
31
0
210
0
220
0
230
1
40
0.989133
41
-1.09559120137624
42
-0.835197392860611
0
ELLIPSE
5
EC
100
AcDbEntity
8
1
62
256
6
ByLayer
370
18
48
1
60
0
100
AcDbEllipse
10
17.550849
20
2.591886
30
0
11
0.712499999999999
21
1.23408620039282
31
0
210
0
220
0
230
1
40
0.989133
41
-2.14278875257283
42
-1.88239494405722
0
ELLIPSE
5
ED
100
AcDbEntity
8
1
62
256
6
ByLayer
370
18
48
1
60
0
100
AcDbEllipse
10
18.3423
20
1.208029
30
0
11
0.25
21
0.43301270189222
31
0
210
0
220
0
230
1
40
0.989133
41
0.236015341665615
42
0.869989756217083
0
ELLIPSE
5
EE
100
AcDbEntity
8
1
62
256
6
ByLayer
370
18
48
1
60
0
100
AcDbEllipse
10
17.545335
20
2.595069
30
0
11
0.699999999999999
21
1.21243556529822
31
0
210
0
220
0
230
1
40
0.989133
41
-1.05699545629354
42
-0.873793137943305
0
ELLIPSE
5
EF
100
AcDbEntity
8
1
62
256
6
ByLayer
370
18
48
1
60
0
100
AcDbEllipse
10
17.550849
20
2.591886
30
0
11
0.712499999999999
21
1.23408620039282
31
0
210
0
220
0
230
1
40
0.989133
41
3.09319900341014
42
-2.92959249525382
0
ELLIPSE
5
F0
100
AcDbEntity
8
1
62
256
6
ByLayer
370
18
48
1
60
0
100
AcDbEllipse
10
18.874865
20
1.967107
30
0
11
-0.224999999999993
21
-0.389711431703001
31
0
210
0
220
0
230
1
40
0.989133
41
0.236015341665559
42
3.06918382008056
0
ELLIPSE
5
F1
100
AcDbEntity
8
1
62
256
6
ByLayer
370
18
48
1
60
0
100
AcDbEllipse
10
17.378404
20
2.691447
30
0
11
-2.49999999999992
21
-4.33012701892223
31
0
210
0
220
0
230
1
40
0.989133
41
0
42
6.28318530717959
0
ELLIPSE
5
F2
100
AcDbEntity
8
1
62
256
6
ByLayer
370
18
48
1
60
0
100
AcDbEllipse
10
18.3423
20
1.208029
30
0
11
0.25
21
0.43301270189222
31
0
210
0
220
0
230
1
40
0.989133
41
1.38801185433253
42
2.02198626888401
0
ELLIPSE
5
F3
100
AcDbEntity
8
1
62
256
6
ByLayer
370
18
48
1
60
0
100
AcDbEllipse
10
17.550849
20
2.591886
30
0
11
0.712499999999999
21
1.23408620039282
31
0
210
0
220
0
230
1
40
0.989133
41
-0.0483936501796388
42
0.212000158335985
0
ELLIPSE
5
F4
100
AcDbEntity
8
1
62
256
6
ByLayer
370
18
48
1
60
0
100
AcDbEllipse
10
18.094002
20
4.438942
30
0
11
0.25
21
0.43301270189222
31
0
210
0
220
0
230
1
40
0.989133
41
2.33041044405876
42
2.96438485861022
0
ELLIPSE
5
F5
100
AcDbEntity
8
1
62
256
6
ByLayer
370
18
48
1
60
0
100
AcDbEllipse
10
16.339839
20
1.746191
30
0
11
-0.224999999999993
21
-0.389711431703001
31
0
210
0
220
0
230
1
40
0.989133
41
-1.85837976072762
42
0.974788717687407
0
ELLIPSE
5
F6
100
AcDbEntity
8
1
62
256
6
ByLayer
370
18
48
1
60
0
100
AcDbEllipse
10
16.498377
20
4.126444
30
0
11
0.25
21
0.43301270189222
31
0
210
0
220
0
230
1
40
0.989133
41
-1.63356803673249
42
-1.1196063847058
0
ELLIPSE
5
F7
100
AcDbEntity
8
1
62
256
6
ByLayer
370
18
48
1
60
0
100
AcDbEllipse
10
17.545335
20
2.595069
30
0
11
0.699999999999999
21
1.21243556529822
31
0
210
0
220
0
230
1
40
0.989133
41
-2.10419300749013
42
-1.92099068913991
0
ELLIPSE
5
F8
100
AcDbEntity
8
1
62
256
6
ByLayer
370
18
48
1
60
0
100
AcDbEllipse
10
18.60332
20
1.057329
30
0
11
0.25
21
0.43301270189222
31
0
210
0
220
0
230
1
40
0.989133
41
0.236015341665587
42
0.749976993692356
0
ELLIPSE
5
F9
100
AcDbEntity
8
1
62
256
6
ByLayer
370
18
48
1
60
0
100
AcDbEllipse
10
17.545335
20
2.595069
30
0
11
0.699999999999999
21
1.21243556529822
31
0
210
0
220
0
230
1
40
0.989133
41
3.13179474849243
42
-2.96818824033609
0
ELLIPSE
5
FA
100
AcDbEntity
8
1
62
256
6
ByLayer
370
18
48
1
60
0
100
AcDbEllipse
10
17.289828
20
2.742586
30
0
11
0.699999999999999
21
1.21243556529822
31
0
210
0
220
0
230
1
40
0.989133
41
-2.9681882403365
42
-2.10419300749014
0
ELLIPSE
5
FB
100
AcDbEntity
8
1
62
256
6
ByLayer
370
18
48
1
60
0
100
AcDbEllipse
10
17.545335
20
2.595069
30
0
11
0.699999999999999
21
1.21243556529822
31
0
210
0
220
0
230
1
40
0.989133
41
-0.0097979050969286
42
0.173404413253706
0
ELLIPSE
5
FC
100
AcDbEntity
8
1
62
256
6
ByLayer
370
18
48
1
60
0
100
AcDbEllipse
10
15.694203
20
2.430087
30
0
11
0.25
21
0.43301270189222
31
0
210
0
220
0
230
1
40
0.989133
41
-0.586370485535879
42
-0.0724088335092072
0
ELLIPSE
5
FD
100
AcDbEntity
8
1
62
256
6
ByLayer
370
18
48
1
60
0
100
AcDbEllipse
10
18.355022
20
4.288242
30
0
11
0.25
21
0.43301270189222
31
0
210
0
220
0
230
1
40
0.989133
41
2.33041044405875
42
2.84437209608547
0
ELLIPSE
5
FE
100
AcDbEntity
8
1
62
256
6
ByLayer
370
18
48
1
60
0
100
AcDbEllipse
10
1.898575
20
-6.58395
30
0
11
-0.598414804344305
21
-2.5791288566258
31
0
210
0
220
0
230
1
40
0.219299
41
-0.929623698915323
42
0.641172627879454
0
ELLIPSE
5
FF
100
AcDbEntity
8
1
62
256
6
ByLayer
370
18
48
1
60
0
100
AcDbEllipse
10
27.153841
20
-7.512372
30
0
11
-0.124934144371266
21
-3.86966597234453
31
0
210
0
220
0
230
1
40
0.523705
41
-1.06367112874619
42
-0.776249033193123
0
ELLIPSE
5
100
100
AcDbEntity
8
1
62
256
6
ByLayer
370
18
48
1
60
0
100
AcDbEllipse
10
27.492498
20
-12.475834
30
0
11
-0.595499999999983
21
-1.03143625590728
31
0
210
0
220
0
230
1
40
0.989133
41
-0.790861371918987
42
0.77993495487589
0
ELLIPSE
5
101
100
AcDbEntity
8
1
62
256
6
ByLayer
370
18
48
1
60
0
100
AcDbEllipse
10
40.454337
20
-9.002719
30
0
11
-0.595499999999983
21
-1.03143625590728
31
0
210
0
220
0
230
1
40
0.989133
41
0.779934954875907
42
2.35073128167081
0
ELLIPSE
5
102
100
AcDbEntity
8
1
62
256
6
ByLayer
370
18
48
1
60
0
100
AcDbEllipse
10
37.122648
20
3.997845
30
0
11
-0.595499999999983
21
-1.03143625590728
31
0
210
0
220
0
230
1
40
0.989133
41
2.35073128167081
42
-2.36165769871391
0
ELLIPSE
5
103
100
AcDbEntity
8
1
62
256
6
ByLayer
370
18
48
1
60
0
100
AcDbEllipse
10
32.903023
20
-4.569568
30
0
11
-0.286888803944415
21
-2.87848496939187
31
0
210
0
220
0
230
1
40
0.792245
41
1.30894773720077
42
1.75865771322819
0
ELLIPSE
5
104
100
AcDbEntity
8
1
62
256
6
ByLayer
370
18
48
1
60
0
100
AcDbEllipse
10
15.367681
20
9.571014
30
0
11
-2.14788716669962
21
4.26747308660752
31
0
210
0
220
0
230
1
40
0.549774
41
-0.612828368777686
42
0.505144305392993
0
ELLIPSE
5
105
100
AcDbEntity
8
1
62
256
6
ByLayer
370
18
48
1
60
0
100
AcDbEllipse
10
11.880143
20
2.034997
30
0
11
4.96983653858025
21
-2.3559976188003
31
0
210
0
220
0
230
1
40
0.012014
41
-2.32535076975197
42
-1.91993159773869
0
ELLIPSE
5
106
100
AcDbEntity
8
1
62
256
6
ByLayer
370
18
48
1
60
0
100
AcDbEllipse
10
14.450137
20
7.456245
30
0
11
4.96983653858025
21
-2.3559976188003
31
0
210
0
220
0
230
1
40
0.012014
41
-2.32535076975197
42
-1.91993159773869
0
ELLIPSE
5
107
100
AcDbEntity
8
1
62
256
6
ByLayer
370
18
48
1
60
0
100
AcDbEllipse
10
32.903023
20
-4.569568
30
0
11
-2.17302594871879
21
-1.86016831917959
31
0
210
0
220
0
230
1
40
0.788795
41
1.47434859513269
42
1.92405857115381
0
ELLIPSE
5
108
100
AcDbEntity
8
1
62
256
6
ByLayer
370
18
48
1
60
0
100
AcDbEllipse
10
7.835415
20
1.416538
30
0
11
-2.22594881344417
21
-2.7016422308382
31
0
210
0
220
0
230
1
40
0.996259
41
-1.32342884374257
42
-0.151194013031607
0
ELLIPSE
5
109
100
AcDbEntity
8
1
62
256
6
ByLayer
370
18
48
1
60
0
100
AcDbEllipse
10
10.016438
20
16.053442
30
0
11
6.32524650364759
21
-2.99854242392765
31
0
210
0
220
0
230
1
40
0.012014
41
0.810298218555983
42
0.840977275713239
0
ELLIPSE
5
10A
100
AcDbEntity
8
1
62
256
6
ByLayer
370
18
48
1
60
0
100
AcDbEllipse
10
10.767392
20
-0.133021
30
0
11
-4.62200857478662
21
-0.805997110920307
31
0
210
0
220
0
230
1
40
0.539114
41
-0.464589833095581
42
0.653382841074754
0
ELLIPSE
5
10B
100
AcDbEntity
8
1
62
256
6
ByLayer
370
18
48
1
60
0
100
AcDbEllipse
10
12.435703
20
11.120573
30
0
11
-2.2259488132306
21
-2.70164223100955
31
0
210
0
220
0
230
1
40
0.996259
41
-2.49566367453291
42
-1.32342884382114
0
POINT
5
6C
100
AcDbEntity
8
2
62
256
6
ByLayer
370
18
48
1
60
0
100
AcDbPoint
10
41.635724
20
34.7875
30
0
39
0
210
0
220
0
230
1
50
360
0
POINT
5
6E
100
AcDbEntity
8
80
62
256
6
ByLayer
370
18
48
1
60
0
100
AcDbPoint
10
0
20
0
30
0
39
0
210
0
220
0
230
1
50
360
0
POINT
5
70
100
AcDbEntity
8
81
62
256
6
ByLayer
370
18
48
1
60
0
100
AcDbPoint
10
41.635724
20
-9.9125
30
0
39
0
210
0
220
0
230
1
50
360
0
SPLINE
5
10C
100
AcDbEntity
8
1
62
256
6
ByLayer
370
18
48
1
60
0
100
AcDbSpline
70
4
71
3
72
8
73
4
40
0
40
0
40
0
40
0
40
1
40
1
40
1
40
1
41
1
10
6.4813624945217
20
-1.82672297202964
30
0
41
1
10
6.06373031833118
20
-1.60769206222659
30
0
41
1
10
5.6285883561693
20
-1.32132238273169
30
0
41
1
10
5.22946430153121
20
-0.920268307915649
30
0
0
SPLINE
5
10D
100
AcDbEntity
8
1
62
256
6
ByLayer
370
18
48
1
60
0
100
AcDbSpline
70
4
71
3
72
10
73
6
40
0
40
0
40
0
40
0
40
0.537616842494897
40
0.537616842494897
40
1
40
1
40
1
40
1
41
1
10
18.9142367725551
20
2.8424535974078
30
0
41
1
10
18.917146889095
20
2.8531574940443
30
0
41
1
10
18.9204536258435
20
2.8633964364127
30
0
41
1
10
18.9271612523549
20
2.88158867614121
30
0
41
1
10
18.9304915212709
20
2.88968093572004
30
0
41
1
10
18.9340024090185
20
2.8974693635713
30
0
0
SPLINE
5
10E
100
AcDbEntity
8
1
62
256
6
ByLayer
370
18
48
1
60
0
100
AcDbSpline
70
4
71
3
72
10
73
6
40
0
40
0
40
0
40
0
40
0.201157530231472
40
0.201157530231472
40
1
40
1
40
1
40
1
41
1
10
18.1915395288374
20
1.33128817518803
30
0
41
1
10
18.1932346120396
20
1.3346969462132
30
0
41
1
10
18.1949955183619
20
1.3381139793527
30
0
41
1
10
18.2040583616418
20
1.35506560041276
30
0
41
1
10
18.2124038410249
20
1.36875415269699
30
0
41
1
10
18.2220770321043
20
1.38238388376428
30
0
0
SPLINE
5
10F
100
AcDbEntity
8
1
62
256
6
ByLayer
370
18
48
1
60
0
100
AcDbSpline
70
4
71
3
72
10
73
6
40
0
40
0
40
0
40
0
40
0.355593196477936
40
0.355593196477936
40
1
40
1
40
1
40
1
41
1
10
18.9622552470191
20
2.52983711602954
30
0
41
1
10
18.958596255353
20
2.53624437736994
30
0
41
1
10
18.9550182850231
20
2.54282149563727
30
0
41
1
10
18.945263135753
20
2.56176614388119
30
0
41
1
10
18.939292638697
20
2.57457109811134
30
0
41
1
10
18.9337934788342
20
2.58797736098697
30
0
0
SPLINE
5
110
100
AcDbEntity
8
1
62
256
6
ByLayer
370
18
48
1
60
0
100
AcDbSpline
70
4
71
3
72
10
73
6
40
0
40
0
40
0
40
0
40
0.5376168424953
40
0.5376168424953
40
1
40
1
40
1
40
1
41
1
10
16.1764336064252
20
2.34768519479215
30
0
41
1
10
16.1752508784973
20
2.33598398987559
30
0
41
1
10
16.1738328193904
20
2.32465461896229
30
0
41
1
10
16.1708498759801
20
2.30431193244277
30
0
41
1
10
16.1693300650307
20
2.29517440446952
30
0
41
1
10
16.1676948106686
20
2.28630307917828
30
0
0
SPLINE
5
111
100
AcDbEntity
8
1
62
256
6
ByLayer
370
18
48
1
60
0
100
AcDbSpline
70
4
71
3
72
10
73
6
40
0
40
0
40
0
40
0
40
0.355593196477739
40
0.355593196477739
40
1
40
1
40
1
40
1
41
1
10
16.1394419726652
20
2.65393532672167
30
0
41
1
10
16.1416556660715
20
2.6483625087206
30
0
41
1
10
16.1438273639179
20
2.64259730225018
30
0
41
1
10
16.1497746267932
20
2.62585113824142
30
0
41
1
10
16.1534458002754
20
2.61437369909555
30
0
41
1
10
16.1568769001462
20
2.60216143121295
30
0
0
SPLINE
5
112
100
AcDbEntity
8
1
62
256
6
ByLayer
370
18
48
1
60
0
100
AcDbSpline
70
4
71
3
72
10
73
6
40
0
40
0
40
0
40
0
40
0.230438518716689
40
0.230438518716689
40
1
40
1
40
1
40
1
41
1
10
17.0627493616864
20
1.2813534161632
30
0
41
1
10
17.0668159524736
20
1.27800922972952
30
0
41
1
10
17.0708003998498
20
1.27464444291058
30
0
41
1
10
17.087706717099
20
1.26000875132058
30
0
41
1
10
17.0998345292435
20
1.2485740197979
30
0
41
1
10
17.1111492788889
20
1.23713676749799
30
0
0
SPLINE
5
113
100
AcDbEntity
8
1
62
256
6
ByLayer
370
18
48
1
60
0
100
AcDbSpline
70
4
71
3
72
10
73
6
40
0
40
0
40
0
40
0
40
0.276054056491946
40
0.276054056491946
40
1
40
1
40
1
40
1
41
1
10
16.6590194342289
20
3.6614011747283
30
0
41
1
10
16.6539725563381
20
3.65912838526168
30
0
41
1
10
16.649002755252
20
3.65697338669992
30
0
41
1
10
16.6313591559795
20
3.64959938110064
30
0
41
1
10
16.619119223356
20
3.64501270751569
30
0
41
1
10
16.6073941416291
20
3.64105253305479
30
0
0
SPLINE
5
114
100
AcDbEntity
8
1
62
256
6
ByLayer
370
18
48
1
60
0
100
AcDbSpline
70
4
71
3
72
10
73
6
40
0
40
0
40
0
40
0
40
0.769561481283141
40
0.769561481283141
40
1
40
1
40
1
40
1
41
1
10
16.7801328916574
20
1.39333728052733
30
0
41
1
10
16.7929263636495
20
1.39339830876929
30
0
41
1
10
16.8064153155653
20
1.39274496295587
30
0
41
1
10
16.8248876380291
20
1.39068612857494
30
0
41
1
10
16.829219719443
20
1.39012649922074
30
0
41
1
10
16.8336187427599
20
1.38947591887794
30
0
0
SPLINE
5
115
100
AcDbEntity
8
1
62
256
6
ByLayer
370
18
48
1
60
0
100
AcDbSpline
70
4
71
3
72
10
73
6
40
0
40
0
40
0
40
0
40
0.769561481283329
40
0.769561481283329
40
1
40
1
40
1
40
1
41
1
10
18.321564328028
20
3.79043516222322
30
0
41
1
10
18.305652264022
20
3.79217465391997
30
0
41
1
10
18.2892192262069
20
3.79452776851991
30
0
41
1
10
18.2672954020338
20
3.79857932834182
30
0
41
1
10
18.2621921983235
20
3.79958416536147
30
0
41
1
10
18.2570516362202
20
3.80066287332221
30
0
0
SPLINE
5
116
100
AcDbEntity
8
1
62
256
6
ByLayer
370
18
48
1
60
0
100
AcDbSpline
70
4
71
3
72
10
73
6
40
0
40
0
40
0
40
0
40
0.201157530231766
40
0.201157530231766
40
1
40
1
40
1
40
1
41
1
10
16.9101576908487
20
3.85248426756215
30
0
41
1
10
16.907643992416
20
3.84954812426071
30
0
41
1
10
16.9050771175674
20
3.84659641726677
30
0
41
1
10
16.8920945264177
20
3.83190786369445
30
0
41
1
10
16.8808301956394
20
3.819904511049
30
0
41
1
10
16.868593346876
20
3.8077549084357
30
0
0
SPLINE
5
117
100
AcDbEntity
8
1
62
256
6
ByLayer
370
18
48
1
60
0
100
AcDbSpline
70
4
71
3
72
10
73
6
40
0
40
0
40
0
40
0
40
0.276054056492375
40
0.276054056492375
40
1
40
1
40
1
40
1
41
1
10
18.431650944751
20
1.52873761747188
30
0
41
1
10
18.4375881317349
20
1.530496386744
30
0
41
1
10
18.443490932289
20
1.53211271781171
30
0
41
1
10
18.4646305645976
20
1.53746828779649
30
0
41
1
10
18.4796467264684
20
1.54045210467819
30
0
41
1
10
18.494303078058
20
1.5427199096948
30
0
0
SPLINE
5
118
100
AcDbEntity
8
1
62
256
6
ByLayer
370
18
48
1
60
0
100
AcDbSpline
70
4
71
3
72
10
73
6
40
0
40
0
40
0
40
0
40
0.230438518716707
40
0.230438518716707
40
1
40
1
40
1
40
1
41
1
10
18.0279210172937
20
3.90878537603695
30
0
41
1
10
18.0245959652928
20
3.91170143485269
30
0
41
1
10
18.0213826402131
20
3.91462101400617
30
0
41
1
10
18.0079278246732
20
3.92726398015523
30
0
41
1
10
17.9987440984281
20
3.93699894289139
30
0
41
1
10
17.9905479407967
20
3.94663567525254
30
0
0
SPLINE
5
119
100
AcDbEntity
8
1
62
256
6
ByLayer
370
18
48
1
60
0
100
AcDbSpline
70
4
71
3
72
8
73
4
40
0
40
0
40
0
40
0
40
1
40
1
40
1
40
1
41
1
10
11.8004414396306
20
11.7304115383964
30
0
41
1
10
12.2928659254729
20
10.6988158115123
30
0
41
1
10
12.9003264393357
20
9.34692226413165
30
0
41
1
10
13.5017129369426
20
7.93479087467136
30
0
0
SPLINE
5
11A
100
AcDbEntity
8
1
62
256
6
ByLayer
370
18
48
1
60
0
100
AcDbSpline
70
4
71
3
72
8
73
4
40
0
40
0
40
0
40
0
40
1
40
1
40
1
40
1
41
1
10
6.46197658276964
20
0.296197413199167
30
0
41
1
10
7.5360355217876
20
0.636995510324226
30
0
41
1
10
9.32147799670804
20
1.33514499112923
30
0
41
1
10
11.1144993469642
20
2.1112656413803
30
0
0
SPLINE
5
11B
100
AcDbEntity
8
1
62
256
6
ByLayer
370
18
48
1
60
0
100
AcDbSpline
70
4
71
3
72
16
73
12
40
0
40
0
40
0
40
0
40
0.474320436274423
40
0.474320436274423
40
0.658954025821056
40
0.658954025821056
40
0.845504004041773
40
0.845504004041773
40
0.957858191960717
40
0.957858191960717
40
1
40
1
40
1
40
1
41
1
10
12.3394745200636
20
12.6944289611038
30
0
41
1
10
12.3071024201811
20
12.5988995870004
30
0
41
1
10
12.2519053985417
20
12.4815003849259
30
0
41
1
10
12.1391147395841
20
12.2767951752864
30
0
41
1
10
12.1029258617659
20
12.2136041729103
30
0
41
1
10
12.0226195397334
20
12.0773733585662
30
0
41
1
10
11.9776263803479
20
12.0026826095211
30
0
41
1
10
11.8999071903903
20
11.8786630404267
30
0
41
1
10
11.8687218197779
20
11.8299901517935
30
0
41
1
10
11.824876191064
20
11.7652062596484
30
0
41
1
10
11.8126563443731
20
11.7475381399673
30
0
41
1
10
11.8004414396306
20
11.7304115383964
30
0
0
SPLINE
5
11C
100
AcDbEntity
8
1
62
256
6
ByLayer
370
18
48
1
60
0
100
AcDbSpline
70
4
71
3
72
10
73
6
40
0
40
0
40
0
40
0
40
0.5
40
0.5
40
1
40
1
40
1
40
1
41
1
10
31.5399897363985
20
-7.46631841261782
30
0
41
1
10
30.631548822959
20
-7.46120539286585
30
0
41
1
10
30.0510322413496
20
-7.14108744701599
30
0
41
1
10
29.1720012211258
20
-6.37371385589989
30
0
41
1
10
28.9542993452099
20
-5.85476396714881
30
0
41
1
10
28.7579871990337
20
-5.33396330051528
30
0
0
SPLINE
5
11D
100
AcDbEntity
8
1
62
256
6
ByLayer
370
18
48
1
60
0
100
AcDbSpline
70
4
71
3
72
8
73
4
40
0
40
0
40
0
40
0
40
1
40
1
40
1
40
1
41
1
10
10.8537752345166
20
2.3491241318917
30
0
41
1
10
10.633493412226
20
2.52435068454142
30
0
41
1
10
10.3956612907644
20
2.66871683256287
30
0
41
1
10
10.1534378483653
20
2.7848452796099
30
0
0
SPLINE
5
11E
100
AcDbEntity
8
1
62
256
6
ByLayer
370
18
48
1
60
0
100
AcDbSpline
70
4
71
3
72
8
73
4
40
0
40
0
40
0
40
0
40
1
40
1
40
1
40
1
41
1
10
20.5988042220786
20
6.87022033112675
30
0
41
1
10
20.846900843428
20
7.60116771555332
30
0
41
1
10
21.0064140641803
20
8.20943994259966
30
0
41
1
10
21.0591412240507
20
8.6256247550412
30
0
0
SPLINE
5
11F
100
AcDbEntity
8
1
62
256
6
ByLayer
370
18
48
1
60
0
100
AcDbSpline
70
4
71
3
72
12
73
8
40
0
40
0
40
0
40
0
40
0.274077856982872
40
0.274077856982872
40
0.548155363965168
40
0.548155363965168
40
1
40
1
40
1
40
1
41
1
10
22.3442144113104
20
-1.05475916586994
30
0
41
1
10
22.4907804563942
20
-0.873083725017494
30
0
41
1
10
22.6259677252338
20
-0.681182123133425
30
0
41
1
10
22.8699837158711
20
-0.282264940239145
30
0
41
1
10
22.9793718921122
20
-0.0743355373834333
30
0
41
1
10
23.2311127738336
20
0.489851432822746
30
0
41
1
10
23.3508025397966
20
0.859212260934044
30
0
41
1
10
23.4291131514033
20
1.23377005680186
30
0
0
SPLINE
5
120
100
AcDbEntity
8
1
62
256
6
ByLayer
370
18
48
1
60
0
100
AcDbSpline
70
4
71
3
72
8
73
4
40
0
40
0
40
0
40
0
40
1
40
1
40
1
40
1
41
1
10
26.7304839882468
20
-8.00010806875159
30
0
41
1
10
26.881203664741
20
-8.04520973920967
30
0
41
1
10
27.0330284872556
20
-8.08744053187039
30
0
41
1
10
27.186278298078
20
-8.12538138278859
30
0
0
SPLINE
5
121
100
AcDbEntity
8
1
62
256
6
ByLayer
370
18
48
1
60
0
100
AcDbSpline
70
4
71
3
72
10
73
6
40
0
40
0
40
0
40
0
40
0.731096563947336
40
0.731096563947336
40
1
40
1
40
1
40
1
41
1
10
11.1144993469642
20
2.1112656413803
30
0
41
1
10
11.0573252901417
20
2.1720086906015
30
0
41
1
10
10.9928043802454
20
2.2327348994479
30
0
41
1
10
10.903104569676
20
2.30922709162346
30
0
41
1
10
10.8784592762067
20
2.32948883250182
30
0
41
1
10
10.8537752345166
20
2.3491241318917
30
0
0
SPLINE
5
122
100
AcDbEntity
8
1
62
256
6
ByLayer
370
18
48
1
60
0
100
AcDbSpline
70
4
71
3
72
10
73
6
40
0
40
0
40
0
40
0
40
0.914968234315963
40
0.914968234315963
40
1
40
1
40
1
40
1
41
1
10
30.7084484907452
20
-4.34884775759238
30
0
41
1
10
31.1440185259291
20
-4.29909443927528
30
0
41
1
10
31.5747619255972
20
-4.25743269326856
30
0
41
1
10
32.039784472882
20
-4.22022426284977
30
0
41
1
10
32.0792883117125
20
-4.21713042923483
30
0
41
1
10
32.118742152229
20
-4.21410987487121
30
0
0
SPLINE
5
123
100
AcDbEntity
8
1
62
256
6
ByLayer
370
18
48
1
60
0
100
AcDbSpline
70
4
71
3
72
16
73
12
40
0
40
0
40
0
40
0
40
0.107738294188996
40
0.107738294188996
40
0.260376815889413
40
0.260376815889413
40
0.501548994683953
40
0.501548994683953
40
0.879664328740047
40
0.879664328740047
40
1
40
1
40
1
40
1
41
1
10
6.85780054600724
20
1.30420519837534
30
0
41
1
10
6.84374502006847
20
1.2527612509686
30
0
41
1
10
6.82715453725956
20
1.19922121923082
30
0
41
1
10
6.78708253333832
20
1.07576645024457
30
0
41
1
10
6.76278833488846
20
1.00560108516908
30
0
41
1
10
6.70362345457318
20
0.838935263075655
30
0
41
1
10
6.66933402112443
20
0.746884758727617
30
0
41
1
10
6.58853894874585
20
0.541802772694183
30
0
41
1
10
6.544010928673
20
0.442008118053337
30
0
41
1
10
6.48846467650151
20
0.339724963463738
30
0
41
1
10
6.47515236253525
20
0.31698698116648
30
0
41
1
10
6.46197658277111
20
0.296197413186405
30
0
0
SPLINE
5
124
100
AcDbEntity
8
1
62
256
6
ByLayer
370
18
48
1
60
0
100
AcDbSpline
70
4
71
3
72
8
73
4
40
0
40
0
40
0
40
0
40
1
40
1
40
1
40
1
41
1
10
13.5017129369426
20
7.93479087467134
30
0
41
1
10
13.227177030294
20
7.9955716703908
30
0
41
1
10
12.9656550296161
20
8.08996543033149
30
0
41
1
10
12.723431587217
20
8.20609387737852
30
0
0
SPLINE
5
125
100
AcDbEntity
8
1
62
256
6
ByLayer
370
18
48
1
60
0
100
AcDbSpline
70
4
71
3
72
8
73
4
40
0
40
0
40
0
40
0
40
1
40
1
40
1
40
1
41
1
10
14.2605483616253
20
14.1108444654824
30
0
41
1
10
13.7890957370383
20
14.3405783285054
30
0
41
1
10
13.2295475413036
20
14.5441641843519
30
0
41
1
10
12.5930709901834
20
14.6128210657624
30
0
0
SPLINE
5
126
100
AcDbEntity
8
1
62
256
6
ByLayer
370
18
48
1
60
0
100
AcDbSpline
70
4
71
3
72
20
73
16
40
0
40
0
40
0
40
0
40
0.118962056339779
40
0.118962056339779
40
0.191173230286448
40
0.191173230286448
40
0.263712164126323
40
0.263712164126323
40
0.333306822588765
40
0.333306822588765
40
0.451479822004406
40
0.451479822004406
40
0.654414534009051
40
0.654414534009051
40
1
40
1
40
1
40
1
41
1
10
28.7579871990337
20
-5.33396330051528
30
0
41
1
10
28.7403740532702
20
-5.28502772437938
30
0
41
1
10
28.7351998240736
20
-5.22892577593692
30
0
41
1
10
28.7642744888143
20
-5.12933639985044
30
0
41
1
10
28.7845418190435
20
-5.08861356059444
30
0
41
1
10
28.8441737628119
20
-5.00692131388513
30
0
41
1
10
28.8844103193746
20
-4.96497956211806
30
0
41
1
10
28.9754365931606
20
-4.88774005110884
30
0
41
1
10
29.0265590493957
20
-4.85135357703894
30
0
41
1
10
29.1704304430429
20
-4.76150832654776
30
0
41
1
10
29.2697202414005
20
-4.71188519029869
30
0
41
1
10
29.5380421908249
20
-4.59634174447203
30
0
41
1
10
29.7120952890955
20
-4.54090834251735
30
0
41
1
10
30.1657706841052
20
-4.42275822460073
30
0
41
1
10
30.4427362957403
20
-4.37915439644914
30
0
41
1
10
30.7084484907453
20
-4.34884775759238
30
0
0
SPLINE
5
127
100
AcDbEntity
8
1
62
256
6
ByLayer
370
18
48
1
60
0
100
AcDbSpline
70
4
71
3
72
8
73
4
40
0
40
0
40
0
40
0
40
1
40
1
40
1
40
1
41
1
10
13.85095968368
20
7.88366560446244
30
0
41
1
10
13.3202848210595
20
9.76666941526372
30
0
41
1
10
12.7377749827795
20
11.6146495268138
30
0
41
1
10
12.3394745200636
20
12.6944289611039
30
0
0
SPLINE
5
128
100
AcDbEntity
8
1
62
256
6
ByLayer
370
18
48
1
60
0
100
AcDbSpline
70
4
71
3
72
8
73
4
40
0
40
0
40
0
40
0
40
1
40
1
40
1
40
1
41
1
10
20.5988042004163
20
6.87022026730511
30
0
41
1
10
20.5322732184962
20
6.90531018098272
30
0
41
1
10
20.4649286320487
20
6.93896918266307
30
0
41
1
10
20.3967415228652
20
6.97114541878699
30
0
0
SPLINE
5
129
100
AcDbEntity
8
1
62
256
6
ByLayer
370
18
48
1
60
0
100
AcDbSpline
70
4
71
3
72
11
73
7
40
0
40
0
40
0
40
0
40
0.0598016998824427
40
0.468392215028713
40
0.740785891792893
40
1
40
1
40
1
40
1
41
1.0229825050537
10
22.3442144112339
20
-1.05475916583799
30
0
41
1.02281639303114
10
22.5672559382317
20
-1.14800272868706
30
0
41
1.02150796927553
10
24.332673314585
20
-1.88135433022261
30
0
41
1.01953314781965
10
27.2162633520768
20
-3.01487269408986
30
0
41
1.01726237988674
10
29.3632841203388
20
-3.79349129979807
30
0
41
1.01931548101018
10
30.1484223318183
20
-4.12939102483523
30
0
41
1.02052415826821
10
30.7084484907452
20
-4.34884775759239
30
0
0
SPLINE
5
12A
100
AcDbEntity
8
1
62
256
6
ByLayer
370
18
48
1
60
0
100
AcDbSpline
70
4
71
3
72
10
73
6
40
0
40
0
40
0
40
0
40
0.5
40
0.5
40
1
40
1
40
1
40
1
41
1
10
30.8487373166965
20
-0.92365055454178
30
0
41
1
10
31.3864880568869
20
-0.723941483744767
30
0
41
1
10
31.9372182553783
20
-0.541644421012393
30
0
41
1
10
33.1067857603606
20
-0.693047133224098
30
0
41
1
10
33.7340987444836
20
-0.919120000335653
30
0
41
1
10
34.3201072381237
20
-1.60182626431711
30
0
0
SPLINE
5
12B
100
AcDbEntity
8
1
62
256
6
ByLayer
370
18
48
1
60
0
100
AcDbSpline
70
4
71
3
72
8
73
4
40
0
40
0
40
0
40
0
40
1
40
1
40
1
40
1
41
1
10
11.5972425064731
20
11.3850818723216
30
0
41
1
10
11.6558708898479
20
11.5087549522808
30
0
41
1
10
11.7240846335836
20
11.6233511378489
30
0
41
1
10
11.8004414396306
20
11.7304115383964
30
0
0
SPLINE
5
12C
100
AcDbEntity
8
1
62
256
6
ByLayer
370
18
48
1
60
0
100
AcDbSpline
70
4
71
3
72
8
73
4
40
0
40
0
40
0
40
0
40
1
40
1
40
1
40
1
41
1
10
6.46197658276958
20
0.296197413199167
30
0
41
1
10
6.4547810462185
20
0.284843846354761
30
0
41
1
10
6.44765863905616
20
0.273734783370287
30
0
41
1
10
6.44060030555863
20
0.262874063821414
30
0
0
SPLINE
5
12D
100
AcDbEntity
8
1
62
256
6
ByLayer
370
18
48
1
60
0
100
AcDbSpline
70
4
71
3
72
8
73
4
40
0
40
0
40
0
40
0
40
1
40
1
40
1
40
1
41
1
10
32.068806119029
20
2.17402001368006
30
0
41
1
10
31.9411623513573
20
2.26597528628406
30
0
41
1
10
31.8110950929651
20
2.3541023635249
30
0
41
1
10
31.6795030435543
20
2.43955262314765
30
0
0
SPLINE
5
12E
100
AcDbEntity
8
1
62
256
6
ByLayer
370
18
48
1
60
0
100
AcDbSpline
70
4
71
2
72
10
73
7
40
0
40
0
40
0
40
0.030364284240822
40
0.030364284240822
40
0.440077053271163
40
0.440077053271163
40
1
40
1
40
1
41
1
10
32.0687881753323
20
2.17399770965662
30
0
41
1
10
32.0926936712797
20
2.14006828239414
30
0
41
1
10
32.1158753735513
20
2.10683571250743
30
0
41
1
10
32.5080421024468
20
1.54463764471302
30
0
41
1
10
32.9713825491514
20
0.794873729405964
30
0
41
1
10
33.7701462064949
20
-0.497662183213464
30
0
41
1
10
34.3204833314014
20
-1.60549358090745
30
0
0
SPLINE
5
12F
100
AcDbEntity
8
1
62
256
6
ByLayer
370
18
48
1
60
0
100
AcDbSpline
70
4
71
3
72
8
73
4
40
0
40
0
40
0
40
0
40
1
40
1
40
1
40
1
41
1
10
12.352675764711
20
12.7340448329585
30
0
41
1
10
12.3484255189512
20
12.7210530947147
30
0
41
1
10
12.3440167655489
20
12.7078330303434
30
0
41
1
10
12.3394745200634
20
12.694428961104
30
0
0
SPLINE
5
130
100
AcDbEntity
8
1
62
256
6
ByLayer
370
18
48
1
60
0
100
AcDbSpline
70
4
71
3
72
11
73
7
40
0
40
0
40
0
40
0
40
0.425230898251466
40
0.744154071940066
40
0.956769521065799
40
1
40
1
40
1
40
1
41
1.0258173342201
10
15.1470657648985
20
-3.84554601409585
30
0
41
1.02559001729416
10
16.2193669063619
20
-4.23645661919533
30
0
41
1.0228008665691
10
20.2547339314045
20
-4.8617050212294
30
0
41
1.01953314781965
10
26.0138479500276
20
-5.10344481322912
30
0
41
1.01775466813745
10
28.0071521223246
20
-5.17416392043943
30
0
41
1.01823166218985
10
28.6523969636869
20
-5.30897226996604
30
0
41
1.01834276704992
10
28.7579871990338
20
-5.33396330051529
30
0
0
SPLINE
5
131
100
AcDbEntity
8
1
62
256
6
ByLayer
370
18
48
1
60
0
100
AcDbSpline
70
4
71
3
72
8
73
4
40
0
40
0
40
0
40
0
40
1
40
1
40
1
40
1
41
1
10
6.99695371392869
20
1.68104688231577
30
0
41
1
10
6.93832533055399
20
1.55737380235661
30
0
41
1
10
6.89263180279477
20
1.43168938858599
30
0
41
1
10
6.85780054600724
20
1.30420519837534
30
0
0
SPLINE
5
132
100
AcDbEntity
8
1
62
256
6
ByLayer
370
18
48
1
60
0
100
AcDbSpline
70
4
71
3
72
8
73
4
40
0
40
0
40
0
40
0
40
1
40
1
40
1
40
1
41
1
10
16.1912599444338
20
-2.42723161246508
30
0
41
1
10
16.121587643805
20
-2.39799467344531
30
0
41
1
10
16.0528042781016
20
-2.3673651776665
30
0
41
1
10
15.9849189378365
20
-2.33533134071581
30
0
0
SPLINE
5
133
100
AcDbEntity
8
1
62
256
6
ByLayer
370
18
48
1
60
0
100
AcDbSpline
70
4
71
3
72
8
73
4
40
0
40
0
40
0
40
0
40
1
40
1
40
1
40
1
41
1
10
13.85095968368
20
7.88366560446244
30
0
41
1
10
14.2244378430914
20
7.85972048802128
30
0
41
1
10
14.5912521723258
20
7.91499742541544
30
0
41
1
10
14.9217648486735
20
8.04154395543873
30
0
0
SPLINE
5
134
100
AcDbEntity
8
1
62
256
6
ByLayer
370
18
48
1
60
0
100
AcDbSpline
70
4
71
3
72
8
73
4
40
0
40
0
40
0
40
0
40
1
40
1
40
1
40
1
41
1
10
13.7365237463483
20
-5.28325798138903
30
0
41
1
10
17.1238238724471
20
-6.85691023241554
30
0
41
1
10
20.7845380928941
20
-7.58678378151757
30
0
41
1
10
24.5075687194683
20
-7.69961643091378
30
0
0
SPLINE
5
135
100
AcDbEntity
8
1
62
256
6
ByLayer
370
18
48
1
60
0
100
AcDbSpline
70
4
71
3
72
8
73
4
40
0
40
0
40
0
40
0
40
1
40
1
40
1
40
1
41
1
10
18.4336552072442
20
7.89748955596269
30
0
41
1
10
17.2892029210859
20
8.43753543021899
30
0
41
1
10
16.0257595111295
20
8.46424088568008
30
0
41
1
10
14.9217648486735
20
8.0415439554387
30
0
0
SPLINE
5
136
100
AcDbEntity
8
1
62
256
6
ByLayer
370
18
48
1
60
0
100
AcDbSpline
70
4
71
3
72
12
73
8
40
0
40
0
40
0
40
0
40
0.500000000000004
40
0.500000000000004
40
0.750000000000002
40
0.750000000000002
40
1
40
1
40
1
40
1
41
1
10
31.3206519415864
20
-3.05744107080244
30
0
41
1
10
31.1084122573591
20
-2.73690107794846
30
0
41
1
10
30.9023663225099
20
-2.39023803618858
30
0
41
1
10
30.6835588574206
20
-1.74884104091632
30
0
41
1
10
30.6263865406842
20
-1.50587528064094
30
0
41
1
10
30.6490479171071
20
-1.08896878697465
30
0
41
1
10
30.7414903943593
20
-0.965255906533372
30
0
41
1
10
30.8487373166965
20
-0.92365055454178
30
0
0
SPLINE
5
137
100
AcDbEntity
8
1
62
256
6
ByLayer
370
18
48
1
60
0
100
AcDbSpline
70
4
71
3
72
10
73
6
40
0
40
0
40
0
40
0
40
0.5
40
0.5
40
1
40
1
40
1
40
1
41
1
10
30.0302200787133
20
3.95008741258673
30
0
41
1
10
28.8095074449685
20
5.34548562713212
30
0
41
1
10
27.4794233882874
20
6.61734211312202
30
0
41
1
10
24.5824427790714
20
8.89356085035649
30
0
41
1
10
23.0089302941009
20
9.91722781997512
30
0
41
1
10
21.3250147258011
20
10.7242113986417
30
0
0
SPLINE
5
138
100
AcDbEntity
8
1
62
256
6
ByLayer
370
18
48
1
60
0
100
AcDbSpline
70
4
71
2
72
8
73
5
40
0
40
0
40
0
40
0.210534309729082
40
0.210534309729082
40
1
40
1
40
1
41
1
10
31.5432095925629
20
-7.46419961898798
30
0
41
1
10
31.0530476769118
20
-7.57851071244789
30
0
41
1
10
30.5583281285984
20
-7.6708109136882
30
0
41
1
10
28.7670799289592
20
-8.0050054484739
30
0
41
1
10
27.1866349068365
20
-8.12368447306147
30
0
0
SPLINE
5
139
100
AcDbEntity
8
1
62
256
6
ByLayer
370
18
48
1
60
0
100
AcDbSpline
70
4
71
3
72
10
73
6
40
0
40
0
40
0
40
0
40
0.731297369966782
40
0.731297369966782
40
1
40
1
40
1
40
1
41
1
10
13.5017129369426
20
7.93479087467134
30
0
41
1
10
13.5843774761033
20
7.91648938351375
30
0
41
1
10
13.6714710313929
20
7.90144867539865
30
0
41
1
10
13.788309557307
20
7.88845016061612
30
0
41
1
10
13.8199080781046
20
7.88565644192497
30
0
41
1
10
13.8509596836801
20
7.88366560446246
30
0
0
SPLINE
5
13A
100
AcDbEntity
8
1
62
256
6
ByLayer
370
18
48
1
60
0
100
AcDbSpline
70
4
71
3
72
11
73
7
40
0
40
0
40
0
40
0
40
0.0598016998855049
40
0.468392215040457
40
0.740785891810425
40
1
40
1
40
1
40
1
41
1.02298250505371
10
23.4291131513295
20
1.23377005684045
30
0
41
1.02281639303115
10
23.6432655865841
20
1.12177548481119
30
0
41
1.02150796927554
10
25.3349751736733
20
0.232941695446619
30
0
41
1.01953314781965
10
28.05240745638
20
-1.25107654764434
30
0
41
1.0172623798868
10
30.0287235632758
20
-2.38978646086959
30
0
41
1.01931548101
10
30.7916680645518
20
-2.77250249457444
30
0
41
1.02052415826788
10
31.3206519414303
20
-3.05744107071836
30
0
0
SPLINE
5
13B
100
AcDbEntity
8
1
62
256
6
ByLayer
370
18
48
1
60
0
100
AcDbSpline
70
4
71
3
72
10
73
6
40
0
40
0
40
0
40
0
40
0.5
40
0.5
40
1
40
1
40
1
40
1
41
1
10
16.19125994429
20
-2.42723161240448
30
0
41
1
10
17.2291417170728
20
-2.86219039435395
30
0
41
1
10
18.4017382553426
20
-2.95107458201298
30
0
41
1
10
20.59333126518
20
-2.49584985702651
30
0
41
1
10
21.6309162027288
20
-1.93882982395422
30
0
41
1
10
22.3442144113104
20
-1.05475916586994
30
0
0
SPLINE
5
13C
100
AcDbEntity
8
1
62
256
6
ByLayer
370
18
48
1
60
0
100
AcDbSpline
70
4
71
3
72
8
73
4
40
0
40
0
40
0
40
0
40
1
40
1
40
1
40
1
41
1
10
11.6737973014131
20
1.1901500220624
30
0
41
1
10
12.0515100336298
20
0.0756500411120271
30
0
41
1
10
12.8646051008476
20
-0.862912931987637
30
0
41
1
10
14.0218326222155
20
-1.40898720354014
30
0
0
SPLINE
5
13D
100
AcDbEntity
8
1
62
256
6
ByLayer
370
18
48
1
60
0
100
AcDbSpline
70
4
71
3
72
8
73
4
40
0
40
0
40
0
40
0
40
1
40
1
40
1
40
1
41
1
10
10.8537752345166
20
2.3491241318917
30
0
41
1
10
9.3826138131223
20
1.92580874080696
30
0
41
1
10
7.95652657227396
20
1.5527597017277
30
0
41
1
10
6.85780054600724
20
1.30420519837534
30
0
0
SPLINE
5
13E
100
AcDbEntity
8
1
62
256
6
ByLayer
370
18
48
1
60
0
100
AcDbSpline
70
4
71
3
72
11
73
7
40
0
40
0
40
0
40
0
40
0.425230898249525
40
0.744154071936669
40
0.956769521061432
40
1
40
1
40
1
40
1
41
1.0258173342201
10
21.0591412240508
20
8.62562475504119
30
0
41
1.02559001729416
10
22.0413639772278
20
8.04469915909309
30
0
41
1.0228008665691
10
25.0788769976474
20
5.31453721489252
30
0
41
1.01953314781965
10
28.9219097650654
20
1.03093823925595
30
0
41
1.01775466813744
10
30.2456393478947
20
-0.452208551780345
30
0
41
1.01823166218986
10
30.76194203759
20
-0.859012684130906
30
0
41
1.01834276704995
10
30.8487373166966
20
-0.923650554541765
30
0
0
SPLINE
5
13F
100
AcDbEntity
8
1
62
256
6
ByLayer
370
18
48
1
60
0
100
AcDbSpline
70
4
71
3
72
8
73
4
40
0
40
0
40
0
40
0
40
1
40
1
40
1
40
1
41
1
10
11.6737973014131
20
1.1901500220624
30
0
41
1
10
11.5605695754794
20
1.52424598344461
30
0
41
1
10
11.3673680690684
20
1.84261202316694
30
0
41
1
10
11.1144993469642
20
2.11126564138027
30
0
0
SPLINE
5
140
100
AcDbEntity
8
1
62
256
6
ByLayer
370
18
48
1
60
0
100
AcDbSpline
70
4
71
2
72
6
73
3
40
0
40
0
40
0
40
1
40
1
40
1
41
1.0258173342201
10
15.1470657648985
20
-3.84554601409585
30
0
41
1.0258173342201
10
14.4417947556234
20
-4.56440199774242
30
0
41
1.0258173342201
10
13.7365237463483
20
-5.28325798138902
30
0
0
SPLINE
5
141
100
AcDbEntity
8
1
62
256
6
ByLayer
370
18
48
1
60
0
100
AcDbSpline
70
4
71
3
72
8
73
4
40
0
40
0
40
0
40
0
40
1
40
1
40
1
40
1
41
1
10
26.7304839882467
20
-8.00010806875156
30
0
41
1
10
26.1063987521804
20
-7.81335550060965
30
0
41
1
10
25.3256593364524
20
-7.72441003081104
30
0
41
1
10
24.5075687194683
20
-7.69961643091378
30
0
0
SPLINE
5
142
100
AcDbEntity
8
1
62
256
6
ByLayer
370
18
48
1
60
0
100
AcDbSpline
70
4
71
3
72
14
73
10
40
0
40
0
40
0
40
0
40
0.0560617400824604
40
0.0560617400824604
40
0.43269996514783
40
0.43269996514783
40
0.811345304670923
40
0.811345304670923
40
1
40
1
40
1
40
1
41
1
10
34.1542368283277
20
-6.45480589020113
30
0
41
1
10
34.1224754215618
20
-6.4749359090485
30
0
41
1
10
34.0903716107205
20
-6.49480300898571
30
0
41
1
10
33.8422827624545
20
-6.6445682109505
30
0
41
1
10
33.6087901329279
20
-6.7631291611699
30
0
41
1
10
33.1398020798469
20
-6.95250142790883
30
0
41
1
10
32.8980112786946
20
-7.02532401834105
30
0
41
1
10
32.5586234800591
20
-7.09180759140034
30
0
41
1
10
32.4477133936404
20
-7.1073542203155
30
0
41
1
10
32.3415301456837
20
-7.11638262780161
30
0
0
SPLINE
5
143
100
AcDbEntity
8
1
62
256
6
ByLayer
370
18
48
1
60
0
100
AcDbSpline
70
4
71
3
72
10
73
6
40
0
40
0
40
0
40
0
40
0.5
40
0.5
40
1
40
1
40
1
40
1
41
1
10
23.4291131514033
20
1.23377005680192
30
0
41
1
10
23.6614199139121
20
2.34517564763237
30
0
41
1
10
23.4351575550849
20
3.50959897807894
30
0
41
1
10
22.4026730458045
20
5.49580756745013
30
0
41
1
10
21.5957243314148
20
6.34442820365942
30
0
41
1
10
20.5988042004163
20
6.87022026730511
30
0
0
SPLINE
5
144
100
AcDbEntity
8
1
62
256
6
ByLayer
370
18
48
1
60
0
100
AcDbSpline
70
4
71
3
72
10
73
6
40
0
40
0
40
0
40
0
40
0.579529299651682
40
0.579529299651682
40
1
40
1
40
1
40
1
41
1
10
30.0302200787133
20
3.95008741258675
30
0
41
1
10
30.3381863601915
20
3.59805075184011
30
0
41
1
10
30.6616087714945
20
3.26266357870316
30
0
41
1
10
31.2156008064671
20
2.76964528162876
30
0
41
1
10
31.4527372599026
20
2.58680464310891
30
0
41
1
10
31.6795030435543
20
2.43955262314759
30
0
0
SPLINE
5
145
100
AcDbEntity
8
1
62
256
6
ByLayer
370
18
48
1
60
0
100
AcDbSpline
70
4
71
1
72
4
73
2
40
0
40
0
40
1
40
1
41
1
10
21.0591412240507
20
8.62562475504117
30
0
41
1
10
21.3250147258011
20
10.7242113986417
30
0
0
SPLINE
5
146
100
AcDbEntity
8
1
62
256
6
ByLayer
370
18
48
1
60
0
100
AcDbSpline
70
4
71
2
72
6
73
3
40
0
40
0
40
0
40
1
40
1
40
1
41
0.943993461863076
10
16.19125994429
20
-2.42723161240447
30
0
41
0.955129617927099
10
15.57513013748
20
-3.40923623874797
30
0
41
1.0258173342201
10
15.1470657648985
20
-3.84554601409585
30
0
0
SPLINE
5
147
100
AcDbEntity
8
1
62
256
6
ByLayer
370
18
48
1
60
0
100
AcDbSpline
70
4
71
3
72
14
73
10
40
0
40
0
40
0
40
0
40
0.264998964150958
40
0.264998964150958
40
0.63300715060746
40
0.63300715060746
40
0.984533813617862
40
0.984533813617862
40
1
40
1
40
1
40
1
41
1
10
34.5574654861512
20
-2.44199911641459
30
0
41
1
10
34.642677255181
20
-2.56266467872672
30
0
41
1
10
34.7238996239086
20
-2.6992846223884
30
0
41
1
10
34.8983954290487
20
-3.05227294579487
30
0
41
1
10
34.9862511143788
20
-3.28454407499163
30
0
41
1
10
35.1172396396442
20
-3.75129655255589
30
0
41
1
10
35.163967805198
20
-3.9905442519144
30
0
41
1
10
35.1944497091121
20
-4.23452894380023
30
0
41
1
10
35.195713760899
20
-4.24490479748846
30
0
41
1
10
35.1969451571879
20
-4.25527482510103
30
0
0
SPLINE
5
148
100
AcDbEntity
8
1
62
256
6
ByLayer
370
18
48
1
60
0
100
AcDbSpline
70
4
71
3
72
10
73
6
40
0
40
0
40
0
40
0
40
0.311681797709781
40
0.311681797709781
40
1
40
1
40
1
40
1
41
1
10
32.1187421522483
20
-4.21410987486974
30
0
41
1
10
32.0347464343123
20
-4.09735640828555
30
0
41
1
10
31.9510945538872
20
-3.97944095147744
30
0
41
1
10
31.6837715850799
20
-3.59782518137911
30
0
41
1
10
31.5012507642288
20
-3.33029705441351
30
0
41
1
10
31.3206519415864
20
-3.05744107080244
30
0
0
INSERT
5
15B
100
AcDbEntity
8
SK2
62
256
6
ByLayer
370
25
48
1
60
0
100
AcDbBlockReference
2
DimnDraft3D11
10
0
20
0
30
0
41
1
42
1
43
1
50
0
210
0
220
0
230
1
0
LINE
5
72
100
AcDbEntity
8
1
62
256
6
ByLayer
370
18
48
1
60
0
100
AcDbLine
10
6.475362
20
-1.823409
30
0
11
7.222636
21
-2.218345
31
0
39
0
210
0
220
0
230
1
0
LINE
5
74
100
AcDbEntity
8
1
62
256
6
ByLayer
370
18
48
1
60
0
100
AcDbLine
10
14.669336
20
-1.517974
30
0
11
14.878404
21
-1.63868
31
0
39
0
210
0
220
0
230
1
0
LINE
5
75
100
AcDbEntity
8
1
62
256
6
ByLayer
370
18
48
1
60
0
100
AcDbLine
10
19.878404
20
7.021574
30
0
11
19.668868
21
7.14255
31
0
39
0
210
0
220
0
230
1
0
LINE
5
76
100
AcDbEntity
8
1
62
256
6
ByLayer
370
18
48
1
60
0
100
AcDbLine
10
37.718148
20
5.029281
30
0
11
37.256643
21
5.29573
31
0
39
0
210
0
220
0
230
1
0
LINE
5
77
100
AcDbEntity
8
1
62
256
6
ByLayer
370
18
48
1
60
0
100
AcDbLine
10
26.409115
20
-13.225591
30
0
11
26.896998
21
-13.50727
31
0
39
0
210
0
220
0
230
1
0
LINE
5
78
100
AcDbEntity
8
1
62
256
6
ByLayer
370
18
48
1
60
0
100
AcDbLine
10
10.288233
20
2.717024
30
0
11
9.928007
21
2.907404
31
0
39
0
210
0
220
0
230
1
0
LINE
5
79
100
AcDbEntity
8
80
62
256
6
ByLayer
370
18
48
1
60
0
100
AcDbLine
10
0
20
0
30
0
11
-5
21
0
31
0
39
0
210
0
220
0
230
1
0
LINE
5
7A
100
AcDbEntity
8
81
62
256
6
ByLayer
370
18
48
1
60
0
100
AcDbLine
10
41.635724
20
-9.9125
30
0
11
51.635724
21
-9.9125
31
0
39
0
210
0
220
0
230
1
0
LINE
5
7B
100
AcDbEntity
8
1
62
256
6
ByLayer
370
18
48
1
60
0
100
AcDbLine
10
30.492859
20
3.447731
30
0
11
36.828566
21
5.145378
31
0
39
0
210
0
220
0
230
1
0
LINE
5
7C
100
AcDbEntity
8
1
62
256
6
ByLayer
370
18
48
1
60
0
100
AcDbLine
10
26.348382
20
-12.782398
30
0
11
25.055166
21
-7.736148
31
0
39
0
210
0
220
0
230
1
0
LINE
5
7D
100
AcDbEntity
8
1
62
256
6
ByLayer
370
18
48
1
60
0
100
AcDbLine
10
26.348382
20
-12.782398
30
0
11
26.291078
21
-12.749314
31
0
39
0
210
0
220
0
230
1
0
LINE
5
7E
100
AcDbEntity
8
1
62
256
6
ByLayer
370
18
48
1
60
0
100
AcDbLine
10
36.784299
20
5.170936
30
0
11
36.828566
21
5.145378
31
0
39
0
210
0
220
0
230
1
0
LINE
5
7F
100
AcDbEntity
8
1
62
256
6
ByLayer
370
18
48
1
60
0
100
AcDbLine
10
8.898673
20
-3.013273
30
0
11
4.891101
21
-11.467008
31
0
39
0
210
0
220
0
230
1
0
LINE
5
80
100
AcDbEntity
8
1
62
256
6
ByLayer
370
18
48
1
60
0
100
AcDbLine
10
5.410878
20
-1.090787
30
0
11
1.960113
21
-8.36997
31
0
39
0
210
0
220
0
230
1
0
LINE
5
81
100
AcDbEntity
8
1
62
256
6
ByLayer
370
18
48
1
60
0
100
AcDbLine
10
17.039148
20
14.158572
30
0
11
16.498644
21
13.018413
31
0
39
0
210
0
220
0
230
1
0
LINE
5
82
100
AcDbEntity
8
1
62
256
6
ByLayer
370
18
48
1
60
0
100
AcDbLine
10
17.039148
20
14.158572
30
0
11
14.146351
21
14.158572
31
0
39
0
210
0
220
0
230
1
0
LINE
5
83
100
AcDbEntity
8
1
62
256
6
ByLayer
370
18
48
1
60
0
100
AcDbLine
10
24.892078
20
-7.725465
30
0
11
26.323444
21
-13.310791
31
0
39
0
210
0
220
0
230
1
0
LINE
5
84
100
AcDbEntity
8
1
62
256
6
ByLayer
370
18
48
1
60
0
100
AcDbLine
10
30.374095
20
3.576761
30
0
11
37.284633
21
5.396151
31
0
39
0
210
0
220
0
230
1
0
LINE
5
85
100
AcDbEntity
8
1
62
256
6
ByLayer
370
18
48
1
60
0
100
AcDbLine
10
24.909579
20
-7.726583
30
0
11
25.321655
21
-9.334544
31
0
39
0
210
0
220
0
230
1
0
LINE
5
86
100
AcDbEntity
8
1
62
256
6
ByLayer
370
18
48
1
60
0
100
AcDbLine
10
37.036094
20
5.217982
30
0
11
37.250719
21
5.274488
31
0
39
0
210
0
220
0
230
1
0
LINE
5
87
100
AcDbEntity
8
1
62
256
6
ByLayer
370
18
48
1
60
0
100
AcDbLine
10
4.765857
20
-0.261908
30
0
11
1.087373
21
-8.021451
31
0
39
0
210
0
220
0
230
1
0
LINE
5
88
100
AcDbEntity
8
1
62
256
6
ByLayer
370
18
48
1
60
0
100
AcDbLine
10
10.719658
20
14.158572
30
0
11
2.547796
21
14.158572
31
0
39
0
210
0
220
0
230
1
0
LINE
5
89
100
AcDbEntity
8
1
62
256
6
ByLayer
370
18
48
1
60
0
100
AcDbLine
10
5.388411
20
-1.069761
30
0
11
1.757313
21
-8.729345
31
0
39
0
210
0
220
0
230
1
0
LINE
5
8A
100
AcDbEntity
8
1
62
256
6
ByLayer
370
18
48
1
60
0
100
AcDbLine
10
18.257052
20
3.800663
30
0
11
18.233549
21
3.814232
31
0
39
0
210
0
220
0
230
1
0
LINE
5
8B
100
AcDbEntity
8
1
62
256
6
ByLayer
370
18
48
1
60
0
100
AcDbLine
10
17.772414
20
4.056302
30
0
11
18.027921
21
3.908785
31
0
39
0
210
0
220
0
230
1
0
LINE
5
8C
100
AcDbEntity
8
1
62
256
6
ByLayer
370
18
48
1
60
0
100
AcDbLine
10
18.806665
20
3.264331
30
0
11
19.067685
21
3.113631
31
0
39
0
210
0
220
0
230
1
0
LINE
5
8D
100
AcDbEntity
8
1
62
256
6
ByLayer
370
18
48
1
60
0
100
AcDbLine
10
16.833619
20
1.389476
30
0
11
16.578112
21
1.536993
31
0
39
0
210
0
220
0
230
1
0
LINE
5
8E
100
AcDbEntity
8
1
62
256
6
ByLayer
370
18
48
1
60
0
100
AcDbLine
10
18.933793
20
2.587977
30
0
11
18.678287
21
2.735494
31
0
39
0
210
0
220
0
230
1
0
LINE
5
8F
100
AcDbEntity
8
1
62
256
6
ByLayer
370
18
48
1
60
0
100
AcDbLine
10
18.485218
20
1.68686
30
0
11
18.746239
21
1.53616
31
0
39
0
210
0
220
0
230
1
0
LINE
5
90
100
AcDbEntity
8
1
62
256
6
ByLayer
370
18
48
1
60
0
100
AcDbLine
10
18.866143
20
2.490397
30
0
11
19.127163
21
2.339697
31
0
39
0
210
0
220
0
230
1
0
LINE
5
91
100
AcDbEntity
8
1
62
256
6
ByLayer
370
18
48
1
60
0
100
AcDbLine
10
18.222077
20
1.382384
30
0
11
17.96657
21
1.529901
31
0
39
0
210
0
220
0
230
1
0
LINE
5
92
100
AcDbEntity
8
1
62
256
6
ByLayer
370
18
48
1
60
0
100
AcDbLine
10
18.176144
20
1.676255
30
0
11
18.431651
21
1.528738
31
0
39
0
210
0
220
0
230
1
0
LINE
5
93
100
AcDbEntity
8
1
62
256
6
ByLayer
370
18
48
1
60
0
100
AcDbLine
10
17.847845
20
1.241757
30
0
11
18.108865
21
1.091057
31
0
39
0
210
0
220
0
230
1
0
LINE
5
94
100
AcDbEntity
8
1
62
256
6
ByLayer
370
18
48
1
60
0
100
AcDbLine
10
16.271531
20
1.493946
30
0
11
16.532551
21
1.343246
31
0
39
0
210
0
220
0
230
1
0
LINE
5
95
100
AcDbEntity
8
1
62
256
6
ByLayer
370
18
48
1
60
0
100
AcDbLine
10
18.65873
20
2.989971
30
0
11
18.914237
21
2.842454
31
0
39
0
210
0
220
0
230
1
0
LINE
5
96
100
AcDbEntity
8
1
62
256
6
ByLayer
370
18
48
1
60
0
100
AcDbLine
10
16.807242
20
1.42887
30
0
11
17.062749
21
1.281353
31
0
39
0
210
0
220
0
230
1
0
LINE
5
97
100
AcDbEntity
8
1
62
256
6
ByLayer
370
18
48
1
60
0
100
AcDbLine
10
17.611275
20
4.320057
30
0
11
17.872295
21
4.169357
31
0
39
0
210
0
220
0
230
1
0
LINE
5
98
100
AcDbEntity
8
1
62
256
6
ByLayer
370
18
48
1
60
0
100
AcDbLine
10
4.891101
20
-11.467008
30
0
11
4.659979
21
-14.977151
31
0
39
0
210
0
220
0
230
1
0
LINE
5
99
100
AcDbEntity
8
1
62
256
6
ByLayer
370
18
48
1
60
0
100
AcDbLine
10
37.284633
20
5.396151
30
0
11
37.250719
21
5.274488
31
0
39
0
210
0
220
0
230
1
0
LINE
5
9A
100
AcDbEntity
8
1
62
256
6
ByLayer
370
18
48
1
60
0
100
AcDbLine
10
35.039064
20
14.158572
30
0
11
37.284633
21
5.396151
31
0
39
0
210
0
220
0
230
1
0
LINE
5
9B
100
AcDbEntity
8
1
62
256
6
ByLayer
370
18
48
1
60
0
100
AcDbLine
10
2.547796
20
14.158572
30
0
11
1.713579
21
14.158572
31
0
39
0
210
0
220
0
230
1
0
LINE
5
9C
100
AcDbEntity
8
1
62
256
6
ByLayer
370
18
48
1
60
0
100
AcDbLine
10
1.757313
20
-8.729345
30
0
11
1.960113
21
-8.36997
31
0
39
0
210
0
220
0
230
1
0
LINE
5
9D
100
AcDbEntity
8
1
62
256
6
ByLayer
370
18
48
1
60
0
100
AcDbLine
10
26.412322
20
-13.222399
30
0
11
25.644868
21
-10.227719
31
0
39
0
210
0
220
0
230
1
0
LINE
5
9E
100
AcDbEntity
8
1
62
256
6
ByLayer
370
18
48
1
60
0
100
AcDbLine
10
0
20
12.4375
30
0
11
1.713579
21
14.158572
31
0
39
0
210
0
220
0
230
1
0
LINE
5
9F
100
AcDbEntity
8
1
62
256
6
ByLayer
370
18
48
1
60
0
100
AcDbLine
10
26.323444
20
-13.310791
30
0
11
20.104503
21
-14.977151
31
0
39
0
210
0
220
0
230
1
0
LINE
5
A0
100
AcDbEntity
8
1
62
256
6
ByLayer
370
18
48
1
60
0
100
AcDbLine
10
1.960113
20
-8.36997
30
0
11
4.891101
21
-11.467008
31
0
39
0
210
0
220
0
230
1
0
LINE
5
A1
100
AcDbEntity
8
1
62
256
6
ByLayer
370
18
48
1
60
0
100
AcDbLine
10
35.039064
20
14.158572
30
0
11
17.039148
21
14.158572
31
0
39
0
210
0
220
0
230
1
0
LINE
5
A2
100
AcDbEntity
8
1
62
256
6
ByLayer
370
18
48
1
60
0
100
AcDbLine
10
4.659979
20
-14.977151
30
0
11
2.539651
21
-14.977151
31
0
39
0
210
0
220
0
230
1
0
LINE
5
A3
100
AcDbEntity
8
1
62
256
6
ByLayer
370
18
48
1
60
0
100
AcDbLine
10
2.547796
20
14.158572
30
0
11
1.087373
21
-8.021451
31
0
39
0
210
0
220
0
230
1
0
LINE
5
A4
100
AcDbEntity
8
1
62
256
6
ByLayer
370
18
48
1
60
0
100
AcDbLine
10
2.539651
20
-14.977151
30
0
11
0
21
-12.4375
31
0
39
0
210
0
220
0
230
1
0
LINE
5
A5
100
AcDbEntity
8
1
62
256
6
ByLayer
370
18
48
1
60
0
100
AcDbLine
10
26.323444
20
-13.310791
30
0
11
26.412322
21
-13.222399
31
0
39
0
210
0
220
0
230
1
0
LINE
5
A6
100
AcDbEntity
8
1
62
256
6
ByLayer
370
18
48
1
60
0
100
AcDbLine
10
0
20
-12.4375
30
0
11
0
21
12.4375
31
0
39
0
210
0
220
0
230
1
0
LINE
5
A7
100
AcDbEntity
8
1
62
256
6
ByLayer
370
18
48
1
60
0
100
AcDbLine
10
20.104503
20
-14.977151
30
0
11
4.659979
21
-14.977151
31
0
39
0
210
0
220
0
230
1
0
LINE
5
A8
100
AcDbEntity
8
SK1
62
256
6
ByLayer
370
18
48
1
60
0
100
AcDbLine
10
0
20
-12.4375
30
0
11
-109.714276
21
-12.4375
31
0
39
0
210
0
220
0
230
1
0
LINE
5
AA
100
AcDbEntity
8
SK1
62
256
6
ByLayer
370
18
48
1
60
0
100
AcDbLine
10
-109.714276
20
-12.4375
30
0
11
-109.714276
21
12.4375
31
0
39
0
210
0
220
0
230
1
0
LINE
5
AB
100
AcDbEntity
8
SK1
62
256
6
ByLayer
370
18
48
1
60
0
100
AcDbLine
10
-109.714276
20
12.4375
30
0
11
0
21
12.4375
31
0
39
0
210
0
220
0
230
1
0
LINE
5
AC
100
AcDbEntity
8
SK1
62
256
6
ByLayer
370
18
48
1
60
0
100
AcDbLine
10
0
20
-12.4375
30
0
11
0
21
12.4375
31
0
39
0
210
0
220
0
230
1
0
LINE
5
AD
100
AcDbEntity
8
1
62
256
6
ByLayer
370
18
48
1
60
0
100
AcDbLine
10
40.748419
20
-10.150253
30
0
11
27.786579
21
-13.623367
31
0
39
0
210
0
220
0
230
1
0
LINE
5
AE
100
AcDbEntity
8
1
62
256
6
ByLayer
370
18
48
1
60
0
100
AcDbLine
10
38.266763
20
4.304409
30
0
11
41.598453
21
-8.696154
31
0
39
0
210
0
220
0
230
1
0
LINE
5
AF
100
AcDbEntity
8
1
62
256
6
ByLayer
370
18
48
1
60
0
100
AcDbLine
10
13.809647
20
-1.296846
30
0
11
15.763668
21
-2.2184
31
0
39
0
210
0
220
0
230
1
0
LINE
5
B0
100
AcDbEntity
8
1
62
256
6
ByLayer
370
18
48
1
60
0
100
AcDbLine
10
9.281069
20
12.609187
30
0
11
4.680781
21
2.905152
31
0
39
0
210
0
220
0
230
1
0
LINE
5
B1
100
AcDbEntity
8
1
62
256
6
ByLayer
370
18
48
1
60
0
100
AcDbLine
10
11.597243
20
11.385082
30
0
11
9.281069
21
12.609187
31
0
39
0
210
0
220
0
230
1
0
LINE
5
B2
100
AcDbEntity
8
1
62
256
6
ByLayer
370
18
48
1
60
0
100
AcDbLine
10
21.325015
20
10.724211
30
0
11
16.718868
21
12.897767
31
0
39
0
210
0
220
0
230
1
0
LINE
5
B3
100
AcDbEntity
8
1
62
256
6
ByLayer
370
18
48
1
60
0
100
AcDbLine
10
9.102886
20
-3.109432
30
0
11
7.361506
21
-2.287707
31
0
39
0
210
0
220
0
230
1
0
LINE
5
B4
100
AcDbEntity
8
1
62
256
6
ByLayer
370
18
48
1
60
0
100
AcDbLine
10
32.118742
20
-4.21411
30
0
11
35.031489
21
-5.534251
31
0
39
0
210
0
220
0
230
1
0
LINE
5
B5
100
AcDbEntity
8
1
62
256
6
ByLayer
370
18
48
1
60
0
100
AcDbLine
10
20.396742
20
6.971145
30
0
11
18.433655
21
7.89749
31
0
39
0
210
0
220
0
230
1
0
LINE
5
B6
100
AcDbEntity
8
1
62
256
6
ByLayer
370
18
48
1
60
0
100
AcDbLine
10
6.996954
20
1.681047
30
0
11
11.597243
21
11.385082
31
0
39
0
210
0
220
0
230
1
0
LINE
5
B7
100
AcDbEntity
8
1
62
256
6
ByLayer
370
18
48
1
60
0
100
AcDbLine
10
6.4406
20
0.262874
30
0
11
15.147066
21
-3.845546
31
0
39
0
210
0
220
0
230
1
0
LINE
5
B8
100
AcDbEntity
8
1
62
256
6
ByLayer
370
18
48
1
60
0
100
AcDbLine
10
6.996954
20
1.681047
30
0
11
4.680781
21
2.905152
31
0
39
0
210
0
220
0
230
1
0
LINE
5
B9
100
AcDbEntity
8
1
62
256
6
ByLayer
370
18
48
1
60
0
100
AcDbLine
10
34.322014
20
-1.608575
30
0
11
34.557465
21
-2.441999
31
0
39
0
210
0
220
0
230
1
0
LINE
5
BA
100
AcDbEntity
8
1
62
256
6
ByLayer
370
18
48
1
60
0
100
AcDbLine
10
9.102886
20
-3.109432
30
0
11
9.130377
21
-3.109703
31
0
39
0
210
0
220
0
230
1
0
LINE
5
BB
100
AcDbEntity
8
1
62
256
6
ByLayer
370
18
48
1
60
0
100
AcDbLine
10
12.352676
20
12.734045
30
0
11
21.059141
21
8.625625
31
0
39
0
210
0
220
0
230
1
0
LINE
5
BC
100
AcDbEntity
8
1
62
256
6
ByLayer
370
18
48
1
60
0
100
AcDbLine
10
8.455361
20
3.60527
30
0
11
11.025355
21
9.026519
31
0
39
0
210
0
220
0
230
1
0
LINE
5
BD
100
AcDbEntity
8
1
62
256
6
ByLayer
370
18
48
1
60
0
100
AcDbLine
10
32.34153
20
-7.116383
30
0
11
31.546717
21
-7.463381
31
0
39
0
210
0
220
0
230
1
0
LINE
5
BE
100
AcDbEntity
8
1
62
256
6
ByLayer
370
18
48
1
60
0
100
AcDbLine
10
9.809229
20
2.966761
30
0
11
8.455361
21
3.60527
31
0
39
0
210
0
220
0
230
1
0
LINE
5
BF
100
AcDbEntity
8
1
62
256
6
ByLayer
370
18
48
1
60
0
100
AcDbLine
10
14.021833
20
-1.408987
30
0
11
13.809647
21
-1.296846
31
0
39
0
210
0
220
0
230
1
0
LINE
5
C0
100
AcDbEntity
8
1
62
256
6
ByLayer
370
18
48
1
60
0
100
AcDbLine
10
14.960121
20
13.741118
30
0
11
16.701501
21
12.919393
31
0
39
0
210
0
220
0
230
1
0
LINE
5
C1
100
AcDbEntity
8
1
62
256
6
ByLayer
370
18
48
1
60
0
100
AcDbLine
10
16.701501
20
12.919393
30
0
11
14.402418
21
14.041654
31
0
39
0
210
0
220
0
230
1
0
LINE
5
C2
100
AcDbEntity
8
1
62
256
6
ByLayer
370
18
48
1
60
0
100
AcDbLine
10
13.736524
20
-5.283258
30
0
11
9.130377
21
-3.109703
31
0
39
0
210
0
220
0
230
1
0
LINE
5
C3
100
AcDbEntity
8
1
62
256
6
ByLayer
370
18
48
1
60
0
100
AcDbLine
10
15.984919
20
-2.335331
30
0
11
15.763668
21
-2.2184
31
0
39
0
210
0
220
0
230
1
0
LINE
5
C4
100
AcDbEntity
8
1
62
256
6
ByLayer
370
18
48
1
60
0
100
AcDbLine
10
14.960121
20
13.741118
30
0
11
14.260548
21
14.110844
31
0
39
0
210
0
220
0
230
1
0
LINE
5
C5
100
AcDbEntity
8
1
62
256
6
ByLayer
370
18
48
1
60
0
100
AcDbLine
10
16.701501
20
12.919393
30
0
11
16.718868
21
12.897767
31
0
39
0
210
0
220
0
230
1
0
LINE
5
C6
100
AcDbEntity
8
1
62
256
6
ByLayer
370
18
48
1
60
0
100
AcDbLine
10
14.021833
20
-1.408987
30
0
11
15.984919
21
-2.335331
31
0
39
0
210
0
220
0
230
1
0
LINE
5
C7
100
AcDbEntity
8
1
62
256
6
ByLayer
370
18
48
1
60
0
100
AcDbLine
10
10.153438
20
2.784845
30
0
11
9.809229
21
2.966761
31
0
39
0
210
0
220
0
230
1
0
MTEXT
5
149
100
AcDbEntity
8
SK6
62
256
6
ByLayer
370
18
48
1
60
0
100
AcDbMText
10
-48.164276
20
21.545221
30
0
210
0
220
0
230
1
1
\W0.7591;DSBNL 2525M 15
40
3.5
41
0
44
1.084337
50
0
71
7
72
5
7
iso_b_vert
0
DIMENSION
5
169
100
AcDbEntity
8
2
62
256
6
ByLayer
370
13
48
1
60
0
100
AcDbDimension
2
DimnDraft3D2
10
41.635724
20
-7.53125
30
0
11
31.3047
21
-23.376153
31
0
70
34
71
5
72
1
41
1
210
0
220
0
230
1
3
Standard
100
AcDb2LineAngularDimension
13
41.635724
23
-9.9125
33
0
14
38.641354
24
-10.714839
34
0
15
41.635724
25
-9.9125
35
0
16
28.565274
26
-26.946243
36
0
40
0
0
DIMENSION
5
17E
100
AcDbEntity
8
2
62
256
6
ByLayer
370
13
48
1
60
0
100
AcDbDimension
2
DimnDraft3D3
10
41.635724
20
-38.1625
30
0
11
15.861941
21
-38.1625
31
0
70
32
71
5
72
1
41
1
210
0
220
0
230
1
3
Standard
100
AcDbAlignedDimension
13
0
23
-14.4375
33
0
14
41.635724
24
-11.9125
34
0
50
0
100
AcDbRotatedDimension
1001
ACAD
1000
DSTYLE
1002
{
1070
   279
1070
     0
1070
   172
1070
     1
1070
   173
1070
     1
1070
   340
1005
14A
1070
    77
1070
     1
1070
    73
1070
     0
1070
   171
1070
     3
1070
   274
1070
     4
1070
   177
1070
     2
1070
   176
1070
     2
1070
   178
1070
     7
1070
    78
1070
     8
1070
    41
1041
3.175
1070
   147
1041
2.25
1070
    42
1041
2.0
1070
    44
1041
2.0
1070
   140
1041
4.5
1070
   343
1005
16A
1070
   344
1005
16A
1002
}
0
DIMENSION
5
18C
100
AcDbEntity
8
2
62
256
6
ByLayer
370
13
48
1
60
0
100
AcDbDimension
2
DimnDraft3D4
10
63.885724
20
-9.9125
30
0
11
63.885724
21
-4.019079
31
0
70
32
71
5
72
1
41
1
210
0
220
0
230
1
3
Standard
100
AcDbAlignedDimension
13
2
23
12.4375
33
0
14
43.635724
24
-9.9125
34
0
50
90
100
AcDbRotatedDimension
1001
ACAD
1000
DSTYLE
1002
{
1070
    74
1070
     0
1070
   279
1070
     0
1070
   172
1070
     1
1070
   173
1070
     1
1070
   340
1005
14A
1070
    77
1070
     1
1070
    73
1070
     0
1070
   171
1070
     3
1070
   274
1070
     4
1070
   177
1070
     2
1070
   176
1070
     2
1070
   178
1070
     7
1070
    78
1070
     8
1070
    41
1041
3.175
1070
   147
1041
2.25
1070
    42
1041
2.0
1070
    44
1041
2.0
1070
   140
1041
4.5
1070
   343
1005
16A
1070
   344
1005
16A
1002
}
0
DIMENSION
5
19A
100
AcDbEntity
8
SK2
62
256
6
ByLayer
370
13
48
1
60
0
100
AcDbDimension
2
DimnDraft3D5
10
-117.464276
20
-12.4375
30
0
11
-117.464276
21
-5.281579
31
0
70
32
71
5
72
1
41
1
210
0
220
0
230
1
3
Standard
100
AcDbAlignedDimension
13
-111.714276
23
12.4375
33
0
14
-111.714276
24
-12.4375
34
0
50
90
100
AcDbRotatedDimension
1001
ACAD
1000
DSTYLE
1002
{
1070
    74
1070
     0
1070
   279
1070
     0
1070
   172
1070
     1
1070
   173
1070
     1
1070
   340
1005
14A
1070
    77
1070
     1
1070
    73
1070
     0
1070
   171
1070
     3
1070
   274
1070
     4
1070
   177
1070
     2
1070
   176
1070
     2
1070
   178
1070
     7
1070
    78
1070
     8
1070
    41
1041
3.175
1070
   147
1041
2.25
1070
    42
1041
2.0
1070
    44
1041
2.0
1070
   140
1041
4.5
1070
   343
1005
16A
1070
   344
1005
16A
1002
}
0
ENDSEC
0
SECTION
2
OBJECTS
0
DICTIONARY
5
204
330
0
100
AcDbDictionary
280
0
281
1
3
ACAD_GROUP
350
205
3
ACAD_MLINESTYLE
350
206
0
DICTIONARY
5
205
330
0
100
AcDbDictionary
280
0
281
1
0
DICTIONARY
5
206
330
0
100
AcDbDictionary
280
0
281
1
3
Standard
350
18
0
MLINESTYLE
5
18
330
206
100
AcDbMlineStyle
2
Standard
70
0
3

62
256
51
90
52
90
71
2
49
-0.5
62
256
6
ByLayer
49
0.5
62
256
6
ByLayer
0
RASTERVARIABLES
5
1f3
330

100
AcDbRasterVariables
90
0
70
1
71
1
72
1
0
ENDSEC
0
EOF
