0
SECTION
2
HEADER
9
$ACADVER
1
AC1015
9
$DWGCODEPAGE
3
ANSI_1252
9
$HANDSEED
5
1fe
9
$ANGBASE
50
0
9
$ANGDIR
70
0
9
$ATTMODE
70
1
9
$AUNITS
70
0
9
$AUPREC
70
0
9
$CECOLOR
62
256
9
$CELTSCALE
40
1
9
$CELTYPE
6
ByLayer
9
$CELWEIGHT
370
18
9
$CLAYER
8
0
9
$CMLJUST
70
0
9
$CMLSCALE
40
1
9
$CMLSTYLE
2
Standard
9
$DIMSTYLE
2
Standard
9
$TEXTSIZE
40
0.2
9
$TEXTSTYLE
7
Standard
9
$LUNITS
70
2
9
$LUPREC
70
4
9
$EXTNAMES
290
1
9
$INSUNITS
70
4
9
$LTSCALE
40
1
9
$LWDISPLAY
290
1
9
$PDMODE
70
0
9
$PDSIZE
40
0
9
$PLINEGEN
70
0
0
ENDSEC
0
SECTION
2
CLASSES
0
CLASS
1
RASTERVARIABLES
2
AcDbRasterVariables
3
ISM
90
0
280
0
281
0
0
ENDSEC
0
SECTION
2
TABLES
0
TABLE
2
VPORT
5
1f4
100
AcDbSymbolTable
0
VPORT
5
1
100
AcDbSymbolTableRecord
100
AcDbViewportTableRecord
2
*Active
70
0
10
0
20
0
11
1
21
1
12
-1
22
1
13
0
23
0
14
0.5
24
0.5
15
10
25
10
16
0
26
0
36
1
17
0
27
0
37
0
0
ENDTAB
0
TABLE
2
LTYPE
5
1f5
100
AcDbSymbolTable
0
LTYPE
5
14
100
AcDbSymbolTableRecord
100
AcDbLinetypeTableRecord
70
0
2
ByBlock
3

72
65
73
0
40
0
0
LTYPE
5
15
100
AcDbSymbolTableRecord
100
AcDbLinetypeTableRecord
70
0
2
ByLayer
3

72
65
73
0
40
0
0
LTYPE
5
16
100
AcDbSymbolTableRecord
100
AcDbLinetypeTableRecord
70
0
2
CONTINUOUS
3
Solid line
72
65
73
0
40
0
0
LTYPE
5
6A
100
AcDbSymbolTableRecord
100
AcDbLinetypeTableRecord
70
0
2
CENTER
3
____ _ ____ _ ____ _ ____
72
65
73
4
40
47.5
49
22
74
0
49
-8.5
74
0
49
8.5
74
0
49
-8.5
74
0
0
LTYPE
5
6B
100
AcDbSymbolTableRecord
100
AcDbLinetypeTableRecord
70
0
2
DASHED
3
__ __ __ __ __ __ __ __ __
72
65
73
2
40
25.72
49
12.86
74
0
49
-12.86
74
0
0
ENDTAB
0
TABLE
2
LAYER
5
1f6
100
AcDbSymbolTable
0
LAYER
5
10
100
AcDbSymbolTableRecord
100
AcDbLayerTableRecord
2
0
70
0
62
7
6
CONTINUOUS
290
1
370
-3
390
0
0
LAYER
5
6D
100
AcDbSymbolTableRecord
100
AcDbLayerTableRecord
2
2
70
0
62
7
6
CONTINUOUS
290
1
370
-3
390
0
0
LAYER
5
6F
100
AcDbSymbolTableRecord
100
AcDbLayerTableRecord
2
80
70
0
62
-6
6
CONTINUOUS
290
1
370
-3
390
0
0
LAYER
5
71
100
AcDbSymbolTableRecord
100
AcDbLayerTableRecord
2
81
70
0
62
-3
6
CONTINUOUS
290
1
370
-3
390
0
0
LAYER
5
73
100
AcDbSymbolTableRecord
100
AcDbLayerTableRecord
2
1
70
0
62
4
6
CONTINUOUS
290
1
370
-3
390
0
0
LAYER
5
1e1
100
AcDbSymbolTableRecord
100
AcDbLayerTableRecord
2
SK1
70
0
62
4
6
CONTINUOUS
290
1
370
-3
390
0
0
LAYER
5
1e2
100
AcDbSymbolTableRecord
100
AcDbLayerTableRecord
2
SK6
70
0
62
5
6
CONTINUOUS
290
1
370
-3
390
0
0
LAYER
5
1e3
100
AcDbSymbolTableRecord
100
AcDbLayerTableRecord
2
SK2
70
0
62
7
6
CONTINUOUS
290
1
370
-3
390
0
0
ENDTAB
0
TABLE
2
STYLE
5
1f7
100
AcDbSymbolTable
0
STYLE
5
11
100
AcDbSymbolTableRecord
100
AcDbTextStyleTableRecord
2
Standard
3
txt
70
0
71
0
40
0
41
1
42
0
50
0
0
STYLE
5
137
100
AcDbSymbolTableRecord
100
AcDbTextStyleTableRecord
2
iso_b_vert
3
simplex.shx
70
0
71
0
40
0
41
1
42
0
50
0
0
STYLE
5
138
100
AcDbSymbolTableRecord
100
AcDbTextStyleTableRecord
2
DWGDirectTextStyle
3
simplex
70
0
71
0
40
0
41
1
42
0
50
0
0
ENDTAB
0
TABLE
2
DIMSTYLE
5
1f8
100
AcDbSymbolTable
100
AcDbDimStyleTable
0
DIMSTYLE
105
27
100
AcDbSymbolTableRecord
100
AcDbDimStyleTableRecord
2
Standard
70
0
3
<>
41
0.18
42
0.0625
44
0.18
140
0.18
147
0.09
73
0
74
0
77
1
271
2
275
0
278
52
280
0
340
11
0
ENDTAB
0
TABLE
2
VIEW
5
1f9
100
AcDbSymbolTable
0
ENDTAB
0
TABLE
2
UCS
5
1fa
100
AcDbSymbolTable
0
ENDTAB
0
TABLE
2
APPID
5
1fb
100
AcDbSymbolTable
0
APPID
5
12
100
AcDbSymbolTableRecord
100
AcDbRegAppTableRecord
2
ACAD
70
0
0
ENDTAB
0
TABLE
2
BLOCK_RECORD
5
1fc
100
AcDbSymbolTable
0
BLOCK_RECORD
5
1F
100
AcDbSymbolTableRecord
100
AcDbBlockTableRecord
2
*Model_Space
340
0
70
0
0
BLOCK_RECORD
5
1B
100
AcDbSymbolTableRecord
100
AcDbBlockTableRecord
2
*Paper_Space
340
0
70
0
0
BLOCK_RECORD
5
23
100
AcDbSymbolTableRecord
100
AcDbBlockTableRecord
2
*Paper_Space0
340
0
70
0
0
BLOCK_RECORD
5
13A
100
AcDbSymbolTableRecord
100
AcDbBlockTableRecord
2
DimnDraft3D11
340
0
70
0
0
BLOCK_RECORD
5
149
100
AcDbSymbolTableRecord
100
AcDbBlockTableRecord
2
DimnDraft3D2
340
0
70
0
0
BLOCK_RECORD
5
157
100
AcDbSymbolTableRecord
100
AcDbBlockTableRecord
2
_CLOSED
340
0
70
0
0
BLOCK_RECORD
5
15E
100
AcDbSymbolTableRecord
100
AcDbBlockTableRecord
2
DimnDraft3D3
340
0
70
0
0
BLOCK_RECORD
5
16C
100
AcDbSymbolTableRecord
100
AcDbBlockTableRecord
2
DimnDraft3D4
340
0
70
0
0
BLOCK_RECORD
5
17A
100
AcDbSymbolTableRecord
100
AcDbBlockTableRecord
2
DimnDraft3D5
340
0
70
0
0
ENDTAB
0
ENDSEC
0
SECTION
2
BLOCKS
0
BLOCK
5
20
100
AcDbEntity
8
0
100
AcDbBlockBegin
2
*Model_Space
70
0
10
0
20
0
30
0
3
*Model_Space
0
ENDBLK
5
21
100
AcDbEntity
8
0
100
AcDbBlockEnd
0
BLOCK
5
1C
100
AcDbEntity
8
0
100
AcDbBlockBegin
2
*Paper_Space
70
0
10
0
20
0
30
0
3
*Paper_Space
0
ENDBLK
5
1D
100
AcDbEntity
8
0
100
AcDbBlockEnd
0
BLOCK
5
24
100
AcDbEntity
8
0
100
AcDbBlockBegin
2
*Paper_Space0
70
0
10
0
20
0
30
0
3
*Paper_Space0
0
ENDBLK
5
25
100
AcDbEntity
8
0
100
AcDbBlockEnd
0
BLOCK
5
13B
100
AcDbEntity
8
0
100
AcDbBlockBegin
2
DimnDraft3D11
70
0
10
0
20
0
30
0
3
DimnDraft3D11
0
LINE
5
13D
100
AcDbEntity
8
SK2
62
256
6
ByLayer
370
25
48
1
60
0
100
AcDbLine
10
34.207183
20
-11.9125
30
0
11
34.207183
21
-50.1625
31
0
39
0
210
0
220
0
230
1
0
LINE
5
13F
100
AcDbEntity
8
SK2
62
256
6
ByLayer
370
25
48
1
60
0
100
AcDbLine
10
-117.142817
20
-14.4375
30
0
11
-117.142817
21
-50.1625
31
0
39
0
210
0
220
0
230
1
0
LINE
5
140
100
AcDbEntity
8
SK2
62
256
6
ByLayer
370
25
48
1
60
0
100
AcDbLine
10
34.207183
20
-48.1625
30
0
11
-117.142817
21
-48.1625
31
0
39
0
210
0
220
0
230
1
0
LINE
5
141
100
AcDbEntity
8
SK2
62
256
6
ByLayer
370
25
48
1
60
0
100
AcDbLine
10
34.207183
20
-48.1625
30
0
11
31.032185
21
-48.580497
31
0
39
0
210
0
220
0
230
1
0
LINE
5
142
100
AcDbEntity
8
SK2
62
256
6
ByLayer
370
25
48
1
60
0
100
AcDbLine
10
34.207183
20
-48.1625
30
0
11
31.032182
21
-47.744503
31
0
39
0
210
0
220
0
230
1
0
LINE
5
143
100
AcDbEntity
8
SK2
62
256
6
ByLayer
370
25
48
1
60
0
100
AcDbLine
10
31.032185
20
-48.580497
30
0
11
31.032182
21
-47.744503
31
0
39
0
210
0
220
0
230
1
0
LINE
5
144
100
AcDbEntity
8
SK2
62
256
6
ByLayer
370
25
48
1
60
0
100
AcDbLine
10
-117.142817
20
-48.1625
30
0
11
-113.967818
21
-47.744503
31
0
39
0
210
0
220
0
230
1
0
LINE
5
145
100
AcDbEntity
8
SK2
62
256
6
ByLayer
370
25
48
1
60
0
100
AcDbLine
10
-117.142817
20
-48.1625
30
0
11
-113.967815
21
-48.580497
31
0
39
0
210
0
220
0
230
1
0
LINE
5
146
100
AcDbEntity
8
SK2
62
256
6
ByLayer
370
25
48
1
60
0
100
AcDbLine
10
-113.967818
20
-47.744503
30
0
11
-113.967815
21
-48.580497
31
0
39
0
210
0
220
0
230
1
0
MTEXT
5
147
100
AcDbEntity
8
SK2
62
256
6
ByLayer
370
18
48
1
60
0
100
AcDbMText
10
-46.743475
20
-47.0375
30
0
210
0
220
0
230
1
1
\W0.6864;150.0
40
4.5
41
0
44
1.084337
50
0
71
7
72
5
7
iso_b_vert
0
ENDBLK
5
13C
100
AcDbEntity
8
0
100
AcDbBlockEnd
0
BLOCK
5
154
100
AcDbEntity
8
0
100
AcDbBlockBegin
2
DimnDraft3D2
70
0
10
0
20
0
30
0
3
DimnDraft3D2
0
MTEXT
5
14A
100
AcDbEntity
8
2
62
256
6
ByLayer
370
18
48
1
60
0
100
AcDbMText
10
19.505728
20
-24.276697
30
0
210
0
220
0
230
1
1
\W0.7399;75%%d
40
4.5
41
0
44
1.084337
50
322.5
71
7
72
5
7
iso_b_vert
0
LINE
5
14B
100
AcDbEntity
8
2
62
256
6
ByLayer
370
13
48
1
60
0
100
AcDbLine
10
29.280962
20
-11.232477
30
0
11
11.536361
21
-15.987129
31
0
39
0
210
0
220
0
230
1
0
LINE
5
14C
100
AcDbEntity
8
2
62
256
6
ByLayer
370
13
48
1
60
0
100
AcDbLine
10
34.207183
20
-11.9125
30
0
11
34.207183
21
-33.383063
31
0
39
0
210
0
220
0
230
1
0
ARC
5
14D
100
AcDbEntity
8
2
62
256
6
ByLayer
370
13
48
1
60
0
100
AcDbCircle
39
0
10
34.207183
20
-9.9125
30
0
40
21.4705627491871
210
0
220
0
230
1
100
AcDbArc
50
195
51
270
0
LINE
5
14E
100
AcDbEntity
8
2
62
256
6
ByLayer
370
13
48
1
60
0
100
AcDbLine
10
13.468212
20
-15.469491
30
0
11
14.802036
21
-18.38089
31
0
39
0
210
0
220
0
230
1
0
LINE
5
14F
100
AcDbEntity
8
2
62
256
6
ByLayer
370
13
48
1
60
0
100
AcDbLine
10
13.468212
20
-15.469491
30
0
11
14.003062
21
-18.626909
31
0
39
0
210
0
220
0
230
1
0
LINE
5
150
100
AcDbEntity
8
2
62
256
6
ByLayer
370
13
48
1
60
0
100
AcDbLine
10
14.802036
20
-18.38089
30
0
11
14.003062
21
-18.626909
31
0
39
0
210
0
220
0
230
1
0
LINE
5
151
100
AcDbEntity
8
2
62
256
6
ByLayer
370
13
48
1
60
0
100
AcDbLine
10
34.207183
20
-31.383063
30
0
11
31.018925
21
-31.683637
31
0
39
0
210
0
220
0
230
1
0
LINE
5
152
100
AcDbEntity
8
2
62
256
6
ByLayer
370
13
48
1
60
0
100
AcDbLine
10
34.207183
20
-31.383063
30
0
11
31.049765
21
-30.848213
31
0
39
0
210
0
220
0
230
1
0
LINE
5
153
100
AcDbEntity
8
2
62
256
6
ByLayer
370
13
48
1
60
0
100
AcDbLine
10
31.018925
20
-31.683637
30
0
11
31.049765
21
-30.848213
31
0
39
0
210
0
220
0
230
1
0
ENDBLK
5
155
100
AcDbEntity
8
0
100
AcDbBlockEnd
0
BLOCK
5
158
100
AcDbEntity
8
0
100
AcDbBlockBegin
2
_CLOSED
70
0
10
0
20
0
30
0
3
_CLOSED
0
LINE
5
15A
100
AcDbEntity
8
0
62
256
6
ByLayer
370
-2
48
1
60
0
100
AcDbLine
10
-1
20
0.166667
30
0
11
0
21
0
31
0
39
0
210
0
220
0
230
1
0
LINE
5
15B
100
AcDbEntity
8
0
62
256
6
ByLayer
370
-2
48
1
60
0
100
AcDbLine
10
0
20
0
30
0
11
-1
21
-0.166667
31
0
39
0
210
0
220
0
230
1
0
LINE
5
15C
100
AcDbEntity
8
0
62
256
6
ByLayer
370
-2
48
1
60
0
100
AcDbLine
10
-1
20
0.166667
30
0
11
-1
21
-0.166667
31
0
39
0
210
0
220
0
230
1
0
LINE
5
15D
100
AcDbEntity
8
0
62
256
6
ByLayer
370
-2
48
1
60
0
100
AcDbLine
10
0
20
0
30
0
11
-1
21
0
31
0
39
0
210
0
220
0
230
1
0
ENDBLK
5
159
100
AcDbEntity
8
0
100
AcDbBlockEnd
0
BLOCK
5
169
100
AcDbEntity
8
0
100
AcDbBlockBegin
2
DimnDraft3D3
70
0
10
0
20
0
30
0
3
DimnDraft3D3
0
MTEXT
5
15F
100
AcDbEntity
8
2
62
256
6
ByLayer
370
18
48
1
60
0
100
AcDbMText
10
12.710171
20
-37.0375
30
0
210
0
220
0
230
1
1
\W0.7640;34.2
40
4.5
41
0
44
1.084337
50
0
71
7
72
5
7
iso_b_vert
0
LINE
5
160
100
AcDbEntity
8
2
62
256
6
ByLayer
370
13
48
1
60
0
100
AcDbLine
10
0
20
-14.4375
30
0
11
0
21
-40.1625
31
0
39
0
210
0
220
0
230
1
0
LINE
5
161
100
AcDbEntity
8
2
62
256
6
ByLayer
370
13
48
1
60
0
100
AcDbLine
10
34.207183
20
-11.9125
30
0
11
34.207183
21
-40.1625
31
0
39
0
210
0
220
0
230
1
0
LINE
5
162
100
AcDbEntity
8
2
62
256
6
ByLayer
370
13
48
1
60
0
100
AcDbLine
10
0
20
-38.1625
30
0
11
34.207183
21
-38.1625
31
0
39
0
210
0
220
0
230
1
0
LINE
5
163
100
AcDbEntity
8
2
62
256
6
ByLayer
370
13
48
1
60
0
100
AcDbLine
10
0
20
-38.1625
30
0
11
3.174998
21
-37.744503
31
0
39
0
210
0
220
0
230
1
0
LINE
5
164
100
AcDbEntity
8
2
62
256
6
ByLayer
370
13
48
1
60
0
100
AcDbLine
10
0
20
-38.1625
30
0
11
3.175002
21
-38.580497
31
0
39
0
210
0
220
0
230
1
0
LINE
5
165
100
AcDbEntity
8
2
62
256
6
ByLayer
370
13
48
1
60
0
100
AcDbLine
10
3.174998
20
-37.744503
30
0
11
3.175002
21
-38.580497
31
0
39
0
210
0
220
0
230
1
0
LINE
5
166
100
AcDbEntity
8
2
62
256
6
ByLayer
370
13
48
1
60
0
100
AcDbLine
10
34.207183
20
-38.1625
30
0
11
31.032185
21
-38.580497
31
0
39
0
210
0
220
0
230
1
0
LINE
5
167
100
AcDbEntity
8
2
62
256
6
ByLayer
370
13
48
1
60
0
100
AcDbLine
10
34.207183
20
-38.1625
30
0
11
31.032182
21
-37.744503
31
0
39
0
210
0
220
0
230
1
0
LINE
5
168
100
AcDbEntity
8
2
62
256
6
ByLayer
370
13
48
1
60
0
100
AcDbLine
10
31.032185
20
-38.580497
30
0
11
31.032182
21
-37.744503
31
0
39
0
210
0
220
0
230
1
0
ENDBLK
5
16A
100
AcDbEntity
8
0
100
AcDbBlockEnd
0
BLOCK
5
177
100
AcDbEntity
8
0
100
AcDbBlockBegin
2
DimnDraft3D4
70
0
10
0
20
0
30
0
3
DimnDraft3D4
0
MTEXT
5
16D
100
AcDbEntity
8
2
62
256
6
ByLayer
370
18
48
1
60
0
100
AcDbMText
10
55.332183
20
-2.894079
30
0
210
0
220
0
230
1
1
\W0.7346;22.0
40
4.5
41
0
44
1.084337
50
90
71
7
72
5
7
iso_b_vert
0
LINE
5
16E
100
AcDbEntity
8
2
62
256
6
ByLayer
370
13
48
1
60
0
100
AcDbLine
10
2
20
12.4375
30
0
11
58.457183
21
12.4375
31
0
39
0
210
0
220
0
230
1
0
LINE
5
16F
100
AcDbEntity
8
2
62
256
6
ByLayer
370
13
48
1
60
0
100
AcDbLine
10
36.207183
20
-9.9125
30
0
11
58.457183
21
-9.9125
31
0
39
0
210
0
220
0
230
1
0
LINE
5
170
100
AcDbEntity
8
2
62
256
6
ByLayer
370
13
48
1
60
0
100
AcDbLine
10
56.457183
20
12.4375
30
0
11
56.457183
21
-9.9125
31
0
39
0
210
0
220
0
230
1
0
LINE
5
171
100
AcDbEntity
8
2
62
256
6
ByLayer
370
13
48
1
60
0
100
AcDbLine
10
56.457183
20
12.4375
30
0
11
56.87518
21
9.262502
31
0
39
0
210
0
220
0
230
1
0
LINE
5
172
100
AcDbEntity
8
2
62
256
6
ByLayer
370
13
48
1
60
0
100
AcDbLine
10
56.457183
20
12.4375
30
0
11
56.039187
21
9.262498
31
0
39
0
210
0
220
0
230
1
0
LINE
5
173
100
AcDbEntity
8
2
62
256
6
ByLayer
370
13
48
1
60
0
100
AcDbLine
10
56.87518
20
9.262502
30
0
11
56.039187
21
9.262498
31
0
39
0
210
0
220
0
230
1
0
LINE
5
174
100
AcDbEntity
8
2
62
256
6
ByLayer
370
13
48
1
60
0
100
AcDbLine
10
56.457183
20
-9.9125
30
0
11
56.039187
21
-6.737502
31
0
39
0
210
0
220
0
230
1
0
LINE
5
175
100
AcDbEntity
8
2
62
256
6
ByLayer
370
13
48
1
60
0
100
AcDbLine
10
56.457183
20
-9.9125
30
0
11
56.87518
21
-6.737498
31
0
39
0
210
0
220
0
230
1
0
LINE
5
176
100
AcDbEntity
8
2
62
256
6
ByLayer
370
13
48
1
60
0
100
AcDbLine
10
56.039187
20
-6.737502
30
0
11
56.87518
21
-6.737498
31
0
39
0
210
0
220
0
230
1
0
ENDBLK
5
178
100
AcDbEntity
8
0
100
AcDbBlockEnd
0
BLOCK
5
185
100
AcDbEntity
8
0
100
AcDbBlockBegin
2
DimnDraft3D5
70
0
10
0
20
0
30
0
3
DimnDraft3D5
0
MTEXT
5
17B
100
AcDbEntity
8
SK2
62
256
6
ByLayer
370
18
48
1
60
0
100
AcDbMText
10
-126.017817
20
-4.156579
30
0
210
0
220
0
230
1
1
\W0.7346;25.0
40
4.5
41
0
44
1.084337
50
90
71
7
72
5
7
iso_b_vert
0
LINE
5
17C
100
AcDbEntity
8
SK2
62
256
6
ByLayer
370
13
48
1
60
0
100
AcDbLine
10
-119.142817
20
12.4375
30
0
11
-126.892817
21
12.4375
31
0
39
0
210
0
220
0
230
1
0
LINE
5
17D
100
AcDbEntity
8
SK2
62
256
6
ByLayer
370
13
48
1
60
0
100
AcDbLine
10
-119.142817
20
-12.4375
30
0
11
-126.892817
21
-12.4375
31
0
39
0
210
0
220
0
230
1
0
LINE
5
17E
100
AcDbEntity
8
SK2
62
256
6
ByLayer
370
13
48
1
60
0
100
AcDbLine
10
-124.892817
20
12.4375
30
0
11
-124.892817
21
-12.4375
31
0
39
0
210
0
220
0
230
1
0
LINE
5
17F
100
AcDbEntity
8
SK2
62
256
6
ByLayer
370
13
48
1
60
0
100
AcDbLine
10
-124.892817
20
12.4375
30
0
11
-124.47482
21
9.262502
31
0
39
0
210
0
220
0
230
1
0
LINE
5
180
100
AcDbEntity
8
SK2
62
256
6
ByLayer
370
13
48
1
60
0
100
AcDbLine
10
-124.892817
20
12.4375
30
0
11
-125.310813
21
9.262498
31
0
39
0
210
0
220
0
230
1
0
LINE
5
181
100
AcDbEntity
8
SK2
62
256
6
ByLayer
370
13
48
1
60
0
100
AcDbLine
10
-124.47482
20
9.262502
30
0
11
-125.310813
21
9.262498
31
0
39
0
210
0
220
0
230
1
0
LINE
5
182
100
AcDbEntity
8
SK2
62
256
6
ByLayer
370
13
48
1
60
0
100
AcDbLine
10
-124.892817
20
-12.4375
30
0
11
-125.310813
21
-9.262502
31
0
39
0
210
0
220
0
230
1
0
LINE
5
183
100
AcDbEntity
8
SK2
62
256
6
ByLayer
370
13
48
1
60
0
100
AcDbLine
10
-124.892817
20
-12.4375
30
0
11
-124.47482
21
-9.262498
31
0
39
0
210
0
220
0
230
1
0
LINE
5
184
100
AcDbEntity
8
SK2
62
256
6
ByLayer
370
13
48
1
60
0
100
AcDbLine
10
-125.310813
20
-9.262502
30
0
11
-124.47482
21
-9.262498
31
0
39
0
210
0
220
0
230
1
0
ENDBLK
5
186
100
AcDbEntity
8
0
100
AcDbBlockEnd
0
ENDSEC
0
SECTION
2
ENTITIES
0
ELLIPSE
5
CC
100
AcDbEntity
8
1
62
256
6
ByLayer
370
18
48
1
60
0
100
AcDbEllipse
10
14.247283
20
1.626769
30
0
11
-0.189999999999999
21
-0.329089653438087
31
0
210
0
220
0
230
1
40
0.989133
41
2.32952373867375
42
2.82333618195266
0
ELLIPSE
5
CD
100
AcDbEntity
8
1
62
256
6
ByLayer
370
18
48
1
60
0
100
AcDbEllipse
10
13.316207
20
-0.33728
30
0
11
-0.189999999999999
21
-0.329089653438087
31
0
210
0
220
0
230
1
40
0.989133
41
0.318235013692961
42
0.975675423072427
0
ELLIPSE
5
CE
100
AcDbEntity
8
1
62
256
6
ByLayer
370
18
48
1
60
0
100
AcDbEllipse
10
15.024635
20
1.817483
30
0
11
0.212500000000012
21
0.36806079660838
31
0
210
0
220
0
230
1
40
0.989133
41
2.32952373867381
42
-3.14157757193107
0
ELLIPSE
5
CF
100
AcDbEntity
8
1
62
256
6
ByLayer
370
18
48
1
60
0
100
AcDbEllipse
10
13.661585
20
-1.05779
30
0
11
0.212500000000012
21
0.36806079660838
31
0
210
0
220
0
230
1
40
0.989133
41
1.32040315482393E-05
42
0.975675423072415
0
ELLIPSE
5
D0
100
AcDbEntity
8
1
62
256
6
ByLayer
370
18
48
1
60
0
100
AcDbEllipse
10
15.370013
20
1.096973
30
0
11
-0.189999999999999
21
-0.329089653438087
31
0
210
0
220
0
230
1
40
0.989133
41
1.28232618747722
42
2.82329333791922
0
ELLIPSE
5
D1
100
AcDbEntity
8
1
62
256
6
ByLayer
370
18
48
1
60
0
100
AcDbEllipse
10
14.438937
20
-0.867076
30
0
11
-0.189999999999999
21
-0.329089653438087
31
0
210
0
220
0
230
1
40
0.989133
41
0.318276219275787
42
2.02287297426905
0
ELLIPSE
5
D2
100
AcDbEntity
8
1
62
256
6
ByLayer
370
18
48
1
60
0
100
AcDbEllipse
10
14.241248
20
0.438656
30
0
11
2.00000000000011
21
3.46410161513769
31
0
210
0
220
0
230
1
40
0.989133
41
0.528343053518852
42
3.1414987633641
0
ELLIPSE
5
D3
100
AcDbEntity
8
1
62
256
6
ByLayer
370
18
48
1
60
0
100
AcDbEllipse
10
14.241248
20
0.438656
30
0
11
2.00000000000011
21
3.46410161513769
31
0
210
0
220
0
230
1
40
0.989133
41
-1.0329905585144
42
-2.52544582518893E-16
0
ELLIPSE
5
D4
100
AcDbEntity
8
1
62
256
6
ByLayer
370
18
48
1
60
0
100
AcDbEllipse
10
14.241248
20
0.438656
30
0
11
2.00000000000011
21
3.46410161513769
31
0
210
0
220
0
230
1
40
0.989133
41
0
42
0.528338758566072
0
ELLIPSE
5
D5
100
AcDbEntity
8
1
62
256
6
ByLayer
370
18
48
1
60
0
100
AcDbEllipse
10
14.34311
20
0.379846
30
0
11
0.575000000000032
21
0.995929214352086
31
0
210
0
220
0
230
1
40
0.989133
41
0.528343195976301
42
0.770578295902028
0
ELLIPSE
5
D6
100
AcDbEntity
8
1
62
256
6
ByLayer
370
18
48
1
60
0
100
AcDbEllipse
10
14.34311
20
0.379846
30
0
11
0.575000000000032
21
0.995929214352086
31
0
210
0
220
0
230
1
40
0.989133
41
1.33488662268253
42
2.0025729504581
0
ELLIPSE
5
D7
100
AcDbEntity
8
1
62
256
6
ByLayer
370
18
48
1
60
0
100
AcDbEllipse
10
14.34311
20
0.379846
30
0
11
0.575000000000032
21
0.995929214352086
31
0
210
0
220
0
230
1
40
0.989133
41
2.54312337602151
42
-2.44004427554486E-16
0
ELLIPSE
5
D8
100
AcDbEntity
8
1
62
256
6
ByLayer
370
18
48
1
60
0
100
AcDbEllipse
10
14.34311
20
0.379846
30
0
11
0.575000000000032
21
0.995929214352086
31
0
210
0
220
0
230
1
40
0.989133
41
0
42
0.528342736416294
0
ELLIPSE
5
D9
100
AcDbEntity
8
1
62
256
6
ByLayer
370
18
48
1
60
0
100
AcDbEllipse
10
14.279446
20
0.416603
30
0
11
0.575000000000032
21
0.995929214352086
31
0
210
0
220
0
230
1
40
0.989133
41
-3.1092888897002
42
-0.032295181936307
0
ELLIPSE
5
DA
100
AcDbEntity
8
1
62
256
6
ByLayer
370
18
48
1
60
0
100
AcDbEllipse
10
26.71042
20
-5.382871
30
0
11
1.29000000000007
21
2.23434554176381
31
0
210
0
220
0
230
1
40
0.989133
41
-2.82036055604638
42
-0.154719094966761
0
ELLIPSE
5
DB
100
AcDbEntity
8
1
62
256
6
ByLayer
370
18
48
1
60
0
100
AcDbEllipse
10
6.684703
20
-2.186569
30
0
11
1.47738106167382
21
2.61100463396899
31
0
210
0
220
0
230
1
40
0.986425
41
0.0285627574976709
42
0.0732243651094677
0
ELLIPSE
5
DC
100
AcDbEntity
8
1
62
256
6
ByLayer
370
18
48
1
60
0
100
AcDbEllipse
10
14.878959
20
0.139952
30
0
11
-2.04371046864876
21
-3.61188974365712
31
0
210
0
220
0
230
1
40
0.986425
41
0.0732243651094594
42
3.07403438657678
0
ELLIPSE
5
DD
100
AcDbEntity
8
1
62
256
6
ByLayer
370
18
48
1
60
0
100
AcDbEllipse
10
12.978473
20
1.036257
30
0
11
-1.2803969201173
21
-2.26287068277313
31
0
210
0
220
0
230
1
40
0.986425
41
-1.59039621695614
42
-1.39139578095321
0
ELLIPSE
5
DE
100
AcDbEntity
8
1
62
256
6
ByLayer
370
18
48
1
60
0
100
AcDbEllipse
10
12.91047
20
5.654171
30
0
11
-2.0069699190241
21
3.78708252064937
31
0
210
0
220
0
230
1
40
0.503949
41
-0.592532641201572
42
-0.232916907845019
0
ELLIPSE
5
DF
100
AcDbEntity
8
1
62
256
6
ByLayer
370
18
48
1
60
0
100
AcDbEllipse
10
13.50054
20
6.131505
30
0
11
-4.88114429559591
21
2.54252861687201
31
0
210
0
220
0
230
1
40
0.2494
41
0.565389335959492
42
0.618381633086538
0
ELLIPSE
5
E0
100
AcDbEntity
8
1
62
256
6
ByLayer
370
18
48
1
60
0
100
AcDbEllipse
10
14.391926
20
7.770103
30
0
11
-3.06427310651419
21
1.70419149663593
31
0
210
0
220
0
230
1
40
0.384187
41
-0.0892499033994692
42
0.633968203001271
0
ELLIPSE
5
E1
100
AcDbEntity
8
1
62
256
6
ByLayer
370
18
48
1
60
0
100
AcDbEllipse
10
27.186602
20
-5.647415
30
0
11
-1.70960390899928
21
-1.45808439434569
31
0
210
0
220
0
230
1
40
0.793963
41
1.0720454798155
42
1.92725681329322
0
ELLIPSE
5
E2
100
AcDbEntity
8
1
62
256
6
ByLayer
370
18
48
1
60
0
100
AcDbEllipse
10
7.040297
20
-0.794341
30
0
11
-0.156208784236166
21
1.99389037204342
31
0
210
0
220
0
230
1
40
0.7808
41
1.15687686160025
42
2.56955235585985
0
ELLIPSE
5
E3
100
AcDbEntity
8
1
62
256
6
ByLayer
370
18
48
1
60
0
100
AcDbEllipse
10
6.552271
20
-0.476798
30
0
11
-1.90795612568039
21
-2.31569334082227
31
0
210
0
220
0
230
1
40
0.996259
41
-1.323428843798
42
-0.271739780733982
0
ELLIPSE
5
E4
100
AcDbEntity
8
1
62
256
6
ByLayer
370
18
48
1
60
0
100
AcDbEllipse
10
7.475089
20
11.613074
30
0
11
6.32524650364759
21
-2.99854242392766
31
0
210
0
220
0
230
1
40
0.012014
41
0.810298218555828
42
0.825079255295808
0
ELLIPSE
5
E5
100
AcDbEntity
8
1
62
256
6
ByLayer
370
18
48
1
60
0
100
AcDbEllipse
10
10.64388
20
6.807202
30
0
11
1.67104041809719
21
1.09891943339153
31
0
210
0
220
0
230
1
40
0.773105
41
0.604901765675633
42
2.01757725993523
0
ELLIPSE
5
E6
100
AcDbEntity
8
1
62
256
6
ByLayer
370
18
48
1
60
0
100
AcDbEllipse
10
9.312479
20
-1.935577
30
0
11
-4.15429074154925
21
-0.629982996827188
31
0
210
0
220
0
230
1
40
0.491679
41
0.272341365358965
42
0.631957098691312
0
ELLIPSE
5
E7
100
AcDbEntity
8
1
62
256
6
ByLayer
370
18
48
1
60
0
100
AcDbEllipse
10
12.560076
20
4.147654
30
0
11
4.96983653858025
21
-2.35599761880031
31
0
210
0
220
0
230
1
40
0.012014
41
-2.41221375773596
42
-1.97044601844992
0
ELLIPSE
5
E8
100
AcDbEntity
8
1
62
256
6
ByLayer
370
18
48
1
60
0
100
AcDbEllipse
10
8.680837
20
-4.277099
30
0
11
-3.25716164033373
21
1.29770227531983
31
0
210
0
220
0
230
1
40
0.360272
41
-0.63193475720379
42
0.0912833491952732
0
ELLIPSE
5
E9
100
AcDbEntity
8
1
62
256
6
ByLayer
370
18
48
1
60
0
100
AcDbEllipse
10
10.332748
20
-0.550761
30
0
11
4.96983653858025
21
-2.35599761880031
31
0
210
0
220
0
230
1
40
0.012014
41
-2.41221375773588
42
-1.97044601845001
0
ELLIPSE
5
EA
100
AcDbEntity
8
1
62
256
6
ByLayer
370
18
48
1
60
0
100
AcDbEllipse
10
10.150263
20
7.11295
30
0
11
-1.90795612528367
21
-2.31569334115465
31
0
210
0
220
0
230
1
40
0.996259
41
-2.37511790703401
42
-1.32342884397159
0
ELLIPSE
5
EB
100
AcDbEntity
8
1
62
256
6
ByLayer
370
18
48
1
60
0
100
AcDbEllipse
10
9.392284
20
-2.534612
30
0
11
-5.05707524080027
21
2.17152258959064
31
0
210
0
220
0
230
1
40
0.225408
41
-0.617379057101971
42
-0.564386749515397
0
ELLIPSE
5
EC
100
AcDbEntity
8
1
62
256
6
ByLayer
370
18
48
1
60
0
100
AcDbEllipse
10
27.186602
20
-5.647415
30
0
11
-0.221809542935894
21
-2.26087573808624
31
0
210
0
220
0
230
1
40
0.797311
41
1.30560867626861
42
2.16082000974552
0
ELLIPSE
5
ED
100
AcDbEntity
8
1
62
256
6
ByLayer
370
18
48
1
60
0
100
AcDbEllipse
10
12.973354
20
0.125105
30
0
11
0.212500000000012
21
0.36806079660838
31
0
210
0
220
0
230
1
40
0.989133
41
-1.85926646611264
42
-0.0715221281242566
0
ELLIPSE
5
EE
100
AcDbEntity
8
1
62
256
6
ByLayer
370
18
48
1
60
0
100
AcDbEllipse
10
13.424103
20
0.792022
30
0
11
-0.189999999999999
21
-0.329089653438087
31
0
210
0
220
0
230
1
40
0.989133
41
-2.90646401730926
42
-0.0715221281242002
0
ELLIPSE
5
EF
100
AcDbEntity
8
1
62
256
6
ByLayer
370
18
48
1
60
0
100
AcDbEllipse
10
14.451006
20
1.509149
30
0
11
-0.189999999999999
21
-0.329089653438087
31
0
210
0
220
0
230
1
40
0.989133
41
2.3295237386738
42
-1.11871967932076
0
ELLIPSE
5
F0
100
AcDbEntity
8
1
62
256
6
ByLayer
370
18
48
1
60
0
100
AcDbEllipse
10
15.573736
20
0.979354
30
0
11
-0.189999999999999
21
-0.329089653438087
31
0
210
0
220
0
230
1
40
0.989133
41
1.28232618747727
42
-2.1659172305174
0
ELLIPSE
5
F1
100
AcDbEntity
8
1
62
256
6
ByLayer
370
18
48
1
60
0
100
AcDbEllipse
10
13.865308
20
-1.175409
30
0
11
0.212500000000012
21
0.36806079660838
31
0
210
0
220
0
230
1
40
0.989133
41
-0.812068914916055
42
0.975675423072385
0
ELLIPSE
5
F2
100
AcDbEntity
8
1
62
256
6
ByLayer
370
18
48
1
60
0
100
AcDbEllipse
10
13.654879
20
1.562741
30
0
11
0.212500000000012
21
0.36806079660838
31
0
210
0
220
0
230
1
40
0.989133
41
-2.90646401730926
42
-1.11871967932085
0
ELLIPSE
5
F3
100
AcDbEntity
8
1
62
256
6
ByLayer
370
18
48
1
60
0
100
AcDbEllipse
10
15.46584
20
-0.149949
30
0
11
-0.189999999999999
21
-0.329089653438087
31
0
210
0
220
0
230
1
40
0.989133
41
0.235128636280547
42
3.07007052546563
0
ELLIPSE
5
F4
100
AcDbEntity
8
1
62
256
6
ByLayer
370
18
48
1
60
0
100
AcDbEllipse
10
15.228358
20
1.699863
30
0
11
0.212500000000012
21
0.36806079660838
31
0
210
0
220
0
230
1
40
0.989133
41
2.32952373867375
42
-2.16591723051752
0
ELLIPSE
5
F5
100
AcDbEntity
8
1
62
256
6
ByLayer
370
18
48
1
60
0
100
AcDbEllipse
10
15.916589
20
0.516968
30
0
11
0.212500000000012
21
0.36806079660838
31
0
210
0
220
0
230
1
40
0.989133
41
1.2823261874772
42
3.07007052546557
0
ELLIPSE
5
F6
100
AcDbEntity
8
1
62
256
6
ByLayer
370
18
48
1
60
0
100
AcDbEllipse
10
15.669563
20
-0.267569
30
0
11
-0.189999999999999
21
-0.329089653438087
31
0
210
0
220
0
230
1
40
0.989133
41
0.235128636280717
42
3.07007052546553
0
ELLIPSE
5
F7
100
AcDbEntity
8
1
62
256
6
ByLayer
370
18
48
1
60
0
100
AcDbEllipse
10
16.120312
20
0.399349
30
0
11
0.212500000000012
21
0.36806079660838
31
0
210
0
220
0
230
1
40
0.989133
41
1.28232618747717
42
3.07007052546554
0
ELLIPSE
5
F8
100
AcDbEntity
8
1
62
256
6
ByLayer
370
18
48
1
60
0
100
AcDbEllipse
10
14.45337
20
0.316188
30
0
11
-1.99999999999999
21
-3.46410161513776
31
0
210
0
220
0
230
1
40
0.989133
41
0
42
6.28318530717959
0
ELLIPSE
5
F9
100
AcDbEntity
8
1
62
256
6
ByLayer
370
18
48
1
60
0
100
AcDbEllipse
10
15.235064
20
-0.920668
30
0
11
0.212500000000012
21
0.36806079660838
31
0
210
0
220
0
230
1
40
0.989133
41
0.235128636280534
42
2.02287297426892
0
ELLIPSE
5
FA
100
AcDbEntity
8
1
62
256
6
ByLayer
370
18
48
1
60
0
100
AcDbEllipse
10
14.546833
20
0.262227
30
0
11
-1.14999999999999
21
-1.99185842870421
31
0
210
0
220
0
230
1
40
0.989133
41
0
42
6.28318530717959
0
ELLIPSE
5
FB
100
AcDbEntity
8
1
62
256
6
ByLayer
370
18
48
1
60
0
100
AcDbEllipse
10
14.64266
20
-0.984696
30
0
11
-0.189999999999999
21
-0.329089653438087
31
0
210
0
220
0
230
1
40
0.989133
41
-0.812068914915934
42
2.022872974269
0
ELLIPSE
5
FC
100
AcDbEntity
8
1
62
256
6
ByLayer
370
18
48
1
60
0
100
AcDbEllipse
10
13.51993
20
-0.4549
30
0
11
-0.189999999999999
21
-0.329089653438087
31
0
210
0
220
0
230
1
40
0.989133
41
-1.85926646611255
42
0.975675423072342
0
ELLIPSE
5
FD
100
AcDbEntity
8
1
62
256
6
ByLayer
370
18
48
1
60
0
100
AcDbEllipse
10
15.438787
20
-1.038287
30
0
11
0.212500000000012
21
0.36806079660838
31
0
210
0
220
0
230
1
40
0.989133
41
0.235128636280563
42
2.02287297426889
0
ELLIPSE
5
FE
100
AcDbEntity
8
1
62
256
6
ByLayer
370
18
48
1
60
0
100
AcDbEllipse
10
9.625609
20
11.086103
30
0
11
-0.76865927122077
21
0.246116878718533
31
0
210
0
220
0
230
1
40
0.031228
41
-2.99869132132847
42
-1.42789499455015
0
ELLIPSE
5
FF
100
AcDbEntity
8
1
62
256
6
ByLayer
370
18
48
1
60
0
100
AcDbEllipse
10
1.539597
20
-5.970857
30
0
11
-0.598414804344297
21
-2.57912885662592
31
0
210
0
220
0
230
1
40
0.219299
41
-0.929623698915457
42
0.641172627879441
0
ELLIPSE
5
100
100
AcDbEntity
8
1
62
256
6
ByLayer
370
18
48
1
60
0
100
AcDbEllipse
10
22.350773
20
-8.028989
30
0
11
-0.0882571529765126
21
-2.73364581707209
31
0
210
0
220
0
230
1
40
0.523705
41
-1.06367112867979
42
-0.721340643670785
0
ELLIPSE
5
101
100
AcDbEntity
8
1
62
256
6
ByLayer
370
18
48
1
60
0
100
AcDbEllipse
10
22.745023
20
-12.166222
30
0
11
-0.396999999999998
21
-0.687624170604846
31
0
210
0
220
0
230
1
40
0.989133
41
-0.790861371918978
42
0.779934954875836
0
ELLIPSE
5
102
100
AcDbEntity
8
1
62
256
6
ByLayer
370
18
48
1
60
0
100
AcDbEllipse
10
33.419592
20
-9.305979
30
0
11
-0.396999999999998
21
-0.687624170604846
31
0
210
0
220
0
230
1
40
0.989133
41
0.779934954875843
42
2.35073128167082
0
ELLIPSE
5
103
100
AcDbEntity
8
1
62
256
6
ByLayer
370
18
48
1
60
0
100
AcDbEllipse
10
30.675818
20
1.400481
30
0
11
-0.396999999999998
21
-0.687624170604846
31
0
210
0
220
0
230
1
40
0.989133
41
2.35073128167087
42
-2.36165769871384
0
POINT
5
6C
100
AcDbEntity
8
2
62
256
6
ByLayer
370
18
48
1
60
0
100
AcDbPoint
10
34.207183
20
34.7875
30
0
39
0
210
0
220
0
230
1
50
360
0
POINT
5
6E
100
AcDbEntity
8
80
62
256
6
ByLayer
370
18
48
1
60
0
100
AcDbPoint
10
0
20
0
30
0
39
0
210
0
220
0
230
1
50
360
0
POINT
5
70
100
AcDbEntity
8
81
62
256
6
ByLayer
370
18
48
1
60
0
100
AcDbPoint
10
34.207183
20
-9.9125
30
0
39
0
210
0
220
0
230
1
50
360
0
SPLINE
5
104
100
AcDbEntity
8
1
62
256
6
ByLayer
370
18
48
1
60
0
100
AcDbSpline
70
4
71
2
72
6
73
3
40
0
40
0
40
0
40
1
40
1
40
1
41
1
10
10.9138618550016
20
2.6375624400055
30
0
41
1
10
11.0437336354269
20
2.80244138336798
30
0
41
1
10
11.1892174336437
20
2.94421044701576
30
0
0
SPLINE
5
105
100
AcDbEntity
8
1
62
256
6
ByLayer
370
18
48
1
60
0
100
AcDbSpline
70
4
71
3
72
11
73
7
40
0
40
0
40
0
40
0
40
0.617549143133891
40
0.617549143133891
40
0.617549143133891
40
1
40
1
40
1
40
1
41
1
10
5.46776696523415
20
-3.29682588352952
30
0
41
1
10
5.18042084420648
20
-3.14559721009852
30
0
41
1
10
4.88056272309143
20
-2.95568698845355
30
0
41
1
10
4.5977318551661
20
-2.7141649083016
30
0
41
1
10
4.42114803123673
20
-2.56337198817431
30
0
41
1
10
4.2496234996886
20
-2.39074094200686
30
0
41
1
10
4.09510228492502
20
-2.19732383503512
30
0
0
SPLINE
5
106
100
AcDbEntity
8
1
62
256
6
ByLayer
370
18
48
1
60
0
100
AcDbSpline
70
4
71
3
72
8
73
4
40
0
40
0
40
0
40
0
40
1
40
1
40
1
40
1
41
1
10
14.3342992449074
20
-4.12017979019083
30
0
41
1
10
14.053053517049
20
-4.05061138886049
30
0
41
1
10
13.7834265424958
20
-3.95564291419365
30
0
41
1
10
13.526172048265
20
-3.83424927470028
30
0
0
SPLINE
5
107
100
AcDbEntity
8
1
62
256
6
ByLayer
370
18
48
1
60
0
100
AcDbSpline
70
4
71
3
72
10
73
6
40
0
40
0
40
0
40
0
40
0.967465556419482
40
0.967465556419482
40
1
40
1
40
1
40
1
41
1
10
25.2667310914828
20
-5.45013595146119
30
0
41
1
10
25.6724186627998
20
-5.40212777710946
30
0
41
1
10
26.0730551665021
20
-5.36370757891874
30
0
41
1
10
26.47695652649
20
-5.33880153391894
30
0
41
1
10
26.4900973448169
20
-5.33800735583182
30
0
41
1
10
26.5032264488951
20
-5.33723034310705
30
0
0
SPLINE
5
108
100
AcDbEntity
8
1
62
256
6
ByLayer
370
18
48
1
60
0
100
AcDbSpline
70
4
71
3
72
12
73
8
40
0
40
0
40
0
40
0
40
0.471343086678509
40
0.471343086678509
40
0.892619726108212
40
0.892619726108212
40
1
40
1
40
1
40
1
41
1
10
11.297417169374
20
4.7541667443063
30
0
41
1
10
11.4697807990249
20
4.71032001370338
30
0
41
1
10
11.6526962236086
20
4.67889243630532
30
0
41
1
10
11.9997457035354
20
4.6556703887012
30
0
41
1
10
12.1674586908151
20
4.66012834881036
30
0
41
1
10
12.3659909061755
20
4.68701788921368
30
0
41
1
10
12.4062684112989
20
4.69364610650749
30
0
41
1
10
12.4457966056858
20
4.7013292021787
30
0
0
SPLINE
5
109
100
AcDbEntity
8
1
62
256
6
ByLayer
370
18
48
1
60
0
100
AcDbSpline
70
4
71
3
72
10
73
6
40
0
40
0
40
0
40
0
40
0.655488757716282
40
0.655488757716282
40
1
40
1
40
1
40
1
41
1
10
11.7932236645235
20
9.6343888446427
30
0
41
1
10
11.4595534182479
20
9.79712685790267
30
0
41
1
10
11.0701463111648
20
9.9463445443202
30
0
41
1
10
10.412057683036
20
10.074094811137
30
0
41
1
10
10.171042834935
20
10.1001401767731
30
0
41
1
10
9.92452249397542
20
10.0994906109953
30
0
0
SPLINE
5
10A
100
AcDbEntity
8
1
62
256
6
ByLayer
370
18
48
1
60
0
100
AcDbSpline
70
4
71
2
72
6
73
3
40
0
40
0
40
0
40
1
40
1
40
1
41
1
10
24.4868726217249
20
-8.3819440697369
30
0
41
1
10
23.5065112965526
20
-8.5617796666929
30
0
41
1
10
22.4978643773726
20
-8.64541222380953
30
0
0
SPLINE
5
10B
100
AcDbEntity
8
1
62
256
6
ByLayer
370
18
48
1
60
0
100
AcDbSpline
70
4
71
2
72
6
73
3
40
0
40
0
40
0
40
1
40
1
40
1
41
1.02805999725224
10
13.1575166546345
20
-5.75914953049066
30
0
41
1.02805999725224
10
12.7287217019875
20
-6.15624338388751
30
0
41
1.02805999725224
10
12.2999267493405
20
-6.55333723728439
30
0
0
SPLINE
5
10C
100
AcDbEntity
8
1
62
256
6
ByLayer
370
18
48
1
60
0
100
AcDbSpline
70
4
71
3
72
12
73
8
40
0
40
0
40
0
40
0
40
0.466938972358632
40
0.466938972358632
40
0.928803236876555
40
0.928803236876555
40
1
40
1
40
1
40
1
41
1
10
9.7771951446382
20
-0.92792650773589
30
0
41
1
10
9.6949429005
20
-0.77736648103226
30
0
41
1
10
9.58726751350861
20
-0.626485333586345
30
0
41
1
10
9.34740287003905
20
-0.355682627273183
30
0
41
1
10
9.21262394616895
20
-0.23142779814296
30
0
41
1
10
9.05267916667663
20
-0.10561678562749
30
0
41
1
10
9.03099209281555
20
-0.0889875827640196
30
0
41
1
10
9.00920285972222
20
-0.0726849441094544
30
0
0
SPLINE
5
10D
100
AcDbEntity
8
1
62
256
6
ByLayer
370
18
48
1
60
0
100
AcDbSpline
70
4
71
3
72
12
73
8
40
0
40
0
40
0
40
0
40
0.286978363858292
40
0.286978363858292
40
0.569998995185613
40
0.569998995185613
40
1
40
1
40
1
40
1
41
1
10
18.4910914891048
20
-2.93067033134409
30
0
41
1
10
18.6460399206783
20
-2.75582699318153
30
0
41
1
10
18.7873777354441
20
-2.56736054818708
30
0
41
1
10
19.0353360805107
20
-2.17398636348284
30
0
41
1
10
19.1432605655025
20
-1.96799104793683
30
0
41
1
10
19.3707022399256
20
-1.43430880905771
30
0
41
1
10
19.4692612992953
20
-1.09405037597551
30
0
41
1
10
19.5245745105043
20
-0.750599502425359
30
0
0
SPLINE
5
10E
100
AcDbEntity
8
1
62
256
6
ByLayer
370
18
48
1
60
0
100
AcDbSpline
70
4
71
3
72
8
73
4
40
0
40
0
40
0
40
0
40
1
40
1
40
1
40
1
41
1
10
15.2437378404238
20
4.5322704093866
30
0
41
1
10
14.4115412069328
20
4.92496861439031
30
0
41
1
10
13.4947970318164
20
4.99294855740206
30
0
41
1
10
12.6567606006296
20
4.75200571999383
30
0
0
SPLINE
5
10F
100
AcDbEntity
8
1
62
256
6
ByLayer
370
18
48
1
60
0
100
AcDbSpline
70
4
71
3
72
10
73
6
40
0
40
0
40
0
40
0
40
0.5
40
0.5
40
1
40
1
40
1
40
1
41
1
10
25.6767789270157
20
-8.06167871235971
30
0
41
1
10
24.9433061058504
20
-8.09068809420106
30
0
41
1
10
24.4373971908138
20
-7.84375940755433
30
0
41
1
10
23.8523297374328
20
-7.15599577811579
30
0
41
1
10
23.731298285963
20
-6.71681712052498
30
0
41
1
10
23.6735875627589
20
-6.25755239569159
30
0
0
SPLINE
5
110
100
AcDbEntity
8
1
62
256
6
ByLayer
370
18
48
1
60
0
100
AcDbSpline
70
4
71
3
72
8
73
4
40
0
40
0
40
0
40
0
40
1
40
1
40
1
40
1
41
1
10
28.6026504489232
20
-4.1102946293602
30
0
41
1
10
28.6442217080544
20
-4.17804068798372
30
0
41
1
10
28.6839438880953
20
-4.25055321587294
30
0
41
1
10
28.7209871248294
20
-4.32665797210816
30
0
0
SPLINE
5
111
100
AcDbEntity
8
1
62
256
6
ByLayer
370
18
48
1
60
0
100
AcDbSpline
70
4
71
3
72
8
73
4
40
0
40
0
40
0
40
0
40
1
40
1
40
1
40
1
41
1
10
27.1674033312759
20
-7.60385037728565
30
0
41
1
10
27.0846965719405
20
-7.62407010002826
30
0
41
1
10
27.0030139659117
20
-7.64007058954766
30
0
41
1
10
26.9237996314959
20
-7.65173035437724
30
0
0
SPLINE
5
112
100
AcDbEntity
8
1
62
256
6
ByLayer
370
18
48
1
60
0
100
AcDbSpline
70
4
71
3
72
8
73
4
40
0
40
0
40
0
40
0
40
1
40
1
40
1
40
1
41
1
10
12.4457966056858
20
4.7013292021787
30
0
41
1
10
12.5171952623576
20
4.71520696003032
30
0
41
1
10
12.5876810951777
20
4.73214475520649
30
0
41
1
10
12.6567606006296
20
4.75200571999383
30
0
0
SPLINE
5
113
100
AcDbEntity
8
1
62
256
6
ByLayer
370
18
48
1
60
0
100
AcDbSpline
70
4
71
3
72
8
73
4
40
0
40
0
40
0
40
0
40
1
40
1
40
1
40
1
41
1
10
24.6437552159418
20
1.59168863973923
30
0
41
1
10
25.1853812480218
20
0.984657580560565
30
0
41
1
10
25.7661118599093
20
0.466041824947922
30
0
41
1
10
26.3073542107284
20
0.111352662108146
30
0
0
SPLINE
5
114
100
AcDbEntity
8
1
62
256
6
ByLayer
370
18
48
1
60
0
100
AcDbSpline
70
4
71
3
72
11
73
7
40
0
40
0
40
0
40
0
40
0.423407924939446
40
0.740963868644029
40
0.899741840496322
40
1
40
1
40
1
40
1
41
1.02805999725224
10
18.3639344954137
20
5.22347855611845
30
0
41
1.02767136955277
10
19.091608403797
20
4.75942756788021
30
0
41
1.02349884684923
10
21.2965276820673
20
2.34209892678881
30
0
41
1.01876555595691
10
23.8539266518821
20
-0.993850904990474
30
0
41
1.01635405201137
10
24.8201037906339
20
-2.24133214232651
30
0
41
1.01722454828226
10
25.238930188003
20
-2.48703271020872
30
0
41
1.01774327987904
10
25.4165510395186
20
-2.58087483751501
30
0
0
SPLINE
5
115
100
AcDbEntity
8
1
62
256
6
ByLayer
370
18
48
1
60
0
100
AcDbSpline
70
4
71
3
72
8
73
4
40
0
40
0
40
0
40
0
40
1
40
1
40
1
40
1
41
1
10
13.1575166546345
20
-5.75914953049067
30
0
41
1
10
13.4496083505024
20
-5.48865237015477
30
0
41
1
10
13.8695170722245
20
-4.90382244142765
30
0
41
1
10
14.3342992597094
20
-4.12017979385223
30
0
0
SPLINE
5
116
100
AcDbEntity
8
1
62
256
6
ByLayer
370
18
48
1
60
0
100
AcDbSpline
70
4
71
3
72
8
73
4
40
0
40
0
40
0
40
0
40
1
40
1
40
1
40
1
41
1
10
26.5649134681787
20
-0.0663193120444987
30
0
41
1
10
26.4803274622521
20
-0.0050516734107191
30
0
41
1
10
26.3944831892641
20
0.0542549416337863
30
0
41
1
10
26.3073542107283
20
0.111352662108146
30
0
0
SPLINE
5
117
100
AcDbEntity
8
1
62
256
6
ByLayer
370
18
48
1
60
0
100
AcDbSpline
70
4
71
1
72
4
73
2
40
0
40
0
40
1
40
1
41
1
10
18.3639344954137
20
5.22347855611844
30
0
41
1
10
18.4660899759403
20
6.45381653140669
30
0
0
SPLINE
5
118
100
AcDbEntity
8
1
62
256
6
ByLayer
370
18
48
1
60
0
100
AcDbSpline
70
4
71
3
72
20
73
16
40
0
40
0
40
0
40
0
40
0.110576036200127
40
0.110576036200127
40
0.197179369122805
40
0.197179369122805
40
0.284291117387368
40
0.284291117387368
40
0.365904217918079
40
0.365904217918079
40
0.497270233392073
40
0.497270233392073
40
0.733496364826707
40
0.733496364826707
40
1
40
1
40
1
40
1
41
1
10
23.6735875627601
20
-6.25755239569207
30
0
41
1
10
23.6684470673754
20
-6.21667335123635
30
0
41
1
10
23.6721894365861
20
-6.17164179594911
30
0
41
1
10
23.7026075714252
20
-6.08658980380815
30
0
41
1
10
23.7247095113648
20
-6.04676856037031
30
0
41
1
10
23.7867484538563
20
-5.9678200668059
30
0
41
1
10
23.82767010644
20
-5.92772108602668
30
0
41
1
10
23.9181105821676
20
-5.8559028700696
30
0
41
1
10
23.9678038822725
20
-5.82296807142396
30
0
41
1
10
24.1020714246671
20
-5.7457667497022
30
0
41
1
10
24.1916192146203
20
-5.70520365630816
30
0
41
1
10
24.438834477776
20
-5.61028133023774
30
0
41
1
10
24.5994415943525
20
-5.5674130238763
30
0
41
1
10
24.929134202518
20
-5.49606947153924
30
0
41
1
10
25.1001828669085
20
-5.46981234156715
30
0
41
1
10
25.2667310914828
20
-5.45013595146119
30
0
0
SPLINE
5
119
100
AcDbEntity
8
1
62
256
6
ByLayer
370
18
48
1
60
0
100
AcDbSpline
70
4
71
3
72
8
73
4
40
0
40
0
40
0
40
0
40
1
40
1
40
1
40
1
41
1
10
11.297417169374
20
4.7541667443063
30
0
41
1
10
11.0498530695853
20
4.81714335028963
30
0
41
1
10
10.8183220644835
20
4.90462888221231
30
0
41
1
10
10.600260145461
20
5.00936163920201
30
0
0
SPLINE
5
11A
100
AcDbEntity
8
1
62
256
6
ByLayer
370
18
48
1
60
0
100
AcDbSpline
70
4
71
3
72
8
73
4
40
0
40
0
40
0
40
0
40
1
40
1
40
1
40
1
41
1
10
17.8149514773444
20
3.22204858683833
30
0
41
1
10
18.1332483570775
20
4.09026455317792
30
0
41
1
10
18.3291407471418
20
4.80443036035999
30
0
41
1
10
18.3639344954137
20
5.22347855611844
30
0
0
SPLINE
5
11B
100
AcDbEntity
8
1
62
256
6
ByLayer
370
18
48
1
60
0
100
AcDbSpline
70
4
71
3
72
8
73
4
40
0
40
0
40
0
40
0
40
1
40
1
40
1
40
1
41
1
10
22.1947220945266
20
-8.56399963780004
30
0
41
1
10
22.2949200296979
20
-8.5935291732728
30
0
41
1
10
22.3960129824558
20
-8.62066960729487
30
0
41
1
10
22.4978251289448
20
-8.64559972923817
30
0
0
SPLINE
5
11C
100
AcDbEntity
8
1
62
256
6
ByLayer
370
18
48
1
60
0
100
AcDbSpline
70
4
71
3
72
8
73
4
40
0
40
0
40
0
40
0
40
1
40
1
40
1
40
1
41
1
10
27.6224897652249
20
-1.76769569465537
30
0
41
1
10
27.7916962072561
20
-2.14118952868975
30
0
41
1
10
27.9602332086172
20
-2.51682775483286
30
0
41
1
10
28.1272021313792
20
-2.89265703057228
30
0
0
SPLINE
5
11D
100
AcDbEntity
8
1
62
256
6
ByLayer
370
18
48
1
60
0
100
AcDbSpline
70
4
71
3
72
8
73
4
40
0
40
0
40
0
40
0
40
1
40
1
40
1
40
1
41
1
10
12.4457966056858
20
4.7013292021787
30
0
41
1
10
12.1870597627739
20
6.2460481274633
30
0
41
1
10
11.8718361308545
20
7.66388267651325
30
0
41
1
10
11.5352670076418
20
8.44580048953713
30
0
0
SPLINE
5
11E
100
AcDbEntity
8
1
62
256
6
ByLayer
370
18
48
1
60
0
100
AcDbSpline
70
4
71
3
72
10
73
6
40
0
40
0
40
0
40
0
40
0.26471563914559
40
0.26471563914559
40
1
40
1
40
1
40
1
41
1
10
26.5032264488791
20
-5.33723034310796
30
0
41
1
10
26.4397747634928
20
-5.2522045580796
30
0
41
1
10
26.3767183597337
20
-5.16583434782277
30
0
41
1
10
26.1399371756356
20
-4.8353351011385
30
0
41
1
10
25.9685629126886
20
-4.58367225157502
30
0
41
1
10
25.799694139792
20
-4.32588217035953
30
0
0
SPLINE
5
11F
100
AcDbEntity
8
1
62
256
6
ByLayer
370
18
48
1
60
0
100
AcDbSpline
70
4
71
3
72
8
73
4
40
0
40
0
40
0
40
0
40
1
40
1
40
1
40
1
41
1
10
9.1556946619877
20
7.49747888591986
30
0
41
1
10
9.72881274739279
20
6.88648241943821
30
0
41
1
10
10.502053726754
20
5.86833976517289
30
0
41
1
10
11.297417169374
20
4.7541667443063
30
0
0
SPLINE
5
120
100
AcDbEntity
8
1
62
256
6
ByLayer
370
18
48
1
60
0
100
AcDbSpline
70
4
71
3
72
8
73
4
40
0
40
0
40
0
40
0
40
1
40
1
40
1
40
1
41
1
10
5.4099267775664
20
-0.0261690133058323
30
0
41
1
10
5.39985203253548
20
-0.0474210874047003
30
0
41
1
10
5.39031733199465
20
-0.0687400644261515
30
0
41
1
10
5.38129752757908
20
-0.0901232175000928
30
0
0
SPLINE
5
121
100
AcDbEntity
8
1
62
256
6
ByLayer
370
18
48
1
60
0
100
AcDbSpline
70
4
71
3
72
10
73
6
40
0
40
0
40
0
40
0
40
0.5
40
0.5
40
1
40
1
40
1
40
1
41
1
10
5.38129752757908
20
-0.0901232175000928
30
0
41
1
10
5.0990041543165
20
-0.75935307373004
30
0
41
1
10
4.99841800391272
20
-1.4366260298471
30
0
41
1
10
5.04159620809321
20
-2.42085603012453
30
0
41
1
10
5.13269710240115
20
-2.75916687110336
30
0
41
1
10
5.39461835008103
20
-3.09176850221891
30
0
0
SPLINE
5
122
100
AcDbEntity
8
1
62
256
6
ByLayer
370
18
48
1
60
0
100
AcDbSpline
70
4
71
3
72
11
73
7
40
0
40
0
40
0
40
0
40
0.423407924946024
40
0.740963868655542
40
0.899741840510301
40
1
40
1
40
1
40
1
41
1.02805999725224
10
13.1575166546345
20
-5.75914953049066
30
0
41
1.02767136955277
10
13.977743960961
20
-6.02796464269825
30
0
41
1.02349884684923
10
17.2419978764517
20
-6.21069001218574
30
0
41
1.01876555595691
10
21.4476920652808
20
-6.06965933253131
30
0
41
1.01635405201144
10
23.0291453116605
20
-6.01925229667901
30
0
41
1.01722454828215
10
23.4872395708306
20
-6.18211965076217
30
0
41
1.0177432798788
10
23.6735875626829
20
-6.25755239566081
30
0
0
SPLINE
5
123
100
AcDbEntity
8
1
62
256
6
ByLayer
370
18
48
1
60
0
100
AcDbSpline
70
4
71
3
72
8
73
4
40
0
40
0
40
0
40
0
40
1
40
1
40
1
40
1
41
1
10
9.00920285972222
20
-0.0726849441094544
30
0
41
1
10
7.64519967372723
20
-0.155478769645896
30
0
41
1
10
6.38412812275101
20
-0.186003245588751
30
0
41
1
10
5.55211179293451
20
-0.104064370962419
30
0
0
SPLINE
5
124
100
AcDbEntity
8
1
62
256
6
ByLayer
370
18
48
1
60
0
100
AcDbSpline
70
4
71
3
72
8
73
4
40
0
40
0
40
0
40
0
40
1
40
1
40
1
40
1
41
1
10
9.00791801195874
20
7.5635790235703
30
0
41
1
10
9.01799275698966
20
7.58483109766919
30
0
41
1
10
9.02845257614433
20
7.60568936809543
30
0
41
1
10
9.03927986465271
20
7.62617247448239
30
0
0
SPLINE
5
125
100
AcDbEntity
8
1
62
256
6
ByLayer
370
18
48
1
60
0
100
AcDbSpline
70
4
71
3
72
8
73
4
40
0
40
0
40
0
40
0
40
1
40
1
40
1
40
1
41
1
10
9.00920285972217
20
-0.0726849441094544
30
0
41
1
10
8.80441889344161
20
0.0805338034353156
30
0
41
1
10
8.59099415747869
20
0.206213430812824
30
0
41
1
10
8.37293223845631
20
0.310946187802529
30
0
0
SPLINE
5
126
100
AcDbEntity
8
1
62
256
6
ByLayer
370
18
48
1
60
0
100
AcDbSpline
70
4
71
3
72
12
73
8
40
0
40
0
40
0
40
0
40
0.10885398860713
40
0.502629237162305
40
0.699516861439892
40
0.89640448571748
40
1
40
1
40
1
40
1
41
1.02441262532206
10
19.5245745105044
20
-0.750599502425387
30
0
41
1.02394775682001
10
19.8183036218582
20
-0.919098320007329
30
0
41
1.02173322384668
10
21.2053486305516
20
-1.72156521722888
30
0
41
1.01876555595691
10
23.1349174022949
20
-2.87903835791894
30
0
41
1.01610930227499
10
24.414085315452
20
-3.6735229110578
30
0
41
1.01814069306376
10
25.0453047654636
20
-3.95673464837968
30
0
41
1.02005196006971
10
25.5985225687703
20
-4.22560629349599
30
0
41
1.02076673234773
10
25.7996941397827
20
-4.32588217035485
30
0
0
SPLINE
5
127
100
AcDbEntity
8
1
62
256
6
ByLayer
370
18
48
1
60
0
100
AcDbSpline
70
4
71
3
72
10
73
6
40
0
40
0
40
0
40
0
40
0.5
40
0.5
40
1
40
1
40
1
40
1
41
1
10
25.416551039518
20
-2.5808748375147
30
0
41
1
10
25.8161605788652
20
-2.31823868014661
30
0
41
1
10
26.2314412809651
20
-2.11846148933935
30
0
41
1
10
27.1565468553203
20
-2.0981354345536
30
0
41
1
10
27.6720947075802
20
-2.30810911505188
30
0
41
1
10
28.1272021313793
20
-2.89265703057239
30
0
0
SPLINE
5
128
100
AcDbEntity
8
1
62
256
6
ByLayer
370
18
48
1
60
0
100
AcDbSpline
70
4
71
3
72
10
73
6
40
0
40
0
40
0
40
0
40
0.5
40
0.5
40
1
40
1
40
1
40
1
41
1
10
24.6437552159417
20
1.59168863973943
30
0
41
1
10
23.7675181084805
20
2.57373733741983
30
0
41
1
10
22.8189728939086
20
3.48077779269579
30
0
41
1
10
20.7495443885175
20
5.11608516435831
30
0
41
1
10
19.6611458136562
20
5.87596934727995
30
0
41
1
10
18.4660899759403
20
6.45381653140669
30
0
0
SPLINE
5
129
100
AcDbEntity
8
1
62
256
6
ByLayer
370
18
48
1
60
0
100
AcDbSpline
70
4
71
3
72
8
73
4
40
0
40
0
40
0
40
0
40
1
40
1
40
1
40
1
41
1
10
9.87230118380387
20
-1.12164544141143
30
0
41
1
10
10.2209315337942
20
-1.91878119915268
30
0
41
1
10
10.8538355318163
20
-2.57322308095919
30
0
41
1
10
11.6885798350124
20
-2.96712348419334
30
0
0
SPLINE
5
12A
100
AcDbEntity
8
1
62
256
6
ByLayer
370
18
48
1
60
0
100
AcDbSpline
70
4
71
3
72
8
73
4
40
0
40
0
40
0
40
0
40
1
40
1
40
1
40
1
41
1
10
9.87230118380387
20
-1.12164544141152
30
0
41
1
10
9.84379828950415
20
-1.05647418983781
30
0
41
1
10
9.81212525385274
20
-0.991864923413203
30
0
41
1
10
9.7771951446382
20
-0.927926507735918
30
0
0
SPLINE
5
12B
100
AcDbEntity
8
1
62
256
6
ByLayer
370
18
48
1
60
0
100
AcDbSpline
70
4
71
3
72
11
73
7
40
0
40
0
40
0
40
0
40
0.56478393944378
40
0.56478393944378
40
0.56478393944378
40
1
40
1
40
1
40
1
41
1
10
22.1947220945266
20
-8.56399963780004
30
0
41
1
10
21.8487244569087
20
-8.46202997648842
30
0
41
1
10
21.4470396112965
20
-8.36619843582534
30
0
41
1
10
21.0201849970783
20
-8.31299257523122
30
0
41
1
10
20.6885421460892
20
-8.27165451138228
30
0
41
1
10
20.3385491988251
20
-8.24743746718437
30
0
41
1
10
19.9861228556163
20
-8.23330918831763
30
0
0
SPLINE
5
12C
100
AcDbEntity
8
1
62
256
6
ByLayer
370
18
48
1
60
0
100
AcDbSpline
70
4
71
3
72
8
73
4
40
0
40
0
40
0
40
0
40
1
40
1
40
1
40
1
41
1
10
24.4869595392265
20
-8.38190979978609
30
0
41
1
10
24.8828478569104
20
-8.27723172951019
30
0
41
1
10
25.2801468741451
20
-8.1703101195441
30
0
41
1
10
25.6767789270394
20
-8.0616787123588
30
0
0
SPLINE
5
12D
100
AcDbEntity
8
1
62
256
6
ByLayer
370
18
48
1
60
0
100
AcDbSpline
70
4
71
3
72
20
73
16
40
0
40
0
40
0
40
0
40
0.332873226652386
40
0.332873226652386
40
0.5016572616982
40
0.5016572616982
40
0.631212321676506
40
0.631212321676506
40
0.722542323637669
40
0.722542323637669
40
0.814765347404191
40
0.814765347404191
40
0.8964213590388
40
0.8964213590388
40
1
40
1
40
1
40
1
41
1
10
25.799694139792
20
-4.32588217035953
30
0
41
1
10
25.685935367202
20
-4.15229749591253
30
0
41
1
10
25.575104137166
20
-3.96642811580452
30
0
41
1
10
25.427611613494
20
-3.65817694517784
30
0
41
1
10
25.3808906551757
20
-3.54823097114169
30
0
41
1
10
25.3128642544563
20
-3.34448886458844
30
0
41
1
10
25.2877607560359
20
-3.25114829004127
30
0
41
1
10
25.2611734334476
20
-3.09255978511337
30
0
41
1
10
25.2548549650087
20
-3.02580409377092
30
0
41
1
10
25.2554935897247
20
-2.90062824760278
30
0
41
1
10
25.2627572178692
20
-2.84070879067889
30
0
41
1
10
25.2884644691016
20
-2.74478398879074
30
0
41
1
10
25.3057243601276
20
-2.70561995487259
30
0
41
1
10
25.3519102057662
20
-2.63307067296248
30
0
41
1
10
25.3831483934308
20
-2.60282405937002
30
0
41
1
10
25.416551039518
20
-2.5808748375147
30
0
0
SPLINE
5
12E
100
AcDbEntity
8
1
62
256
6
ByLayer
370
18
48
1
60
0
100
AcDbSpline
70
4
71
2
72
6
73
3
40
0
40
0
40
0
40
1
40
1
40
1
41
1
10
26.5647933650956
20
-0.0664681979043849
30
0
41
1
10
27.1401145695431
20
-0.897725301420593
30
0
41
1
10
27.6224524392618
20
-1.76758002924862
30
0
0
SPLINE
5
12F
100
AcDbEntity
8
1
62
256
6
ByLayer
370
18
48
1
60
0
100
AcDbSpline
70
4
71
3
72
8
73
4
40
0
40
0
40
0
40
0
40
1
40
1
40
1
40
1
41
1
10
6.32884916686265
20
-2.53682759707198
30
0
41
1
10
7.13203872401175
20
-2.33237712281738
30
0
41
1
10
8.42231864678581
20
-1.69735889964366
30
0
41
1
10
9.77719514463308
20
-0.927926507728785
30
0
0
SPLINE
5
130
100
AcDbEntity
8
1
62
256
6
ByLayer
370
18
48
1
60
0
100
AcDbSpline
70
4
71
3
72
8
73
4
40
0
40
0
40
0
40
0
40
1
40
1
40
1
40
1
41
1
10
17.8149514620977
20
3.22204856889067
30
0
41
1
10
17.5875763109832
20
3.39219880610287
30
0
41
1
10
17.3401165725895
20
3.54302804526426
30
0
41
1
10
17.0813300536765
20
3.66514461887976
30
0
0
SPLINE
5
131
100
AcDbEntity
8
1
62
256
6
ByLayer
370
18
48
1
60
0
100
AcDbSpline
70
4
71
3
72
10
73
6
40
0
40
0
40
0
40
0
40
0.5
40
0.5
40
1
40
1
40
1
40
1
41
1
10
11.3982062768998
20
9.57244236250887
30
0
41
1
10
10.9670768876526
20
9.55200687593864
30
0
41
1
10
10.6398869584091
20
9.39227787616252
30
0
41
1
10
9.84662930546335
20
8.78540629323263
30
0
41
1
10
9.37733202358072
20
8.26570085966338
30
0
41
1
10
9.03927986465271
20
7.62617247448236
30
0
0
SPLINE
5
132
100
AcDbEntity
8
1
62
256
6
ByLayer
370
18
48
1
60
0
100
AcDbSpline
70
4
71
3
72
15
73
11
40
0
40
0
40
0
40
0
40
0.322163720426454
40
0.322163720426454
40
0.64483345260023
40
0.64483345260023
40
0.912233455904555
40
0.912233455904555
40
0.912233455904555
40
1
40
1
40
1
40
1
41
1
10
14.3342992597094
20
-4.12017979385223
30
0
41
1
10
14.8044978310824
20
-4.23600558947118
30
0
41
1
10
15.301323810753
20
-4.27166494856607
30
0
41
1
10
16.2669219913907
20
-4.18732626568374
30
0
41
1
10
16.7492501353471
20
-4.06634142958188
30
0
41
1
10
17.5591016976993
20
-3.70592590041284
30
0
41
1
10
17.9082951133945
20
-3.48494106675469
30
0
41
1
10
18.2080503318055
20
-3.21549648485663
30
0
41
1
10
18.3076661328061
20
-3.12595363054598
30
0
41
1
10
18.4024416167028
20
-3.03069210806058
30
0
41
1
10
18.4910914891057
20
-2.93067033134412
30
0
0
SPLINE
5
133
100
AcDbEntity
8
1
62
256
6
ByLayer
370
18
48
1
60
0
100
AcDbSpline
70
4
71
3
72
15
73
11
40
0
40
0
40
0
40
0
40
0.227604479949749
40
0.227604479949749
40
0.479423709218442
40
0.479423709218442
40
0.785574270382837
40
0.785574270382837
40
0.785574270382837
40
1
40
1
40
1
40
1
41
1
10
19.5245745105043
20
-0.750599502425359
30
0
41
1
10
19.5789091842647
20
-0.413115481168489
30
0
41
1
10
19.582971868127
20
-0.0620336294844037
30
0
41
1
10
19.495325582176
20
0.655725668970149
30
0
41
1
10
19.3932849643918
20
1.02861865856551
30
0
41
1
10
19.069297413741
20
1.80273024885022
30
0
41
1
10
18.8220324108053
20
2.20413699022345
30
0
41
1
10
18.5235577307085
20
2.55486769255756
30
0
41
1
10
18.3132204928674
20
2.8020301223192
30
0
41
1
10
18.0745123148529
20
3.02756075139396
30
0
41
1
10
17.8149514688988
20
3.22204856380125
30
0
0
SPLINE
5
134
100
AcDbEntity
8
1
62
256
6
ByLayer
370
18
48
1
60
0
100
AcDbSpline
70
4
71
3
72
12
73
8
40
0
40
0
40
0
40
0
40
0.108854002841675
40
0.502629245107335
40
0.699516866240164
40
0.896404487372994
40
1
40
1
40
1
40
1
41
1.0244126255267
10
18.4910913494481
20
-2.9306702791423
30
0
41
1.02394775696077
10
18.8084621379171
20
-3.04929849842602
30
0
41
1.02173322391444
10
20.3127886784449
20
-3.60436711268778
30
0
41
1.01876555595691
10
22.4405997405623
20
-4.34366007786809
30
0
41
1.01610930227499
10
23.8742686361586
20
-4.81223401818327
30
0
41
1.01814069306376
10
24.4974642151076
20
-5.11237163321542
30
0
41
1.0200519600697
10
25.0601241074664
20
-5.36132575429956
30
0
41
1.02076673234771
10
25.2667310914663
20
-5.45013595145412
30
0
0
SPLINE
5
135
100
AcDbEntity
8
1
62
256
6
ByLayer
370
18
48
1
60
0
100
AcDbSpline
70
4
71
3
72
10
73
6
40
0
40
0
40
0
40
0
40
0.5
40
0.5
40
1
40
1
40
1
40
1
41
1
10
12.2999267493405
20
-6.55333723728438
30
0
41
1
10
13.5093636978291
20
-7.11008424640525
30
0
41
1
10
14.7734653597193
20
-7.46205110334958
30
0
41
1
10
17.3405472495373
20
-8.02034134498621
30
0
41
1
10
18.6631112572634
20
-8.18027150493884
30
0
41
1
10
19.9861228556159
20
-8.23330918831766
30
0
0
INSERT
5
148
100
AcDbEntity
8
SK2
62
256
6
ByLayer
370
25
48
1
60
0
100
AcDbBlockReference
2
DimnDraft3D11
10
0
20
0
30
0
41
1
42
1
43
1
50
0
210
0
220
0
230
1
0
LINE
5
72
100
AcDbEntity
8
1
62
256
6
ByLayer
370
18
48
1
60
0
100
AcDbLine
10
14.812135
20
1.449422
30
0
11
15.015858
21
1.331802
31
0
39
0
210
0
220
0
230
1
0
LINE
5
74
100
AcDbEntity
8
1
62
256
6
ByLayer
370
18
48
1
60
0
100
AcDbLine
10
12.241248
20
-3.025445
30
0
11
12.45337
21
-3.147914
31
0
39
0
210
0
220
0
230
1
0
LINE
5
75
100
AcDbEntity
8
1
62
256
6
ByLayer
370
18
48
1
60
0
100
AcDbLine
10
16.45337
20
3.78029
30
0
11
16.241248
21
3.902758
31
0
39
0
210
0
220
0
230
1
0
LINE
5
76
100
AcDbEntity
8
1
62
256
6
ByLayer
370
18
48
1
60
0
100
AcDbLine
10
21.794002
20
-12.533982
30
0
11
22.348023
21
-12.853846
31
0
39
0
210
0
220
0
230
1
0
LINE
5
77
100
AcDbEntity
8
1
62
256
6
ByLayer
370
18
48
1
60
0
100
AcDbLine
10
31.072818
20
2.088105
30
0
11
30.532416
21
2.400106
31
0
39
0
210
0
220
0
230
1
0
LINE
5
78
100
AcDbEntity
8
1
62
256
6
ByLayer
370
18
48
1
60
0
100
AcDbLine
10
5.464636
20
-3.295185
30
0
11
6.024693
21
-3.591177
31
0
39
0
210
0
220
0
230
1
0
LINE
5
79
100
AcDbEntity
8
1
62
256
6
ByLayer
370
18
48
1
60
0
100
AcDbLine
10
14.077808
20
-0.807349
30
0
11
13.874085
21
-0.689729
31
0
39
0
210
0
220
0
230
1
0
LINE
5
7A
100
AcDbEntity
8
1
62
256
6
ByLayer
370
18
48
1
60
0
100
AcDbLine
10
8.509699
20
0.242083
30
0
11
8.088452
21
0.464713
31
0
39
0
210
0
220
0
230
1
0
LINE
5
7B
100
AcDbEntity
8
80
62
256
6
ByLayer
370
18
48
1
60
0
100
AcDbLine
10
0
20
0
30
0
11
-5
21
0
31
0
39
0
210
0
220
0
230
1
0
LINE
5
7C
100
AcDbEntity
8
81
62
256
6
ByLayer
370
18
48
1
60
0
100
AcDbLine
10
34.207183
20
-9.9125
30
0
11
44.207183
21
-9.9125
31
0
39
0
210
0
220
0
230
1
0
LINE
5
7D
100
AcDbEntity
8
1
62
256
6
ByLayer
370
18
48
1
60
0
100
AcDbLine
10
13.65217
20
9.709963
30
0
11
13.27375
21
8.911707
31
0
39
0
210
0
220
0
230
1
0
LINE
5
7E
100
AcDbEntity
8
1
62
256
6
ByLayer
370
18
48
1
60
0
100
AcDbLine
10
7.103812
20
-4.103409
30
0
11
4.113411
21
-10.411481
31
0
39
0
210
0
220
0
230
1
0
LINE
5
7F
100
AcDbEntity
8
1
62
256
6
ByLayer
370
18
48
1
60
0
100
AcDbLine
10
10.412993
20
10.831211
30
0
11
10.059831
21
10.086235
31
0
39
0
210
0
220
0
230
1
0
LINE
5
80
100
AcDbEntity
8
1
62
256
6
ByLayer
370
18
48
1
60
0
100
AcDbLine
10
4.190307
20
-2.295174
30
0
11
1.601136
21
-7.756877
31
0
39
0
210
0
220
0
230
1
0
LINE
5
81
100
AcDbEntity
8
1
62
256
6
ByLayer
370
18
48
1
60
0
100
AcDbLine
10
20.777302
20
-8.294368
30
0
11
21.859314
21
-12.51648
31
0
39
0
210
0
220
0
230
1
0
LINE
5
82
100
AcDbEntity
8
1
62
256
6
ByLayer
370
18
48
1
60
0
100
AcDbLine
10
25.281815
20
0.933027
30
0
11
30.552753
21
2.320747
31
0
39
0
210
0
220
0
230
1
0
LINE
5
83
100
AcDbEntity
8
1
62
256
6
ByLayer
370
18
48
1
60
0
100
AcDbLine
10
20.794913
20
-8.295634
30
0
11
21.056463
21
-9.316225
31
0
39
0
210
0
220
0
230
1
0
LINE
5
84
100
AcDbEntity
8
1
62
256
6
ByLayer
370
18
48
1
60
0
100
AcDbLine
10
30.552753
20
2.320747
30
0
11
30.522586
21
2.212526
31
0
39
0
210
0
220
0
230
1
0
LINE
5
85
100
AcDbEntity
8
1
62
256
6
ByLayer
370
18
48
1
60
0
100
AcDbLine
10
9.523747
20
11.144913
30
0
11
8.900789
21
9.830819
31
0
39
0
210
0
220
0
230
1
0
LINE
5
86
100
AcDbEntity
8
1
62
256
6
ByLayer
370
18
48
1
60
0
100
AcDbLine
10
3.653812
20
-1.237366
30
0
11
0.728396
21
-7.408357
31
0
39
0
210
0
220
0
230
1
0
LINE
5
87
100
AcDbEntity
8
1
62
256
6
ByLayer
370
18
48
1
60
0
100
AcDbLine
10
10.387528
20
10.845913
30
0
11
10.028803
21
10.089204
31
0
39
0
210
0
220
0
230
1
0
LINE
5
88
100
AcDbEntity
8
1
62
256
6
ByLayer
370
18
48
1
60
0
100
AcDbLine
10
4.168552
20
-2.272646
30
0
11
1.398336
21
-8.116252
31
0
39
0
210
0
220
0
230
1
0
LINE
5
89
100
AcDbEntity
8
1
62
256
6
ByLayer
370
18
48
1
60
0
100
AcDbLine
10
21.982279
20
-12.370598
30
0
11
20.940845
21
-8.306828
31
0
39
0
210
0
220
0
230
1
0
LINE
5
8A
100
AcDbEntity
8
1
62
256
6
ByLayer
370
18
48
1
60
0
100
AcDbLine
10
25.416349
20
0.808765
30
0
11
30.479764
21
2.165503
31
0
39
0
210
0
220
0
230
1
0
LINE
5
8B
100
AcDbEntity
8
1
62
256
6
ByLayer
370
18
48
1
60
0
100
AcDbLine
10
21.924976
20
-12.337515
30
0
11
21.982279
21
-12.370598
31
0
39
0
210
0
220
0
230
1
0
LINE
5
8C
100
AcDbEntity
8
1
62
256
6
ByLayer
370
18
48
1
60
0
100
AcDbLine
10
30.4332
20
2.192387
30
0
11
30.479764
21
2.165503
31
0
39
0
210
0
220
0
230
1
0
LINE
5
8D
100
AcDbEntity
8
1
62
256
6
ByLayer
370
18
48
1
60
0
100
AcDbLine
10
11.68858
20
-2.967123
30
0
11
11.489371
21
-2.861841
31
0
39
0
210
0
220
0
230
1
0
LINE
5
8E
100
AcDbEntity
8
1
62
256
6
ByLayer
370
18
48
1
60
0
100
AcDbLine
10
11.418802
20
-2.81621
30
0
11
13.10138
21
-3.609745
31
0
39
0
210
0
220
0
230
1
0
LINE
5
8F
100
AcDbEntity
8
1
62
256
6
ByLayer
370
18
48
1
60
0
100
AcDbLine
10
8.372932
20
0.310946
30
0
11
7.9697
21
0.524056
31
0
39
0
210
0
220
0
230
1
0
LINE
5
90
100
AcDbEntity
8
1
62
256
6
ByLayer
370
18
48
1
60
0
100
AcDbLine
10
17.08133
20
3.665145
30
0
11
15.243738
21
4.53227
31
0
39
0
210
0
220
0
230
1
0
LINE
5
91
100
AcDbEntity
8
1
62
256
6
ByLayer
370
18
48
1
60
0
100
AcDbLine
10
13.526172
20
-3.834249
30
0
11
13.10138
21
-3.609745
31
0
39
0
210
0
220
0
230
1
0
LINE
5
92
100
AcDbEntity
8
1
62
256
6
ByLayer
370
18
48
1
60
0
100
AcDbLine
10
7.446291
20
8.388904
30
0
11
3.848299
21
0.799156
31
0
39
0
210
0
220
0
230
1
0
LINE
5
93
100
AcDbEntity
8
1
62
256
6
ByLayer
370
18
48
1
60
0
100
AcDbLine
10
12.299927
20
-6.553337
30
0
11
7.437118
21
-4.258668
31
0
39
0
210
0
220
0
230
1
0
LINE
5
94
100
AcDbEntity
8
1
62
256
6
ByLayer
370
18
48
1
60
0
100
AcDbLine
10
28.80786
20
-4.536458
30
0
11
28.720987
21
-4.326658
31
0
39
0
210
0
220
0
230
1
0
LINE
5
95
100
AcDbEntity
8
1
62
256
6
ByLayer
370
18
48
1
60
0
100
AcDbLine
10
28.536202
20
-3.880399
30
0
11
28.127202
21
-2.892657
31
0
39
0
210
0
220
0
230
1
0
LINE
5
96
100
AcDbEntity
8
1
62
256
6
ByLayer
370
18
48
1
60
0
100
AcDbLine
10
27.385488
20
-7.536868
30
0
11
27.167403
21
-7.60385
31
0
39
0
210
0
220
0
230
1
0
LINE
5
97
100
AcDbEntity
8
1
62
256
6
ByLayer
370
18
48
1
60
0
100
AcDbLine
10
7.9697
20
0.524056
30
0
11
6.608433
21
1.166055
31
0
39
0
210
0
220
0
230
1
0
LINE
5
98
100
AcDbEntity
8
1
62
256
6
ByLayer
370
18
48
1
60
0
100
AcDbLine
10
13.599539
20
8.752679
30
0
11
13.603281
21
8.748486
31
0
39
0
210
0
220
0
230
1
0
LINE
5
99
100
AcDbEntity
8
1
62
256
6
ByLayer
370
18
48
1
60
0
100
AcDbLine
10
26.503226
20
-5.33723
30
0
11
28.868076
21
-6.410638
31
0
39
0
210
0
220
0
230
1
0
LINE
5
9A
100
AcDbEntity
8
1
62
256
6
ByLayer
370
18
48
1
60
0
100
AcDbLine
10
26.703523
20
-7.746326
30
0
11
25.676779
21
-8.061679
31
0
39
0
210
0
220
0
230
1
0
LINE
5
9B
100
AcDbEntity
8
1
62
256
6
ByLayer
370
18
48
1
60
0
100
AcDbLine
10
11.68858
20
-2.967123
30
0
11
13.526172
21
-3.834249
31
0
39
0
210
0
220
0
230
1
0
LINE
5
9C
100
AcDbEntity
8
1
62
256
6
ByLayer
370
18
48
1
60
0
100
AcDbLine
10
13.599539
20
8.752679
30
0
11
11.861069
21
9.601285
31
0
39
0
210
0
220
0
230
1
0
LINE
5
9D
100
AcDbEntity
8
1
62
256
6
ByLayer
370
18
48
1
60
0
100
AcDbLine
10
5.409927
20
-0.026169
30
0
11
3.848299
21
0.799156
31
0
39
0
210
0
220
0
230
1
0
LINE
5
9E
100
AcDbEntity
8
1
62
256
6
ByLayer
370
18
48
1
60
0
100
AcDbLine
10
6.608433
20
1.166055
30
0
11
8.835761
21
5.86447
31
0
39
0
210
0
220
0
230
1
0
LINE
5
9F
100
AcDbEntity
8
1
62
256
6
ByLayer
370
18
48
1
60
0
100
AcDbLine
10
9.007918
20
7.563579
30
0
11
7.446291
21
8.388904
31
0
39
0
210
0
220
0
230
1
0
LINE
5
A0
100
AcDbEntity
8
1
62
256
6
ByLayer
370
18
48
1
60
0
100
AcDbLine
10
5.409927
20
-0.026169
30
0
11
9.007918
21
7.563579
31
0
39
0
210
0
220
0
230
1
0
LINE
5
A1
100
AcDbEntity
8
1
62
256
6
ByLayer
370
18
48
1
60
0
100
AcDbLine
10
18.46609
20
6.453817
30
0
11
13.603281
21
8.748486
31
0
39
0
210
0
220
0
230
1
0
LINE
5
A2
100
AcDbEntity
8
1
62
256
6
ByLayer
370
18
48
1
60
0
100
AcDbLine
10
26.9238
20
-7.65173
30
0
11
26.703523
21
-7.746326
31
0
39
0
210
0
220
0
230
1
0
LINE
5
A3
100
AcDbEntity
8
1
62
256
6
ByLayer
370
18
48
1
60
0
100
AcDbLine
10
7.431554
20
-4.258318
30
0
11
6.143471
21
-3.650495
31
0
39
0
210
0
220
0
230
1
0
LINE
5
A4
100
AcDbEntity
8
1
62
256
6
ByLayer
370
18
48
1
60
0
100
AcDbLine
10
11.535267
20
8.4458
30
0
11
18.363934
21
5.223479
31
0
39
0
210
0
220
0
230
1
0
LINE
5
A5
100
AcDbEntity
8
1
62
256
6
ByLayer
370
18
48
1
60
0
100
AcDbLine
10
7.431554
20
-4.258318
30
0
11
7.437118
21
-4.258668
31
0
39
0
210
0
220
0
230
1
0
LINE
5
A6
100
AcDbEntity
8
1
62
256
6
ByLayer
370
18
48
1
60
0
100
AcDbLine
10
28.536202
20
-3.880399
30
0
11
28.60265
21
-4.110295
31
0
39
0
210
0
220
0
230
1
0
LINE
5
A7
100
AcDbEntity
8
1
62
256
6
ByLayer
370
18
48
1
60
0
100
AcDbLine
10
12.311456
20
9.360502
30
0
11
11.793224
21
9.634389
31
0
39
0
210
0
220
0
230
1
0
LINE
5
A8
100
AcDbEntity
8
1
62
256
6
ByLayer
370
18
48
1
60
0
100
AcDbLine
10
12.311456
20
9.360502
30
0
11
13.599539
21
8.752679
31
0
39
0
210
0
220
0
230
1
0
LINE
5
A9
100
AcDbEntity
8
1
62
256
6
ByLayer
370
18
48
1
60
0
100
AcDbLine
10
6.328849
20
-2.536828
30
0
11
13.157517
21
-5.75915
31
0
39
0
210
0
220
0
230
1
0
LINE
5
AA
100
AcDbEntity
8
1
62
256
6
ByLayer
370
18
48
1
60
0
100
AcDbLine
10
14.814748
20
-0.892374
30
0
11
15.018472
21
-1.009994
31
0
39
0
210
0
220
0
230
1
0
LINE
5
AB
100
AcDbEntity
8
1
62
256
6
ByLayer
370
18
48
1
60
0
100
AcDbLine
10
14.614232
20
1.716795
30
0
11
14.817955
21
1.599176
31
0
39
0
210
0
220
0
230
1
0
LINE
5
AC
100
AcDbEntity
8
1
62
256
6
ByLayer
370
18
48
1
60
0
100
AcDbLine
10
15.628024
20
0.823182
30
0
11
15.831747
21
0.705563
31
0
39
0
210
0
220
0
230
1
0
LINE
5
AD
100
AcDbEntity
8
1
62
256
6
ByLayer
370
18
48
1
60
0
100
AcDbLine
10
15.678616
20
0.164869
30
0
11
15.882339
21
0.047249
31
0
39
0
210
0
220
0
230
1
0
LINE
5
AE
100
AcDbEntity
8
1
62
256
6
ByLayer
370
18
48
1
60
0
100
AcDbLine
10
15.356902
20
-0.513767
30
0
11
15.560625
21
-0.631386
31
0
39
0
210
0
220
0
230
1
0
LINE
5
AF
100
AcDbEntity
8
1
62
256
6
ByLayer
370
18
48
1
60
0
100
AcDbLine
10
13.479243
20
-0.677397
30
0
11
13.682966
21
-0.795016
31
0
39
0
210
0
220
0
230
1
0
LINE
5
B0
100
AcDbEntity
8
1
62
256
6
ByLayer
370
18
48
1
60
0
100
AcDbLine
10
8.497694
20
12.328962
30
0
11
26.531801
21
6.55303
31
0
39
0
210
0
220
0
230
1
0
LINE
5
B1
100
AcDbEntity
8
1
62
256
6
ByLayer
370
18
48
1
60
0
100
AcDbLine
10
0
20
12.4375
30
0
11
2.035713
21
12.446383
31
0
39
0
210
0
220
0
230
1
0
LINE
5
B2
100
AcDbEntity
8
1
62
256
6
ByLayer
370
18
48
1
60
0
100
AcDbLine
10
21.859314
20
-12.51648
30
0
11
21.948192
21
-12.428087
31
0
39
0
210
0
220
0
230
1
0
LINE
5
B3
100
AcDbEntity
8
1
62
256
6
ByLayer
370
18
48
1
60
0
100
AcDbLine
10
1.398336
20
-8.116252
30
0
11
1.601136
21
-7.756877
31
0
39
0
210
0
220
0
230
1
0
LINE
5
B4
100
AcDbEntity
8
1
62
256
6
ByLayer
370
18
48
1
60
0
100
AcDbLine
10
29.978036
20
4.563345
30
0
11
13.65217
21
9.709963
31
0
39
0
210
0
220
0
230
1
0
LINE
5
B5
100
AcDbEntity
8
1
62
256
6
ByLayer
370
18
48
1
60
0
100
AcDbLine
10
2.035713
20
12.446383
30
0
11
0.728396
21
-7.408357
31
0
39
0
210
0
220
0
230
1
0
LINE
5
B6
100
AcDbEntity
8
1
62
256
6
ByLayer
370
18
48
1
60
0
100
AcDbLine
10
3.941851
20
-13.017027
30
0
11
0.579527
21
-13.017027
31
0
39
0
210
0
220
0
230
1
0
LINE
5
B7
100
AcDbEntity
8
1
62
256
6
ByLayer
370
18
48
1
60
0
100
AcDbLine
10
5.401283
20
12.444492
30
0
11
2.035713
21
12.446383
31
0
39
0
210
0
220
0
230
1
0
LINE
5
B8
100
AcDbEntity
8
1
62
256
6
ByLayer
370
18
48
1
60
0
100
AcDbLine
10
5.401283
20
12.444492
30
0
11
8.497694
21
12.328962
31
0
39
0
210
0
220
0
230
1
0
LINE
5
B9
100
AcDbEntity
8
1
62
256
6
ByLayer
370
18
48
1
60
0
100
AcDbLine
10
26.531801
20
6.55303
30
0
11
29.978036
21
4.563345
31
0
39
0
210
0
220
0
230
1
0
LINE
5
BA
100
AcDbEntity
8
1
62
256
6
ByLayer
370
18
48
1
60
0
100
AcDbLine
10
0.579527
20
-13.017027
30
0
11
0
21
-12.4375
31
0
39
0
210
0
220
0
230
1
0
LINE
5
BB
100
AcDbEntity
8
1
62
256
6
ByLayer
370
18
48
1
60
0
100
AcDbLine
10
19.991246
20
-13.017027
30
0
11
3.941851
21
-13.017027
31
0
39
0
210
0
220
0
230
1
0
LINE
5
BC
100
AcDbEntity
8
1
62
256
6
ByLayer
370
18
48
1
60
0
100
AcDbLine
10
5.401283
20
12.444492
30
0
11
9.523747
21
11.144913
31
0
39
0
210
0
220
0
230
1
0
LINE
5
BD
100
AcDbEntity
8
1
62
256
6
ByLayer
370
18
48
1
60
0
100
AcDbLine
10
21.859314
20
-12.51648
30
0
11
19.991246
21
-13.017027
31
0
39
0
210
0
220
0
230
1
0
LINE
5
BE
100
AcDbEntity
8
1
62
256
6
ByLayer
370
18
48
1
60
0
100
AcDbLine
10
4.113411
20
-10.411481
30
0
11
3.941851
21
-13.017027
31
0
39
0
210
0
220
0
230
1
0
LINE
5
BF
100
AcDbEntity
8
1
62
256
6
ByLayer
370
18
48
1
60
0
100
AcDbLine
10
29.978036
20
4.563345
30
0
11
30.552753
21
2.320747
31
0
39
0
210
0
220
0
230
1
0
LINE
5
C0
100
AcDbEntity
8
1
62
256
6
ByLayer
370
18
48
1
60
0
100
AcDbLine
10
21.948192
20
-12.428087
30
0
11
21.339065
21
-10.051218
31
0
39
0
210
0
220
0
230
1
0
LINE
5
C1
100
AcDbEntity
8
1
62
256
6
ByLayer
370
18
48
1
60
0
100
AcDbLine
10
0
20
-12.4375
30
0
11
0
21
12.4375
31
0
39
0
210
0
220
0
230
1
0
LINE
5
C2
100
AcDbEntity
8
1
62
256
6
ByLayer
370
18
48
1
60
0
100
AcDbLine
10
10.387528
20
10.845913
30
0
11
10.412993
21
10.831211
31
0
39
0
210
0
220
0
230
1
0
LINE
5
C3
100
AcDbEntity
8
1
62
256
6
ByLayer
370
18
48
1
60
0
100
AcDbLine
10
1.601136
20
-7.756877
30
0
11
4.113411
21
-10.411481
31
0
39
0
210
0
220
0
230
1
0
LINE
5
C4
100
AcDbEntity
8
1
62
256
6
ByLayer
370
18
48
1
60
0
100
AcDbLine
10
10.412993
20
10.831211
30
0
11
13.65217
21
9.709963
31
0
39
0
210
0
220
0
230
1
0
LINE
5
C5
100
AcDbEntity
8
SK1
62
256
6
ByLayer
370
18
48
1
60
0
100
AcDbLine
10
0
20
-12.4375
30
0
11
0
21
12.4375
31
0
39
0
210
0
220
0
230
1
0
LINE
5
C7
100
AcDbEntity
8
SK1
62
256
6
ByLayer
370
18
48
1
60
0
100
AcDbLine
10
0
20
-12.4375
30
0
11
-117.142817
21
-12.4375
31
0
39
0
210
0
220
0
230
1
0
LINE
5
C8
100
AcDbEntity
8
SK1
62
256
6
ByLayer
370
18
48
1
60
0
100
AcDbLine
10
-117.142817
20
12.4375
30
0
11
0
21
12.4375
31
0
39
0
210
0
220
0
230
1
0
LINE
5
C9
100
AcDbEntity
8
SK1
62
256
6
ByLayer
370
18
48
1
60
0
100
AcDbLine
10
-117.142817
20
-12.4375
30
0
11
-117.142817
21
12.4375
31
0
39
0
210
0
220
0
230
1
0
LINE
5
CA
100
AcDbEntity
8
1
62
256
6
ByLayer
370
18
48
1
60
0
100
AcDbLine
10
31.438562
20
1.604857
30
0
11
34.182336
21
-9.101603
31
0
39
0
210
0
220
0
230
1
0
LINE
5
CB
100
AcDbEntity
8
1
62
256
6
ByLayer
370
18
48
1
60
0
100
AcDbLine
10
33.615646
20
-10.071002
30
0
11
22.941077
21
-12.931244
31
0
39
0
210
0
220
0
230
1
0
MTEXT
5
136
100
AcDbEntity
8
SK6
62
256
6
ByLayer
370
18
48
1
60
0
100
AcDbMText
10
-55.592817
20
21.277178
30
0
210
0
220
0
230
1
1
\W0.7591;DSBNL 2525M 12
40
3.5
41
0
44
1.084337
50
0
71
7
72
5
7
iso_b_vert
0
DIMENSION
5
156
100
AcDbEntity
8
2
62
256
6
ByLayer
370
13
48
1
60
0
100
AcDbDimension
2
DimnDraft3D2
10
34.207183
20
-8.325
30
0
11
23.876159
21
-23.376153
31
0
70
34
71
5
72
1
41
1
210
0
220
0
230
1
3
Standard
100
AcDb2LineAngularDimension
13
34.207183
23
-9.9125
33
0
14
31.212813
24
-10.714839
34
0
15
34.207183
25
-9.9125
35
0
16
21.136733
26
-26.946243
36
0
40
0
0
DIMENSION
5
16B
100
AcDbEntity
8
2
62
256
6
ByLayer
370
13
48
1
60
0
100
AcDbDimension
2
DimnDraft3D3
10
34.207183
20
-38.1625
30
0
11
11.585171
21
-38.1625
31
0
70
32
71
5
72
1
41
1
210
0
220
0
230
1
3
Standard
100
AcDbAlignedDimension
13
0
23
-14.4375
33
0
14
34.207183
24
-11.9125
34
0
50
0
100
AcDbRotatedDimension
1001
ACAD
1000
DSTYLE
1002
{
1070
   279
1070
     0
1070
   172
1070
     1
1070
   173
1070
     1
1070
   340
1005
137
1070
    77
1070
     1
1070
    73
1070
     0
1070
   171
1070
     3
1070
   274
1070
     4
1070
   177
1070
     2
1070
   176
1070
     2
1070
   178
1070
     7
1070
    78
1070
     8
1070
    41
1041
3.175
1070
   147
1041
2.25
1070
    42
1041
2.0
1070
    44
1041
2.0
1070
   140
1041
4.5
1070
   343
1005
157
1070
   344
1005
157
1002
}
0
DIMENSION
5
179
100
AcDbEntity
8
2
62
256
6
ByLayer
370
13
48
1
60
0
100
AcDbDimension
2
DimnDraft3D4
10
56.457183
20
-9.9125
30
0
11
56.457183
21
-4.019079
31
0
70
32
71
5
72
1
41
1
210
0
220
0
230
1
3
Standard
100
AcDbAlignedDimension
13
2
23
12.4375
33
0
14
36.207183
24
-9.9125
34
0
50
90
100
AcDbRotatedDimension
1001
ACAD
1000
DSTYLE
1002
{
1070
    74
1070
     0
1070
   279
1070
     0
1070
   172
1070
     1
1070
   173
1070
     1
1070
   340
1005
137
1070
    77
1070
     1
1070
    73
1070
     0
1070
   171
1070
     3
1070
   274
1070
     4
1070
   177
1070
     2
1070
   176
1070
     2
1070
   178
1070
     7
1070
    78
1070
     8
1070
    41
1041
3.175
1070
   147
1041
2.25
1070
    42
1041
2.0
1070
    44
1041
2.0
1070
   140
1041
4.5
1070
   343
1005
157
1070
   344
1005
157
1002
}
0
DIMENSION
5
187
100
AcDbEntity
8
SK2
62
256
6
ByLayer
370
13
48
1
60
0
100
AcDbDimension
2
DimnDraft3D5
10
-124.892817
20
-12.4375
30
0
11
-124.892817
21
-5.281579
31
0
70
32
71
5
72
1
41
1
210
0
220
0
230
1
3
Standard
100
AcDbAlignedDimension
13
-119.142817
23
12.4375
33
0
14
-119.142817
24
-12.4375
34
0
50
90
100
AcDbRotatedDimension
1001
ACAD
1000
DSTYLE
1002
{
1070
    74
1070
     0
1070
   279
1070
     0
1070
   172
1070
     1
1070
   173
1070
     1
1070
   340
1005
137
1070
    77
1070
     1
1070
    73
1070
     0
1070
   171
1070
     3
1070
   274
1070
     4
1070
   177
1070
     2
1070
   176
1070
     2
1070
   178
1070
     7
1070
    78
1070
     8
1070
    41
1041
3.175
1070
   147
1041
2.25
1070
    42
1041
2.0
1070
    44
1041
2.0
1070
   140
1041
4.5
1070
   343
1005
157
1070
   344
1005
157
1002
}
0
ENDSEC
0
SECTION
2
OBJECTS
0
DICTIONARY
5
1f1
330
0
100
AcDbDictionary
280
0
281
1
3
ACAD_GROUP
350
1f2
3
ACAD_MLINESTYLE
350
1f3
0
DICTIONARY
5
1f2
330
0
100
AcDbDictionary
280
0
281
1
0
DICTIONARY
5
1f3
330
0
100
AcDbDictionary
280
0
281
1
3
Standard
350
18
0
MLINESTYLE
5
18
330
1f3
100
AcDbMlineStyle
2
Standard
70
0
3

62
256
51
90
52
90
71
2
49
-0.5
62
256
6
ByLayer
49
0.5
62
256
6
ByLayer
0
RASTERVARIABLES
5
1e0
330

100
AcDbRasterVariables
90
0
70
1
71
1
72
1
0
ENDSEC
0
EOF
