0
SECTION
2
HEADER
9
$ACADVER
1
AC1015
9
$DWGCODEPAGE
3
ANSI_1252
9
$HANDSEED
5
232
9
$ANGBASE
50
0
9
$ANGDIR
70
0
9
$ATTMODE
70
1
9
$AUNITS
70
0
9
$AUPREC
70
0
9
$CECOLOR
62
256
9
$CELTSCALE
40
1
9
$CELTYPE
6
ByLayer
9
$CELWEIGHT
370
18
9
$CLAYER
8
0
9
$CMLJUST
70
0
9
$CMLSCALE
40
1
9
$CMLSTYLE
2
Standard
9
$DIMSTYLE
2
Standard
9
$TEXTSIZE
40
0.2
9
$TEXTSTYLE
7
Standard
9
$LUNITS
70
2
9
$LUPREC
70
4
9
$EXTNAMES
290
1
9
$INSUNITS
70
4
9
$LTSCALE
40
1
9
$LWDISPLAY
290
1
9
$PDMODE
70
0
9
$PDSIZE
40
0
9
$PLINEGEN
70
0
0
ENDSEC
0
SECTION
2
CLASSES
0
CLASS
1
RASTERVARIABLES
2
AcDbRasterVariables
3
ISM
90
0
280
0
281
0
0
ENDSEC
0
SECTION
2
TABLES
0
TABLE
2
VPORT
5
228
100
AcDbSymbolTable
0
VPORT
5
1
100
AcDbSymbolTableRecord
100
AcDbViewportTableRecord
2
*Active
70
0
10
0
20
0
11
1
21
1
12
-1
22
1
13
0
23
0
14
0.5
24
0.5
15
10
25
10
16
0
26
0
36
1
17
0
27
0
37
0
0
ENDTAB
0
TABLE
2
LTYPE
5
229
100
AcDbSymbolTable
0
LTYPE
5
14
100
AcDbSymbolTableRecord
100
AcDbLinetypeTableRecord
70
0
2
ByBlock
3

72
65
73
0
40
0
0
LTYPE
5
15
100
AcDbSymbolTableRecord
100
AcDbLinetypeTableRecord
70
0
2
ByLayer
3

72
65
73
0
40
0
0
LTYPE
5
16
100
AcDbSymbolTableRecord
100
AcDbLinetypeTableRecord
70
0
2
CONTINUOUS
3
Solid line
72
65
73
0
40
0
0
LTYPE
5
6A
100
AcDbSymbolTableRecord
100
AcDbLinetypeTableRecord
70
0
2
CENTER
3
____ _ ____ _ ____ _ ____
72
65
73
4
40
47.5
49
22
74
0
49
-8.5
74
0
49
8.5
74
0
49
-8.5
74
0
0
LTYPE
5
6B
100
AcDbSymbolTableRecord
100
AcDbLinetypeTableRecord
70
0
2
DASHED
3
__ __ __ __ __ __ __ __ __
72
65
73
2
40
25.72
49
12.86
74
0
49
-12.86
74
0
0
ENDTAB
0
TABLE
2
LAYER
5
22a
100
AcDbSymbolTable
0
LAYER
5
10
100
AcDbSymbolTableRecord
100
AcDbLayerTableRecord
2
0
70
0
62
7
6
CONTINUOUS
290
1
370
-3
390
0
0
LAYER
5
6D
100
AcDbSymbolTableRecord
100
AcDbLayerTableRecord
2
2
70
0
62
7
6
CONTINUOUS
290
1
370
-3
390
0
0
LAYER
5
6F
100
AcDbSymbolTableRecord
100
AcDbLayerTableRecord
2
80
70
0
62
-6
6
CONTINUOUS
290
1
370
-3
390
0
0
LAYER
5
71
100
AcDbSymbolTableRecord
100
AcDbLayerTableRecord
2
81
70
0
62
-3
6
CONTINUOUS
290
1
370
-3
390
0
0
LAYER
5
73
100
AcDbSymbolTableRecord
100
AcDbLayerTableRecord
2
1
70
0
62
4
6
CONTINUOUS
290
1
370
-3
390
0
0
LAYER
5
215
100
AcDbSymbolTableRecord
100
AcDbLayerTableRecord
2
SK1
70
0
62
4
6
CONTINUOUS
290
1
370
-3
390
0
0
LAYER
5
216
100
AcDbSymbolTableRecord
100
AcDbLayerTableRecord
2
SK6
70
0
62
5
6
CONTINUOUS
290
1
370
-3
390
0
0
LAYER
5
217
100
AcDbSymbolTableRecord
100
AcDbLayerTableRecord
2
SK2
70
0
62
7
6
CONTINUOUS
290
1
370
-3
390
0
0
ENDTAB
0
TABLE
2
STYLE
5
22b
100
AcDbSymbolTable
0
STYLE
5
11
100
AcDbSymbolTableRecord
100
AcDbTextStyleTableRecord
2
Standard
3
txt
70
0
71
0
40
0
41
1
42
0
50
0
0
STYLE
5
179
100
AcDbSymbolTableRecord
100
AcDbTextStyleTableRecord
2
iso_b_vert
3
simplex.shx
70
0
71
0
40
0
41
1
42
0
50
0
0
STYLE
5
17A
100
AcDbSymbolTableRecord
100
AcDbTextStyleTableRecord
2
DWGDirectTextStyle
3
simplex
70
0
71
0
40
0
41
1
42
0
50
0
0
ENDTAB
0
TABLE
2
DIMSTYLE
5
22c
100
AcDbSymbolTable
100
AcDbDimStyleTable
0
DIMSTYLE
105
27
100
AcDbSymbolTableRecord
100
AcDbDimStyleTableRecord
2
Standard
70
0
3
<>
41
0.18
42
0.0625
44
0.18
140
0.18
147
0.09
73
0
74
0
77
1
271
2
275
0
278
52
280
0
340
11
0
ENDTAB
0
TABLE
2
VIEW
5
22d
100
AcDbSymbolTable
0
ENDTAB
0
TABLE
2
UCS
5
22e
100
AcDbSymbolTable
0
ENDTAB
0
TABLE
2
APPID
5
22f
100
AcDbSymbolTable
0
APPID
5
12
100
AcDbSymbolTableRecord
100
AcDbRegAppTableRecord
2
ACAD
70
0
0
ENDTAB
0
TABLE
2
BLOCK_RECORD
5
230
100
AcDbSymbolTable
0
BLOCK_RECORD
5
1F
100
AcDbSymbolTableRecord
100
AcDbBlockTableRecord
2
*Model_Space
340
0
70
0
0
BLOCK_RECORD
5
1B
100
AcDbSymbolTableRecord
100
AcDbBlockTableRecord
2
*Paper_Space
340
0
70
0
0
BLOCK_RECORD
5
23
100
AcDbSymbolTableRecord
100
AcDbBlockTableRecord
2
*Paper_Space0
340
0
70
0
0
BLOCK_RECORD
5
17C
100
AcDbSymbolTableRecord
100
AcDbBlockTableRecord
2
DimnDraft3D11
340
0
70
0
0
BLOCK_RECORD
5
18B
100
AcDbSymbolTableRecord
100
AcDbBlockTableRecord
2
DimnDraft3D2
340
0
70
0
0
BLOCK_RECORD
5
199
100
AcDbSymbolTableRecord
100
AcDbBlockTableRecord
2
_CLOSED
340
0
70
0
0
BLOCK_RECORD
5
1A0
100
AcDbSymbolTableRecord
100
AcDbBlockTableRecord
2
DimnDraft3D3
340
0
70
0
0
BLOCK_RECORD
5
1AE
100
AcDbSymbolTableRecord
100
AcDbBlockTableRecord
2
DimnDraft3D4
340
0
70
0
0
ENDTAB
0
ENDSEC
0
SECTION
2
BLOCKS
0
BLOCK
5
20
100
AcDbEntity
8
0
100
AcDbBlockBegin
2
*Model_Space
70
0
10
0
20
0
30
0
3
*Model_Space
0
ENDBLK
5
21
100
AcDbEntity
8
0
100
AcDbBlockEnd
0
BLOCK
5
1C
100
AcDbEntity
8
0
100
AcDbBlockBegin
2
*Paper_Space
70
0
10
0
20
0
30
0
3
*Paper_Space
0
ENDBLK
5
1D
100
AcDbEntity
8
0
100
AcDbBlockEnd
0
BLOCK
5
24
100
AcDbEntity
8
0
100
AcDbBlockBegin
2
*Paper_Space0
70
0
10
0
20
0
30
0
3
*Paper_Space0
0
ENDBLK
5
25
100
AcDbEntity
8
0
100
AcDbBlockEnd
0
BLOCK
5
17D
100
AcDbEntity
8
0
100
AcDbBlockBegin
2
DimnDraft3D11
70
0
10
0
20
0
30
0
3
DimnDraft3D11
0
LINE
5
17F
100
AcDbEntity
8
SK2
62
256
6
ByLayer
370
25
48
1
60
0
100
AcDbLine
10
42.632075
20
-26.425
30
0
11
42.632075
21
-64.675
31
0
39
0
210
0
220
0
230
1
0
LINE
5
181
100
AcDbEntity
8
SK2
62
256
6
ByLayer
370
25
48
1
60
0
100
AcDbLine
10
-128.717925
20
-17.925
30
0
11
-128.717925
21
-64.675
31
0
39
0
210
0
220
0
230
1
0
LINE
5
182
100
AcDbEntity
8
SK2
62
256
6
ByLayer
370
25
48
1
60
0
100
AcDbLine
10
42.632075
20
-62.675
30
0
11
-128.717925
21
-62.675
31
0
39
0
210
0
220
0
230
1
0
LINE
5
183
100
AcDbEntity
8
SK2
62
256
6
ByLayer
370
25
48
1
60
0
100
AcDbLine
10
42.632075
20
-62.675
30
0
11
39.457076
21
-63.092997
31
0
39
0
210
0
220
0
230
1
0
LINE
5
184
100
AcDbEntity
8
SK2
62
256
6
ByLayer
370
25
48
1
60
0
100
AcDbLine
10
42.632075
20
-62.675
30
0
11
39.457073
21
-62.257003
31
0
39
0
210
0
220
0
230
1
0
LINE
5
185
100
AcDbEntity
8
SK2
62
256
6
ByLayer
370
25
48
1
60
0
100
AcDbLine
10
39.457076
20
-63.092997
30
0
11
39.457073
21
-62.257003
31
0
39
0
210
0
220
0
230
1
0
LINE
5
186
100
AcDbEntity
8
SK2
62
256
6
ByLayer
370
25
48
1
60
0
100
AcDbLine
10
-128.717925
20
-62.675
30
0
11
-125.542927
21
-62.257003
31
0
39
0
210
0
220
0
230
1
0
LINE
5
187
100
AcDbEntity
8
SK2
62
256
6
ByLayer
370
25
48
1
60
0
100
AcDbLine
10
-128.717925
20
-62.675
30
0
11
-125.542924
21
-63.092997
31
0
39
0
210
0
220
0
230
1
0
LINE
5
188
100
AcDbEntity
8
SK2
62
256
6
ByLayer
370
25
48
1
60
0
100
AcDbLine
10
-125.542927
20
-62.257003
30
0
11
-125.542924
21
-63.092997
31
0
39
0
210
0
220
0
230
1
0
MTEXT
5
189
100
AcDbEntity
8
SK2
62
256
6
ByLayer
370
18
48
1
60
0
100
AcDbMText
10
-48.318583
20
-61.55
30
0
210
0
220
0
230
1
1
\W0.6864;170.0
40
4.5
41
0
44
1.084337
50
0
71
7
72
5
7
iso_b_vert
0
ENDBLK
5
17E
100
AcDbEntity
8
0
100
AcDbBlockEnd
0
BLOCK
5
196
100
AcDbEntity
8
0
100
AcDbBlockBegin
2
DimnDraft3D2
70
0
10
0
20
0
30
0
3
DimnDraft3D2
0
MTEXT
5
18C
100
AcDbEntity
8
2
62
256
6
ByLayer
370
18
48
1
60
0
100
AcDbMText
10
16.922616
20
-51.55
30
0
210
0
220
0
230
1
1
\W0.7640;42.6
40
4.5
41
0
44
1.084337
50
0
71
7
72
5
7
iso_b_vert
0
LINE
5
18D
100
AcDbEntity
8
2
62
256
6
ByLayer
370
13
48
1
60
0
100
AcDbLine
10
0
20
-17.925
30
0
11
0
21
-54.675
31
0
39
0
210
0
220
0
230
1
0
LINE
5
18E
100
AcDbEntity
8
2
62
256
6
ByLayer
370
13
48
1
60
0
100
AcDbLine
10
42.632075
20
-26.425
30
0
11
42.632075
21
-54.675
31
0
39
0
210
0
220
0
230
1
0
LINE
5
18F
100
AcDbEntity
8
2
62
256
6
ByLayer
370
13
48
1
60
0
100
AcDbLine
10
0
20
-52.675
30
0
11
42.632075
21
-52.675
31
0
39
0
210
0
220
0
230
1
0
LINE
5
190
100
AcDbEntity
8
2
62
256
6
ByLayer
370
13
48
1
60
0
100
AcDbLine
10
0
20
-52.675
30
0
11
3.174998
21
-52.257003
31
0
39
0
210
0
220
0
230
1
0
LINE
5
191
100
AcDbEntity
8
2
62
256
6
ByLayer
370
13
48
1
60
0
100
AcDbLine
10
0
20
-52.675
30
0
11
3.175002
21
-53.092997
31
0
39
0
210
0
220
0
230
1
0
LINE
5
192
100
AcDbEntity
8
2
62
256
6
ByLayer
370
13
48
1
60
0
100
AcDbLine
10
3.174998
20
-52.257003
30
0
11
3.175002
21
-53.092997
31
0
39
0
210
0
220
0
230
1
0
LINE
5
193
100
AcDbEntity
8
2
62
256
6
ByLayer
370
13
48
1
60
0
100
AcDbLine
10
42.632075
20
-52.675
30
0
11
39.457076
21
-53.092997
31
0
39
0
210
0
220
0
230
1
0
LINE
5
194
100
AcDbEntity
8
2
62
256
6
ByLayer
370
13
48
1
60
0
100
AcDbLine
10
42.632075
20
-52.675
30
0
11
39.457073
21
-52.257003
31
0
39
0
210
0
220
0
230
1
0
LINE
5
195
100
AcDbEntity
8
2
62
256
6
ByLayer
370
13
48
1
60
0
100
AcDbLine
10
39.457076
20
-53.092997
30
0
11
39.457073
21
-52.257003
31
0
39
0
210
0
220
0
230
1
0
ENDBLK
5
197
100
AcDbEntity
8
0
100
AcDbBlockEnd
0
BLOCK
5
19A
100
AcDbEntity
8
0
100
AcDbBlockBegin
2
_CLOSED
70
0
10
0
20
0
30
0
3
_CLOSED
0
LINE
5
19C
100
AcDbEntity
8
0
62
256
6
ByLayer
370
-2
48
1
60
0
100
AcDbLine
10
-1
20
0.166667
30
0
11
0
21
0
31
0
39
0
210
0
220
0
230
1
0
LINE
5
19D
100
AcDbEntity
8
0
62
256
6
ByLayer
370
-2
48
1
60
0
100
AcDbLine
10
0
20
0
30
0
11
-1
21
-0.166667
31
0
39
0
210
0
220
0
230
1
0
LINE
5
19E
100
AcDbEntity
8
0
62
256
6
ByLayer
370
-2
48
1
60
0
100
AcDbLine
10
-1
20
0.166667
30
0
11
-1
21
-0.166667
31
0
39
0
210
0
220
0
230
1
0
LINE
5
19F
100
AcDbEntity
8
0
62
256
6
ByLayer
370
-2
48
1
60
0
100
AcDbLine
10
0
20
0
30
0
11
-1
21
0
31
0
39
0
210
0
220
0
230
1
0
ENDBLK
5
19B
100
AcDbEntity
8
0
100
AcDbBlockEnd
0
BLOCK
5
1AB
100
AcDbEntity
8
0
100
AcDbBlockBegin
2
DimnDraft3D3
70
0
10
0
20
0
30
0
3
DimnDraft3D3
0
MTEXT
5
1A1
100
AcDbEntity
8
2
62
256
6
ByLayer
370
18
48
1
60
0
100
AcDbMText
10
63.757075
20
-8.643421
30
0
210
0
220
0
230
1
1
\W0.7640;40.0
40
4.5
41
0
44
1.084337
50
90
71
7
72
5
7
iso_b_vert
0
LINE
5
1A2
100
AcDbEntity
8
2
62
256
6
ByLayer
370
13
48
1
60
0
100
AcDbLine
10
2
20
15.925
30
0
11
66.882075
21
15.925
31
0
39
0
210
0
220
0
230
1
0
LINE
5
1A3
100
AcDbEntity
8
2
62
256
6
ByLayer
370
13
48
1
60
0
100
AcDbLine
10
44.632075
20
-24.425
30
0
11
66.882075
21
-24.425
31
0
39
0
210
0
220
0
230
1
0
LINE
5
1A4
100
AcDbEntity
8
2
62
256
6
ByLayer
370
13
48
1
60
0
100
AcDbLine
10
64.882075
20
15.925
30
0
11
64.882075
21
-24.425
31
0
39
0
210
0
220
0
230
1
0
LINE
5
1A5
100
AcDbEntity
8
2
62
256
6
ByLayer
370
13
48
1
60
0
100
AcDbLine
10
64.882075
20
15.925
30
0
11
65.300072
21
12.750002
31
0
39
0
210
0
220
0
230
1
0
LINE
5
1A6
100
AcDbEntity
8
2
62
256
6
ByLayer
370
13
48
1
60
0
100
AcDbLine
10
64.882075
20
15.925
30
0
11
64.464078
21
12.749998
31
0
39
0
210
0
220
0
230
1
0
LINE
5
1A7
100
AcDbEntity
8
2
62
256
6
ByLayer
370
13
48
1
60
0
100
AcDbLine
10
65.300072
20
12.750002
30
0
11
64.464078
21
12.749998
31
0
39
0
210
0
220
0
230
1
0
LINE
5
1A8
100
AcDbEntity
8
2
62
256
6
ByLayer
370
13
48
1
60
0
100
AcDbLine
10
64.882075
20
-24.425
30
0
11
64.464078
21
-21.250002
31
0
39
0
210
0
220
0
230
1
0
LINE
5
1A9
100
AcDbEntity
8
2
62
256
6
ByLayer
370
13
48
1
60
0
100
AcDbLine
10
64.882075
20
-24.425
30
0
11
65.300072
21
-21.249998
31
0
39
0
210
0
220
0
230
1
0
LINE
5
1AA
100
AcDbEntity
8
2
62
256
6
ByLayer
370
13
48
1
60
0
100
AcDbLine
10
64.464078
20
-21.250002
30
0
11
65.300072
21
-21.249998
31
0
39
0
210
0
220
0
230
1
0
ENDBLK
5
1AC
100
AcDbEntity
8
0
100
AcDbBlockEnd
0
BLOCK
5
1B9
100
AcDbEntity
8
0
100
AcDbBlockBegin
2
DimnDraft3D4
70
0
10
0
20
0
30
0
3
DimnDraft3D4
0
MTEXT
5
1AF
100
AcDbEntity
8
SK2
62
256
6
ByLayer
370
18
48
1
60
0
100
AcDbMText
10
-137.592925
20
-4.156579
30
0
210
0
220
0
230
1
1
\W0.7346;32.0
40
4.5
41
0
44
1.084337
50
90
71
7
72
5
7
iso_b_vert
0
LINE
5
1B0
100
AcDbEntity
8
SK2
62
256
6
ByLayer
370
13
48
1
60
0
100
AcDbLine
10
-130.717925
20
15.925
30
0
11
-138.467925
21
15.925
31
0
39
0
210
0
220
0
230
1
0
LINE
5
1B1
100
AcDbEntity
8
SK2
62
256
6
ByLayer
370
13
48
1
60
0
100
AcDbLine
10
-130.717925
20
-15.925
30
0
11
-138.467925
21
-15.925
31
0
39
0
210
0
220
0
230
1
0
LINE
5
1B2
100
AcDbEntity
8
SK2
62
256
6
ByLayer
370
13
48
1
60
0
100
AcDbLine
10
-136.467925
20
15.925
30
0
11
-136.467925
21
-15.925
31
0
39
0
210
0
220
0
230
1
0
LINE
5
1B3
100
AcDbEntity
8
SK2
62
256
6
ByLayer
370
13
48
1
60
0
100
AcDbLine
10
-136.467925
20
15.925
30
0
11
-136.049928
21
12.750002
31
0
39
0
210
0
220
0
230
1
0
LINE
5
1B4
100
AcDbEntity
8
SK2
62
256
6
ByLayer
370
13
48
1
60
0
100
AcDbLine
10
-136.467925
20
15.925
30
0
11
-136.885922
21
12.749998
31
0
39
0
210
0
220
0
230
1
0
LINE
5
1B5
100
AcDbEntity
8
SK2
62
256
6
ByLayer
370
13
48
1
60
0
100
AcDbLine
10
-136.049928
20
12.750002
30
0
11
-136.885922
21
12.749998
31
0
39
0
210
0
220
0
230
1
0
LINE
5
1B6
100
AcDbEntity
8
SK2
62
256
6
ByLayer
370
13
48
1
60
0
100
AcDbLine
10
-136.467925
20
-15.925
30
0
11
-136.885922
21
-12.750002
31
0
39
0
210
0
220
0
230
1
0
LINE
5
1B7
100
AcDbEntity
8
SK2
62
256
6
ByLayer
370
13
48
1
60
0
100
AcDbLine
10
-136.467925
20
-15.925
30
0
11
-136.049928
21
-12.749998
31
0
39
0
210
0
220
0
230
1
0
LINE
5
1B8
100
AcDbEntity
8
SK2
62
256
6
ByLayer
370
13
48
1
60
0
100
AcDbLine
10
-136.885922
20
-12.750002
30
0
11
-136.049928
21
-12.749998
31
0
39
0
210
0
220
0
230
1
0
ENDBLK
5
1BA
100
AcDbEntity
8
0
100
AcDbBlockEnd
0
ENDSEC
0
SECTION
2
ENTITIES
0
ELLIPSE
5
DF
100
AcDbEntity
8
SK1
62
256
6
ByLayer
370
18
48
1
60
0
100
AcDbEllipse
10
-8.520127
20
-28.470939
30
0
11
-10.8814232902005
21
-18.4982085494268
31
0
210
0
220
0
230
1
40
0.037276
41
2.33784242153896
42
2.40446625885638
0
ELLIPSE
5
E0
100
AcDbEntity
8
1
62
256
6
ByLayer
370
18
48
1
60
0
100
AcDbEllipse
10
0.676613
20
-12.83666
30
0
11
-0.655988230756746
21
-2.21856681811086
31
0
210
0
220
0
230
1
40
0.254739
41
-0.0373097734101444
42
0.653555797755298
0
ELLIPSE
5
E1
100
AcDbEntity
8
1
62
256
6
ByLayer
370
18
48
1
60
0
100
AcDbEllipse
10
14.481835
20
10.631949
30
0
11
-0.690550018133906
21
0.403911615646151
31
0
210
0
220
0
230
1
40
0.037632
41
-2.9988815020153
42
-1.42808517521764
0
ELLIPSE
5
E2
100
AcDbEntity
8
1
62
256
6
ByLayer
370
18
48
1
60
0
100
AcDbEllipse
10
18.996512
20
-6.075484
30
0
11
0.353553390593276
21
0.353553390593272
31
0
210
0
220
0
230
1
40
0.989133
41
1.45774581806161
42
1.97170747008828
0
ELLIPSE
5
E3
100
AcDbEntity
8
1
62
256
6
ByLayer
370
18
48
1
60
0
100
AcDbEllipse
10
15.633485
20
-6.598352
30
0
11
-0.318198051533943
21
-0.31819805153395
31
0
210
0
220
0
230
1
40
0.989133
41
0.345365408186601
42
1.14932164288693
0
ELLIPSE
5
E4
100
AcDbEntity
8
1
62
256
6
ByLayer
370
18
48
1
60
0
100
AcDbEllipse
10
15.86269
20
-5.339494
30
0
11
-0.318198051533943
21
-0.31819805153395
31
0
210
0
220
0
230
1
40
0.989133
41
-2.73104438672479
42
0.102124091690267
0
ELLIPSE
5
E5
100
AcDbEntity
8
1
62
256
6
ByLayer
370
18
48
1
60
0
100
AcDbEllipse
10
16.859043
20
-5.805183
30
0
11
0.989949493661172
21
0.989949493661161
31
0
210
0
220
0
230
1
40
0.989133
41
-3.11244005792768
42
-0.140787695744284
0
ELLIPSE
5
E6
100
AcDbEntity
8
1
62
256
6
ByLayer
370
18
48
1
60
0
100
AcDbEllipse
10
17.124843
20
-6.070982
30
0
11
0.989949493661172
21
0.989949493661161
31
0
210
0
220
0
230
1
40
0.989133
41
1.21193257129912
42
1.39513488965
0
ELLIPSE
5
E7
100
AcDbEntity
8
1
62
256
6
ByLayer
370
18
48
1
60
0
100
AcDbEllipse
10
16.817459
20
-5.763598
30
0
11
3.53553390593276
21
3.53553390593272
31
0
210
0
220
0
230
1
40
0.989133
41
0.790861470998272
42
3.14158727523639
0
ELLIPSE
5
E8
100
AcDbEntity
8
1
62
256
6
ByLayer
370
18
48
1
60
0
100
AcDbEllipse
10
16.817459
20
-5.763598
30
0
11
3.53553390593276
21
3.53553390593272
31
0
210
0
220
0
230
1
40
0.989133
41
9.25661184164392E-05
42
0.790861269920622
0
ELLIPSE
5
E9
100
AcDbEntity
8
1
62
256
6
ByLayer
370
18
48
1
60
0
100
AcDbEllipse
10
17.124843
20
-6.070982
30
0
11
0.989949493661172
21
0.989949493661161
31
0
210
0
220
0
230
1
40
0.989133
41
0.164735020102513
42
0.347937338453162
0
ELLIPSE
5
EA
100
AcDbEntity
8
1
62
256
6
ByLayer
370
18
48
1
60
0
100
AcDbEllipse
10
16.916223
20
-5.862362
30
0
11
0.989949493661172
21
0.989949493661161
31
0
210
0
220
0
230
1
40
0.989133
41
2.75281704605763
42
-2.97685763348726
0
ELLIPSE
5
EB
100
AcDbEntity
8
1
62
256
6
ByLayer
370
18
48
1
60
0
100
AcDbEllipse
10
16.178092
20
-7.692595
30
0
11
0.353553390593276
21
0.353553390593272
31
0
210
0
220
0
230
1
40
0.989133
41
-0.636649284331601
42
-0.122687632304905
0
ELLIPSE
5
EC
100
AcDbEntity
8
1
62
256
6
ByLayer
370
18
48
1
60
0
100
AcDbEllipse
10
16.178092
20
-7.692595
30
0
11
0.353553390593276
21
0.353553390593272
31
0
210
0
220
0
230
1
40
0.989133
41
0.635359990860194
42
1.1493216428869
0
ELLIPSE
5
ED
100
AcDbEntity
8
1
62
256
6
ByLayer
370
18
48
1
60
0
100
AcDbEllipse
10
17.129345
20
-6.075484
30
0
11
-1.76776695296635
21
-1.76776695296639
31
0
210
0
220
0
230
1
40
0.989133
41
0
42
6.28318530717959
0
ELLIPSE
5
EE
100
AcDbEntity
8
1
62
256
6
ByLayer
370
18
48
1
60
0
100
AcDbEllipse
10
18.996512
20
-6.075484
30
0
11
0.353553390593276
21
0.353553390593272
31
0
210
0
220
0
230
1
40
0.989133
41
2.72975509325338
42
-3.03946856189952
0
ELLIPSE
5
EF
100
AcDbEntity
8
1
62
256
6
ByLayer
370
18
48
1
60
0
100
AcDbEllipse
10
18.04526
20
-7.692595
30
0
11
0.353553390593276
21
0.353553390593272
31
0
210
0
220
0
230
1
40
0.989133
41
0.41054826686505
42
0.924509918891707
0
ELLIPSE
5
F0
100
AcDbEntity
8
1
62
256
6
ByLayer
370
18
48
1
60
0
100
AcDbEllipse
10
16.21343
20
-4.458373
30
0
11
0.353553390593276
21
0.353553390593272
31
0
210
0
220
0
230
1
40
0.989133
41
-2.73104438672478
42
-2.21708273469817
0
ELLIPSE
5
F1
100
AcDbEntity
8
1
62
256
6
ByLayer
370
18
48
1
60
0
100
AcDbEllipse
10
15.846607
20
-6.811474
30
0
11
-0.318198051533943
21
-0.31819805153395
31
0
210
0
220
0
230
1
40
0.989133
41
-1.68384683552813
42
1.14932164288682
0
ELLIPSE
5
F2
100
AcDbEntity
8
1
62
256
6
ByLayer
370
18
48
1
60
0
100
AcDbEllipse
10
16.900139
20
-7.334342
30
0
11
-0.318198051533943
21
-0.31819805153395
31
0
210
0
220
0
230
1
40
0.989133
41
0.345396954052714
42
2.19651919408335
0
ELLIPSE
5
F3
100
AcDbEntity
8
1
62
256
6
ByLayer
370
18
48
1
60
0
100
AcDbEllipse
10
15.262177
20
-6.075484
30
0
11
0.353553390593276
21
0.353553390593272
31
0
210
0
220
0
230
1
40
0.989133
41
-1.6838468355282
42
-1.1698851835015
0
ELLIPSE
5
F4
100
AcDbEntity
8
1
62
256
6
ByLayer
370
18
48
1
60
0
100
AcDbEllipse
10
16.916223
20
-5.862362
30
0
11
0.989949493661172
21
0.989949493661161
31
0
210
0
220
0
230
1
40
0.989133
41
0.347937338452744
42
0.936155972858294
0
ELLIPSE
5
F5
100
AcDbEntity
8
1
62
256
6
ByLayer
370
18
48
1
60
0
100
AcDbEllipse
10
17.129345
20
-6.075484
30
0
11
1.00762716319084
21
1.00762716319082
31
0
210
0
220
0
230
1
40
0.989133
41
-3.01545337856999
42
-2.75505957005438
0
ELLIPSE
5
F6
100
AcDbEntity
8
1
62
256
6
ByLayer
370
18
48
1
60
0
100
AcDbEllipse
10
18.412083
20
-5.339494
30
0
11
-0.318198051533943
21
-0.31819805153395
31
0
210
0
220
0
230
1
40
0.989133
41
1.45774581806152
42
-1.99227101070287
0
ELLIPSE
5
F7
100
AcDbEntity
8
1
62
256
6
ByLayer
370
18
48
1
60
0
100
AcDbEllipse
10
17.832138
20
-7.479473
30
0
11
0.353553390593276
21
0.353553390593272
31
0
210
0
220
0
230
1
40
0.989133
41
0.410548266865065
42
1.04452268141656
0
ELLIPSE
5
F8
100
AcDbEntity
8
1
62
256
6
ByLayer
370
18
48
1
60
0
100
AcDbEllipse
10
18.080597
20
-4.458373
30
0
11
0.353553390593276
21
0.353553390593272
31
0
210
0
220
0
230
1
40
0.989133
41
-2.50623266272958
42
-1.9922710107029
0
ELLIPSE
5
F9
100
AcDbEntity
8
1
62
256
6
ByLayer
370
18
48
1
60
0
100
AcDbEllipse
10
18.78339
20
-5.862362
30
0
11
0.353553390593276
21
0.353553390593272
31
0
210
0
220
0
230
1
40
0.989133
41
2.60974233072863
42
3.14158663920276
0
ELLIPSE
5
FA
100
AcDbEntity
8
1
62
256
6
ByLayer
370
18
48
1
60
0
100
AcDbEllipse
10
16.916223
20
-5.862362
30
0
11
0.989949493661172
21
0.989949493661161
31
0
210
0
220
0
230
1
40
0.989133
41
1.58328302166284
42
2.20116089918987
0
ELLIPSE
5
FB
100
AcDbEntity
8
1
62
256
6
ByLayer
370
18
48
1
60
0
100
AcDbEllipse
10
18.78339
20
-5.862362
30
0
11
0.353553390593276
21
0.353553390593272
31
0
210
0
220
0
230
1
40
0.989133
41
1.45774581806161
42
2.09172023261302
0
ELLIPSE
5
FC
100
AcDbEntity
8
1
62
256
6
ByLayer
370
18
48
1
60
0
100
AcDbEllipse
10
17.129345
20
-6.075484
30
0
11
1.00762716319084
21
1.00762716319082
31
0
210
0
220
0
230
1
40
0.989133
41
1.17333682621641
42
1.43373063473204
0
ELLIPSE
5
FD
100
AcDbEntity
8
1
62
256
6
ByLayer
370
18
48
1
60
0
100
AcDbEllipse
10
17.113262
20
-7.547464
30
0
11
-0.318198051533943
21
-0.31819805153395
31
0
210
0
220
0
230
1
40
0.989133
41
-0.636649284331664
42
2.19651919408339
0
ELLIPSE
5
FE
100
AcDbEntity
8
1
62
256
6
ByLayer
370
18
48
1
60
0
100
AcDbEllipse
10
18.04526
20
-7.692595
30
0
11
0.353553390593276
21
0.353553390593272
31
0
210
0
220
0
230
1
40
0.989133
41
1.68255754205678
42
2.19651919408348
0
ELLIPSE
5
FF
100
AcDbEntity
8
1
62
256
6
ByLayer
370
18
48
1
60
0
100
AcDbEllipse
10
17.832138
20
-7.479473
30
0
11
0.353553390593276
21
0.353553390593272
31
0
210
0
220
0
230
1
40
0.989133
41
1.56254477953206
42
2.19651919408351
0
ELLIPSE
5
100
100
AcDbEntity
8
1
62
256
6
ByLayer
370
18
48
1
60
0
100
AcDbEllipse
10
17.124843
20
-6.070982
30
0
11
0.989949493661172
21
0.989949493661161
31
0
210
0
220
0
230
1
40
0.989133
41
-0.882462531094085
42
-0.699260212743853
0
ELLIPSE
5
101
100
AcDbEntity
8
1
62
256
6
ByLayer
370
18
48
1
60
0
100
AcDbEllipse
10
17.129345
20
-6.075484
30
0
11
1.00762716319084
21
1.00762716319082
31
0
210
0
220
0
230
1
40
0.989133
41
-1.96825582737334
42
-1.70786201885775
0
ELLIPSE
5
102
100
AcDbEntity
8
1
62
256
6
ByLayer
370
18
48
1
60
0
100
AcDbEllipse
10
17.145428
20
-4.603504
30
0
11
-0.318198051533943
21
-0.31819805153395
31
0
210
0
220
0
230
1
40
0.989133
41
2.50494336925816
42
-0.945073459506334
0
ELLIPSE
5
103
100
AcDbEntity
8
1
62
256
6
ByLayer
370
18
48
1
60
0
100
AcDbEllipse
10
16.932306
20
-4.390381
30
0
11
-0.318198051533943
21
-0.31819805153395
31
0
210
0
220
0
230
1
40
0.989133
41
2.50494336925819
42
2.79622749116851
0
ELLIPSE
5
104
100
AcDbEntity
8
1
62
256
6
ByLayer
370
18
48
1
60
0
100
AcDbEllipse
10
16.21343
20
-4.458373
30
0
11
0.353553390593276
21
0.353553390593272
31
0
210
0
220
0
230
1
40
0.989133
41
-1.45903511153304
42
-0.945073459506356
0
ELLIPSE
5
105
100
AcDbEntity
8
1
62
256
6
ByLayer
370
18
48
1
60
0
100
AcDbEllipse
10
17.124843
20
-6.070982
30
0
11
0.989949493661172
21
0.989949493661161
31
0
210
0
220
0
230
1
40
0.989133
41
-1.92966008229064
42
-1.74645776394046
0
ELLIPSE
5
106
100
AcDbEntity
8
1
62
256
6
ByLayer
370
18
48
1
60
0
100
AcDbEllipse
10
18.19896
20
-5.126372
30
0
11
-0.318198051533943
21
-0.31819805153395
31
0
210
0
220
0
230
1
40
0.989133
41
1.45774581806156
42
2.79624117087085
0
ELLIPSE
5
107
100
AcDbEntity
8
1
62
256
6
ByLayer
370
18
48
1
60
0
100
AcDbEllipse
10
18.395999
20
-6.811474
30
0
11
-0.318198051533943
21
-0.31819805153395
31
0
210
0
220
0
230
1
40
0.989133
41
0.410548266864997
42
-3.0394685618995
0
ELLIPSE
5
108
100
AcDbEntity
8
1
62
256
6
ByLayer
370
18
48
1
60
0
100
AcDbEllipse
10
15.262177
20
-6.075484
30
0
11
0.353553390593276
21
0.353553390593272
31
0
210
0
220
0
230
1
40
0.989133
41
-0.411837560336426
42
0.10212409169027
0
ELLIPSE
5
109
100
AcDbEntity
8
1
62
256
6
ByLayer
370
18
48
1
60
0
100
AcDbEllipse
10
17.129345
20
-6.075484
30
0
11
1.00762716319084
21
1.00762716319082
31
0
210
0
220
0
230
1
40
0.989133
41
-0.921058276176791
42
-0.660664467661154
0
ELLIPSE
5
10A
100
AcDbEntity
8
1
62
256
6
ByLayer
370
18
48
1
60
0
100
AcDbEllipse
10
16.988544
20
-5.934684
30
0
11
-3.53553390593269
21
-3.53553390593278
31
0
210
0
220
0
230
1
40
0.989133
41
0
42
6.28318530717959
0
ELLIPSE
5
10B
100
AcDbEntity
8
1
62
256
6
ByLayer
370
18
48
1
60
0
100
AcDbEllipse
10
16.916223
20
-5.862362
30
0
11
0.989949493661172
21
0.989949493661161
31
0
210
0
220
0
230
1
40
0.989133
41
-1.74645776394044
42
-0.882462531094085
0
ELLIPSE
5
10C
100
AcDbEntity
8
1
62
256
6
ByLayer
370
18
48
1
60
0
100
AcDbEllipse
10
17.124843
20
-6.070982
30
0
11
0.989949493661172
21
0.989949493661161
31
0
210
0
220
0
230
1
40
0.989133
41
-2.97685763348768
42
-2.79365531513661
0
ELLIPSE
5
10D
100
AcDbEntity
8
1
62
256
6
ByLayer
370
18
48
1
60
0
100
AcDbEllipse
10
17.867475
20
-4.245251
30
0
11
0.353553390593276
21
0.353553390593272
31
0
210
0
220
0
230
1
40
0.989133
41
2.50494336925825
42
3.13891778380966
0
ELLIPSE
5
10E
100
AcDbEntity
8
1
62
256
6
ByLayer
370
18
48
1
60
0
100
AcDbEllipse
10
15.96497
20
-7.479473
30
0
11
0.353553390593276
21
0.353553390593272
31
0
210
0
220
0
230
1
40
0.989133
41
0.515347228335384
42
1.14932164288679
0
ELLIPSE
5
10F
100
AcDbEntity
8
1
62
256
6
ByLayer
370
18
48
1
60
0
100
AcDbEllipse
10
17.129345
20
-6.075484
30
0
11
1.00762716319084
21
1.00762716319082
31
0
210
0
220
0
230
1
40
0.989133
41
0.12613927501981
42
0.386533083535446
0
ELLIPSE
5
110
100
AcDbEntity
8
1
62
256
6
ByLayer
370
18
48
1
60
0
100
AcDbEllipse
10
16.916223
20
-5.862362
30
0
11
0.989949493661172
21
0.989949493661161
31
0
210
0
220
0
230
1
40
0.989133
41
-2.79365531513702
42
-1.92966008229065
0
ELLIPSE
5
111
100
AcDbEntity
8
1
62
256
6
ByLayer
370
18
48
1
60
0
100
AcDbEllipse
10
18.182877
20
-6.598352
30
0
11
-0.318198051533943
21
-0.31819805153395
31
0
210
0
220
0
230
1
40
0.989133
41
0.410548266864967
42
2.99311319358128
0
ELLIPSE
5
112
100
AcDbEntity
8
1
62
256
6
ByLayer
370
18
48
1
60
0
100
AcDbEllipse
10
17.124843
20
-6.070982
30
0
11
0.989949493661172
21
0.989949493661161
31
0
210
0
220
0
230
1
40
0.989133
41
2.25913012249573
42
2.44233244084594
0
ELLIPSE
5
113
100
AcDbEntity
8
1
62
256
6
ByLayer
370
18
48
1
60
0
100
AcDbEllipse
10
16.916223
20
-5.862362
30
0
11
0.989949493661172
21
0.989949493661161
31
0
210
0
220
0
230
1
40
0.989133
41
-0.69926021274386
42
-0.0819494291464643
0
ELLIPSE
5
114
100
AcDbEntity
8
1
62
256
6
ByLayer
370
18
48
1
60
0
100
AcDbEllipse
10
17.129345
20
-6.075484
30
0
11
1.00762716319084
21
1.00762716319082
31
0
210
0
220
0
230
1
40
0.989133
41
2.22053437741302
42
2.48092818592864
0
ELLIPSE
5
115
100
AcDbEntity
8
1
62
256
6
ByLayer
370
18
48
1
60
0
100
AcDbEllipse
10
18.080597
20
-4.458373
30
0
11
0.353553390593276
21
0.353553390593272
31
0
210
0
220
0
230
1
40
0.989133
41
2.50494336925822
42
3.01890502128491
0
ELLIPSE
5
116
100
AcDbEntity
8
1
62
256
6
ByLayer
370
18
48
1
60
0
100
AcDbEllipse
10
32.438594
20
-14.256629
30
0
11
6.7351920908019
21
6.73519209080183
31
0
210
0
220
0
230
1
40
0.989133
41
2.99776108903194
42
-3.0805334585568
0
ELLIPSE
5
117
100
AcDbEntity
8
1
62
256
6
ByLayer
370
18
48
1
60
0
100
AcDbEllipse
10
32.438594
20
-14.256629
30
0
11
6.7351920908019
21
6.73519209080183
31
0
210
0
220
0
230
1
40
0.989133
41
0.252696266404399
42
0.552129277604251
0
ELLIPSE
5
118
100
AcDbEntity
8
1
62
256
6
ByLayer
370
18
48
1
60
0
100
AcDbEllipse
10
32.170364
20
-13.988399
30
0
11
2.83676039367366
21
2.83676039367362
31
0
210
0
220
0
230
1
40
0.989133
41
-0.769008547013674
42
-0.435803251460619
0
ELLIPSE
5
119
100
AcDbEntity
8
1
62
256
6
ByLayer
370
18
48
1
60
0
100
AcDbEllipse
10
32.170364
20
-13.988399
30
0
11
2.83676039367366
21
2.83676039367362
31
0
210
0
220
0
230
1
40
0.989133
41
-0.435803251460627
42
-0.252216500154804
0
ELLIPSE
5
11A
100
AcDbEntity
8
1
62
256
6
ByLayer
370
18
48
1
60
0
100
AcDbEllipse
10
31.82002
20
-13.638055
30
0
11
-6.73519209080178
21
-6.73519209080195
31
0
210
0
220
0
230
1
40
0.989133
41
-0.0294579841634313
42
-1.8854305373239E-16
0
ELLIPSE
5
11B
100
AcDbEntity
8
1
62
256
6
ByLayer
370
18
48
1
60
0
100
AcDbEllipse
10
31.82002
20
-13.638055
30
0
11
-6.73519209080178
21
-6.73519209080195
31
0
210
0
220
0
230
1
40
0.989133
41
-2.69235050841541
42
-0.769008618618929
0
ELLIPSE
5
11C
100
AcDbEntity
8
1
62
256
6
ByLayer
370
18
48
1
60
0
100
AcDbEllipse
10
31.82002
20
-13.638055
30
0
11
-6.73519209080178
21
-6.73519209080195
31
0
210
0
220
0
230
1
40
0.989133
41
3.14158708206101
42
-2.69235050841541
0
ELLIPSE
5
11D
100
AcDbEntity
8
1
62
256
6
ByLayer
370
18
48
1
60
0
100
AcDbEllipse
10
7.962945
20
-7.556792
30
0
11
2.06322724663059
21
2.17786439632066
31
0
210
0
220
0
230
1
40
0.9865
41
0.0892487394620236
42
0.22963994206444
0
ELLIPSE
5
11E
100
AcDbEntity
8
1
62
256
6
ByLayer
370
18
48
1
60
0
100
AcDbEllipse
10
33.644627
20
-15.387354
30
0
11
-0.934628481063988
21
-3.63057486087123
31
0
210
0
220
0
230
1
40
0.835939
41
1.41398821396131
42
1.70272987946489
0
ELLIPSE
5
11F
100
AcDbEntity
8
1
62
256
6
ByLayer
370
18
48
1
60
0
100
AcDbEllipse
10
15.008384
20
-1.073189
30
0
11
5.60255596685933
21
-3.29565875633521
31
0
210
0
220
0
230
1
40
0.037276
41
-2.32329098038954
42
-1.94176629755787
0
ELLIPSE
5
120
100
AcDbEntity
8
1
62
256
6
ByLayer
370
18
48
1
60
0
100
AcDbEllipse
10
17.719487
20
-6.285448
30
0
11
-3.54187344004918
21
-3.7386672136838
31
0
210
0
220
0
230
1
40
0.9865
41
0.229639942064442
42
-3.05268634065743
0
ELLIPSE
5
121
100
AcDbEntity
8
1
62
256
6
ByLayer
370
18
48
1
60
0
100
AcDbEllipse
10
7.94476
20
-6.253509
30
0
11
-0.0921613827532852
21
1.99787544144499
31
0
210
0
220
0
230
1
40
0.717372
41
1.1590165349455
42
2.48512897400582
0
ELLIPSE
5
122
100
AcDbEntity
8
1
62
256
6
ByLayer
370
18
48
1
60
0
100
AcDbEllipse
10
9.557977
20
-10.598852
30
0
11
-4.09426868948177
21
1.9057956274011
31
0
210
0
220
0
230
1
40
0.476384
41
-0.738943731996081
42
0.50083103584085
0
ELLIPSE
5
123
100
AcDbEntity
8
1
62
256
6
ByLayer
370
18
48
1
60
0
100
AcDbEllipse
10
15.271048
20
2.038787
30
0
11
-1.3776917673348
21
4.39587649308778
31
0
210
0
220
0
230
1
40
0.616723
41
-0.593373235815051
42
-0.414067032368319
0
ELLIPSE
5
124
100
AcDbEntity
8
1
62
256
6
ByLayer
370
18
48
1
60
0
100
AcDbEllipse
10
10.359693
20
-8.975873
30
0
11
-5.7905935906455
21
2.97384273999147
31
0
210
0
220
0
230
1
40
0.319754
41
-0.711401111935633
42
-0.642171044857818
0
ELLIPSE
5
125
100
AcDbEntity
8
1
62
256
6
ByLayer
370
18
48
1
60
0
100
AcDbEllipse
10
12.955608
20
2.264834
30
0
11
1.84148825348958
21
0.780333910745839
31
0
210
0
220
0
230
1
40
0.687028
41
0.742453391571818
42
2.06856583063215
0
ELLIPSE
5
126
100
AcDbEntity
8
1
62
256
6
ByLayer
370
18
48
1
60
0
100
AcDbEllipse
10
9.190983
20
-8.297205
30
0
11
-4.37617075815385
21
-0.268676657414073
31
0
210
0
220
0
230
1
40
0.589282
41
0.544893446069723
42
0.724199649610158
0
ELLIPSE
5
127
100
AcDbEntity
8
1
62
256
6
ByLayer
370
18
48
1
60
0
100
AcDbEllipse
10
33.644627
20
-15.387354
30
0
11
-3.1765485751684
21
-1.78216457384489
31
0
210
0
220
0
230
1
40
0.827434
41
1.72158061638548
42
2.01032228184616
0
ELLIPSE
5
128
100
AcDbEntity
8
1
62
256
6
ByLayer
370
18
48
1
60
0
100
AcDbEllipse
10
17.61141
20
3.091828
30
0
11
-3.62839204432587
21
2.69180104351913
31
0
210
0
220
0
230
1
40
0.549976
41
-0.487955214608045
42
0.751819553228181
0
ELLIPSE
5
129
100
AcDbEntity
8
1
62
256
6
ByLayer
370
18
48
1
60
0
100
AcDbEllipse
10
12.866635
20
3.93683
30
0
11
-3.17295004666391
21
-1.48676553288079
31
0
210
0
220
0
230
1
40
0.994282
41
-2.1576012953155
42
-0.96724515480504
0
ELLIPSE
5
12A
100
AcDbEntity
8
1
62
256
6
ByLayer
370
18
48
1
60
0
100
AcDbEllipse
10
11.968352
20
-6.241185
30
0
11
5.60255596685933
21
-3.29565875633521
31
0
210
0
220
0
230
1
40
0.037276
41
-2.32329098038954
42
-1.94176629755792
0
ELLIPSE
5
12B
100
AcDbEntity
8
1
62
256
6
ByLayer
370
18
48
1
60
0
100
AcDbEllipse
10
10.8375
20
8.906135
30
0
11
6.03352181046389
21
-3.54917096836099
31
0
210
0
220
0
230
1
40
0.037276
41
0.80602947665324
42
0.852017782695141
0
ELLIPSE
5
12C
100
AcDbEntity
8
1
62
256
6
ByLayer
370
18
48
1
60
0
100
AcDbEllipse
10
16.617043
20
1.6615
30
0
11
-5.40007908707101
21
3.63616905663383
31
0
210
0
220
0
230
1
40
0.394014
41
0.647851053358269
42
0.71708111669221
0
ELLIPSE
5
12D
100
AcDbEntity
8
1
62
256
6
ByLayer
370
18
48
1
60
0
100
AcDbEllipse
10
6.786571
20
-6.399162
30
0
11
-3.17295004660676
21
-1.48676553299564
31
0
210
0
220
0
230
1
40
0.994282
41
-0.967245154841912
42
0.223110985669123
0
ELLIPSE
5
12E
100
AcDbEntity
8
1
62
256
6
ByLayer
370
18
48
1
60
0
100
AcDbEllipse
10
33.158688
20
-14.951613
30
0
11
3.3964875791039
21
3.39648757910386
31
0
210
0
220
0
230
1
40
0.989133
41
-2.95879670123273
42
-3.73878500862667E-16
0
ELLIPSE
5
12F
100
AcDbEntity
8
1
62
256
6
ByLayer
370
18
48
1
60
0
100
AcDbEllipse
10
33.158688
20
-14.951613
30
0
11
3.3964875791039
21
3.39648757910386
31
0
210
0
220
0
230
1
40
0.989133
41
0
42
0.331432562873732
0
ELLIPSE
5
130
100
AcDbEntity
8
1
62
256
6
ByLayer
370
18
48
1
60
0
100
AcDbEllipse
10
33.120222
20
-14.913147
30
0
11
2.94333197668901
21
2.94333197668898
31
0
210
0
220
0
230
1
40
0.989133
41
-2.79739752399501
42
-4.31440861693939E-16
0
ELLIPSE
5
131
100
AcDbEntity
8
1
62
256
6
ByLayer
370
18
48
1
60
0
100
AcDbEllipse
10
33.120222
20
-14.913147
30
0
11
2.94333197668901
21
2.94333197668898
31
0
210
0
220
0
230
1
40
0.989133
41
0
42
0.177887049528244
0
ELLIPSE
5
132
100
AcDbEntity
8
1
62
256
6
ByLayer
370
18
48
1
60
0
100
AcDbEllipse
10
32.498529
20
-14.291454
30
0
11
-6.73519209080178
21
-6.73519209080195
31
0
210
0
220
0
230
1
40
0.989133
41
-0.160226777443564
42
-1.8854305373239E-16
0
ELLIPSE
5
133
100
AcDbEntity
8
1
62
256
6
ByLayer
370
18
48
1
60
0
100
AcDbEllipse
10
32.498529
20
-14.291454
30
0
11
-6.73519209080178
21
-6.73519209080195
31
0
210
0
220
0
230
1
40
0.989133
41
3.14158708206101
42
-2.57728965799822
0
ELLIPSE
5
134
100
AcDbEntity
8
1
62
256
6
ByLayer
370
18
48
1
60
0
100
AcDbEllipse
10
32.536995
20
-14.32992
30
0
11
2.8019106204517
21
2.80191062045167
31
0
210
0
220
0
230
1
40
0.989133
41
-0.53142551008483
42
-0.105347008928243
0
ELLIPSE
5
135
100
AcDbEntity
8
1
62
256
6
ByLayer
370
18
48
1
60
0
100
AcDbEllipse
10
33.120222
20
-14.913147
30
0
11
2.8019106204517
21
2.80191062045167
31
0
210
0
220
0
230
1
40
0.989133
41
-2.73407469703684
42
-1.35965116981781E-15
0
ELLIPSE
5
136
100
AcDbEntity
8
1
62
256
6
ByLayer
370
18
48
1
60
0
100
AcDbEllipse
10
33.120222
20
-14.913147
30
0
11
2.8019106204517
21
2.80191062045167
31
0
210
0
220
0
230
1
40
0.989133
41
0
42
0.115840720611296
0
ELLIPSE
5
137
100
AcDbEntity
8
1
62
256
6
ByLayer
370
18
48
1
60
0
100
AcDbEllipse
10
33.158688
20
-14.951613
30
0
11
6.7351920908019
21
6.73519209080183
31
0
210
0
220
0
230
1
40
0.989133
41
0.790861350140585
42
0.998137293511932
0
ELLIPSE
5
138
100
AcDbEntity
8
1
62
256
6
ByLayer
370
18
48
1
60
0
100
AcDbEllipse
10
33.158688
20
-14.951613
30
0
11
6.7351920908019
21
6.73519209080183
31
0
210
0
220
0
230
1
40
0.989133
41
2.66534126701482
42
-1.8854305373239E-16
0
ELLIPSE
5
139
100
AcDbEntity
8
1
62
256
6
ByLayer
370
18
48
1
60
0
100
AcDbEllipse
10
33.158688
20
-14.951613
30
0
11
6.7351920908019
21
6.73519209080183
31
0
210
0
220
0
230
1
40
0.989133
41
0
42
0.790861348473824
0
POINT
5
6C
100
AcDbEntity
8
2
62
256
6
ByLayer
370
18
48
1
60
0
100
AcDbPoint
10
42.632075
20
56.275
30
0
39
0
210
0
220
0
230
1
50
360
0
POINT
5
6E
100
AcDbEntity
8
80
62
256
6
ByLayer
370
18
48
1
60
0
100
AcDbPoint
10
0
20
0
30
0
39
0
210
0
220
0
230
1
50
360
0
POINT
5
70
100
AcDbEntity
8
81
62
256
6
ByLayer
370
18
48
1
60
0
100
AcDbPoint
10
42.632075
20
-24.425
30
0
39
0
210
0
220
0
230
1
50
360
0
SPLINE
5
13A
100
AcDbEntity
8
1
62
256
6
ByLayer
370
18
48
1
60
0
100
AcDbSpline
70
4
71
3
72
10
73
6
40
0
40
0
40
0
40
0
40
0.355593196477851
40
0.355593196477851
40
1
40
1
40
1
40
1
41
1
10
18.5325334090783
20
-6.25948832182254
30
0
41
1
10
18.5295377581663
20
-6.25268755013573
30
0
41
1
10
18.526635299764
20
-6.24572793864729
30
0
41
1
10
18.5188089108839
20
-6.2257481918665
30
0
41
1
10
18.5141228928639
20
-6.21231897294061
30
0
41
1
10
18.5099448399397
20
-6.19835068663889
30
0
0
SPLINE
5
13B
100
AcDbEntity
8
1
62
256
6
ByLayer
370
18
48
1
60
0
100
AcDbSpline
70
4
71
3
72
10
73
6
40
0
40
0
40
0
40
0
40
0.276054056492499
40
0.276054056492499
40
1
40
1
40
1
40
1
41
1
10
17.9159630454196
20
-7.20810821711615
30
0
41
1
10
17.9219843830676
20
-7.20694317471219
30
0
41
1
10
17.9279561243278
20
-7.20592011248556
30
0
41
1
10
17.9492945809284
20
-7.20269881576067
30
0
41
1
10
17.9643609007444
20
-7.20124922623722
30
0
41
1
10
17.9789952198139
20
-7.20049250776123
30
0
0
SPLINE
5
13C
100
AcDbEntity
8
1
62
256
6
ByLayer
370
18
48
1
60
0
100
AcDbSpline
70
4
71
3
72
10
73
6
40
0
40
0
40
0
40
0
40
0.201157530231697
40
0.201157530231697
40
1
40
1
40
1
40
1
41
1
10
16.6003907563674
20
-4.76647103394518
30
0
41
1
10
16.5976782885454
20
-4.76910905956797
30
0
41
1
10
16.5949105571473
20
-4.77175893802485
30
0
41
1
10
16.5809229004533
20
-4.78493447297089
30
0
41
1
10
16.5688199149893
20
-4.79566677683195
30
0
41
1
10
16.5557102564682
20
-4.80648789315941
30
0
0
SPLINE
5
13D
100
AcDbEntity
8
1
62
256
6
ByLayer
370
18
48
1
60
0
100
AcDbSpline
70
4
71
3
72
10
73
6
40
0
40
0
40
0
40
0
40
0.355593196477693
40
0.355593196477693
40
1
40
1
40
1
40
1
41
1
10
15.7261562100168
20
-5.89147958718769
30
0
41
1
10
15.7279717798412
20
-5.89710027778699
30
0
41
1
10
15.7297260215689
20
-5.90291167260079
30
0
41
1
10
15.734443284227
20
-5.91978229315959
30
0
41
1
10
15.7372519124106
20
-5.93133412224904
30
0
41
1
10
15.7397414014222
20
-5.94361384463815
30
0
0
SPLINE
5
13E
100
AcDbEntity
8
1
62
256
6
ByLayer
370
18
48
1
60
0
100
AcDbSpline
70
4
71
3
72
10
73
6
40
0
40
0
40
0
40
0
40
0.276054056491913
40
0.276054056491913
40
1
40
1
40
1
40
1
41
1
10
16.333723195942
20
-4.93385631416055
30
0
41
1
10
16.3284287926244
20
-4.93574829089494
30
0
41
1
10
16.3232188422399
20
-4.93753314399723
30
0
41
1
10
16.3047348846601
20
-4.94360893974292
30
0
41
1
10
16.2919353465322
20
-4.94732531095462
30
0
41
1
10
16.2796943992835
20
-4.95047540125131
30
0
0
SPLINE
5
13F
100
AcDbEntity
8
1
62
256
6
ByLayer
370
18
48
1
60
0
100
AcDbSpline
70
4
71
3
72
10
73
6
40
0
40
0
40
0
40
0
40
0.537616842494943
40
0.537616842494943
40
1
40
1
40
1
40
1
41
1
10
18.5127281455293
20
-5.94361384463809
30
0
41
1
10
18.516457496007
20
-5.93335696007267
30
0
41
1
10
18.5205313789947
20
-5.92360933855781
30
0
41
1
10
18.5285762542104
20
-5.90639091710113
30
0
41
1
10
18.5324906154597
20
-5.89877382897274
30
0
41
1
10
18.5365543459844
20
-5.89147958720181
30
0
0
SPLINE
5
140
100
AcDbEntity
8
1
62
256
6
ByLayer
370
18
48
1
60
0
100
AcDbSpline
70
4
71
3
72
10
73
6
40
0
40
0
40
0
40
0
40
0.230438518716627
40
0.230438518716627
40
1
40
1
40
1
40
1
41
1
10
17.7216082207902
20
-4.80648789315933
30
0
41
1
10
17.7184967255247
20
-4.80335788187949
30
0
41
1
10
17.7154951088274
20
-4.80023635550228
30
0
41
1
10
17.7029488228709
20
-4.7867674927856
30
0
41
1
10
17.6944435842637
20
-4.77652084163472
30
0
41
1
10
17.686903935712
20
-4.76647103394487
30
0
0
SPLINE
5
141
100
AcDbEntity
8
1
62
256
6
ByLayer
370
18
48
1
60
0
100
AcDbSpline
70
4
71
3
72
10
73
6
40
0
40
0
40
0
40
0
40
0.20115753023137
40
0.20115753023137
40
1
40
1
40
1
40
1
41
1
10
17.6582988627293
20
-7.38449687506656
30
0
41
1
10
17.6603429340143
20
-7.38119045290685
30
0
41
1
10
17.6624525948665
20
-7.37788250390403
30
0
41
1
10
17.6732397908268
20
-7.36150650822424
30
0
41
1
10
17.6829595441063
20
-7.34839097217872
30
0
41
1
10
17.6939759848938
20
-7.33547663811757
30
0
0
SPLINE
5
142
100
AcDbEntity
8
1
62
256
6
ByLayer
370
18
48
1
60
0
100
AcDbSpline
70
4
71
3
72
10
73
6
40
0
40
0
40
0
40
0
40
0.53761684249525
40
0.53761684249525
40
1
40
1
40
1
40
1
41
1
10
15.7369580958326
20
-6.19835068663889
30
0
41
1
10
15.7346391522504
20
-6.21001797809987
30
0
41
1
10
15.7321073680997
20
-6.22130769845171
30
0
41
1
10
15.727103683901
20
-6.24156731092546
30
0
41
1
10
15.7246675553915
20
-6.25066263179352
30
0
41
1
10
15.7221352731131
20
-6.25948832181069
30
0
0
SPLINE
5
143
100
AcDbEntity
8
1
62
256
6
ByLayer
370
18
48
1
60
0
100
AcDbSpline
70
4
71
3
72
10
73
6
40
0
40
0
40
0
40
0
40
0.769561481283288
40
0.769561481283288
40
1
40
1
40
1
40
1
41
1
10
16.2551102631949
20
-7.20049250775554
30
0
41
1
10
16.2680880510169
20
-7.20129758415794
30
0
41
1
10
16.2816859187006
20
-7.20288686464954
30
0
41
1
10
16.3001673875274
20
-7.20626603159917
30
0
41
1
10
16.3044923752796
20
-7.20713785284968
30
0
41
1
10
16.3088742656345
20
-7.20810821711652
30
0
0
SPLINE
5
144
100
AcDbEntity
8
1
62
256
6
ByLayer
370
18
48
1
60
0
100
AcDbSpline
70
4
71
3
72
10
73
6
40
0
40
0
40
0
40
0
40
0.230438518717001
40
0.230438518717001
40
1
40
1
40
1
40
1
41
1
10
16.5280780205715
20
-7.33547663811743
30
0
41
1
10
16.5317949797206
20
-7.33921211328101
30
0
41
1
10
16.5354262151365
20
-7.34296325837676
30
0
41
1
10
16.5507906404377
20
-7.3592502604381
30
0
41
1
10
16.5616997151157
20
-7.37190074765977
30
0
41
1
10
16.5717856833841
20
-7.3844968750663
30
0
0
SPLINE
5
145
100
AcDbEntity
8
1
62
256
6
ByLayer
370
18
48
1
60
0
100
AcDbSpline
70
4
71
3
72
10
73
6
40
0
40
0
40
0
40
0
40
0.769561481283414
40
0.769561481283414
40
1
40
1
40
1
40
1
41
1
10
18.0035793559012
20
-4.95047540125566
30
0
41
1
10
17.9880552483625
20
-4.94712400513657
30
0
41
1
10
17.9720535446079
20
-4.94313088857416
30
0
41
1
10
17.9507539364365
20
-4.93693358227983
30
0
41
1
10
17.9457993299658
20
-4.93543214231079
30
0
41
1
10
17.9408119757271
20
-4.93385631416027
30
0
0
SPLINE
5
146
100
AcDbEntity
8
1
62
256
6
ByLayer
370
18
48
1
60
0
100
AcDbSpline
70
4
71
3
72
12
73
8
40
0
40
0
40
0
40
0
40
0.470394739545292
40
0.470394739545292
40
0.888179192190579
40
0.888179192190579
40
1
40
1
40
1
40
1
41
1
10
13.4770251163424
20
-0.373084953619411
30
0
41
1
10
13.6445821139618
20
-0.435949544524078
30
0
41
1
10
13.824141678095
20
-0.48710015276373
30
0
41
1
10
14.1685687481875
20
-0.546615563613358
30
0
41
1
10
14.3364543838524
20
-0.55937442938037
30
0
41
1
10
14.5400925774094
20
-0.552330380694457
30
0
41
1
10
14.5831729281734
20
-0.549523874865486
30
0
41
1
10
14.6255648908046
20
-0.545442678471261
30
0
0
SPLINE
5
147
100
AcDbEntity
8
1
62
256
6
ByLayer
370
18
48
1
60
0
100
AcDbSpline
70
4
71
2
72
9
73
6
40
0
40
0
40
0
40
0.215578737060683
40
0.50117395656965
40
0.786769176078618
40
1
40
1
40
1
41
1.01987110935361
10
23.0844546597048
20
-8.14178156117504
30
0
41
1.01898440041077
10
24.0118640948053
20
-8.75978322898788
30
0
41
1.01588036664668
10
27.1319315208011
20
-10.8625400731553
30
0
41
1.01357557431911
10
29.1241207035059
20
-12.1842705094744
30
0
41
1.01293324595055
10
30.819417520004
20
-13.320840251448
30
0
41
1.0117874761266
10
31.5780702724313
20
-13.7646595023836
30
0
0
SPLINE
5
148
100
AcDbEntity
8
1
62
256
6
ByLayer
370
18
48
1
60
0
100
AcDbSpline
70
4
71
3
72
10
73
6
40
0
40
0
40
0
40
0
40
0.49511456754114
40
0.49511456754114
40
1
40
1
40
1
40
1
41
1
10
31.092663327624
20
-5.59938023981076
30
0
41
1
10
31.3340289656074
20
-5.90962367294534
30
0
41
1
10
31.5980059484164
20
-6.20059271010754
30
0
41
1
10
32.1518596801794
20
-6.68915062971891
30
0
41
1
10
32.4506179120603
20
-6.89019886919488
30
0
41
1
10
32.7424869985286
20
-7.01796882530337
30
0
0
SPLINE
5
149
100
AcDbEntity
8
1
62
256
6
ByLayer
370
18
48
1
60
0
100
AcDbSpline
70
4
71
3
72
10
73
6
40
0
40
0
40
0
40
0
40
0.5
40
0.5
40
1
40
1
40
1
40
1
41
1
10
31.0926633276241
20
-5.59938023981084
30
0
41
1
10
29.8839592197011
20
-4.04575183098268
30
0
41
1
10
28.4919410664228
20
-2.64833581832386
30
0
41
1
10
25.6212071446962
20
0.03945498573907
30
0
41
1
10
24.0350077169286
20
1.18948479268639
30
0
41
1
10
22.3615378747172
20
2.22734557411405
30
0
0
SPLINE
5
14A
100
AcDbEntity
8
1
62
256
6
ByLayer
370
18
48
1
60
0
100
AcDbSpline
70
4
71
3
72
8
73
4
40
0
40
0
40
0
40
0
40
1
40
1
40
1
40
1
41
1
10
14.7050990999803
20
-12.2704223472618
30
0
41
1
10
14.9775793244923
20
-12.0145821742926
30
0
41
1
10
15.3205572788846
20
-11.6158801495819
30
0
41
1
10
15.7049960265239
20
-11.1080708782841
30
0
0
SPLINE
5
14B
100
AcDbEntity
8
1
62
256
6
ByLayer
370
18
48
1
60
0
100
AcDbSpline
70
4
71
2
72
10
73
7
40
0
40
0
40
0
40
0.327809911400261
40
0.546349852333768
40
0.764889793267276
40
0.983429734200783
40
1
40
1
40
1
41
1.02275914691308
10
21.5120293935536
20
-0.698772867792525
30
0
41
1.0218723728006
10
23.1611265502218
20
-2.13029008553662
30
0
41
1.01941804929199
10
25.3272586122106
20
-4.83407361480096
30
0
41
1.01588036664668
10
28.1868363575742
20
-8.69877771463365
30
0
41
1.01357557431911
10
29.8155516363789
20
-10.7861662017091
30
0
41
1.01317993487853
10
30.6997419364374
20
-11.8262411852086
30
0
41
1.01314306577281
10
30.7629306170467
20
-11.8979531046894
30
0
0
SPLINE
5
14C
100
AcDbEntity
8
1
62
256
6
ByLayer
370
18
48
1
60
0
100
AcDbSpline
70
4
71
3
72
8
73
4
40
0
40
0
40
0
40
0
40
1
40
1
40
1
40
1
41
1
10
10.3750147900837
20
-5.64644234513705
30
0
41
1
10
8.92787408833362
20
-5.6651346151142
30
0
41
1
10
7.58373158834144
20
-5.63296660718478
30
0
41
1
10
6.59445638833233
20
-5.51446506409866
30
0
0
SPLINE
5
14D
100
AcDbEntity
8
1
62
256
6
ByLayer
370
18
48
1
60
0
100
AcDbSpline
70
4
71
3
72
8
73
4
40
0
40
0
40
0
40
0
40
1
40
1
40
1
40
1
41
1
10
36.4963704913826
20
-16.7260332786719
30
0
41
1
10
36.2612092067695
20
-16.6760899880817
30
0
41
1
10
36.0260464594491
20
-16.6138315665974
30
0
41
1
10
35.7908822170535
20
-16.5389854981716
30
0
0
SPLINE
5
14E
100
AcDbEntity
8
1
62
256
6
ByLayer
370
18
48
1
60
0
100
AcDbSpline
70
4
71
3
72
14
73
10
40
0
40
0
40
0
40
0
40
0.125000000000004
40
0.125000000000004
40
0.250000000000007
40
0.250000000000007
40
0.500000000000014
40
0.500000000000014
40
1
40
1
40
1
40
1
41
1
10
29.0823637358631
20
-14.7548842089587
30
0
41
1
10
29.0247749381546
20
-14.7060902185082
30
0
41
1
10
28.9672707335058
20
-14.6491082807022
30
0
41
1
10
29.0149464429356
20
-14.5025854682665
30
0
41
1
10
29.1521151019101
20
-14.4446734478695
30
0
41
1
10
29.5002019821213
20
-14.3631881660259
30
0
41
1
10
29.725495580896
20
-14.3612183772469
30
0
41
1
10
30.3685397337121
20
-14.3774816525085
30
0
41
1
10
30.7585048446654
20
-14.4391031030539
30
0
41
1
10
31.1336775189564
20
-14.5201185601433
30
0
0
SPLINE
5
14F
100
AcDbEntity
8
1
62
256
6
ByLayer
370
18
48
1
60
0
100
AcDbSpline
70
4
71
3
72
14
73
10
40
0
40
0
40
0
40
0
40
0.272255003219808
40
0.272255003219808
40
0.545341763696486
40
0.545341763696486
40
0.807341289944269
40
0.807341289944269
40
1
40
1
40
1
40
1
41
1
10
35.7333711346333
20
-12.3817907292568
30
0
41
1
10
35.9208194796499
20
-12.577178892204
30
0
41
1
10
36.0962788608214
20
-12.8196683599732
30
0
41
1
10
36.3904353946946
20
-13.3688624202587
30
0
41
1
10
36.5126751710828
20
-13.6831676764478
30
0
41
1
10
36.6840833928514
20
-14.3208431262742
30
0
41
1
10
36.7384107883872
20
-14.6507534393182
30
0
41
1
10
36.7823721707833
20
-15.2132249599341
30
0
41
1
10
36.7858663618698
20
-15.4517844848864
30
0
41
1
10
36.7761402330669
20
-15.6842495886557
30
0
0
SPLINE
5
150
100
AcDbEntity
8
1
62
256
6
ByLayer
370
18
48
1
60
0
100
AcDbSpline
70
4
71
3
72
8
73
4
40
0
40
0
40
0
40
0
40
1
40
1
40
1
40
1
41
1
10
33.0129433596646
20
-15.0484068850023
30
0
41
1
10
32.525196865805
20
-14.6744806690353
30
0
41
1
10
32.0439375412311
20
-14.2415732499749
30
0
41
1
10
31.5780702705931
20
-13.7646595013083
30
0
0
SPLINE
5
151
100
AcDbEntity
8
1
62
256
6
ByLayer
370
18
48
1
60
0
100
AcDbSpline
70
4
71
3
72
12
73
8
40
0
40
0
40
0
40
0
40
0.500000000000002
40
0.500000000000002
40
0.750000000000001
40
0.750000000000001
40
1
40
1
40
1
40
1
41
1
10
5.74178129655002
20
-6.20319656097192
30
0
41
1
10
5.17239969777381
20
-6.79791320293143
30
0
41
1
10
4.87096890968149
20
-7.36056812621845
30
0
41
1
10
4.71298002106209
20
-8.21426866930429
30
0
41
1
10
4.7122075531463
20
-8.51174367791882
30
0
41
1
10
4.92757862367046
20
-9.17439499109099
30
0
41
1
10
5.1607288394855
20
-9.54569134406216
30
0
41
1
10
5.53062319128719
20
-9.86363284785267
30
0
0
SPLINE
5
152
100
AcDbEntity
8
1
62
256
6
ByLayer
370
18
48
1
60
0
100
AcDbSpline
70
4
71
3
72
10
73
6
40
0
40
0
40
0
40
0
40
0.5
40
0.5
40
1
40
1
40
1
40
1
41
1
10
12.7578268073026
20
-14.0987769776542
30
0
41
1
10
14.4882447793398
20
-15.0387643644989
30
0
41
1
10
16.2746459312854
20
-15.8485289996586
30
0
41
1
10
20.0414074470917
20
-17.0168887877925
30
0
41
1
10
21.94793108441
20
-17.536564883416
30
0
41
1
10
23.9032134045691
20
-17.8213056704761
30
0
0
SPLINE
5
153
100
AcDbEntity
8
1
62
256
6
ByLayer
370
18
48
1
60
0
100
AcDbSpline
70
4
71
3
72
10
73
6
40
0
40
0
40
0
40
0
40
0.5
40
0.5
40
1
40
1
40
1
40
1
41
1
10
23.0844546597048
20
-8.14178156117504
30
0
41
1
10
23.4300460331639
20
-7.07105196892107
30
0
41
1
10
23.3347540049159
20
-5.8992317981027
30
0
41
1
10
22.5365985261414
20
-3.82066235208083
30
0
41
1
10
21.8306175852911
20
-2.88675547768241
30
0
41
1
10
20.910249336624
20
-2.25924120638416
30
0
0
SPLINE
5
154
100
AcDbEntity
8
1
62
256
6
ByLayer
370
18
48
1
60
0
100
AcDbSpline
70
4
71
3
72
8
73
4
40
0
40
0
40
0
40
0
40
1
40
1
40
1
40
1
41
1
10
11.6053038214496
20
3.00387838740929
30
0
41
1
10
12.1476945481891
20
2.12661667228042
30
0
41
1
10
12.8030028711373
20
0.921573222358404
30
0
41
1
10
13.4770251163424
20
-0.373084953619411
30
0
0
SPLINE
5
155
100
AcDbEntity
8
1
62
256
6
ByLayer
370
18
48
1
60
0
100
AcDbSpline
70
4
71
3
72
8
73
4
40
0
40
0
40
0
40
0
40
1
40
1
40
1
40
1
41
1
10
13.4770251163424
20
-0.373084953619411
30
0
41
1
10
13.2593219113998
20
-0.291406342091364
30
0
41
1
10
13.0535922105105
20
-0.189039025273985
30
0
41
1
10
12.8628542809692
20
-0.073084296753251
30
0
0
SPLINE
5
156
100
AcDbEntity
8
1
62
256
6
ByLayer
370
18
48
1
60
0
100
AcDbSpline
70
4
71
3
72
12
73
8
40
0
40
0
40
0
40
0
40
0.29583184126231
40
0.29583184126231
40
0.591663914161887
40
0.591663914161887
40
1
40
1
40
1
40
1
41
1
10
21.8930603513484
20
-10.1671287784236
30
0
41
1
10
22.0524061493817
20
-9.99611483090274
30
0
41
1
10
22.201076870707
20
-9.81421140958369
30
0
41
1
10
22.4731042530099
20
-9.43372381692319
30
0
41
1
10
22.5970840414847
20
-9.23426707435524
30
0
41
1
10
22.8591954391131
20
-8.74470950360126
30
0
41
1
10
22.9860475368871
20
-8.44663707516096
30
0
41
1
10
23.0844546597048
20
-8.14178156117504
30
0
0
SPLINE
5
157
100
AcDbEntity
8
1
62
256
6
ByLayer
370
18
48
1
60
0
100
AcDbSpline
70
4
71
3
72
10
73
6
40
0
40
0
40
0
40
0
40
0.5
40
0.5
40
1
40
1
40
1
40
1
41
1
10
30.2039567909879
20
-18.9612226259571
30
0
41
1
10
30.2658656821171
20
-18.194502105479
30
0
41
1
10
30.1221941488682
20
-17.4735955337483
30
0
41
1
10
29.7824911406838
20
-16.051806791449
30
0
41
1
10
29.5272519084616
20
-15.3684813424166
30
0
41
1
10
29.0823637358629
20
-14.7548842089587
30
0
0
SPLINE
5
158
100
AcDbEntity
8
1
62
256
6
ByLayer
370
18
48
1
60
0
100
AcDbSpline
70
4
71
3
72
12
73
8
40
0
40
0
40
0
40
0
40
0.249999999999999
40
0.249999999999999
40
0.499999999999997
40
0.499999999999997
40
1
40
1
40
1
40
1
41
1
10
15.1005300053886
20
6.40502312891283
30
0
41
1
10
14.6339281353351
20
6.5572823929318
30
0
41
1
10
14.1834231484778
20
6.55882879866482
30
0
41
1
10
13.4684966761192
20
6.37261873868903
30
0
41
1
10
13.1929260300835
20
6.19914959709294
30
0
41
1
10
12.4711033797392
20
5.55961770748903
30
0
41
1
10
12.0908131923743
20
4.96247503854184
30
0
41
1
10
11.8218457774291
20
4.13279513439343
30
0
0
SPLINE
5
159
100
AcDbEntity
8
1
62
256
6
ByLayer
370
18
48
1
60
0
100
AcDbSpline
70
4
71
3
72
12
73
8
40
0
40
0
40
0
40
0
40
0.465693311738354
40
0.465693311738354
40
0.92599150670103
40
0.92599150670103
40
1
40
1
40
1
40
1
41
1
10
11.0840319576719
20
-6.56597997718586
30
0
41
1
10
11.012017629821
20
-6.40967662307571
30
0
41
1
10
10.9147721214092
20
-6.25040172918744
30
0
41
1
10
10.694337728032
20
-5.96030621077898
30
0
41
1
10
10.5688757254
20
-5.82490100134009
30
0
41
1
10
10.4177203791265
20
-5.68463702004638
30
0
41
1
10
10.396434001877
20
-5.66537116771173
30
0
41
1
10
10.3750147900836
20
-5.64644234513693
30
0
0
SPLINE
5
15A
100
AcDbEntity
8
1
62
256
6
ByLayer
370
18
48
1
60
0
100
AcDbSpline
70
4
71
3
72
8
73
4
40
0
40
0
40
0
40
0
40
1
40
1
40
1
40
1
41
1
10
11.2344221917353
20
-6.99084821283242
30
0
41
1
10
11.5213403141552
20
-8.13023169073099
30
0
41
1
10
12.2689070038399
20
-9.12642922602751
30
0
41
1
10
13.3637076648332
20
-9.76256354563191
30
0
0
SPLINE
5
15B
100
AcDbEntity
8
1
62
256
6
ByLayer
370
18
48
1
60
0
100
AcDbSpline
70
4
71
3
72
10
73
6
40
0
40
0
40
0
40
0
40
0.493064313563141
40
0.493064313563141
40
1
40
1
40
1
40
1
41
1
10
25.9793500507227
20
-18.5151704663349
30
0
41
1
10
25.7224397997201
20
-18.3421532196263
30
0
41
1
10
25.4027099250537
20
-18.1950109878287
30
0
41
1
10
24.6980890410813
20
-17.9649409778704
30
0
41
1
10
24.3026755138138
20
-17.8794779120056
30
0
41
1
10
23.9032134045692
20
-17.8213056704759
30
0
0
SPLINE
5
15C
100
AcDbEntity
8
1
62
256
6
ByLayer
370
18
48
1
60
0
100
AcDbSpline
70
4
71
2
72
9
73
6
40
0
40
0
40
0
40
0.215578737053016
40
0.501173956564868
40
0.78676917607672
40
1
40
1
40
1
41
1.01987110935352
10
21.8930603513484
20
-10.1671287784236
30
0
41
1.01898440041071
10
22.8972557394334
20
-10.654595815349
30
0
41
1.01588036664668
10
26.309147347163
20
-12.2612572103631
30
0
41
1.01357557431911
10
28.4827452798637
20
-13.2745962901881
30
0
41
1.01293324595055
10
30.3512713788403
20
-14.116679611786
30
0
41
1.01178747612661
10
31.1336775208522
20
-14.5201185611208
30
0
0
SPLINE
5
15D
100
AcDbEntity
8
1
62
256
6
ByLayer
370
18
48
1
60
0
100
AcDbSpline
70
4
71
2
72
6
73
3
40
0
40
0
40
0
40
1
40
1
40
1
41
1
10
33.3163076533412
20
-7.2727515385545
30
0
41
1
10
34.3600947278674
20
-8.80652927036982
30
0
41
1
10
35.2210209418981
20
-10.431111744285
30
0
0
SPLINE
5
15E
100
AcDbEntity
8
1
62
256
6
ByLayer
370
18
48
1
60
0
100
AcDbSpline
70
4
71
2
72
6
73
3
40
0
40
0
40
0
40
1
40
1
40
1
41
1
10
30.2029599380816
20
-18.9617181234393
30
0
41
1
10
28.3562154748803
20
-19.0130075668048
30
0
41
1
10
26.4993882620709
20
-18.8613823155147
30
0
0
SPLINE
5
15F
100
AcDbEntity
8
1
62
256
6
ByLayer
370
18
48
1
60
0
100
AcDbSpline
70
4
71
3
72
8
73
4
40
0
40
0
40
0
40
0
40
1
40
1
40
1
40
1
41
1
10
25.9793500507227
20
-18.5151704663349
30
0
41
1
10
26.152266103158
20
-18.6316214805988
30
0
41
1
10
26.3252833088796
20
-18.7479211629699
30
0
41
1
10
26.4985747066759
20
-18.863807294522
30
0
0
SPLINE
5
160
100
AcDbEntity
8
1
62
256
6
ByLayer
370
18
48
1
60
0
100
AcDbSpline
70
4
71
2
72
6
73
3
40
0
40
0
40
0
40
1
40
1
40
1
41
1.02275914691308
10
14.7050990999803
20
-12.2704223472618
30
0
41
1.02275914691308
10
13.7314629536415
20
-13.184599662458
30
0
41
1.02275914691308
10
12.7578268073025
20
-14.0987769776541
30
0
0
SPLINE
5
161
100
AcDbEntity
8
1
62
256
6
ByLayer
370
18
48
1
60
0
100
AcDbSpline
70
4
71
3
72
8
73
4
40
0
40
0
40
0
40
0
40
1
40
1
40
1
40
1
41
1
10
33.3180347952625
20
-7.27085740654817
30
0
41
1
10
33.1263647683237
20
-7.18621458808559
30
0
41
1
10
32.9344672903226
20
-7.10201100240755
30
0
41
1
10
32.7424869985286
20
-7.0179688253034
30
0
0
SPLINE
5
162
100
AcDbEntity
8
1
62
256
6
ByLayer
370
18
48
1
60
0
100
AcDbSpline
70
4
71
3
72
12
73
8
40
0
40
0
40
0
40
0
40
0.477525441753637
40
0.477525441753637
40
0.843795690072559
40
0.843795690072559
40
1
40
1
40
1
40
1
41
1
10
11.8218457774291
20
4.13279513439343
30
0
41
1
10
11.7818774829818
20
4.00950551318471
30
0
41
1
10
11.7344564913708
20
3.87857949251506
30
0
41
1
10
11.6330275957983
20
3.6371664341894
30
0
41
1
10
11.5822066293822
20
3.5270336175104
30
0
41
1
10
11.4999325893108
20
3.3704992926952
30
0
41
1
10
11.4737409983528
20
3.32318289450524
30
0
41
1
10
11.4465167234052
20
3.276902155106
30
0
0
SPLINE
5
163
100
AcDbEntity
8
1
62
256
6
ByLayer
370
18
48
1
60
0
100
AcDbSpline
70
4
71
3
72
8
73
4
40
0
40
0
40
0
40
0
40
1
40
1
40
1
40
1
41
1
10
14.6255648908046
20
-0.545442678471261
30
0
41
1
10
14.4417726851001
20
1.09270511652434
30
0
41
1
10
14.214689573774
20
2.63471436131579
30
0
41
1
10
13.9499747495271
20
3.69516171517023
30
0
0
SPLINE
5
164
100
AcDbEntity
8
1
62
256
6
ByLayer
370
18
48
1
60
0
100
AcDbSpline
70
4
71
3
72
10
73
6
40
0
40
0
40
0
40
0
40
0.5
40
0.5
40
1
40
1
40
1
40
1
41
1
10
15.7049960265239
20
-11.1080708782841
30
0
41
1
10
16.7074811141764
20
-11.5958099831175
30
0
41
1
10
17.8639139335529
20
-11.7638689820919
30
0
41
1
10
20.0606741395367
20
-11.4683251306491
30
0
41
1
10
21.1225505800384
20
-10.9940010711809
30
0
41
1
10
21.8930603513484
20
-10.1671287784236
30
0
0
SPLINE
5
165
100
AcDbEntity
8
1
62
256
6
ByLayer
370
18
48
1
60
0
100
AcDbSpline
70
4
71
3
72
26
73
22
40
0
40
0
40
0
40
0
40
0.305559650062828
40
0.305559650062828
40
0.592938506760052
40
0.592938506760052
40
0.736855759596365
40
0.736855759596365
40
0.794364492020949
40
0.794364492020949
40
0.820930548617521
40
0.820930548617521
40
0.847991021748974
40
0.847991021748974
40
0.871122963339844
40
0.871122963339844
40
0.898335682818841
40
0.898335682818841
40
0.94530543556231
40
0.94530543556231
40
1
40
1
40
1
40
1
41
1
10
31.578070270593
20
-13.7646595013083
30
0
41
1
10
31.4169588244837
20
-13.5995860353489
30
0
41
1
10
31.2591289853448
20
-13.4227581788803
30
0
41
1
10
30.9673879771148
20
-13.0494330455959
30
0
41
1
10
30.830443286359
20
-12.8541886174094
30
0
41
1
10
30.651871783979
20
-12.5253323430222
30
0
41
1
10
30.5952186196555
20
-12.4080434969261
30
0
41
1
10
30.5376314224355
20
-12.2296351412176
30
0
41
1
10
30.5234663145183
20
-12.1758855394216
30
0
41
1
10
30.5128221075193
20
-12.0963565829346
30
0
41
1
10
30.510974821066
20
-12.0706676410995
30
0
41
1
10
30.5123837373891
20
-12.0209469310864
30
0
41
1
10
30.515902323966
20
-11.9962841206848
30
0
41
1
10
30.5284731461896
20
-11.9572328922636
30
0
41
1
10
30.5368208719224
20
-11.9414331330024
30
0
41
1
10
30.5582388508583
20
-11.9144916002765
30
0
41
1
10
30.5721130245241
20
-11.9040841032204
30
0
41
1
10
30.6115511647401
20
-11.8847632550854
30
0
41
1
10
30.6389712615161
20
-11.8813369284831
30
0
41
1
10
30.6981836364525
20
-11.8826488057148
30
0
41
1
10
30.7306499675848
20
-11.8889690238622
30
0
41
1
10
30.7629306170464
20
-11.8979531046891
30
0
0
SPLINE
5
166
100
AcDbEntity
8
1
62
256
6
ByLayer
370
18
48
1
60
0
100
AcDbSpline
70
4
71
3
72
8
73
4
40
0
40
0
40
0
40
0
40
1
40
1
40
1
40
1
41
1
10
18.5824296775878
20
-0.890837340443341
30
0
41
1
10
17.4884294255596
20
-0.255168098757338
30
0
41
1
10
16.2218404047174
20
-0.127435089723519
30
0
41
1
10
15.0764261275057
20
-0.459516037233442
30
0
0
SPLINE
5
167
100
AcDbEntity
8
1
62
256
6
ByLayer
370
18
48
1
60
0
100
AcDbSpline
70
4
71
3
72
8
73
4
40
0
40
0
40
0
40
0
40
1
40
1
40
1
40
1
41
1
10
20.9102493367229
20
-2.25924120616401
30
0
41
1
10
21.1867397951519
20
-1.64348364579757
30
0
41
1
10
21.3931583643118
20
-1.10822223596898
30
0
41
1
10
21.5120293935537
20
-0.698772867792513
30
0
0
SPLINE
5
168
100
AcDbEntity
8
1
62
256
6
ByLayer
370
18
48
1
60
0
100
AcDbSpline
70
4
71
3
72
8
73
4
40
0
40
0
40
0
40
0
40
1
40
1
40
1
40
1
41
1
10
35.7908822170535
20
-16.5389854981715
30
0
41
1
10
35.9816442404649
20
-16.6893097929884
30
0
41
1
10
36.1615418789289
20
-16.8455738132827
30
0
41
1
10
36.3307472786422
20
-17.0075895280874
30
0
0
SPLINE
5
169
100
AcDbEntity
8
1
62
256
6
ByLayer
370
18
48
1
60
0
100
AcDbSpline
70
4
71
3
72
8
73
4
40
0
40
0
40
0
40
0
40
1
40
1
40
1
40
1
41
1
10
14.9099383539016
20
6.73839475065654
30
0
41
1
10
14.4857400904452
20
7.00691192440163
30
0
41
1
10
13.9833725069013
20
7.2532348595997
30
0
41
1
10
13.3925374802546
20
7.38710779639609
30
0
0
SPLINE
5
16A
100
AcDbEntity
8
1
62
256
6
ByLayer
370
18
48
1
60
0
100
AcDbSpline
70
4
71
3
72
20
73
16
40
0
40
0
40
0
40
0
40
0.180139434362015
40
0.180139434362015
40
0.338734027846998
40
0.338734027846998
40
0.497328642471092
40
0.497328642471092
40
0.65592325931143
40
0.65592325931143
40
0.814517859427918
40
0.814517859427918
40
0.97579222800933
40
0.97579222800933
40
1
40
1
40
1
40
1
41
1
10
36.3307472786422
20
-17.0075895280874
30
0
41
1
10
36.3413490758809
20
-16.9910596631256
30
0
41
1
10
36.3518382779952
20
-16.9744532072162
30
0
41
1
10
36.371343365658
20
-16.9430927972159
30
0
41
1
10
36.3803865203396
20
-16.9283530202192
30
0
41
1
10
36.3982878495378
20
-16.8987703902538
30
0
41
1
10
36.4071469373364
20
-16.8839260279257
30
0
41
1
10
36.4246764737544
20
-16.8541402785735
30
0
41
1
10
36.4333478173879
20
-16.839197370757
30
0
41
1
10
36.4504983929015
20
-16.8092206738388
30
0
41
1
10
36.4589784999108
20
-16.7941853552568
30
0
41
1
10
36.4758849514119
20
-16.763775308958
30
0
41
1
10
36.4843088566047
20
-16.7483975374176
30
0
41
1
10
36.4938792142135
20
-16.7306648852781
30
0
41
1
10
36.4951260074522
20
-16.7283495400289
30
0
41
1
10
36.4963704913826
20
-16.7260332786719
30
0
0
SPLINE
5
16B
100
AcDbEntity
8
1
62
256
6
ByLayer
370
18
48
1
60
0
100
AcDbSpline
70
4
71
3
72
8
73
4
40
0
40
0
40
0
40
0
40
1
40
1
40
1
40
1
41
1
10
11.2344221917354
20
-6.99084821283239
30
0
41
1
10
11.1983273194966
20
-6.84751149809665
30
0
41
1
10
11.1478045433854
20
-6.70439505852852
30
0
41
1
10
11.0840319576719
20
-6.56597997718589
30
0
0
SPLINE
5
16C
100
AcDbEntity
8
1
62
256
6
ByLayer
370
18
48
1
60
0
100
AcDbSpline
70
4
71
3
72
8
73
4
40
0
40
0
40
0
40
0
40
1
40
1
40
1
40
1
41
1
10
20.910249336624
20
-2.25924120638416
30
0
41
1
10
20.8082914653656
20
-2.18951090037632
30
0
41
1
10
20.7041247282668
20
-2.12364901617531
30
0
41
1
10
20.5976753822816
20
-2.06179658523215
30
0
0
SPLINE
5
16D
100
AcDbEntity
8
1
62
256
6
ByLayer
370
18
48
1
60
0
100
AcDbSpline
70
4
71
2
72
10
73
7
40
0
40
0
40
0
40
0.327809911387052
40
0.546349852311754
40
0.764889793236455
40
0.983429734161157
40
1
40
1
40
1
41
1.02275914691308
10
14.7050990999803
20
-12.2704223472618
30
0
41
1.0218723728006
10
16.7613365894214
20
-13.009808894928
30
0
41
1.01941804929199
10
20.1835984920154
20
-13.5781960571298
30
0
41
1.01588036664668
10
24.978618709064
20
-14.1526854929955
30
0
41
1.01357557431911
10
27.6254788222281
20
-14.5092475090304
30
0
41
1.01317993487846
10
28.987277944817
20
-14.7373967581255
30
0
41
1.01314306577263
10
29.0823637358635
20
-14.7548842089588
30
0
0
SPLINE
5
16E
100
AcDbEntity
8
1
62
256
6
ByLayer
370
18
48
1
60
0
100
AcDbSpline
70
4
71
1
72
4
73
2
40
0
40
0
40
1
40
1
41
1
10
21.5120293935537
20
-0.698772867792513
30
0
41
1
10
22.3615378747172
20
2.22734557411405
30
0
0
SPLINE
5
16F
100
AcDbEntity
8
1
62
256
6
ByLayer
370
18
48
1
60
0
100
AcDbSpline
70
4
71
3
72
8
73
4
40
0
40
0
40
0
40
0
40
1
40
1
40
1
40
1
41
1
10
7.14304445595377
20
-7.87648776429921
30
0
41
1
10
8.15035745642047
20
-7.67621102727625
30
0
41
1
10
9.57503447503092
20
-7.17921848364816
30
0
41
1
10
11.0840319576717
20
-6.56597997718578
30
0
0
SPLINE
5
170
100
AcDbEntity
8
1
62
256
6
ByLayer
370
18
48
1
60
0
100
AcDbSpline
70
4
71
3
72
10
73
6
40
0
40
0
40
0
40
0
40
0.137559836752858
40
0.137559836752858
40
1
40
1
40
1
40
1
41
1
10
14.6255648908046
20
-0.545442678471261
30
0
41
1
10
14.6469095763401
20
-0.543387764090397
30
0
41
1
10
14.6682024474728
20
-0.54106387319186
30
0
41
1
10
14.8213597810859
20
-0.522369221439789
30
0
41
1
10
14.9513133525512
20
-0.49578899949617
30
0
41
1
10
15.0764261275057
20
-0.45951603723347
30
0
0
SPLINE
5
171
100
AcDbEntity
8
1
62
256
6
ByLayer
370
18
48
1
60
0
100
AcDbSpline
70
4
71
3
72
8
73
4
40
0
40
0
40
0
40
0
40
1
40
1
40
1
40
1
41
1
10
31.1336775189564
20
-14.5201185601433
30
0
41
1
10
31.7955768818678
20
-14.6633195933862
30
0
41
1
10
32.4279675763421
20
-14.8393978188918
30
0
41
1
10
33.0129433596646
20
-15.0484068850023
30
0
0
SPLINE
5
172
100
AcDbEntity
8
1
62
256
6
ByLayer
370
18
48
1
60
0
100
AcDbSpline
70
4
71
3
72
12
73
8
40
0
40
0
40
0
40
0
40
0.357928014296211
40
0.357928014296211
40
0.886263242629128
40
0.886263242629128
40
1
40
1
40
1
40
1
41
1
10
6.292126466985
20
-5.4854613120209
30
0
41
1
10
6.23033783869016
20
-5.59050078173902
30
0
41
1
10
6.16223702617901
20
-5.69176639266692
30
0
41
1
10
5.99697840608178
20
-5.91702412702216
30
0
41
1
10
5.89762821116398
20
-6.03491565714796
30
0
41
1
10
5.78245761351241
20
-6.16028255317352
30
0
41
1
10
5.76204160751627
20
-6.18203475291841
30
0
41
1
10
5.74178129654979
20
-6.20319656097291
30
0
0
SPLINE
5
173
100
AcDbEntity
8
1
62
256
6
ByLayer
370
18
48
1
60
0
100
AcDbSpline
70
4
71
3
72
8
73
4
40
0
40
0
40
0
40
0
40
1
40
1
40
1
40
1
41
1
10
15.7049960241866
20
-11.1080708771342
30
0
41
1
10
15.5941104336891
20
-11.0535175223899
30
0
41
1
10
15.4854027147643
20
-10.9953752209293
30
0
41
1
10
15.378953369527
20
-10.9335227904207
30
0
0
SPLINE
5
174
100
AcDbEntity
8
1
62
256
6
ByLayer
370
18
48
1
60
0
100
AcDbSpline
70
4
71
3
72
8
73
4
40
0
40
0
40
0
40
0
40
1
40
1
40
1
40
1
41
1
10
4.75292317031563
20
-9.25364499117529
30
0
41
1
10
4.50063080552684
20
-9.05488388569648
30
0
41
1
10
4.25108412900573
20
-8.82294113809181
30
0
41
1
10
4.01935356525757
20
-8.547123067309
30
0
0
SPLINE
5
175
100
AcDbEntity
8
1
62
256
6
ByLayer
370
18
48
1
60
0
100
AcDbSpline
70
4
71
3
72
14
73
10
40
0
40
0
40
0
40
0
40
0.185244445916096
40
0.185244445916096
40
0.469711312964404
40
0.469711312964404
40
0.755916846591522
40
0.755916846591522
40
1
40
1
40
1
40
1
41
1
10
35.5796792644477
20
-17.7182100300885
30
0
41
1
10
35.3915832142178
20
-17.8305762332071
30
0
41
1
10
35.1921433816936
20
-17.935943403183
30
0
41
1
10
34.667752437544
20
-18.1752283713436
30
0
41
1
10
34.3252539146367
20
-18.2968415263061
30
0
41
1
10
33.6391449679045
20
-18.4648973235211
30
0
41
1
10
33.2859678818087
20
-18.5127424848989
30
0
41
1
10
32.6766530893009
20
-18.5238769248883
30
0
41
1
10
32.4070395257756
20
-18.498949370657
30
0
41
1
10
32.1646352357521
20
-18.4485725421461
30
0
0
SPLINE
5
176
100
AcDbEntity
8
1
62
256
6
ByLayer
370
18
48
1
60
0
100
AcDbSpline
70
4
71
3
72
10
73
6
40
0
40
0
40
0
40
0
40
0.5
40
0.5
40
1
40
1
40
1
40
1
41
1
10
30.7629306170464
20
-11.8979531046891
30
0
41
1
10
31.5542418049496
20
-11.9216204893251
30
0
41
1
10
32.3171316536361
20
-11.7448146032809
30
0
41
1
10
33.8033532029193
20
-11.2162354373732
30
0
41
1
10
34.5424672235879
20
-10.9243171394033
30
0
41
1
10
35.221075484742
20
-10.432218156244
30
0
0
SPLINE
5
177
100
AcDbEntity
8
1
62
256
6
ByLayer
370
18
48
1
60
0
100
AcDbSpline
70
4
71
3
72
8
73
4
40
0
40
0
40
0
40
0
40
1
40
1
40
1
40
1
41
1
10
10.3750147900837
20
-5.64644234513705
30
0
41
1
10
10.2001617501445
20
-5.4919192841769
30
0
41
1
10
10.013559970071
20
-5.35703487295663
30
0
41
1
10
9.82282204052967
20
-5.2410801444359
30
0
0
INSERT
5
18A
100
AcDbEntity
8
SK2
62
256
6
ByLayer
370
25
48
1
60
0
100
AcDbBlockReference
2
DimnDraft3D11
10
0
20
0
30
0
41
1
42
1
43
1
50
0
210
0
220
0
230
1
0
LINE
5
72
100
AcDbEntity
8
1
62
256
6
ByLayer
370
18
48
1
60
0
100
AcDbLine
10
4.752124
20
-9.252275
30
0
11
5.624131
21
-9.940637
31
0
39
0
210
0
220
0
230
1
0
LINE
5
74
100
AcDbEntity
8
1
62
256
6
ByLayer
370
18
48
1
60
0
100
AcDbLine
10
15.615731
20
-5.721931
30
0
11
15.501441
21
-5.60764
31
0
39
0
210
0
220
0
230
1
0
LINE
5
75
100
AcDbEntity
8
1
62
256
6
ByLayer
370
18
48
1
60
0
100
AcDbLine
10
38.814588
20
-7.162239
30
0
11
38.555212
21
-6.902863
31
0
39
0
210
0
220
0
230
1
0
LINE
5
76
100
AcDbEntity
8
1
62
256
6
ByLayer
370
18
48
1
60
0
100
AcDbLine
10
25.084828
20
-20.373247
30
0
11
25.703402
21
-20.991821
31
0
39
0
210
0
220
0
230
1
0
LINE
5
77
100
AcDbEntity
8
1
62
256
6
ByLayer
370
18
48
1
60
0
100
AcDbLine
10
10.215946
20
-5.513636
30
0
11
9.827045
21
-5.206637
31
0
39
0
210
0
220
0
230
1
0
LINE
5
78
100
AcDbEntity
8
1
62
256
6
ByLayer
370
18
48
1
60
0
100
AcDbLine
10
25.763337
20
-21.026647
30
0
11
26.423496
21
-21.686806
31
0
39
0
210
0
220
0
230
1
0
LINE
5
79
100
AcDbEntity
8
1
62
256
6
ByLayer
370
18
48
1
60
0
100
AcDbLine
10
39.89388
20
-8.216421
30
0
11
39.233721
21
-7.556262
31
0
39
0
210
0
220
0
230
1
0
LINE
5
7A
100
AcDbEntity
8
1
62
256
6
ByLayer
370
18
48
1
60
0
100
AcDbLine
10
18.429837
20
-6.215915
30
0
11
18.642959
21
-6.429037
31
0
39
0
210
0
220
0
230
1
0
LINE
5
7B
100
AcDbEntity
8
1
62
256
6
ByLayer
370
18
48
1
60
0
100
AcDbLine
10
13.281925
20
-9.299132
30
0
11
13.453011
21
-9.470217
31
0
39
0
210
0
220
0
230
1
0
LINE
5
7C
100
AcDbEntity
8
1
62
256
6
ByLayer
370
18
48
1
60
0
100
AcDbLine
10
20.524078
20
-2.39915
30
0
11
20.352993
21
-2.228064
31
0
39
0
210
0
220
0
230
1
0
LINE
5
7D
100
AcDbEntity
8
80
62
256
6
ByLayer
370
18
48
1
60
0
100
AcDbLine
10
0
20
0
30
0
11
-5
21
0
31
0
39
0
210
0
220
0
230
1
0
LINE
5
7E
100
AcDbEntity
8
81
62
256
6
ByLayer
370
18
48
1
60
0
100
AcDbLine
10
42.632075
20
-24.425
30
0
11
52.632075
21
-24.425
31
0
39
0
210
0
220
0
230
1
0
LINE
5
7F
100
AcDbEntity
8
SK1
62
256
6
ByLayer
370
18
48
1
60
0
100
AcDbLine
10
0
20
-13.762332
30
0
11
0
21
-12.255697
31
0
39
0
210
0
220
0
230
1
0
LINE
5
81
100
AcDbEntity
8
SK1
62
256
6
ByLayer
370
18
48
1
60
0
100
AcDbLine
10
0
20
-15.04745
30
0
11
0
21
-13.762332
31
0
39
0
210
0
220
0
230
1
0
LINE
5
82
100
AcDbEntity
8
SK1
62
256
6
ByLayer
370
18
48
1
60
0
100
AcDbLine
10
-128.717925
20
-15.925
30
0
11
-128.717925
21
15.925
31
0
39
0
210
0
220
0
230
1
0
LINE
5
83
100
AcDbEntity
8
SK1
62
256
6
ByLayer
370
18
48
1
60
0
100
AcDbLine
10
0
20
-15.925
30
0
11
0
21
-15.04745
31
0
39
0
210
0
220
0
230
1
0
LINE
5
84
100
AcDbEntity
8
SK1
62
256
6
ByLayer
370
18
48
1
60
0
100
AcDbLine
10
-1.272172
20
-15.925
30
0
11
-0.471846
21
-15.925
31
0
39
0
210
0
220
0
230
1
0
LINE
5
85
100
AcDbEntity
8
SK1
62
256
6
ByLayer
370
18
48
1
60
0
100
AcDbLine
10
-128.717925
20
15.925
30
0
11
0
21
15.925
31
0
39
0
210
0
220
0
230
1
0
LINE
5
86
100
AcDbEntity
8
SK1
62
256
6
ByLayer
370
18
48
1
60
0
100
AcDbLine
10
0
20
-15.925
30
0
11
-0.471846
21
-15.925
31
0
39
0
210
0
220
0
230
1
0
LINE
5
87
100
AcDbEntity
8
SK1
62
256
6
ByLayer
370
18
48
1
60
0
100
AcDbLine
10
0
20
-12.255697
30
0
11
0
21
15.925
31
0
39
0
210
0
220
0
230
1
0
LINE
5
88
100
AcDbEntity
8
SK1
62
256
6
ByLayer
370
18
48
1
60
0
100
AcDbLine
10
-3.669303
20
-15.925
30
0
11
-1.272172
21
-15.925
31
0
39
0
210
0
220
0
230
1
0
LINE
5
89
100
AcDbEntity
8
SK1
62
256
6
ByLayer
370
18
48
1
60
0
100
AcDbLine
10
-3.669303
20
-15.925
30
0
11
-128.717925
21
-15.925
31
0
39
0
210
0
220
0
230
1
0
LINE
5
8A
100
AcDbEntity
8
SK1
62
256
6
ByLayer
370
18
48
1
60
0
100
AcDbLine
10
0
20
-13.762332
30
0
11
-1.272172
21
-15.925
31
0
39
0
210
0
220
0
230
1
0
LINE
5
8B
100
AcDbEntity
8
SK1
62
256
6
ByLayer
370
18
48
1
60
0
100
AcDbLine
10
0
20
-12.255697
30
0
11
-3.669303
21
-15.925
31
0
39
0
210
0
220
0
230
1
0
LINE
5
8C
100
AcDbEntity
8
1
62
256
6
ByLayer
370
18
48
1
60
0
100
AcDbLine
10
34.800282
20
-5.006648
30
0
11
34.756062
21
-4.914366
31
0
39
0
210
0
220
0
230
1
0
LINE
5
8D
100
AcDbEntity
8
1
62
256
6
ByLayer
370
18
48
1
60
0
100
AcDbLine
10
2.681322
20
15.9367
30
0
11
0
21
-12.255697
31
0
39
0
210
0
220
0
230
1
0
LINE
5
8E
100
AcDbEntity
8
1
62
256
6
ByLayer
370
18
48
1
60
0
100
AcDbLine
10
34.800282
20
-5.006648
30
0
11
31.136591
21
-5.651452
31
0
39
0
210
0
220
0
230
1
0
LINE
5
8F
100
AcDbEntity
8
1
62
256
6
ByLayer
370
18
48
1
60
0
100
AcDbLine
10
0.499428
20
-14.699643
30
0
11
0.711314
21
-14.395581
31
0
39
0
210
0
220
0
230
1
0
LINE
5
90
100
AcDbEntity
8
1
62
256
6
ByLayer
370
18
48
1
60
0
100
AcDbLine
10
15.188319
20
10.215048
30
0
11
19.032626
21
7.818652
31
0
39
0
210
0
220
0
230
1
0
LINE
5
91
100
AcDbEntity
8
1
62
256
6
ByLayer
370
18
48
1
60
0
100
AcDbLine
10
0
20
-15.04745
30
0
11
0
21
-13.762332
31
0
39
0
210
0
220
0
230
1
0
LINE
5
92
100
AcDbEntity
8
1
62
256
6
ByLayer
370
18
48
1
60
0
100
AcDbLine
10
35.087201
20
-4.351436
30
0
11
34.756062
21
-4.914366
31
0
39
0
210
0
220
0
230
1
0
LINE
5
93
100
AcDbEntity
8
1
62
256
6
ByLayer
370
18
48
1
60
0
100
AcDbLine
10
24.492024
20
-22.363031
30
0
11
24.608621
21
-22.332275
31
0
39
0
210
0
220
0
230
1
0
LINE
5
94
100
AcDbEntity
8
1
62
256
6
ByLayer
370
18
48
1
60
0
100
AcDbLine
10
28.406287
20
2.403689
30
0
11
35.087201
21
-4.351436
31
0
39
0
210
0
220
0
230
1
0
LINE
5
95
100
AcDbEntity
8
1
62
256
6
ByLayer
370
18
48
1
60
0
100
AcDbLine
10
0
20
-12.255697
30
0
11
0
21
15.925
31
0
39
0
210
0
220
0
230
1
0
LINE
5
96
100
AcDbEntity
8
1
62
256
6
ByLayer
370
18
48
1
60
0
100
AcDbLine
10
35.148712
20
-4.414324
30
0
11
34.800282
21
-5.006648
31
0
39
0
210
0
220
0
230
1
0
LINE
5
97
100
AcDbEntity
8
1
62
256
6
ByLayer
370
18
48
1
60
0
100
AcDbLine
10
14.398665
20
10.715119
30
0
11
12.446971
21
7.397277
31
0
39
0
210
0
220
0
230
1
0
LINE
5
98
100
AcDbEntity
8
1
62
256
6
ByLayer
370
18
48
1
60
0
100
AcDbLine
10
3.546571
20
-7.73323
30
0
11
0
21
-13.762332
31
0
39
0
210
0
220
0
230
1
0
LINE
5
99
100
AcDbEntity
8
1
62
256
6
ByLayer
370
18
48
1
60
0
100
AcDbLine
10
19.032626
20
7.818652
30
0
11
17.446336
21
5.12199
31
0
39
0
210
0
220
0
230
1
0
LINE
5
9A
100
AcDbEntity
8
1
62
256
6
ByLayer
370
18
48
1
60
0
100
AcDbLine
10
0
20
-15.925
30
0
11
0
21
-15.04745
31
0
39
0
210
0
220
0
230
1
0
LINE
5
9B
100
AcDbEntity
8
1
62
256
6
ByLayer
370
18
48
1
60
0
100
AcDbLine
10
5.361892
20
15.93547
30
0
11
14.398665
21
10.715119
31
0
39
0
210
0
220
0
230
1
0
LINE
5
9C
100
AcDbEntity
8
1
62
256
6
ByLayer
370
18
48
1
60
0
100
AcDbLine
10
15.188319
20
10.215048
30
0
11
13.507855
21
7.358292
31
0
39
0
210
0
220
0
230
1
0
LINE
5
9D
100
AcDbEntity
8
1
62
256
6
ByLayer
370
18
48
1
60
0
100
AcDbLine
10
4.099385
20
-8.635925
30
0
11
0.711314
21
-14.395581
31
0
39
0
210
0
220
0
230
1
0
LINE
5
9E
100
AcDbEntity
8
1
62
256
6
ByLayer
370
18
48
1
60
0
100
AcDbLine
10
24.679283
20
6.130693
30
0
11
28.406287
21
2.403689
31
0
39
0
210
0
220
0
230
1
0
LINE
5
9F
100
AcDbEntity
8
1
62
256
6
ByLayer
370
18
48
1
60
0
100
AcDbLine
10
15.167526
20
10.23584
30
0
11
13.478862
21
7.365143
31
0
39
0
210
0
220
0
230
1
0
LINE
5
A0
100
AcDbEntity
8
1
62
256
6
ByLayer
370
18
48
1
60
0
100
AcDbLine
10
4.079361
20
-8.613826
30
0
11
0.499428
21
-14.699643
31
0
39
0
210
0
220
0
230
1
0
LINE
5
A1
100
AcDbEntity
8
1
62
256
6
ByLayer
370
18
48
1
60
0
100
AcDbLine
10
24.492024
20
-22.363031
30
0
11
3.957924
21
-18.735109
31
0
39
0
210
0
220
0
230
1
0
LINE
5
A2
100
AcDbEntity
8
1
62
256
6
ByLayer
370
18
48
1
60
0
100
AcDbLine
10
35.644426
20
-4.92969
30
0
11
35.143502
21
-4.423203
31
0
39
0
210
0
220
0
230
1
0
LINE
5
A3
100
AcDbEntity
8
1
62
256
6
ByLayer
370
18
48
1
60
0
100
AcDbLine
10
7.815045
20
-11.251019
30
0
11
4.0631
21
-17.629251
31
0
39
0
210
0
220
0
230
1
0
LINE
5
A4
100
AcDbEntity
8
1
62
256
6
ByLayer
370
18
48
1
60
0
100
AcDbLine
10
0
20
15.925
30
0
11
2.681322
21
15.9367
31
0
39
0
210
0
220
0
230
1
0
LINE
5
A5
100
AcDbEntity
8
1
62
256
6
ByLayer
370
18
48
1
60
0
100
AcDbLine
10
25.167407
20
-21.38247
30
0
11
26.3235
21
-21.586726
31
0
39
0
210
0
220
0
230
1
0
LINE
5
A6
100
AcDbEntity
8
1
62
256
6
ByLayer
370
18
48
1
60
0
100
AcDbLine
10
28.406287
20
2.403689
30
0
11
19.032626
21
7.818652
31
0
39
0
210
0
220
0
230
1
0
LINE
5
A7
100
AcDbEntity
8
1
62
256
6
ByLayer
370
18
48
1
60
0
100
AcDbLine
10
25.261425
20
-21.22252
30
0
11
24.071626
21
-17.852198
31
0
39
0
210
0
220
0
230
1
0
LINE
5
A8
100
AcDbEntity
8
1
62
256
6
ByLayer
370
18
48
1
60
0
100
AcDbLine
10
5.361892
20
15.93547
30
0
11
8.171981
21
15.786027
31
0
39
0
210
0
220
0
230
1
0
LINE
5
A9
100
AcDbEntity
8
1
62
256
6
ByLayer
370
18
48
1
60
0
100
AcDbLine
10
15.167526
20
10.23584
30
0
11
15.188319
21
10.215048
31
0
39
0
210
0
220
0
230
1
0
LINE
5
AA
100
AcDbEntity
8
1
62
256
6
ByLayer
370
18
48
1
60
0
100
AcDbLine
10
3.957924
20
-18.735109
30
0
11
2.37981
21
-18.30481
31
0
39
0
210
0
220
0
230
1
0
LINE
5
AB
100
AcDbEntity
8
1
62
256
6
ByLayer
370
18
48
1
60
0
100
AcDbLine
10
25.261425
20
-21.22252
30
0
11
25.135907
21
-21.268442
31
0
39
0
210
0
220
0
230
1
0
LINE
5
AC
100
AcDbEntity
8
1
62
256
6
ByLayer
370
18
48
1
60
0
100
AcDbLine
10
25.135907
20
-21.268442
30
0
11
24.492024
21
-22.363031
31
0
39
0
210
0
220
0
230
1
0
LINE
5
AD
100
AcDbEntity
8
1
62
256
6
ByLayer
370
18
48
1
60
0
100
AcDbLine
10
5.361892
20
15.93547
30
0
11
2.681322
21
15.9367
31
0
39
0
210
0
220
0
230
1
0
LINE
5
AE
100
AcDbEntity
8
1
62
256
6
ByLayer
370
18
48
1
60
0
100
AcDbLine
10
34.756062
20
-4.914366
30
0
11
31.062505
21
-5.564426
31
0
39
0
210
0
220
0
230
1
0
LINE
5
AF
100
AcDbEntity
8
1
62
256
6
ByLayer
370
18
48
1
60
0
100
AcDbLine
10
0.711314
20
-14.395581
30
0
11
4.0631
21
-17.629251
31
0
39
0
210
0
220
0
230
1
0
LINE
5
B0
100
AcDbEntity
8
1
62
256
6
ByLayer
370
18
48
1
60
0
100
AcDbLine
10
25.261425
20
-21.22252
30
0
11
24.608621
21
-22.332275
31
0
39
0
210
0
220
0
230
1
0
LINE
5
B1
100
AcDbEntity
8
1
62
256
6
ByLayer
370
18
48
1
60
0
100
AcDbLine
10
8.171981
20
15.786027
30
0
11
24.679283
21
6.130693
31
0
39
0
210
0
220
0
230
1
0
LINE
5
B2
100
AcDbEntity
8
1
62
256
6
ByLayer
370
18
48
1
60
0
100
AcDbLine
10
35.148712
20
-4.414324
30
0
11
35.087201
21
-4.351436
31
0
39
0
210
0
220
0
230
1
0
LINE
5
B3
100
AcDbEntity
8
1
62
256
6
ByLayer
370
18
48
1
60
0
100
AcDbLine
10
4.0631
20
-17.629251
30
0
11
3.957924
21
-18.735109
31
0
39
0
210
0
220
0
230
1
0
LINE
5
B4
100
AcDbEntity
8
1
62
256
6
ByLayer
370
18
48
1
60
0
100
AcDbLine
10
0
20
-13.762332
30
0
11
0
21
-12.255697
31
0
39
0
210
0
220
0
230
1
0
LINE
5
B5
100
AcDbEntity
8
1
62
256
6
ByLayer
370
18
48
1
60
0
100
AcDbLine
10
25.135907
20
-21.268442
30
0
11
23.920096
21
-17.824436
31
0
39
0
210
0
220
0
230
1
0
LINE
5
B6
100
AcDbEntity
8
1
62
256
6
ByLayer
370
18
48
1
60
0
100
AcDbLine
10
2.37981
20
-18.30481
30
0
11
0
21
-15.925
31
0
39
0
210
0
220
0
230
1
0
LINE
5
B7
100
AcDbEntity
8
1
62
256
6
ByLayer
370
18
48
1
60
0
100
AcDbLine
10
18.509945
20
-6.198351
30
0
11
18.301324
21
-5.98973
31
0
39
0
210
0
220
0
230
1
0
LINE
5
B8
100
AcDbEntity
8
1
62
256
6
ByLayer
370
18
48
1
60
0
100
AcDbLine
10
18.016737
20
-7.015725
30
0
11
18.22986
21
-7.228847
31
0
39
0
210
0
220
0
230
1
0
LINE
5
B9
100
AcDbEntity
8
1
62
256
6
ByLayer
370
18
48
1
60
0
100
AcDbLine
10
15.51406
20
-5.623944
30
0
11
15.578237
21
-5.688121
31
0
39
0
210
0
220
0
230
1
0
LINE
5
BA
100
AcDbEntity
8
1
62
256
6
ByLayer
370
18
48
1
60
0
100
AcDbLine
10
16.319458
20
-7.126856
30
0
11
16.528078
21
-7.335477
31
0
39
0
210
0
220
0
230
1
0
LINE
5
BB
100
AcDbEntity
8
1
62
256
6
ByLayer
370
18
48
1
60
0
100
AcDbLine
10
17.707343
20
-6.999488
30
0
11
17.915963
21
-7.208108
31
0
39
0
210
0
220
0
230
1
0
LINE
5
BC
100
AcDbEntity
8
1
62
256
6
ByLayer
370
18
48
1
60
0
100
AcDbLine
10
17.693976
20
-7.335477
30
0
11
17.485355
21
-7.126856
31
0
39
0
210
0
220
0
230
1
0
LINE
5
BD
100
AcDbEntity
8
1
62
256
6
ByLayer
370
18
48
1
60
0
100
AcDbLine
10
17.512988
20
-4.597867
30
0
11
17.721608
21
-4.806488
31
0
39
0
210
0
220
0
230
1
0
LINE
5
BE
100
AcDbEntity
8
1
62
256
6
ByLayer
370
18
48
1
60
0
100
AcDbLine
10
16.308874
20
-7.208108
30
0
11
16.100254
21
-6.999488
31
0
39
0
210
0
220
0
230
1
0
LINE
5
BF
100
AcDbEntity
8
1
62
256
6
ByLayer
370
18
48
1
60
0
100
AcDbLine
10
15.790504
20
-7.015725
30
0
11
16.003626
21
-7.228847
31
0
39
0
210
0
220
0
230
1
0
LINE
5
C0
100
AcDbEntity
8
1
62
256
6
ByLayer
370
18
48
1
60
0
100
AcDbLine
10
18.475796
20
-5.474999
30
0
11
18.688918
21
-5.688121
31
0
39
0
210
0
220
0
230
1
0
LINE
5
C1
100
AcDbEntity
8
1
62
256
6
ByLayer
370
18
48
1
60
0
100
AcDbLine
10
17.375281
20
-4.321635
30
0
11
17.588403
21
-4.534758
31
0
39
0
210
0
220
0
230
1
0
LINE
5
C2
100
AcDbEntity
8
1
62
256
6
ByLayer
370
18
48
1
60
0
100
AcDbLine
10
17.341612
20
-7.403088
30
0
11
17.554734
21
-7.61621
31
0
39
0
210
0
220
0
230
1
0
LINE
5
C3
100
AcDbEntity
8
1
62
256
6
ByLayer
370
18
48
1
60
0
100
AcDbLine
10
18.304108
20
-5.734993
30
0
11
18.512728
21
-5.943614
31
0
39
0
210
0
220
0
230
1
0
LINE
5
C4
100
AcDbEntity
8
1
62
256
6
ByLayer
370
18
48
1
60
0
100
AcDbLine
10
25.084828
20
-20.373247
30
0
11
25.085445
21
-20.373864
31
0
39
0
210
0
220
0
230
1
0
LINE
5
C5
100
AcDbEntity
8
1
62
256
6
ByLayer
370
18
48
1
60
0
100
AcDbLine
10
35.220552
20
-10.430228
30
0
11
35.733371
21
-12.381791
31
0
39
0
210
0
220
0
230
1
0
LINE
5
C6
100
AcDbEntity
8
1
62
256
6
ByLayer
370
18
48
1
60
0
100
AcDbLine
10
9.482961
20
-4.972794
30
0
11
8.049539
21
-4.14118
31
0
39
0
210
0
220
0
230
1
0
LINE
5
C7
100
AcDbEntity
8
1
62
256
6
ByLayer
370
18
48
1
60
0
100
AcDbLine
10
15.378953
20
-10.933523
30
0
11
15.110126
21
-10.721311
31
0
39
0
210
0
220
0
230
1
0
LINE
5
C8
100
AcDbEntity
8
1
62
256
6
ByLayer
370
18
48
1
60
0
100
AcDbLine
10
13.103454
20
-9.55712
30
0
11
15.110126
21
-10.721311
31
0
39
0
210
0
220
0
230
1
0
LINE
5
C9
100
AcDbEntity
8
1
62
256
6
ByLayer
370
18
48
1
60
0
100
AcDbLine
10
13.949975
20
3.695162
30
0
11
21.512029
21
-0.698773
31
0
39
0
210
0
220
0
230
1
0
LINE
5
CA
100
AcDbEntity
8
1
62
256
6
ByLayer
370
18
48
1
60
0
100
AcDbLine
10
13.363708
20
-9.762564
30
0
11
13.103454
21
-9.55712
31
0
39
0
210
0
220
0
230
1
0
LINE
5
CB
100
AcDbEntity
8
1
62
256
6
ByLayer
370
18
48
1
60
0
100
AcDbLine
10
20.597675
20
-2.061797
30
0
11
18.58243
21
-0.890837
31
0
39
0
210
0
220
0
230
1
0
LINE
5
CC
100
AcDbEntity
8
1
62
256
6
ByLayer
370
18
48
1
60
0
100
AcDbLine
10
8.007082
20
-11.362757
30
0
11
8.052241
21
-11.364594
31
0
39
0
210
0
220
0
230
1
0
LINE
5
CD
100
AcDbEntity
8
1
62
256
6
ByLayer
370
18
48
1
60
0
100
AcDbLine
10
8.007082
20
-11.362757
30
0
11
6.017997
21
-10.206998
31
0
39
0
210
0
220
0
230
1
0
LINE
5
CE
100
AcDbEntity
8
1
62
256
6
ByLayer
370
18
48
1
60
0
100
AcDbLine
10
22.361538
20
2.227346
30
0
11
17.655952
21
4.961528
31
0
39
0
210
0
220
0
230
1
0
LINE
5
CF
100
AcDbEntity
8
1
62
256
6
ByLayer
370
18
48
1
60
0
100
AcDbLine
10
9.848673
20
5.690418
30
0
11
3.768608
21
-4.645574
31
0
39
0
210
0
220
0
230
1
0
LINE
5
D0
100
AcDbEntity
8
1
62
256
6
ByLayer
370
18
48
1
60
0
100
AcDbLine
10
12.757827
20
-14.098777
30
0
11
8.052241
21
-11.364594
31
0
39
0
210
0
220
0
230
1
0
LINE
5
D1
100
AcDbEntity
8
1
62
256
6
ByLayer
370
18
48
1
60
0
100
AcDbLine
10
11.821846
20
4.132795
30
0
11
9.848673
21
5.690418
31
0
39
0
210
0
220
0
230
1
0
LINE
5
D2
100
AcDbEntity
8
1
62
256
6
ByLayer
370
18
48
1
60
0
100
AcDbLine
10
6.292126
20
-5.485461
30
0
11
11.446517
21
3.276902
31
0
39
0
210
0
220
0
230
1
0
LINE
5
D3
100
AcDbEntity
8
1
62
256
6
ByLayer
370
18
48
1
60
0
100
AcDbLine
10
15.644766
20
6.158322
30
0
11
14.909938
21
6.738395
31
0
39
0
210
0
220
0
230
1
0
LINE
5
D4
100
AcDbEntity
8
1
62
256
6
ByLayer
370
18
48
1
60
0
100
AcDbLine
10
17.63385
20
5.002564
30
0
11
17.655952
21
4.961528
31
0
39
0
210
0
220
0
230
1
0
LINE
5
D5
100
AcDbEntity
8
1
62
256
6
ByLayer
370
18
48
1
60
0
100
AcDbLine
10
7.143044
20
-7.876488
30
0
11
14.705099
21
-12.270422
31
0
39
0
210
0
220
0
230
1
0
LINE
5
D6
100
AcDbEntity
8
1
62
256
6
ByLayer
370
18
48
1
60
0
100
AcDbLine
10
5.741781
20
-6.203197
30
0
11
3.768608
21
-4.645574
31
0
39
0
210
0
220
0
230
1
0
LINE
5
D7
100
AcDbEntity
8
1
62
256
6
ByLayer
370
18
48
1
60
0
100
AcDbLine
10
15.644766
20
6.158322
30
0
11
17.63385
21
5.002564
31
0
39
0
210
0
220
0
230
1
0
LINE
5
D8
100
AcDbEntity
8
1
62
256
6
ByLayer
370
18
48
1
60
0
100
AcDbLine
10
9.822822
20
-5.24108
30
0
11
9.482961
21
-4.972794
31
0
39
0
210
0
220
0
230
1
0
LINE
5
D9
100
AcDbEntity
8
1
62
256
6
ByLayer
370
18
48
1
60
0
100
AcDbLine
10
32.164635
20
-18.448573
30
0
11
30.201955
21
-18.961746
31
0
39
0
210
0
220
0
230
1
0
LINE
5
DA
100
AcDbEntity
8
1
62
256
6
ByLayer
370
18
48
1
60
0
100
AcDbLine
10
17.63385
20
5.002564
30
0
11
15.110382
21
6.61108
31
0
39
0
210
0
220
0
230
1
0
LINE
5
DB
100
AcDbEntity
8
1
62
256
6
ByLayer
370
18
48
1
60
0
100
AcDbLine
10
33.012943
20
-15.048407
30
0
11
35.790882
21
-16.538985
31
0
39
0
210
0
220
0
230
1
0
LINE
5
DC
100
AcDbEntity
8
1
62
256
6
ByLayer
370
18
48
1
60
0
100
AcDbLine
10
13.363708
20
-9.762564
30
0
11
15.378953
21
-10.933523
31
0
39
0
210
0
220
0
230
1
0
LINE
5
DD
100
AcDbEntity
8
1
62
256
6
ByLayer
370
18
48
1
60
0
100
AcDbLine
10
8.049539
20
-4.14118
30
0
11
11.089571
21
1.026816
31
0
39
0
210
0
220
0
230
1
0
LINE
5
DE
100
AcDbEntity
8
1
62
256
6
ByLayer
370
18
48
1
60
0
100
AcDbLine
10
25.763337
20
-21.026647
30
0
11
25.763954
21
-21.027263
31
0
39
0
210
0
220
0
230
1
0
MTEXT
5
178
100
AcDbEntity
8
SK6
62
256
6
ByLayer
370
18
48
1
60
0
100
AcDbMText
10
-57.167925
20
25.05585
30
0
210
0
220
0
230
1
1
\W0.7605;DRSNL 3232P 19
40
3.5
41
0
44
1.084337
50
0
71
7
72
5
7
iso_b_vert
0
DIMENSION
5
198
100
AcDbEntity
8
2
62
256
6
ByLayer
370
13
48
1
60
0
100
AcDbDimension
2
DimnDraft3D2
10
42.632075
20
-52.675
30
0
11
15.797616
21
-52.675
31
0
70
32
71
5
72
1
41
1
210
0
220
0
230
1
3
Standard
100
AcDbAlignedDimension
13
0
23
-17.925
33
0
14
42.632075
24
-26.425
34
0
50
0
100
AcDbRotatedDimension
1001
ACAD
1000
DSTYLE
1002
{
1070
   279
1070
     0
1070
   172
1070
     1
1070
   173
1070
     1
1070
   340
1005
179
1070
    77
1070
     1
1070
    73
1070
     0
1070
   171
1070
     3
1070
   274
1070
     4
1070
   177
1070
     2
1070
   176
1070
     2
1070
   178
1070
     7
1070
    78
1070
     8
1070
    41
1041
3.175
1070
   147
1041
2.25
1070
    42
1041
2.0
1070
    44
1041
2.0
1070
   140
1041
4.5
1070
   343
1005
199
1070
   344
1005
199
1002
}
0
DIMENSION
5
1AD
100
AcDbEntity
8
2
62
256
6
ByLayer
370
13
48
1
60
0
100
AcDbDimension
2
DimnDraft3D3
10
64.882075
20
-24.425
30
0
11
64.882075
21
-9.768421
31
0
70
32
71
5
72
1
41
1
210
0
220
0
230
1
3
Standard
100
AcDbAlignedDimension
13
2
23
15.925
33
0
14
44.632075
24
-24.425
34
0
50
90
100
AcDbRotatedDimension
1001
ACAD
1000
DSTYLE
1002
{
1070
    74
1070
     0
1070
   279
1070
     0
1070
   172
1070
     1
1070
   173
1070
     1
1070
   340
1005
179
1070
    77
1070
     1
1070
    73
1070
     0
1070
   171
1070
     3
1070
   274
1070
     4
1070
   177
1070
     2
1070
   176
1070
     2
1070
   178
1070
     7
1070
    78
1070
     8
1070
    41
1041
3.175
1070
   147
1041
2.25
1070
    42
1041
2.0
1070
    44
1041
2.0
1070
   140
1041
4.5
1070
   343
1005
199
1070
   344
1005
199
1002
}
0
DIMENSION
5
1BB
100
AcDbEntity
8
SK2
62
256
6
ByLayer
370
13
48
1
60
0
100
AcDbDimension
2
DimnDraft3D4
10
-136.467925
20
-15.925
30
0
11
-136.467925
21
-5.281579
31
0
70
32
71
5
72
1
41
1
210
0
220
0
230
1
3
Standard
100
AcDbAlignedDimension
13
-130.717925
23
15.925
33
0
14
-130.717925
24
-15.925
34
0
50
90
100
AcDbRotatedDimension
1001
ACAD
1000
DSTYLE
1002
{
1070
    74
1070
     0
1070
   279
1070
     0
1070
   172
1070
     1
1070
   173
1070
     1
1070
   340
1005
179
1070
    77
1070
     1
1070
    73
1070
     0
1070
   171
1070
     3
1070
   274
1070
     4
1070
   177
1070
     2
1070
   176
1070
     2
1070
   178
1070
     7
1070
    78
1070
     8
1070
    41
1041
3.175
1070
   147
1041
2.25
1070
    42
1041
2.0
1070
    44
1041
2.0
1070
   140
1041
4.5
1070
   343
1005
199
1070
   344
1005
199
1002
}
0
ENDSEC
0
SECTION
2
OBJECTS
0
DICTIONARY
5
225
330
0
100
AcDbDictionary
280
0
281
1
3
ACAD_GROUP
350
226
3
ACAD_MLINESTYLE
350
227
0
DICTIONARY
5
226
330
0
100
AcDbDictionary
280
0
281
1
0
DICTIONARY
5
227
330
0
100
AcDbDictionary
280
0
281
1
3
Standard
350
18
0
MLINESTYLE
5
18
330
227
100
AcDbMlineStyle
2
Standard
70
0
3

62
256
51
90
52
90
71
2
49
-0.5
62
256
6
ByLayer
49
0.5
62
256
6
ByLayer
0
RASTERVARIABLES
5
214
330

100
AcDbRasterVariables
90
0
70
1
71
1
72
1
0
ENDSEC
0
EOF
