0
SECTION
2
HEADER
9
$ACADVER
1
AC1015
9
$DWGCODEPAGE
3
ANSI_1252
9
$HANDSEED
5
21f
9
$ANGBASE
50
0
9
$ANGDIR
70
0
9
$ATTMODE
70
1
9
$AUNITS
70
0
9
$AUPREC
70
0
9
$CECOLOR
62
256
9
$CELTSCALE
40
1
9
$CELTYPE
6
ByLayer
9
$CELWEIGHT
370
18
9
$CLAYER
8
0
9
$CMLJUST
70
0
9
$CMLSCALE
40
1
9
$CMLSTYLE
2
Standard
9
$DIMSTYLE
2
Standard
9
$TEXTSIZE
40
0.2
9
$TEXTSTYLE
7
Standard
9
$LUNITS
70
2
9
$LUPREC
70
4
9
$EXTNAMES
290
1
9
$INSUNITS
70
4
9
$LTSCALE
40
1
9
$LWDISPLAY
290
1
9
$PDMODE
70
0
9
$PDSIZE
40
0
9
$PLINEGEN
70
0
0
ENDSEC
0
SECTION
2
CLASSES
0
CLASS
1
RASTERVARIABLES
2
AcDbRasterVariables
3
ISM
90
0
280
0
281
0
0
ENDSEC
0
SECTION
2
TABLES
0
TABLE
2
VPORT
5
215
100
AcDbSymbolTable
0
VPORT
5
1
100
AcDbSymbolTableRecord
100
AcDbViewportTableRecord
2
*Active
70
0
10
0
20
0
11
1
21
1
12
-1
22
1
13
0
23
0
14
0.5
24
0.5
15
10
25
10
16
0
26
0
36
1
17
0
27
0
37
0
0
ENDTAB
0
TABLE
2
LTYPE
5
216
100
AcDbSymbolTable
0
LTYPE
5
14
100
AcDbSymbolTableRecord
100
AcDbLinetypeTableRecord
70
0
2
ByBlock
3

72
65
73
0
40
0
0
LTYPE
5
15
100
AcDbSymbolTableRecord
100
AcDbLinetypeTableRecord
70
0
2
ByLayer
3

72
65
73
0
40
0
0
LTYPE
5
16
100
AcDbSymbolTableRecord
100
AcDbLinetypeTableRecord
70
0
2
CONTINUOUS
3
Solid line
72
65
73
0
40
0
0
LTYPE
5
6A
100
AcDbSymbolTableRecord
100
AcDbLinetypeTableRecord
70
0
2
CENTER
3
____ _ ____ _ ____ _ ____
72
65
73
4
40
47.5
49
22
74
0
49
-8.5
74
0
49
8.5
74
0
49
-8.5
74
0
0
LTYPE
5
6B
100
AcDbSymbolTableRecord
100
AcDbLinetypeTableRecord
70
0
2
DASHED
3
__ __ __ __ __ __ __ __ __
72
65
73
2
40
25.72
49
12.86
74
0
49
-12.86
74
0
0
ENDTAB
0
TABLE
2
LAYER
5
217
100
AcDbSymbolTable
0
LAYER
5
10
100
AcDbSymbolTableRecord
100
AcDbLayerTableRecord
2
0
70
0
62
7
6
CONTINUOUS
290
1
370
-3
390
0
0
LAYER
5
6D
100
AcDbSymbolTableRecord
100
AcDbLayerTableRecord
2
2
70
0
62
7
6
CONTINUOUS
290
1
370
-3
390
0
0
LAYER
5
6F
100
AcDbSymbolTableRecord
100
AcDbLayerTableRecord
2
80
70
0
62
-6
6
CONTINUOUS
290
1
370
-3
390
0
0
LAYER
5
71
100
AcDbSymbolTableRecord
100
AcDbLayerTableRecord
2
81
70
0
62
-3
6
CONTINUOUS
290
1
370
-3
390
0
0
LAYER
5
73
100
AcDbSymbolTableRecord
100
AcDbLayerTableRecord
2
1
70
0
62
4
6
CONTINUOUS
290
1
370
-3
390
0
0
LAYER
5
202
100
AcDbSymbolTableRecord
100
AcDbLayerTableRecord
2
SK1
70
0
62
4
6
CONTINUOUS
290
1
370
-3
390
0
0
LAYER
5
203
100
AcDbSymbolTableRecord
100
AcDbLayerTableRecord
2
SK6
70
0
62
5
6
CONTINUOUS
290
1
370
-3
390
0
0
LAYER
5
204
100
AcDbSymbolTableRecord
100
AcDbLayerTableRecord
2
SK2
70
0
62
7
6
CONTINUOUS
290
1
370
-3
390
0
0
ENDTAB
0
TABLE
2
STYLE
5
218
100
AcDbSymbolTable
0
STYLE
5
11
100
AcDbSymbolTableRecord
100
AcDbTextStyleTableRecord
2
Standard
3
txt
70
0
71
0
40
0
41
1
42
0
50
0
0
STYLE
5
166
100
AcDbSymbolTableRecord
100
AcDbTextStyleTableRecord
2
iso_b_vert
3
simplex.shx
70
0
71
0
40
0
41
1
42
0
50
0
0
STYLE
5
167
100
AcDbSymbolTableRecord
100
AcDbTextStyleTableRecord
2
DWGDirectTextStyle
3
simplex
70
0
71
0
40
0
41
1
42
0
50
0
0
ENDTAB
0
TABLE
2
DIMSTYLE
5
219
100
AcDbSymbolTable
100
AcDbDimStyleTable
0
DIMSTYLE
105
27
100
AcDbSymbolTableRecord
100
AcDbDimStyleTableRecord
2
Standard
70
0
3
<>
41
0.18
42
0.0625
44
0.18
140
0.18
147
0.09
73
0
74
0
77
1
271
2
275
0
278
52
280
0
340
11
0
ENDTAB
0
TABLE
2
VIEW
5
21a
100
AcDbSymbolTable
0
ENDTAB
0
TABLE
2
UCS
5
21b
100
AcDbSymbolTable
0
ENDTAB
0
TABLE
2
APPID
5
21c
100
AcDbSymbolTable
0
APPID
5
12
100
AcDbSymbolTableRecord
100
AcDbRegAppTableRecord
2
ACAD
70
0
0
ENDTAB
0
TABLE
2
BLOCK_RECORD
5
21d
100
AcDbSymbolTable
0
BLOCK_RECORD
5
1F
100
AcDbSymbolTableRecord
100
AcDbBlockTableRecord
2
*Model_Space
340
0
70
0
0
BLOCK_RECORD
5
1B
100
AcDbSymbolTableRecord
100
AcDbBlockTableRecord
2
*Paper_Space
340
0
70
0
0
BLOCK_RECORD
5
23
100
AcDbSymbolTableRecord
100
AcDbBlockTableRecord
2
*Paper_Space0
340
0
70
0
0
BLOCK_RECORD
5
169
100
AcDbSymbolTableRecord
100
AcDbBlockTableRecord
2
DimnDraft3D11
340
0
70
0
0
BLOCK_RECORD
5
178
100
AcDbSymbolTableRecord
100
AcDbBlockTableRecord
2
DimnDraft3D2
340
0
70
0
0
BLOCK_RECORD
5
186
100
AcDbSymbolTableRecord
100
AcDbBlockTableRecord
2
_CLOSED
340
0
70
0
0
BLOCK_RECORD
5
18D
100
AcDbSymbolTableRecord
100
AcDbBlockTableRecord
2
DimnDraft3D3
340
0
70
0
0
BLOCK_RECORD
5
19B
100
AcDbSymbolTableRecord
100
AcDbBlockTableRecord
2
DimnDraft3D4
340
0
70
0
0
ENDTAB
0
ENDSEC
0
SECTION
2
BLOCKS
0
BLOCK
5
20
100
AcDbEntity
8
0
100
AcDbBlockBegin
2
*Model_Space
70
0
10
0
20
0
30
0
3
*Model_Space
0
ENDBLK
5
21
100
AcDbEntity
8
0
100
AcDbBlockEnd
0
BLOCK
5
1C
100
AcDbEntity
8
0
100
AcDbBlockBegin
2
*Paper_Space
70
0
10
0
20
0
30
0
3
*Paper_Space
0
ENDBLK
5
1D
100
AcDbEntity
8
0
100
AcDbBlockEnd
0
BLOCK
5
24
100
AcDbEntity
8
0
100
AcDbBlockBegin
2
*Paper_Space0
70
0
10
0
20
0
30
0
3
*Paper_Space0
0
ENDBLK
5
25
100
AcDbEntity
8
0
100
AcDbBlockEnd
0
BLOCK
5
16A
100
AcDbEntity
8
0
100
AcDbBlockBegin
2
DimnDraft3D11
70
0
10
0
20
0
30
0
3
DimnDraft3D11
0
LINE
5
16C
100
AcDbEntity
8
SK2
62
256
6
ByLayer
370
25
48
1
60
0
100
AcDbLine
10
38.461974
20
-21.9125
30
0
11
38.461974
21
-60.1625
31
0
39
0
210
0
220
0
230
1
0
LINE
5
16E
100
AcDbEntity
8
SK2
62
256
6
ByLayer
370
25
48
1
60
0
100
AcDbLine
10
-132.888026
20
-14.4375
30
0
11
-132.888026
21
-60.1625
31
0
39
0
210
0
220
0
230
1
0
LINE
5
16F
100
AcDbEntity
8
SK2
62
256
6
ByLayer
370
25
48
1
60
0
100
AcDbLine
10
38.461974
20
-58.1625
30
0
11
-132.888026
21
-58.1625
31
0
39
0
210
0
220
0
230
1
0
LINE
5
170
100
AcDbEntity
8
SK2
62
256
6
ByLayer
370
25
48
1
60
0
100
AcDbLine
10
38.461974
20
-58.1625
30
0
11
35.286976
21
-58.580497
31
0
39
0
210
0
220
0
230
1
0
LINE
5
171
100
AcDbEntity
8
SK2
62
256
6
ByLayer
370
25
48
1
60
0
100
AcDbLine
10
38.461974
20
-58.1625
30
0
11
35.286973
21
-57.744503
31
0
39
0
210
0
220
0
230
1
0
LINE
5
172
100
AcDbEntity
8
SK2
62
256
6
ByLayer
370
25
48
1
60
0
100
AcDbLine
10
35.286976
20
-58.580497
30
0
11
35.286973
21
-57.744503
31
0
39
0
210
0
220
0
230
1
0
LINE
5
173
100
AcDbEntity
8
SK2
62
256
6
ByLayer
370
25
48
1
60
0
100
AcDbLine
10
-132.888026
20
-58.1625
30
0
11
-129.713027
21
-57.744503
31
0
39
0
210
0
220
0
230
1
0
LINE
5
174
100
AcDbEntity
8
SK2
62
256
6
ByLayer
370
25
48
1
60
0
100
AcDbLine
10
-132.888026
20
-58.1625
30
0
11
-129.713024
21
-58.580497
31
0
39
0
210
0
220
0
230
1
0
LINE
5
175
100
AcDbEntity
8
SK2
62
256
6
ByLayer
370
25
48
1
60
0
100
AcDbLine
10
-129.713027
20
-57.744503
30
0
11
-129.713024
21
-58.580497
31
0
39
0
210
0
220
0
230
1
0
MTEXT
5
176
100
AcDbEntity
8
SK2
62
256
6
ByLayer
370
18
48
1
60
0
100
AcDbMText
10
-52.488684
20
-57.0375
30
0
210
0
220
0
230
1
1
\W0.6864;170.0
40
4.5
41
0
44
1.084337
50
0
71
7
72
5
7
iso_b_vert
0
ENDBLK
5
16B
100
AcDbEntity
8
0
100
AcDbBlockEnd
0
BLOCK
5
183
100
AcDbEntity
8
0
100
AcDbBlockBegin
2
DimnDraft3D2
70
0
10
0
20
0
30
0
3
DimnDraft3D2
0
MTEXT
5
179
100
AcDbEntity
8
2
62
256
6
ByLayer
370
18
48
1
60
0
100
AcDbMText
10
15.074408
20
-47.0375
30
0
210
0
220
0
230
1
1
\W0.7346;38.5
40
4.5
41
0
44
1.084337
50
0
71
7
72
5
7
iso_b_vert
0
LINE
5
17A
100
AcDbEntity
8
2
62
256
6
ByLayer
370
13
48
1
60
0
100
AcDbLine
10
0
20
-14.4375
30
0
11
0
21
-50.1625
31
0
39
0
210
0
220
0
230
1
0
LINE
5
17B
100
AcDbEntity
8
2
62
256
6
ByLayer
370
13
48
1
60
0
100
AcDbLine
10
38.461974
20
-21.9125
30
0
11
38.461974
21
-50.1625
31
0
39
0
210
0
220
0
230
1
0
LINE
5
17C
100
AcDbEntity
8
2
62
256
6
ByLayer
370
13
48
1
60
0
100
AcDbLine
10
0
20
-48.1625
30
0
11
38.461974
21
-48.1625
31
0
39
0
210
0
220
0
230
1
0
LINE
5
17D
100
AcDbEntity
8
2
62
256
6
ByLayer
370
13
48
1
60
0
100
AcDbLine
10
0
20
-48.1625
30
0
11
3.174998
21
-47.744503
31
0
39
0
210
0
220
0
230
1
0
LINE
5
17E
100
AcDbEntity
8
2
62
256
6
ByLayer
370
13
48
1
60
0
100
AcDbLine
10
0
20
-48.1625
30
0
11
3.175002
21
-48.580497
31
0
39
0
210
0
220
0
230
1
0
LINE
5
17F
100
AcDbEntity
8
2
62
256
6
ByLayer
370
13
48
1
60
0
100
AcDbLine
10
3.174998
20
-47.744503
30
0
11
3.175002
21
-48.580497
31
0
39
0
210
0
220
0
230
1
0
LINE
5
180
100
AcDbEntity
8
2
62
256
6
ByLayer
370
13
48
1
60
0
100
AcDbLine
10
38.461974
20
-48.1625
30
0
11
35.286976
21
-48.580497
31
0
39
0
210
0
220
0
230
1
0
LINE
5
181
100
AcDbEntity
8
2
62
256
6
ByLayer
370
13
48
1
60
0
100
AcDbLine
10
38.461974
20
-48.1625
30
0
11
35.286973
21
-47.744503
31
0
39
0
210
0
220
0
230
1
0
LINE
5
182
100
AcDbEntity
8
2
62
256
6
ByLayer
370
13
48
1
60
0
100
AcDbLine
10
35.286976
20
-48.580497
30
0
11
35.286973
21
-47.744503
31
0
39
0
210
0
220
0
230
1
0
ENDBLK
5
184
100
AcDbEntity
8
0
100
AcDbBlockEnd
0
BLOCK
5
187
100
AcDbEntity
8
0
100
AcDbBlockBegin
2
_CLOSED
70
0
10
0
20
0
30
0
3
_CLOSED
0
LINE
5
189
100
AcDbEntity
8
0
62
256
6
ByLayer
370
-2
48
1
60
0
100
AcDbLine
10
-1
20
0.166667
30
0
11
0
21
0
31
0
39
0
210
0
220
0
230
1
0
LINE
5
18A
100
AcDbEntity
8
0
62
256
6
ByLayer
370
-2
48
1
60
0
100
AcDbLine
10
0
20
0
30
0
11
-1
21
-0.166667
31
0
39
0
210
0
220
0
230
1
0
LINE
5
18B
100
AcDbEntity
8
0
62
256
6
ByLayer
370
-2
48
1
60
0
100
AcDbLine
10
-1
20
0.166667
30
0
11
-1
21
-0.166667
31
0
39
0
210
0
220
0
230
1
0
LINE
5
18C
100
AcDbEntity
8
0
62
256
6
ByLayer
370
-2
48
1
60
0
100
AcDbLine
10
0
20
0
30
0
11
-1
21
0
31
0
39
0
210
0
220
0
230
1
0
ENDBLK
5
188
100
AcDbEntity
8
0
100
AcDbBlockEnd
0
BLOCK
5
198
100
AcDbEntity
8
0
100
AcDbBlockBegin
2
DimnDraft3D3
70
0
10
0
20
0
30
0
3
DimnDraft3D3
0
MTEXT
5
18E
100
AcDbEntity
8
2
62
256
6
ByLayer
370
18
48
1
60
0
100
AcDbMText
10
59.586974
20
-7.894079
30
0
210
0
220
0
230
1
1
\W0.7346;32.0
40
4.5
41
0
44
1.084337
50
90
71
7
72
5
7
iso_b_vert
0
LINE
5
18F
100
AcDbEntity
8
2
62
256
6
ByLayer
370
13
48
1
60
0
100
AcDbLine
10
2
20
12.4375
30
0
11
62.711974
21
12.4375
31
0
39
0
210
0
220
0
230
1
0
LINE
5
190
100
AcDbEntity
8
2
62
256
6
ByLayer
370
13
48
1
60
0
100
AcDbLine
10
40.461974
20
-19.9125
30
0
11
62.711974
21
-19.9125
31
0
39
0
210
0
220
0
230
1
0
LINE
5
191
100
AcDbEntity
8
2
62
256
6
ByLayer
370
13
48
1
60
0
100
AcDbLine
10
60.711974
20
12.4375
30
0
11
60.711974
21
-19.9125
31
0
39
0
210
0
220
0
230
1
0
LINE
5
192
100
AcDbEntity
8
2
62
256
6
ByLayer
370
13
48
1
60
0
100
AcDbLine
10
60.711974
20
12.4375
30
0
11
61.129971
21
9.262502
31
0
39
0
210
0
220
0
230
1
0
LINE
5
193
100
AcDbEntity
8
2
62
256
6
ByLayer
370
13
48
1
60
0
100
AcDbLine
10
60.711974
20
12.4375
30
0
11
60.293978
21
9.262498
31
0
39
0
210
0
220
0
230
1
0
LINE
5
194
100
AcDbEntity
8
2
62
256
6
ByLayer
370
13
48
1
60
0
100
AcDbLine
10
61.129971
20
9.262502
30
0
11
60.293978
21
9.262498
31
0
39
0
210
0
220
0
230
1
0
LINE
5
195
100
AcDbEntity
8
2
62
256
6
ByLayer
370
13
48
1
60
0
100
AcDbLine
10
60.711974
20
-19.9125
30
0
11
60.293978
21
-16.737502
31
0
39
0
210
0
220
0
230
1
0
LINE
5
196
100
AcDbEntity
8
2
62
256
6
ByLayer
370
13
48
1
60
0
100
AcDbLine
10
60.711974
20
-19.9125
30
0
11
61.129971
21
-16.737498
31
0
39
0
210
0
220
0
230
1
0
LINE
5
197
100
AcDbEntity
8
2
62
256
6
ByLayer
370
13
48
1
60
0
100
AcDbLine
10
60.293978
20
-16.737502
30
0
11
61.129971
21
-16.737498
31
0
39
0
210
0
220
0
230
1
0
ENDBLK
5
199
100
AcDbEntity
8
0
100
AcDbBlockEnd
0
BLOCK
5
1A6
100
AcDbEntity
8
0
100
AcDbBlockBegin
2
DimnDraft3D4
70
0
10
0
20
0
30
0
3
DimnDraft3D4
0
MTEXT
5
19C
100
AcDbEntity
8
SK2
62
256
6
ByLayer
370
18
48
1
60
0
100
AcDbMText
10
-141.763026
20
-4.156579
30
0
210
0
220
0
230
1
1
\W0.7346;25.0
40
4.5
41
0
44
1.084337
50
90
71
7
72
5
7
iso_b_vert
0
LINE
5
19D
100
AcDbEntity
8
SK2
62
256
6
ByLayer
370
13
48
1
60
0
100
AcDbLine
10
-134.888026
20
12.4375
30
0
11
-142.638026
21
12.4375
31
0
39
0
210
0
220
0
230
1
0
LINE
5
19E
100
AcDbEntity
8
SK2
62
256
6
ByLayer
370
13
48
1
60
0
100
AcDbLine
10
-134.888026
20
-12.4375
30
0
11
-142.638026
21
-12.4375
31
0
39
0
210
0
220
0
230
1
0
LINE
5
19F
100
AcDbEntity
8
SK2
62
256
6
ByLayer
370
13
48
1
60
0
100
AcDbLine
10
-140.638026
20
12.4375
30
0
11
-140.638026
21
-12.4375
31
0
39
0
210
0
220
0
230
1
0
LINE
5
1A0
100
AcDbEntity
8
SK2
62
256
6
ByLayer
370
13
48
1
60
0
100
AcDbLine
10
-140.638026
20
12.4375
30
0
11
-140.220029
21
9.262502
31
0
39
0
210
0
220
0
230
1
0
LINE
5
1A1
100
AcDbEntity
8
SK2
62
256
6
ByLayer
370
13
48
1
60
0
100
AcDbLine
10
-140.638026
20
12.4375
30
0
11
-141.056022
21
9.262498
31
0
39
0
210
0
220
0
230
1
0
LINE
5
1A2
100
AcDbEntity
8
SK2
62
256
6
ByLayer
370
13
48
1
60
0
100
AcDbLine
10
-140.220029
20
9.262502
30
0
11
-141.056022
21
9.262498
31
0
39
0
210
0
220
0
230
1
0
LINE
5
1A3
100
AcDbEntity
8
SK2
62
256
6
ByLayer
370
13
48
1
60
0
100
AcDbLine
10
-140.638026
20
-12.4375
30
0
11
-141.056022
21
-9.262502
31
0
39
0
210
0
220
0
230
1
0
LINE
5
1A4
100
AcDbEntity
8
SK2
62
256
6
ByLayer
370
13
48
1
60
0
100
AcDbLine
10
-140.638026
20
-12.4375
30
0
11
-140.220029
21
-9.262498
31
0
39
0
210
0
220
0
230
1
0
LINE
5
1A5
100
AcDbEntity
8
SK2
62
256
6
ByLayer
370
13
48
1
60
0
100
AcDbLine
10
-141.056022
20
-9.262502
30
0
11
-140.220029
21
-9.262498
31
0
39
0
210
0
220
0
230
1
0
ENDBLK
5
1A7
100
AcDbEntity
8
0
100
AcDbBlockEnd
0
ENDSEC
0
SECTION
2
ENTITIES
0
ELLIPSE
5
DA
100
AcDbEntity
8
1
62
256
6
ByLayer
370
18
48
1
60
0
100
AcDbEllipse
10
0.670157
20
-10.627535
30
0
11
-0.655988230298619
21
-2.21856681512645
31
0
210
0
220
0
230
1
40
0.254739
41
0.408360203375998
42
0.653555798217526
0
ELLIPSE
5
DB
100
AcDbEntity
8
1
62
256
6
ByLayer
370
18
48
1
60
0
100
AcDbEllipse
10
12.337703
20
9.207068
30
0
11
-0.724921397847938
21
0.345466286459109
31
0
210
0
220
0
230
1
40
0.049413
41
-3.00309861721852
42
-1.43230229043958
0
ELLIPSE
5
DC
100
AcDbEntity
8
1
62
256
6
ByLayer
370
18
48
1
60
0
100
AcDbEllipse
10
16.003615
20
-3.872313
30
0
11
0.989949493661161
21
0.989949493661171
31
0
210
0
220
0
230
1
40
0.989133
41
-3.11244005792768
42
-0.140787695744281
0
ELLIPSE
5
DD
100
AcDbEntity
8
1
62
256
6
ByLayer
370
18
48
1
60
0
100
AcDbEllipse
10
16.269415
20
-4.138113
30
0
11
0.989949493661161
21
0.989949493661171
31
0
210
0
220
0
230
1
40
0.989133
41
-2.97685763348772
42
-2.79365531513668
0
ELLIPSE
5
DE
100
AcDbEntity
8
1
62
256
6
ByLayer
370
18
48
1
60
0
100
AcDbEllipse
10
16.976709
20
-5.546603
30
0
11
0.353553390593272
21
0.353553390593276
31
0
210
0
220
0
230
1
40
0.989133
41
1.56254477953195
42
2.19651919408344
0
ELLIPSE
5
DF
100
AcDbEntity
8
1
62
256
6
ByLayer
370
18
48
1
60
0
100
AcDbEllipse
10
16.060794
20
-3.929492
30
0
11
0.989949493661161
21
0.989949493661171
31
0
210
0
220
0
230
1
40
0.989133
41
2.75281704605758
42
-2.97685763348731
0
ELLIPSE
5
E0
100
AcDbEntity
8
1
62
256
6
ByLayer
370
18
48
1
60
0
100
AcDbEllipse
10
17.189832
20
-5.759725
30
0
11
0.353553390593272
21
0.353553390593276
31
0
210
0
220
0
230
1
40
0.989133
41
0.410548266865075
42
0.924509918891689
0
ELLIPSE
5
E1
100
AcDbEntity
8
1
62
256
6
ByLayer
370
18
48
1
60
0
100
AcDbEllipse
10
15.322664
20
-5.759725
30
0
11
0.353553390593272
21
0.353553390593276
31
0
210
0
220
0
230
1
40
0.989133
41
-0.636649284331606
42
-0.12268763230488
0
ELLIPSE
5
E2
100
AcDbEntity
8
1
62
256
6
ByLayer
370
18
48
1
60
0
100
AcDbEllipse
10
14.778057
20
-4.665482
30
0
11
-0.318198051533945
21
-0.318198051533948
31
0
210
0
220
0
230
1
40
0.989133
41
0.345365408186526
42
1.14932164288685
0
ELLIPSE
5
E3
100
AcDbEntity
8
1
62
256
6
ByLayer
370
18
48
1
60
0
100
AcDbEllipse
10
18.141084
20
-4.142614
30
0
11
0.353553390593272
21
0.353553390593276
31
0
210
0
220
0
230
1
40
0.989133
41
1.45774581806161
42
1.97170747008826
0
ELLIPSE
5
E4
100
AcDbEntity
8
1
62
256
6
ByLayer
370
18
48
1
60
0
100
AcDbEllipse
10
14.991179
20
-4.878604
30
0
11
-0.318198051533945
21
-0.318198051533948
31
0
210
0
220
0
230
1
40
0.989133
41
-1.68384683552817
42
1.14932164288683
0
ELLIPSE
5
E5
100
AcDbEntity
8
1
62
256
6
ByLayer
370
18
48
1
60
0
100
AcDbEllipse
10
16.273917
20
-4.142614
30
0
11
1.00762716319082
21
1.00762716319084
31
0
210
0
220
0
230
1
40
0.989133
41
-3.01545337856998
42
-2.75505957005437
0
ELLIPSE
5
E6
100
AcDbEntity
8
1
62
256
6
ByLayer
370
18
48
1
60
0
100
AcDbEllipse
10
16.076878
20
-2.457512
30
0
11
-0.318198051533945
21
-0.318198051533948
31
0
210
0
220
0
230
1
40
0.989133
41
2.50494336925819
42
2.7962274911685
0
ELLIPSE
5
E7
100
AcDbEntity
8
1
62
256
6
ByLayer
370
18
48
1
60
0
100
AcDbEllipse
10
17.927962
20
-3.929492
30
0
11
0.353553390593272
21
0.353553390593276
31
0
210
0
220
0
230
1
40
0.989133
41
1.45774581806156
42
2.09172023261301
0
ELLIPSE
5
E8
100
AcDbEntity
8
1
62
256
6
ByLayer
370
18
48
1
60
0
100
AcDbEllipse
10
16.269415
20
-4.138113
30
0
11
0.989949493661161
21
0.989949493661171
31
0
210
0
220
0
230
1
40
0.989133
41
2.25913012249569
42
2.44233244084591
0
ELLIPSE
5
E9
100
AcDbEntity
8
1
62
256
6
ByLayer
370
18
48
1
60
0
100
AcDbEllipse
10
16.060794
20
-3.929492
30
0
11
0.989949493661161
21
0.989949493661171
31
0
210
0
220
0
230
1
40
0.989133
41
0.347937338452711
42
0.936155972858262
0
ELLIPSE
5
EA
100
AcDbEntity
8
1
62
256
6
ByLayer
370
18
48
1
60
0
100
AcDbEllipse
10
16.273917
20
-4.142614
30
0
11
-1.76776695296636
21
-1.76776695296638
31
0
210
0
220
0
230
1
40
0.989133
41
0
42
6.28318530717959
0
ELLIPSE
5
EB
100
AcDbEntity
8
1
62
256
6
ByLayer
370
18
48
1
60
0
100
AcDbEllipse
10
16.044711
20
-5.401472
30
0
11
-0.318198051533945
21
-0.318198051533948
31
0
210
0
220
0
230
1
40
0.989133
41
0.345396954052774
42
2.19651919408342
0
ELLIPSE
5
EC
100
AcDbEntity
8
1
62
256
6
ByLayer
370
18
48
1
60
0
100
AcDbEllipse
10
17.343532
20
-3.193502
30
0
11
-0.318198051533945
21
-0.318198051533948
31
0
210
0
220
0
230
1
40
0.989133
41
1.45774581806152
42
2.79624117087081
0
ELLIPSE
5
ED
100
AcDbEntity
8
1
62
256
6
ByLayer
370
18
48
1
60
0
100
AcDbEllipse
10
16.273917
20
-4.142614
30
0
11
1.00762716319082
21
1.00762716319084
31
0
210
0
220
0
230
1
40
0.989133
41
1.17333682621641
42
1.43373063473204
0
ELLIPSE
5
EE
100
AcDbEntity
8
1
62
256
6
ByLayer
370
18
48
1
60
0
100
AcDbEllipse
10
14.406749
20
-4.142614
30
0
11
0.353553390593272
21
0.353553390593276
31
0
210
0
220
0
230
1
40
0.989133
41
-0.411837560336508
42
0.102124091690212
0
ELLIPSE
5
EF
100
AcDbEntity
8
1
62
256
6
ByLayer
370
18
48
1
60
0
100
AcDbEllipse
10
16.273917
20
-4.142614
30
0
11
1.00762716319082
21
1.00762716319084
31
0
210
0
220
0
230
1
40
0.989133
41
0.126139275019819
42
0.386533083535442
0
ELLIPSE
5
F0
100
AcDbEntity
8
1
62
256
6
ByLayer
370
18
48
1
60
0
100
AcDbEllipse
10
15.109542
20
-5.546603
30
0
11
0.353553390593272
21
0.353553390593276
31
0
210
0
220
0
230
1
40
0.989133
41
0.515347228335384
42
1.14932164288676
0
ELLIPSE
5
F1
100
AcDbEntity
8
1
62
256
6
ByLayer
370
18
48
1
60
0
100
AcDbEllipse
10
17.927962
20
-3.929492
30
0
11
0.353553390593272
21
0.353553390593276
31
0
210
0
220
0
230
1
40
0.989133
41
2.60974233072855
42
3.14158663920268
0
ELLIPSE
5
F2
100
AcDbEntity
8
1
62
256
6
ByLayer
370
18
48
1
60
0
100
AcDbEllipse
10
16.273917
20
-4.142614
30
0
11
1.00762716319082
21
1.00762716319084
31
0
210
0
220
0
230
1
40
0.989133
41
-1.96825582737337
42
-1.70786201885776
0
ELLIPSE
5
F3
100
AcDbEntity
8
1
62
256
6
ByLayer
370
18
48
1
60
0
100
AcDbEllipse
10
16.269415
20
-4.138113
30
0
11
0.989949493661161
21
0.989949493661171
31
0
210
0
220
0
230
1
40
0.989133
41
-1.9296600822907
42
-1.74645776394048
0
ELLIPSE
5
F4
100
AcDbEntity
8
1
62
256
6
ByLayer
370
18
48
1
60
0
100
AcDbEllipse
10
17.189832
20
-5.759725
30
0
11
0.353553390593272
21
0.353553390593276
31
0
210
0
220
0
230
1
40
0.989133
41
1.68255754205672
42
2.19651919408342
0
ELLIPSE
5
F5
100
AcDbEntity
8
1
62
256
6
ByLayer
370
18
48
1
60
0
100
AcDbEllipse
10
17.225169
20
-2.525503
30
0
11
0.353553390593272
21
0.353553390593276
31
0
210
0
220
0
230
1
40
0.989133
41
-2.50623266272974
42
-1.99227101070305
0
ELLIPSE
5
F6
100
AcDbEntity
8
1
62
256
6
ByLayer
370
18
48
1
60
0
100
AcDbEllipse
10
14.406749
20
-4.142614
30
0
11
0.353553390593272
21
0.353553390593276
31
0
210
0
220
0
230
1
40
0.989133
41
-1.68384683552822
42
-1.1698851835015
0
ELLIPSE
5
F7
100
AcDbEntity
8
1
62
256
6
ByLayer
370
18
48
1
60
0
100
AcDbEllipse
10
17.556654
20
-3.406624
30
0
11
-0.318198051533945
21
-0.318198051533948
31
0
210
0
220
0
230
1
40
0.989133
41
1.45774581806156
42
-1.99227101070292
0
ELLIPSE
5
F8
100
AcDbEntity
8
1
62
256
6
ByLayer
370
18
48
1
60
0
100
AcDbEllipse
10
16.273917
20
-4.142614
30
0
11
1.00762716319082
21
1.00762716319084
31
0
210
0
220
0
230
1
40
0.989133
41
-0.92105827617679
42
-0.660664467661155
0
ELLIPSE
5
F9
100
AcDbEntity
8
1
62
256
6
ByLayer
370
18
48
1
60
0
100
AcDbEllipse
10
15.007262
20
-3.406624
30
0
11
-0.318198051533945
21
-0.318198051533948
31
0
210
0
220
0
230
1
40
0.989133
41
-2.73104438672474
42
0.102124091690167
0
ELLIPSE
5
FA
100
AcDbEntity
8
1
62
256
6
ByLayer
370
18
48
1
60
0
100
AcDbEllipse
10
15.962031
20
-3.830728
30
0
11
3.53553390593272
21
3.53553390593275
31
0
210
0
220
0
230
1
40
0.989133
41
9.25661184122191E-05
42
0.295991359961675
0
ELLIPSE
5
FB
100
AcDbEntity
8
1
62
256
6
ByLayer
370
18
48
1
60
0
100
AcDbEllipse
10
16.257834
20
-5.614595
30
0
11
-0.318198051533945
21
-0.318198051533948
31
0
210
0
220
0
230
1
40
0.989133
41
-0.6366492843316
42
2.19651919408342
0
ELLIPSE
5
FC
100
AcDbEntity
8
1
62
256
6
ByLayer
370
18
48
1
60
0
100
AcDbEllipse
10
16.133116
20
-4.001814
30
0
11
-3.53553390593272
21
-3.53553390593275
31
0
210
0
220
0
230
1
40
0.989133
41
0
42
6.28318530717959
0
ELLIPSE
5
FD
100
AcDbEntity
8
1
62
256
6
ByLayer
370
18
48
1
60
0
100
AcDbEllipse
10
18.141084
20
-4.142614
30
0
11
0.353553390593272
21
0.353553390593276
31
0
210
0
220
0
230
1
40
0.989133
41
2.72975509325334
42
-3.03946856189952
0
ELLIPSE
5
FE
100
AcDbEntity
8
1
62
256
6
ByLayer
370
18
48
1
60
0
100
AcDbEllipse
10
17.225169
20
-2.525503
30
0
11
0.353553390593272
21
0.353553390593276
31
0
210
0
220
0
230
1
40
0.989133
41
2.50494336925813
42
3.0189050212848
0
ELLIPSE
5
FF
100
AcDbEntity
8
1
62
256
6
ByLayer
370
18
48
1
60
0
100
AcDbEllipse
10
16.269415
20
-4.138113
30
0
11
0.989949493661161
21
0.989949493661171
31
0
210
0
220
0
230
1
40
0.989133
41
0.164735020102499
42
0.347937338453146
0
ELLIPSE
5
100
100
AcDbEntity
8
1
62
256
6
ByLayer
370
18
48
1
60
0
100
AcDbEllipse
10
16.060794
20
-3.929492
30
0
11
0.989949493661161
21
0.989949493661171
31
0
210
0
220
0
230
1
40
0.989133
41
-0.699260212743873
42
-0.0819494291464763
0
ELLIPSE
5
101
100
AcDbEntity
8
1
62
256
6
ByLayer
370
18
48
1
60
0
100
AcDbEllipse
10
16.269415
20
-4.138113
30
0
11
0.989949493661161
21
0.989949493661171
31
0
210
0
220
0
230
1
40
0.989133
41
1.21193257129905
42
1.39513488964997
0
ELLIPSE
5
102
100
AcDbEntity
8
1
62
256
6
ByLayer
370
18
48
1
60
0
100
AcDbEllipse
10
17.540571
20
-4.878604
30
0
11
-0.318198051533945
21
-0.318198051533948
31
0
210
0
220
0
230
1
40
0.989133
41
0.410548266865041
42
-3.03946856189959
0
ELLIPSE
5
103
100
AcDbEntity
8
1
62
256
6
ByLayer
370
18
48
1
60
0
100
AcDbEllipse
10
16.976709
20
-5.546603
30
0
11
0.353553390593272
21
0.353553390593276
31
0
210
0
220
0
230
1
40
0.989133
41
0.410548266864999
42
1.04452268141647
0
ELLIPSE
5
104
100
AcDbEntity
8
1
62
256
6
ByLayer
370
18
48
1
60
0
100
AcDbEllipse
10
16.269415
20
-4.138113
30
0
11
0.989949493661161
21
0.989949493661171
31
0
210
0
220
0
230
1
40
0.989133
41
-0.882462531094108
42
-0.699260212743873
0
ELLIPSE
5
105
100
AcDbEntity
8
1
62
256
6
ByLayer
370
18
48
1
60
0
100
AcDbEllipse
10
17.327449
20
-4.665482
30
0
11
-0.318198051533945
21
-0.318198051533948
31
0
210
0
220
0
230
1
40
0.989133
41
0.410548266865008
42
2.99311319358133
0
ELLIPSE
5
106
100
AcDbEntity
8
1
62
256
6
ByLayer
370
18
48
1
60
0
100
AcDbEllipse
10
16.060794
20
-3.929492
30
0
11
0.989949493661161
21
0.989949493661171
31
0
210
0
220
0
230
1
40
0.989133
41
1.58328302166279
42
2.20116089918982
0
ELLIPSE
5
107
100
AcDbEntity
8
1
62
256
6
ByLayer
370
18
48
1
60
0
100
AcDbEllipse
10
16.060794
20
-3.929492
30
0
11
0.989949493661161
21
0.989949493661171
31
0
210
0
220
0
230
1
40
0.989133
41
-2.79365531513706
42
-1.9296600822907
0
ELLIPSE
5
108
100
AcDbEntity
8
1
62
256
6
ByLayer
370
18
48
1
60
0
100
AcDbEllipse
10
16.273917
20
-4.142614
30
0
11
1.00762716319082
21
1.00762716319084
31
0
210
0
220
0
230
1
40
0.989133
41
2.22053437741301
42
2.48092818592863
0
ELLIPSE
5
109
100
AcDbEntity
8
1
62
256
6
ByLayer
370
18
48
1
60
0
100
AcDbEllipse
10
15.358002
20
-2.525503
30
0
11
0.353553390593272
21
0.353553390593276
31
0
210
0
220
0
230
1
40
0.989133
41
-1.45903511153308
42
-0.945073459506426
0
ELLIPSE
5
10A
100
AcDbEntity
8
1
62
256
6
ByLayer
370
18
48
1
60
0
100
AcDbEllipse
10
15.322664
20
-5.759725
30
0
11
0.353553390593272
21
0.353553390593276
31
0
210
0
220
0
230
1
40
0.989133
41
0.635359990860119
42
1.14932164288676
0
ELLIPSE
5
10B
100
AcDbEntity
8
1
62
256
6
ByLayer
370
18
48
1
60
0
100
AcDbEllipse
10
15.358002
20
-2.525503
30
0
11
0.353553390593272
21
0.353553390593276
31
0
210
0
220
0
230
1
40
0.989133
41
-2.73104438672485
42
-2.21708273469819
0
ELLIPSE
5
10C
100
AcDbEntity
8
1
62
256
6
ByLayer
370
18
48
1
60
0
100
AcDbEllipse
10
16.060794
20
-3.929492
30
0
11
0.989949493661161
21
0.989949493661171
31
0
210
0
220
0
230
1
40
0.989133
41
-1.74645776394048
42
-0.882462531094111
0
ELLIPSE
5
10D
100
AcDbEntity
8
1
62
256
6
ByLayer
370
18
48
1
60
0
100
AcDbEllipse
10
16.29
20
-2.670634
30
0
11
-0.318198051533945
21
-0.318198051533948
31
0
210
0
220
0
230
1
40
0.989133
41
2.50494336925821
42
-0.945073459506382
0
ELLIPSE
5
10E
100
AcDbEntity
8
1
62
256
6
ByLayer
370
18
48
1
60
0
100
AcDbEllipse
10
17.012047
20
-2.312381
30
0
11
0.353553390593272
21
0.353553390593276
31
0
210
0
220
0
230
1
40
0.989133
41
2.50494336925817
42
3.13891778380958
0
ELLIPSE
5
10F
100
AcDbEntity
8
1
62
256
6
ByLayer
370
18
48
1
60
0
100
AcDbEllipse
10
29.228817
20
-10.704453
30
0
11
-5.61266007566819
21
-5.61266007566825
31
0
210
0
220
0
230
1
40
0.989133
41
-2.70462235043967
42
-0.76900863973448
0
ELLIPSE
5
110
100
AcDbEntity
8
1
62
256
6
ByLayer
370
18
48
1
60
0
100
AcDbEllipse
10
29.228817
20
-10.704453
30
0
11
-5.61266007566819
21
-5.61266007566825
31
0
210
0
220
0
230
1
40
0.989133
41
3.14158703960489
42
-2.70462235043966
0
ELLIPSE
5
111
100
AcDbEntity
8
1
62
256
6
ByLayer
370
18
48
1
60
0
100
AcDbEllipse
10
29.847392
20
-11.323027
30
0
11
5.61266007566819
21
5.61266007566825
31
0
210
0
220
0
230
1
40
0.989133
41
3.02652625326775
42
-3.07474115458812
0
ELLIPSE
5
112
100
AcDbEntity
8
1
62
256
6
ByLayer
370
18
48
1
60
0
100
AcDbEllipse
10
29.847392
20
-11.323027
30
0
11
5.61266007566819
21
5.61266007566825
31
0
210
0
220
0
230
1
40
0.989133
41
0.25200905637643
42
0.547907850005147
0
ELLIPSE
5
113
100
AcDbEntity
8
1
62
256
6
ByLayer
370
18
48
1
60
0
100
AcDbEllipse
10
10.670109
20
-4.080635
30
0
11
4.74062427965016
21
-2.78863433228371
31
0
210
0
220
0
230
1
40
0.037276
41
-2.32961951165471
42
-1.92420033964145
0
ELLIPSE
5
114
100
AcDbEntity
8
1
62
256
6
ByLayer
370
18
48
1
60
0
100
AcDbEllipse
10
10.056947
20
10.042124
30
0
11
6.03352181046384
21
-3.54917096836108
31
0
210
0
220
0
230
1
40
0.037276
41
0.806029476653114
42
0.836708533810381
0
ELLIPSE
5
115
100
AcDbEntity
8
1
62
256
6
ByLayer
370
18
48
1
60
0
100
AcDbEllipse
10
14.720977
20
3.003373
30
0
11
-1.55545744541712
21
4.59961726795631
31
0
210
0
220
0
230
1
40
0.562635
41
-0.571906642845923
42
0.546066031325065
0
ELLIPSE
5
116
100
AcDbEntity
8
1
62
256
6
ByLayer
370
18
48
1
60
0
100
AcDbEllipse
10
9.27932
20
-6.247339
30
0
11
-4.58591180513457
21
-0.163031395407887
31
0
210
0
220
0
230
1
40
0.529564
41
-0.418666593460064
42
0.699306080710179
0
ELLIPSE
5
117
100
AcDbEntity
8
1
62
256
6
ByLayer
370
18
48
1
60
0
100
AcDbEllipse
10
16.728394
20
-4.275191
30
0
11
-3.54187344004919
21
-3.73866721368379
31
0
210
0
220
0
230
1
40
0.9865
41
0.229639942064435
42
-3.05268634065743
0
ELLIPSE
5
118
100
AcDbEntity
8
1
62
256
6
ByLayer
370
18
48
1
60
0
100
AcDbEllipse
10
31.071225
20
-12.471553
30
0
11
-0.786136808441064
21
-2.82529681283814
31
0
210
0
220
0
230
1
40
0.796432
41
1.40453015911166
42
1.85424013514676
0
ELLIPSE
5
119
100
AcDbEntity
8
1
62
256
6
ByLayer
370
18
48
1
60
0
100
AcDbEllipse
10
31.071225
20
-12.471553
30
0
11
-2.43288570683473
21
-1.45102130863066
31
0
210
0
220
0
230
1
40
0.785786
41
1.57351890768579
42
2.02322888373175
0
ELLIPSE
5
11A
100
AcDbEntity
8
1
62
256
6
ByLayer
370
18
48
1
60
0
100
AcDbEllipse
10
6.695017
20
-4.207291
30
0
11
-3.172950046659
21
-1.48676553289312
31
0
210
0
220
0
230
1
40
0.994282
41
-0.96724515480873
42
0.204989675902797
0
ELLIPSE
5
11B
100
AcDbEntity
8
1
62
256
6
ByLayer
370
18
48
1
60
0
100
AcDbEllipse
10
12.136675
20
5.043422
30
0
11
-3.17295004666001
21
-1.48676553288809
31
0
210
0
220
0
230
1
40
0.994282
41
-2.13947998551911
42
-0.967245154807342
0
ELLIPSE
5
11C
100
AcDbEntity
8
1
62
256
6
ByLayer
370
18
48
1
60
0
100
AcDbEllipse
10
13.710141
20
1.087361
30
0
11
4.74062427965016
21
-2.78863433228371
31
0
210
0
220
0
230
1
40
0.037276
41
-2.32961951165469
42
-1.92420033964145
0
ELLIPSE
5
11D
100
AcDbEntity
8
1
62
256
6
ByLayer
370
18
48
1
60
0
100
AcDbEllipse
10
7.108476
20
-5.625799
30
0
11
2.0632272466306
21
2.17786439632065
31
0
210
0
220
0
230
1
40
0.9865
41
0.0892487394620148
42
0.229639942064431
0
ELLIPSE
5
11E
100
AcDbEntity
8
1
62
256
6
ByLayer
370
18
48
1
60
0
100
AcDbEllipse
10
30.567486
20
-12.018011
30
0
11
5.61266007566819
21
5.61266007566825
31
0
210
0
220
0
230
1
40
0.989133
41
0.790861371251087
42
0.935796354130052
0
ELLIPSE
5
11F
100
AcDbEntity
8
1
62
256
6
ByLayer
370
18
48
1
60
0
100
AcDbEllipse
10
30.567486
20
-12.018011
30
0
11
5.61266007566819
21
5.61266007566825
31
0
210
0
220
0
230
1
40
0.989133
41
2.72935119217357
42
-2.26251664478868E-16
0
ELLIPSE
5
120
100
AcDbEntity
8
1
62
256
6
ByLayer
370
18
48
1
60
0
100
AcDbEllipse
10
30.567486
20
-12.018011
30
0
11
5.61266007566819
21
5.61266007566825
31
0
210
0
220
0
230
1
40
0.989133
41
0
42
0.790861390694852
0
ELLIPSE
5
121
100
AcDbEntity
8
1
62
256
6
ByLayer
370
18
48
1
60
0
100
AcDbEllipse
10
30.567486
20
-12.018011
30
0
11
2.83964098891947
21
2.8396409889195
31
0
210
0
220
0
230
1
40
0.989133
41
-2.96105483016675
42
-4.47195152214375E-16
0
ELLIPSE
5
122
100
AcDbEntity
8
1
62
256
6
ByLayer
370
18
48
1
60
0
100
AcDbEllipse
10
30.567486
20
-12.018011
30
0
11
2.83964098891947
21
2.8396409889195
31
0
210
0
220
0
230
1
40
0.989133
41
0
42
0.326916344959295
0
ELLIPSE
5
123
100
AcDbEntity
8
1
62
256
6
ByLayer
370
18
48
1
60
0
100
AcDbEllipse
10
29.907327
20
-11.357852
30
0
11
-5.61266007566819
21
-5.61266007566825
31
0
210
0
220
0
230
1
40
0.989133
41
-0.133130533367407
42
-2.26251664478868E-16
0
ELLIPSE
5
124
100
AcDbEntity
8
1
62
256
6
ByLayer
370
18
48
1
60
0
100
AcDbEllipse
10
29.907327
20
-11.357852
30
0
11
-5.61266007566819
21
-5.61266007566825
31
0
210
0
220
0
230
1
40
0.989133
41
3.14158703960488
42
-2.58455461560079
0
ELLIPSE
5
125
100
AcDbEntity
8
1
62
256
6
ByLayer
370
18
48
1
60
0
100
AcDbEllipse
10
30.52902
20
-11.979545
30
0
11
2.24506403026728
21
2.2450640302673
31
0
210
0
220
0
230
1
40
0.989133
41
-2.57915493827272
42
-0.0356429203081974
0
ELLIPSE
5
126
100
AcDbEntity
8
1
62
256
6
ByLayer
370
18
48
1
60
0
100
AcDbEllipse
10
30.52902
20
-11.979545
30
0
11
2.38648538650458
21
2.38648538650461
31
0
210
0
220
0
230
1
40
0.989133
41
-2.68871794924779
42
0
0
ELLIPSE
5
127
100
AcDbEntity
8
1
62
256
6
ByLayer
370
18
48
1
60
0
100
AcDbEllipse
10
30.52902
20
-11.979545
30
0
11
2.38648538650458
21
2.38648538650461
31
0
210
0
220
0
230
1
40
0.989133
41
0
42
0.055757591749169
0
POINT
5
6C
100
AcDbEntity
8
2
62
256
6
ByLayer
370
18
48
1
60
0
100
AcDbPoint
10
38.461974
20
44.7875
30
0
39
0
210
0
220
0
230
1
50
360
0
POINT
5
6E
100
AcDbEntity
8
80
62
256
6
ByLayer
370
18
48
1
60
0
100
AcDbPoint
10
0
20
0
30
0
39
0
210
0
220
0
230
1
50
360
0
POINT
5
70
100
AcDbEntity
8
81
62
256
6
ByLayer
370
18
48
1
60
0
100
AcDbPoint
10
38.461974
20
-19.9125
30
0
39
0
210
0
220
0
230
1
50
360
0
SPLINE
5
128
100
AcDbEntity
8
1
62
256
6
ByLayer
370
18
48
1
60
0
100
AcDbSpline
70
4
71
3
72
10
73
6
40
0
40
0
40
0
40
0
40
0.537616842495023
40
0.537616842495023
40
1
40
1
40
1
40
1
41
1
10
17.6572999950739
20
-4.01074422921926
30
0
41
1
10
17.6610293455516
20
-4.00048734465383
30
0
41
1
10
17.6651032285393
20
-3.99073972313897
30
0
41
1
10
17.673148103755
20
-3.97352130168227
30
0
41
1
10
17.6770624650042
20
-3.96590421355387
30
0
41
1
10
17.6811261955289
20
-3.95860997178298
30
0
0
SPLINE
5
129
100
AcDbEntity
8
1
62
256
6
ByLayer
370
18
48
1
60
0
100
AcDbSpline
70
4
71
3
72
10
73
6
40
0
40
0
40
0
40
0
40
0.355593196477759
40
0.355593196477759
40
1
40
1
40
1
40
1
41
1
10
14.8707280595613
20
-3.95860997176882
30
0
41
1
10
14.8725436293859
20
-3.96423066236812
30
0
41
1
10
14.8742978711135
20
-3.97004205718193
30
0
41
1
10
14.8790151337716
20
-3.98691267774069
30
0
41
1
10
14.8818237619552
20
-3.99846450683018
30
0
41
1
10
14.8843132509667
20
-4.01074422921928
30
0
0
SPLINE
5
12A
100
AcDbEntity
8
1
62
256
6
ByLayer
370
18
48
1
60
0
100
AcDbSpline
70
4
71
3
72
10
73
6
40
0
40
0
40
0
40
0
40
0.20115753023167
40
0.20115753023167
40
1
40
1
40
1
40
1
41
1
10
15.7449626059119
20
-2.83360141852631
30
0
41
1
10
15.74225013809
20
-2.8362394441491
30
0
41
1
10
15.7394824066918
20
-2.83888932260595
30
0
41
1
10
15.7254947499978
20
-2.85206485755199
30
0
41
1
10
15.7133917645338
20
-2.86279716141308
30
0
41
1
10
15.7002821060128
20
-2.87361827774055
30
0
0
SPLINE
5
12B
100
AcDbEntity
8
1
62
256
6
ByLayer
370
18
48
1
60
0
100
AcDbSpline
70
4
71
3
72
10
73
6
40
0
40
0
40
0
40
0
40
0.276054056491907
40
0.276054056491907
40
1
40
1
40
1
40
1
41
1
10
15.4782950454865
20
-3.00098669874168
30
0
41
1
10
15.4730006421689
20
-3.00287867547607
30
0
41
1
10
15.4677906917844
20
-3.00466352857836
30
0
41
1
10
15.4493067342046
20
-3.01073932432402
30
0
41
1
10
15.4365071960768
20
-3.01445569553573
30
0
41
1
10
15.4242662488281
20
-3.01760578583244
30
0
0
SPLINE
5
12C
100
AcDbEntity
8
1
62
256
6
ByLayer
370
18
48
1
60
0
100
AcDbSpline
70
4
71
3
72
10
73
6
40
0
40
0
40
0
40
0
40
0.769561481283377
40
0.769561481283377
40
1
40
1
40
1
40
1
41
1
10
17.1481512054457
20
-3.01760578583679
30
0
41
1
10
17.1326270979071
20
-3.01425438971771
30
0
41
1
10
17.1166253941525
20
-3.01026127315529
30
0
41
1
10
17.0953257859811
20
-3.00406396686097
30
0
41
1
10
17.0903711795104
20
-3.00256252689195
30
0
41
1
10
17.0853838252717
20
-3.0009866987414
30
0
0
SPLINE
5
12D
100
AcDbEntity
8
1
62
256
6
ByLayer
370
18
48
1
60
0
100
AcDbSpline
70
4
71
3
72
10
73
6
40
0
40
0
40
0
40
0
40
0.537616842495318
40
0.537616842495318
40
1
40
1
40
1
40
1
41
1
10
14.8815299453771
20
-4.26548107121999
30
0
41
1
10
14.8792110017949
20
-4.27714836268098
30
0
41
1
10
14.8766792176442
20
-4.28843808303281
30
0
41
1
10
14.8716755334456
20
-4.30869769550657
30
0
41
1
10
14.869239404936
20
-4.31779301637462
30
0
41
1
10
14.8667071226575
20
-4.3266187063918
30
0
0
SPLINE
5
12E
100
AcDbEntity
8
1
62
256
6
ByLayer
370
18
48
1
60
0
100
AcDbSpline
70
4
71
3
72
10
73
6
40
0
40
0
40
0
40
0
40
0.769561481283304
40
0.769561481283304
40
1
40
1
40
1
40
1
41
1
10
15.3996821127395
20
-5.26762289233668
30
0
41
1
10
15.4126599005615
20
-5.26842796873905
30
0
41
1
10
15.4262577682453
20
-5.27001724923065
30
0
41
1
10
15.4447392370719
20
-5.2733964161803
30
0
41
1
10
15.4490642248241
20
-5.27426823743082
30
0
41
1
10
15.4534461151791
20
-5.27523860169762
30
0
0
SPLINE
5
12F
100
AcDbEntity
8
1
62
256
6
ByLayer
370
18
48
1
60
0
100
AcDbSpline
70
4
71
3
72
10
73
6
40
0
40
0
40
0
40
0
40
0.355593196478083
40
0.355593196478083
40
1
40
1
40
1
40
1
41
1
10
17.6771052586229
20
-4.32661870640371
30
0
41
1
10
17.6741096077109
20
-4.31981793471687
30
0
41
1
10
17.6712071493085
20
-4.31285832322843
30
0
41
1
10
17.6633807604285
20
-4.29287857644766
30
0
41
1
10
17.6586947424084
20
-4.27944935752174
30
0
41
1
10
17.6545166894842
20
-4.26548107122005
30
0
0
SPLINE
5
130
100
AcDbEntity
8
1
62
256
6
ByLayer
370
18
48
1
60
0
100
AcDbSpline
70
4
71
3
72
10
73
6
40
0
40
0
40
0
40
0
40
0.20115753023138
40
0.20115753023138
40
1
40
1
40
1
40
1
41
1
10
16.8028707122738
20
-5.45162725964769
30
0
41
1
10
16.8049147835588
20
-5.44832083748798
30
0
41
1
10
16.807024444411
20
-5.44501288848517
30
0
41
1
10
16.8178116403713
20
-5.42863689280534
30
0
41
1
10
16.8275313936509
20
-5.41552135675985
30
0
41
1
10
16.8385478344383
20
-5.4026070226987
30
0
0
SPLINE
5
131
100
AcDbEntity
8
1
62
256
6
ByLayer
370
18
48
1
60
0
100
AcDbSpline
70
4
71
3
72
10
73
6
40
0
40
0
40
0
40
0
40
0.27605405649249
40
0.27605405649249
40
1
40
1
40
1
40
1
41
1
10
17.0605348949642
20
-5.27523860169728
30
0
41
1
10
17.0665562326121
20
-5.27407355929333
30
0
41
1
10
17.0725279738724
20
-5.27305049706672
30
0
41
1
10
17.093866430473
20
-5.2698292003418
30
0
41
1
10
17.108932750289
20
-5.26837961081839
30
0
41
1
10
17.1235670693584
20
-5.26762289234236
30
0
0
SPLINE
5
132
100
AcDbEntity
8
1
62
256
6
ByLayer
370
18
48
1
60
0
100
AcDbSpline
70
4
71
3
72
10
73
6
40
0
40
0
40
0
40
0
40
0.230438518717005
40
0.230438518717005
40
1
40
1
40
1
40
1
41
1
10
15.672649870116
20
-5.40260702269856
30
0
41
1
10
15.6763668292652
20
-5.40634249786214
30
0
41
1
10
15.6799980646811
20
-5.41009364295786
30
0
41
1
10
15.6953624899822
20
-5.42638064501921
30
0
41
1
10
15.7062715646603
20
-5.4390311322409
30
0
41
1
10
15.7163575329287
20
-5.45162725964741
30
0
0
SPLINE
5
133
100
AcDbEntity
8
1
62
256
6
ByLayer
370
18
48
1
60
0
100
AcDbSpline
70
4
71
3
72
10
73
6
40
0
40
0
40
0
40
0
40
0.230438518716653
40
0.230438518716653
40
1
40
1
40
1
40
1
41
1
10
16.8661800703347
20
-2.87361827774046
30
0
41
1
10
16.8630685750693
20
-2.8704882664606
30
0
41
1
10
16.860066958372
20
-2.86736674008341
30
0
41
1
10
16.8475206724155
20
-2.85389787736673
30
0
41
1
10
16.8390154338082
20
-2.84365122621585
30
0
41
1
10
16.8314757852565
20
-2.83360141852603
30
0
0
SPLINE
5
134
100
AcDbEntity
8
1
62
256
6
ByLayer
370
18
48
1
60
0
100
AcDbSpline
70
4
71
3
72
8
73
4
40
0
40
0
40
0
40
0
40
1
40
1
40
1
40
1
41
1
10
24.6651503884699
20
-15.2825237853206
30
0
41
1
10
24.8132753320475
20
-15.3384635956545
30
0
41
1
10
24.9627523795946
20
-15.391647398477
30
0
41
1
10
25.1140217127239
20
-15.44069587839
30
0
0
SPLINE
5
135
100
AcDbEntity
8
1
62
256
6
ByLayer
370
18
48
1
60
0
100
AcDbSpline
70
4
71
3
72
8
73
4
40
0
40
0
40
0
40
0
40
1
40
1
40
1
40
1
41
1
10
19.7255227001067
20
-0.111217519387026
30
0
41
1
10
19.6622420270203
20
-0.0705076954114929
30
0
41
1
10
19.5980023718925
20
-0.0311758854246023
30
0
41
1
10
19.5327694037221
20
0.0067277542984812
30
0
0
SPLINE
5
136
100
AcDbEntity
8
1
62
256
6
ByLayer
370
18
48
1
60
0
100
AcDbSpline
70
4
71
3
72
8
73
4
40
0
40
0
40
0
40
0
40
1
40
1
40
1
40
1
41
1
10
13.0624856490156
20
1.46067097664425
30
0
41
1
10
12.7055621896625
20
3.38819055536067
30
0
41
1
10
12.3037020594145
20
5.29711036349516
30
0
41
1
10
12.0295904166334
20
6.43954741008426
30
0
0
SPLINE
5
137
100
AcDbEntity
8
1
62
256
6
ByLayer
370
18
48
1
60
0
100
AcDbSpline
70
4
71
3
72
14
73
10
40
0
40
0
40
0
40
0
40
0.0560617400824669
40
0.0560617400824669
40
0.432699965147831
40
0.432699965147831
40
0.811345304670921
40
0.811345304670921
40
1
40
1
40
1
40
1
41
1
10
32.2180366846275
20
-14.3793222620317
30
0
41
1
10
32.1847367199862
20
-14.3963926736096
30
0
41
1
10
32.151107334518
20
-14.4131847431721
30
0
41
1
10
31.8914610737253
20
-14.5393246626276
30
0
41
1
10
31.6484706863047
20
-14.6364696867162
30
0
41
1
10
31.1634102768866
20
-14.7846108101548
30
0
41
1
10
30.9148618324869
20
-14.8370841443403
30
0
41
1
10
30.5681903339321
20
-14.8763121475486
30
0
41
1
10
30.4552807288316
20
-14.8831779293631
30
0
41
1
10
30.3475439593195
20
-14.8841097180521
30
0
0
SPLINE
5
138
100
AcDbEntity
8
1
62
256
6
ByLayer
370
18
48
1
60
0
100
AcDbSpline
70
4
71
3
72
10
73
6
40
0
40
0
40
0
40
0
40
0.5
40
0.5
40
1
40
1
40
1
40
1
41
1
10
29.3133014078817
20
-8.70052369653993
30
0
41
1
10
29.8832742302614
20
-8.52976938285562
30
0
41
1
10
30.4648890711119
20
-8.377199064704
30
0
41
1
10
31.6488087411508
20
-8.59350266754498
30
0
41
1
10
32.2700372147184
20
-8.85486242909383
30
0
41
1
10
32.8055017479674
20
-9.57208293444509
30
0
0
SPLINE
5
139
100
AcDbEntity
8
1
62
256
6
ByLayer
370
18
48
1
60
0
100
AcDbSpline
70
4
71
3
72
8
73
4
40
0
40
0
40
0
40
0
40
1
40
1
40
1
40
1
41
1
10
13.0624856490156
20
1.46067097664425
30
0
41
1
10
13.4338465737243
20
1.40534995714003
30
0
41
1
10
13.8059351102374
20
1.42990006619732
30
0
41
1
10
14.148728367138
20
1.52928341754569
30
0
0
SPLINE
5
13A
100
AcDbEntity
8
1
62
256
6
ByLayer
370
18
48
1
60
0
100
AcDbSpline
70
4
71
3
72
10
73
6
40
0
40
0
40
0
40
0
40
0.5
40
0.5
40
1
40
1
40
1
40
1
41
1
10
14.5118615003811
20
-8.97434044057997
30
0
41
1
10
15.5092872865988
20
-9.49713398319551
30
0
41
1
10
16.6688381111447
20
-9.69063280965722
30
0
41
1
10
18.8876010424763
20
-9.43788556130275
30
0
41
1
10
19.9673979691314
20
-8.97933961570362
30
0
41
1
10
20.7574924328887
20
-8.16120022660263
30
0
0
SPLINE
5
13B
100
AcDbEntity
8
1
62
256
6
ByLayer
370
18
48
1
60
0
100
AcDbSpline
70
4
71
3
72
8
73
4
40
0
40
0
40
0
40
0
40
1
40
1
40
1
40
1
41
1
10
9.58688928572383
20
-3.78211229401973
30
0
41
1
10
9.383956976783
20
-3.58693003232744
30
0
41
1
10
9.16118427254162
20
-3.42046164041449
30
0
41
1
10
8.93188411640426
20
-3.28129890607539
30
0
0
SPLINE
5
13C
100
AcDbEntity
8
1
62
256
6
ByLayer
370
18
48
1
60
0
100
AcDbSpline
70
4
71
3
72
8
73
4
40
0
40
0
40
0
40
0
40
1
40
1
40
1
40
1
41
1
10
11.3924942033788
20
5.51025663584937
30
0
41
1
10
11.7738256412684
20
4.41835033218175
30
0
41
1
10
12.2492062235202
20
3.00667737628424
30
0
41
1
10
12.7191210356921
20
1.54262093166295
30
0
0
SPLINE
5
13D
100
AcDbEntity
8
1
62
256
6
ByLayer
370
18
48
1
60
0
100
AcDbSpline
70
4
71
3
72
8
73
4
40
0
40
0
40
0
40
0
40
1
40
1
40
1
40
1
41
1
10
11.160232698906
20
5.18543364136721
30
0
41
1
10
11.2295839089769
20
5.30332935342923
30
0
41
1
10
11.3074197483035
20
5.41102806679427
30
0
41
1
10
11.3924942033788
20
5.5102566358494
30
0
0
SPLINE
5
13E
100
AcDbEntity
8
1
62
256
6
ByLayer
370
18
48
1
60
0
100
AcDbSpline
70
4
71
3
72
8
73
4
40
0
40
0
40
0
40
0
40
1
40
1
40
1
40
1
41
1
10
14.1970895175888
20
7.8314787671836
30
0
41
1
10
13.755716880728
20
8.11149839178537
30
0
41
1
10
13.2228867252338
20
8.37167160475281
30
0
41
1
10
12.5997820223915
20
8.50235245353045
30
0
0
SPLINE
5
13F
100
AcDbEntity
8
1
62
256
6
ByLayer
370
18
48
1
60
0
100
AcDbSpline
70
4
71
3
72
8
73
4
40
0
40
0
40
0
40
0
40
1
40
1
40
1
40
1
41
1
10
4.67597270694699
20
-7.07351014978391
30
0
41
1
10
4.40501889609641
20
-6.86033092173687
30
0
41
1
10
4.13653085203964
20
-6.60883288329705
30
0
41
1
10
3.88940993042593
20
-6.30511116617743
30
0
0
SPLINE
5
140
100
AcDbEntity
8
1
62
256
6
ByLayer
370
18
48
1
60
0
100
AcDbSpline
70
4
71
3
72
10
73
6
40
0
40
0
40
0
40
0
40
0.731297369966766
40
0.731297369966766
40
1
40
1
40
1
40
1
41
1
10
12.7191210356921
20
1.54262093166292
30
0
41
1
10
12.7995493404032
20
1.51670083723206
30
0
41
1
10
12.8848694062995
20
1.49386024606431
30
0
41
1
10
13.0002958174268
20
1.47075945832938
30
0
41
1
10
13.0316100739128
20
1.46527045973153
30
0
41
1
10
13.0624856490157
20
1.46067097664425
30
0
0
SPLINE
5
141
100
AcDbEntity
8
1
62
256
6
ByLayer
370
18
48
1
60
0
100
AcDbSpline
70
4
71
3
72
12
73
8
40
0
40
0
40
0
40
0
40
0.274077856982872
40
0.274077856982872
40
0.548155363965173
40
0.548155363965173
40
1
40
1
40
1
40
1
41
1
10
20.7574924328886
20
-8.16120022660263
30
0
41
1
10
20.9198408229642
20
-7.99307128188173
30
0
41
1
10
21.0716916879566
20
-7.81383220938881
30
0
41
1
10
21.3503267558526
20
-7.43814177172487
30
0
41
1
10
21.4777496923009
20
-7.24082986086259
30
0
41
1
10
21.7783978984977
20
-6.70168480170389
30
0
41
1
10
21.9300777706972
20
-6.34494810606702
30
0
41
1
10
22.040813515596
20
-5.97957927586157
30
0
0
SPLINE
5
142
100
AcDbEntity
8
1
62
256
6
ByLayer
370
18
48
1
60
0
100
AcDbSpline
70
4
71
3
72
8
73
4
40
0
40
0
40
0
40
0
40
1
40
1
40
1
40
1
41
1
10
24.6651503884699
20
-15.2825237853205
30
0
41
1
10
24.0518091676674
20
-15.0508937118635
30
0
41
1
10
23.277203167531
20
-14.8986004112039
30
0
41
1
10
22.4628968939629
20
-14.8030551856412
30
0
0
SPLINE
5
143
100
AcDbEntity
8
1
62
256
6
ByLayer
370
18
48
1
60
0
100
AcDbSpline
70
4
71
1
72
4
73
2
40
0
40
0
40
1
40
1
41
1
10
20.37701508578
20
1.63987072912661
30
0
41
1
10
20.9012177249462
20
3.79273019131381
30
0
0
SPLINE
5
144
100
AcDbEntity
8
1
62
256
6
ByLayer
370
18
48
1
60
0
100
AcDbSpline
70
4
71
3
72
8
73
4
40
0
40
0
40
0
40
0
40
1
40
1
40
1
40
1
41
1
10
5.0771286450821
20
-5.37950275938295
30
0
41
1
10
6.15008916319562
20
-5.16801265457312
30
0
41
1
10
7.97572992436631
20
-4.64929241973326
30
0
41
1
10
9.82554093489443
20
-4.04207225720236
30
0
0
SPLINE
5
145
100
AcDbEntity
8
1
62
256
6
ByLayer
370
18
48
1
60
0
100
AcDbSpline
70
4
71
2
72
6
73
3
40
0
40
0
40
0
40
1
40
1
40
1
41
0.943993461863076
10
14.5118615003811
20
-8.97434044057995
30
0
41
0.955129617927099
10
13.8263674536606
20
-9.87900535346533
30
0
41
1.0258173342201
10
13.3836517432818
20
-10.2487113176677
30
0
0
SPLINE
5
146
100
AcDbEntity
8
1
62
256
6
ByLayer
370
18
48
1
60
0
100
AcDbSpline
70
4
71
3
72
10
73
6
40
0
40
0
40
0
40
0
40
0.731096563947315
40
0.731096563947315
40
1
40
1
40
1
40
1
41
1
10
9.82554093489443
20
-4.04207225720236
30
0
41
1
10
9.77364266888867
20
-3.97690762861851
30
0
41
1
10
9.71468085831714
20
-3.91080157772657
30
0
41
1
10
9.63230145726681
20
-3.82644395967839
30
0
41
1
10
9.60962919917688
20
-3.80398376318902
30
0
41
1
10
9.58688928572383
20
-3.78211229401973
30
0
0
SPLINE
5
147
100
AcDbEntity
8
1
62
256
6
ByLayer
370
18
48
1
60
0
100
AcDbSpline
70
4
71
3
72
8
73
4
40
0
40
0
40
0
40
0
40
1
40
1
40
1
40
1
41
1
10
12.7191210356921
20
1.54262093166292
30
0
41
1
10
12.452011852259
20
1.62870375142151
30
0
41
1
10
12.2012165129812
20
1.74753420726816
30
0
41
1
10
11.9719163568439
20
1.88669694160725
30
0
0
SPLINE
5
148
100
AcDbEntity
8
1
62
256
6
ByLayer
370
18
48
1
60
0
100
AcDbSpline
70
4
71
3
72
8
73
4
40
0
40
0
40
0
40
0
40
1
40
1
40
1
40
1
41
1
10
19.7255227282028
20
-0.111217456751461
30
0
41
1
10
20.0473057099432
20
0.606146119414063
30
0
41
1
10
20.273056939602
20
1.21292270950798
30
0
41
1
10
20.37701508578
20
1.63987072912664
30
0
0
SPLINE
5
149
100
AcDbEntity
8
1
62
256
6
ByLayer
370
18
48
1
60
0
100
AcDbSpline
70
4
71
3
72
16
73
12
40
0
40
0
40
0
40
0
40
0.474320436274424
40
0.474320436274424
40
0.658954025821062
40
0.658954025821062
40
0.845504004041776
40
0.845504004041776
40
0.957858191960722
40
0.957858191960722
40
1
40
1
40
1
40
1
41
1
10
12.0295904166334
20
6.43954741008426
30
0
41
1
10
11.9853349489163
20
6.34310891883581
30
0
41
1
10
11.916516817277
20
6.22706099860406
30
0
41
1
10
11.7821593304534
20
6.02870458815099
30
0
41
1
10
11.7395101631266
20
5.96782362666207
30
0
41
1
10
11.6457723728164
20
5.83735583261873
30
0
41
1
10
11.5936475995513
20
5.7661824627354
30
0
41
1
10
11.5046302519394
20
5.64890356819967
30
0
41
1
10
11.4691334173751
20
5.60307962921095
30
0
41
1
10
11.4197948975626
20
5.54257704616955
30
0
41
1
10
11.406103682593
20
5.52613036841487
30
0
41
1
10
11.3924942033788
20
5.51025663584937
30
0
0
SPLINE
5
14A
100
AcDbEntity
8
1
62
256
6
ByLayer
370
18
48
1
60
0
100
AcDbSpline
70
4
71
3
72
8
73
4
40
0
40
0
40
0
40
0
40
1
40
1
40
1
40
1
41
1
10
11.924831173853
20
-11.4669528495922
30
0
41
1
10
15.1675489664917
20
-13.3252622215751
30
0
41
1
10
18.7570883527504
20
-14.3682405164495
30
0
41
1
10
22.4628968939629
20
-14.8030551856412
30
0
0
SPLINE
5
14B
100
AcDbEntity
8
1
62
256
6
ByLayer
370
18
48
1
60
0
100
AcDbSpline
70
4
71
3
72
14
73
10
40
0
40
0
40
0
40
0
40
0.264998964150953
40
0.264998964150953
40
0.633007150607446
40
0.633007150607446
40
0.98453381361786
40
0.98453381361786
40
1
40
1
40
1
40
1
41
1
10
32.9687623599374
20
-10.4280892752214
30
0
41
1
10
33.0445891953967
20
-10.5538439278707
30
0
41
1
10
33.1148106496415
20
-10.6953857548554
30
0
41
1
10
33.260013701448
20
-11.0591437258447
30
0
41
1
10
33.3279313599116
20
-11.2970165894699
30
0
41
1
10
33.4177339367274
20
-11.7725171142322
30
0
41
1
10
33.4428491118194
20
-12.0151247810258
30
0
41
1
10
33.4508678978166
20
-12.2615904093505
30
0
41
1
10
33.4511758755191
20
-12.2720699935649
30
0
41
1
10
33.4514509491021
20
-12.2825419343476
30
0
0
SPLINE
5
14C
100
AcDbEntity
8
1
62
256
6
ByLayer
370
18
48
1
60
0
100
AcDbSpline
70
4
71
3
72
11
73
7
40
0
40
0
40
0
40
0
40
0.0598016998855034
40
0.468392215040457
40
0.740785891810426
40
1
40
1
40
1
40
1
41
1.02298250505371
10
22.0408135155256
20
-5.9795792758171
30
0
41
1.02281639303115
10
22.2453907194169
20
-6.10871322350937
30
0
41
1.02150796927554
10
23.8615648009241
20
-7.13236272723553
30
0
41
1.01953314781965
10
26.4594072777885
20
-8.8246812780087
30
0
41
1.0172623798868
10
28.3496650324871
20
-10.1072635304205
30
0
41
1.01931548101
10
29.0849508143296
20
-10.5451522127065
30
0
41
1.02052415826788
10
29.5938113478506
20
-10.8673182204022
30
0
0
SPLINE
5
14D
100
AcDbEntity
8
1
62
256
6
ByLayer
370
18
48
1
60
0
100
AcDbSpline
70
4
71
3
72
8
73
4
40
0
40
0
40
0
40
0
40
1
40
1
40
1
40
1
41
1
10
17.6547319172202
20
1.09796211433576
30
0
41
1
10
16.5598619271361
20
1.73413671763336
30
0
41
1
10
15.2937432274637
20
1.86124856526104
30
0
41
1
10
14.148728367138
20
1.52928341754569
30
0
0
SPLINE
5
14E
100
AcDbEntity
8
1
62
256
6
ByLayer
370
18
48
1
60
0
100
AcDbSpline
70
4
71
3
72
8
73
4
40
0
40
0
40
0
40
0
40
1
40
1
40
1
40
1
41
1
10
30.8895385033454
20
-5.62242934981376
30
0
41
1
10
30.768558425615
20
-5.52188972317427
30
0
41
1
10
30.6448182876204
20
-5.42495367327109
30
0
41
1
10
30.5193193147365
20
-5.33055015157916
30
0
0
SPLINE
5
14F
100
AcDbEntity
8
1
62
256
6
ByLayer
370
18
48
1
60
0
100
AcDbSpline
70
4
71
3
72
20
73
16
40
0
40
0
40
0
40
0
40
0.118962056339779
40
0.118962056339779
40
0.191173230286444
40
0.191173230286444
40
0.263712164126318
40
0.263712164126318
40
0.333306822588756
40
0.333306822588756
40
0.451479822004395
40
0.451479822004395
40
0.65441453400903
40
0.65441453400903
40
1
40
1
40
1
40
1
41
1
10
26.8401639568828
20
-12.9048093969861
30
0
41
1
10
26.825400428866
20
-12.856376180228
30
0
41
1
10
26.8236341795406
20
-12.8019485986274
30
0
41
1
10
26.8591178501642
20
-12.708129796446
30
0
41
1
10
26.8820845603956
20
-12.6703793917487
30
0
41
1
10
26.9473098151109
20
-12.5960378151766
30
0
41
1
10
26.9905084002626
20
-12.5585736518486
30
0
41
1
10
27.0871484928726
20
-12.4908180693824
30
0
41
1
10
27.1409929427173
20
-12.4595021088751
30
0
41
1
10
27.2917511397516
20
-12.3834671421234
30
0
41
1
10
27.3950308558418
20
-12.342921827004
30
0
41
1
10
27.6729917600732
20
-12.2512313176765
30
0
41
1
10
27.8520949279962
20
-12.2105565405705
30
0
41
1
10
28.3173106973962
20
-12.1299115252178
30
0
41
1
10
28.5995640716642
20
-12.1081605099172
30
0
41
1
10
28.8696390669071
20
-12.0983970531011
30
0
0
SPLINE
5
150
100
AcDbEntity
8
1
62
256
6
ByLayer
370
18
48
1
60
0
100
AcDbSpline
70
4
71
2
72
8
73
5
40
0
40
0
40
0
40
0.210534309729082
40
0.210534309729082
40
1
40
1
40
1
41
1
10
29.520314398254
20
-15.1607884439935
30
0
41
1
10
29.0211001645138
20
-15.231980545434
30
0
41
1
10
28.5192662405441
20
-15.280890854681
30
0
41
1
10
26.7022587746112
20
-15.457982105029
30
0
41
1
10
25.1145263307914
20
-15.4390394332204
30
0
0
SPLINE
5
151
100
AcDbEntity
8
1
62
256
6
ByLayer
370
18
48
1
60
0
100
AcDbSpline
70
4
71
3
72
11
73
7
40
0
40
0
40
0
40
0
40
0.0598016998824413
40
0.46839221502871
40
0.740785891792889
40
1
40
1
40
1
40
1
41
1.0229825050537
10
20.757492432815
20
-8.16120022656449
30
0
41
1.02281639303114
10
20.9725844971446
20
-8.27245911543243
30
0
41
1.02150796927553
10
22.6759471396001
20
-9.14788975654783
30
0
41
1.01953314781965
10
25.4703367612703
20
-10.5060819731806
30
0
41
1.01726237988674
10
27.562520172936
20
-11.4453945251816
30
0
41
1.01931548101018
10
28.324058779258
20
-11.8386539150783
30
0
41
1.02052415826821
10
28.8696390669071
20
-12.0983970531011
30
0
0
SPLINE
5
152
100
AcDbEntity
8
1
62
256
6
ByLayer
370
18
48
1
60
0
100
AcDbSpline
70
4
71
3
72
8
73
4
40
0
40
0
40
0
40
0
40
1
40
1
40
1
40
1
41
1
10
9.58688928572383
20
-3.78211229401973
30
0
41
1
10
8.08805842500288
20
-4.06779118597646
30
0
41
1
10
6.64450829015311
20
-4.30038671140997
30
0
41
1
10
5.54586997142849
20
-4.42889116388244
30
0
0
SPLINE
5
153
100
AcDbEntity
8
1
62
256
6
ByLayer
370
18
48
1
60
0
100
AcDbSpline
70
4
71
3
72
10
73
6
40
0
40
0
40
0
40
0
40
0.5
40
0.5
40
1
40
1
40
1
40
1
41
1
10
22.040813515596
20
-5.97957927586154
30
0
41
1
10
22.3693376128089
20
-4.89542984901763
30
0
41
1
10
22.250153318656
20
-3.71250689315957
30
0
41
1
10
21.4021602362699
20
-1.63803904676018
30
0
41
1
10
20.6741066981326
20
-0.720783534280883
30
0
41
1
10
19.7255227001067
20
-0.111217519387026
30
0
0
SPLINE
5
154
100
AcDbEntity
8
1
62
256
6
ByLayer
370
18
48
1
60
0
100
AcDbSpline
70
4
71
3
72
10
73
6
40
0
40
0
40
0
40
0
40
0.914968234315968
40
0.914968234315968
40
1
40
1
40
1
40
1
41
1
10
28.869639066907
20
-12.0983970531011
30
0
41
1
10
29.3123653423718
20
-12.0823219194525
30
0
41
1
10
29.7497211099922
20
-12.0736892605866
30
0
41
1
10
30.2214035912226
20
-12.0718541506004
30
0
41
1
10
30.2614690636507
20
-12.071762840838
30
0
41
1
10
30.3014795532765
20
-12.0717384720998
30
0
0
SPLINE
5
155
100
AcDbEntity
8
1
62
256
6
ByLayer
370
18
48
1
60
0
100
AcDbSpline
70
4
71
3
72
8
73
4
40
0
40
0
40
0
40
0
40
1
40
1
40
1
40
1
41
1
10
5.71857498851904
20
-4.06527892598473
30
0
41
1
10
5.64922377844817
20
-4.18317463804669
30
0
41
1
10
5.59231929816599
20
-4.30453185474403
30
0
41
1
10
5.54586997142849
20
-4.42889116388244
30
0
0
SPLINE
5
156
100
AcDbEntity
8
1
62
256
6
ByLayer
370
18
48
1
60
0
100
AcDbSpline
70
4
71
3
72
8
73
4
40
0
40
0
40
0
40
0
40
1
40
1
40
1
40
1
41
1
10
10.3067244313677
20
-5.00204875805321
30
0
41
1
10
10.5921895885758
20
-6.13566235100299
30
0
41
1
10
11.328918153967
20
-7.13048802925084
30
0
41
1
10
12.4360099044655
20
-7.77376409085275
30
0
0
SPLINE
5
157
100
AcDbEntity
8
1
62
256
6
ByLayer
370
18
48
1
60
0
100
AcDbSpline
70
4
71
3
72
10
73
6
40
0
40
0
40
0
40
0
40
0.5
40
0.5
40
1
40
1
40
1
40
1
41
1
10
28.9956124920618
20
-3.69756537011716
30
0
41
1
10
27.899592734743
20
-2.20425036070273
30
0
41
1
10
26.6835901948996
20
-0.824303332371528
30
0
41
1
10
23.9917967589275
20
1.69012482625772
30
0
41
1
10
22.5110947668555
20
2.84437518648281
30
0
41
1
10
20.9012177249462
20
3.79273019131381
30
0
0
SPLINE
5
158
100
AcDbEntity
8
1
62
256
6
ByLayer
370
18
48
1
60
0
100
AcDbSpline
70
4
71
3
72
10
73
6
40
0
40
0
40
0
40
0
40
0.579529299651684
40
0.579529299651684
40
1
40
1
40
1
40
1
41
1
10
28.9956124920618
20
-3.69756537011719
30
0
41
1
10
29.272120754332
20
-4.07430487277477
30
0
41
1
10
29.5665834643708
20
-4.43455573339131
30
0
41
1
10
30.0801336467318
20
-4.96821507504382
30
0
41
1
10
30.3030534152319
20
-5.16786943741909
30
0
41
1
10
30.5193193147365
20
-5.33055015157925
30
0
0
SPLINE
5
159
100
AcDbEntity
8
1
62
256
6
ByLayer
370
18
48
1
60
0
100
AcDbSpline
70
4
71
3
72
10
73
6
40
0
40
0
40
0
40
0
40
0.5
40
0.5
40
1
40
1
40
1
40
1
41
1
10
29.5169152003684
20
-15.1626162819126
30
0
41
1
10
28.6002573494553
20
-15.0912468111426
30
0
41
1
10
28.0340118633917
20
-14.7403831203753
30
0
41
1
10
27.1940048214931
20
-13.936795790007
30
0
41
1
10
27.0062320640595
20
-13.4209118973478
30
0
41
1
10
26.8401639568828
20
-12.9048093969861
30
0
0
SPLINE
5
15A
100
AcDbEntity
8
1
62
256
6
ByLayer
370
18
48
1
60
0
100
AcDbSpline
70
4
71
3
72
16
73
12
40
0
40
0
40
0
40
0
40
0.107738294188992
40
0.107738294188992
40
0.260376815889417
40
0.260376815889417
40
0.501548994683951
40
0.501548994683951
40
0.879664328740044
40
0.879664328740044
40
1
40
1
40
1
40
1
41
1
10
5.54586997142849
20
-4.42889116388244
30
0
41
1
10
5.52712618274529
20
-4.47907412184986
30
0
41
1
10
5.5058568763273
20
-4.53089789898556
30
0
41
1
10
5.45530531241229
20
-4.64987444577628
30
0
41
1
10
5.42531476744989
20
-4.71705761806689
30
0
41
1
10
5.35305129817834
20
-4.87600283070756
30
0
41
1
10
5.3119745207207
20
-4.96312146696926
30
0
41
1
10
5.21688703767859
20
-5.15585813448789
30
0
41
1
10
5.16631475717048
20
-5.24812290865205
30
0
41
1
10
5.10555460137516
20
-5.34068610307307
30
0
41
1
10
5.09118121410529
20
-5.36106544014612
30
0
41
1
10
5.07712864508233
20
-5.37950275939588
30
0
0
SPLINE
5
15B
100
AcDbEntity
8
1
62
256
6
ByLayer
370
18
48
1
60
0
100
AcDbSpline
70
4
71
2
72
6
73
3
40
0
40
0
40
0
40
1
40
1
40
1
41
1.0258173342201
10
13.3836517432818
20
-10.2487113176677
30
0
41
1.0258173342201
10
12.6542414585674
20
-10.8578320836299
30
0
41
1.0258173342201
10
11.924831173853
20
-11.4669528495922
30
0
0
SPLINE
5
15C
100
AcDbEntity
8
1
62
256
6
ByLayer
370
18
48
1
60
0
100
AcDbSpline
70
4
71
3
72
11
73
7
40
0
40
0
40
0
40
0
40
0.425230898249526
40
0.74415407193667
40
0.956769521061433
40
1
40
1
40
1
40
1
41
1.0258173342201
10
20.37701508578
20
1.63987072912662
30
0
41
1.02559001729416
10
21.30493731262
20
0.975373765207404
30
0
41
1.0228008665691
10
24.0861246695077
20
-2.01579602483352
30
0
41
1.01953314781965
10
27.5497472834791
20
-6.60403612200762
30
0
41
1.01775466813744
10
28.7479556502793
20
-8.18512896741825
30
0
41
1.01823166218986
10
29.2316252651525
20
-8.62958112246413
30
0
41
1.01834276704995
10
29.3133014078816
20
-8.70052369653991
30
0
0
SPLINE
5
15D
100
AcDbEntity
8
1
62
256
6
ByLayer
370
18
48
1
60
0
100
AcDbSpline
70
4
71
3
72
12
73
8
40
0
40
0
40
0
40
0
40
0.499999999999999
40
0.499999999999999
40
0.75
40
0.75
40
1
40
1
40
1
40
1
41
1
10
29.5938113480007
20
-10.8673182204972
30
0
41
1
10
29.4068492771382
20
-10.5340369083922
30
0
41
1
10
29.2287185777905
20
-10.174887694885
30
0
41
1
10
29.0655534232909
20
-9.51933246733108
30
0
41
1
10
29.0300910377191
20
-9.272419397878
30
0
41
1
10
29.0929738809787
20
-8.85538961910467
30
0
41
1
10
29.1994592564258
20
-8.7363602655623
30
0
41
1
10
29.3133014078817
20
-8.70052369653993
30
0
0
SPLINE
5
15E
100
AcDbEntity
8
1
62
256
6
ByLayer
370
18
48
1
60
0
100
AcDbSpline
70
4
71
3
72
8
73
4
40
0
40
0
40
0
40
0
40
1
40
1
40
1
40
1
41
1
10
12.0477488800804
20
6.47959386718102
30
0
41
1
10
12.0418631154204
20
6.46644256209754
30
0
41
1
10
12.035800060097
20
6.45307904081238
30
0
41
1
10
12.0295904166332
20
6.4395474100844
30
0
0
SPLINE
5
15F
100
AcDbEntity
8
1
62
256
6
ByLayer
370
18
48
1
60
0
100
AcDbSpline
70
4
71
3
72
8
73
4
40
0
40
0
40
0
40
0
40
1
40
1
40
1
40
1
41
1
10
14.5118615005192
20
-8.97434044065281
30
0
41
1
10
14.4449329549054
20
-8.93917816649275
30
0
41
1
10
14.3789916640679
20
-8.90273434423844
30
0
41
1
10
14.3140473909674
20
-8.86499845089
30
0
0
SPLINE
5
160
100
AcDbEntity
8
1
62
256
6
ByLayer
370
18
48
1
60
0
100
AcDbSpline
70
4
71
3
72
8
73
4
40
0
40
0
40
0
40
0
40
1
40
1
40
1
40
1
41
1
10
5.0771286450821
20
-5.37950275938295
30
0
41
1
10
5.06945427773144
20
-5.38957171977378
30
0
41
1
10
5.06187613889546
20
-5.39940173152908
30
0
41
1
10
5.05438553758211
20
-5.40898817961329
30
0
0
SPLINE
5
161
100
AcDbEntity
8
1
62
256
6
ByLayer
370
18
48
1
60
0
100
AcDbSpline
70
4
71
3
72
8
73
4
40
0
40
0
40
0
40
0
40
1
40
1
40
1
40
1
41
1
10
10.3067244313677
20
-5.00204875805321
30
0
41
1
10
10.2211499515393
20
-4.66222306972119
30
0
41
1
10
10.0550759536367
20
-4.3302815827636
30
0
41
1
10
9.82554093489443
20
-4.04207225720239
30
0
0
SPLINE
5
162
100
AcDbEntity
8
1
62
256
6
ByLayer
370
18
48
1
60
0
100
AcDbSpline
70
4
71
2
72
10
73
7
40
0
40
0
40
0
40
0.030364284240822
40
0.030364284240822
40
0.440077053271163
40
0.440077053271163
40
1
40
1
40
1
41
1
10
30.8895186403413
20
-5.6224499732408
30
0
41
1
10
30.9104035790633
20
-5.65825971695614
30
0
41
1
10
30.930627220235
20
-5.69331381028138
30
0
41
1
10
31.2727521906858
20
-6.28632673714537
30
0
41
1
10
31.669473003329
20
-7.07201603699585
30
0
41
1
10
32.3533894831116
20
-8.42648457767197
30
0
41
1
10
32.8055557084348
20
-9.57576217449059
30
0
0
SPLINE
5
163
100
AcDbEntity
8
1
62
256
6
ByLayer
370
18
48
1
60
0
100
AcDbSpline
70
4
71
3
72
11
73
7
40
0
40
0
40
0
40
0
40
0.425230898251464
40
0.744154071940063
40
0.956769521065795
40
1
40
1
40
1
40
1
41
1.0258173342201
10
13.3836517432818
20
-10.2487113176677
30
0
41
1.02559001729416
10
14.4181272276138
20
-10.732069810247
30
0
41
1.0228008665691
10
18.3796709019204
20
-11.7166567532666
30
0
41
1.01953314781965
10
24.1098160722761
20
-12.4518524638652
30
0
41
1.01775466813745
10
26.1000607419545
20
-12.686498955912
30
0
41
1.01823166218985
10
26.7362553580708
20
-12.8716615670706
30
0
41
1.01834276704992
10
26.8401639568828
20
-12.9048093969862
30
0
0
SPLINE
5
164
100
AcDbEntity
8
1
62
256
6
ByLayer
370
18
48
1
60
0
100
AcDbSpline
70
4
71
3
72
10
73
6
40
0
40
0
40
0
40
0
40
0.311681797709782
40
0.311681797709782
40
1
40
1
40
1
40
1
41
1
10
30.301479553296
20
-12.0717384720997
30
0
41
1
10
30.2265264734718
20
-11.9499757441137
30
0
41
1
10
30.1520362363991
20
-11.8270661379014
30
0
41
1
10
29.9144472500342
20
-11.4294749841264
30
0
41
1
10
29.7528912266436
20
-11.1510163739234
30
0
41
1
10
29.5938113480007
20
-10.8673182204972
30
0
0
INSERT
5
177
100
AcDbEntity
8
SK2
62
256
6
ByLayer
370
25
48
1
60
0
100
AcDbBlockReference
2
DimnDraft3D11
10
0
20
0
30
0
41
1
42
1
43
1
50
0
210
0
220
0
230
1
0
LINE
5
72
100
AcDbEntity
8
1
62
256
6
ByLayer
370
18
48
1
60
0
100
AcDbLine
10
36.180146
20
-6.405351
30
0
11
35.519987
21
-5.745192
31
0
39
0
210
0
220
0
230
1
0
LINE
5
74
100
AcDbEntity
8
1
62
256
6
ByLayer
370
18
48
1
60
0
100
AcDbLine
10
4.674326
20
-7.071262
30
0
11
5.434286
21
-7.671175
31
0
39
0
210
0
220
0
230
1
0
LINE
5
75
100
AcDbEntity
8
1
62
256
6
ByLayer
370
18
48
1
60
0
100
AcDbLine
10
35.136315
20
-5.38663
30
0
11
34.841477
21
-5.091793
31
0
39
0
210
0
220
0
230
1
0
LINE
5
76
100
AcDbEntity
8
1
62
256
6
ByLayer
370
18
48
1
60
0
100
AcDbLine
10
23.675057
20
-16.376013
30
0
11
24.234731
21
-16.935687
31
0
39
0
210
0
220
0
230
1
0
LINE
5
77
100
AcDbEntity
8
1
62
256
6
ByLayer
370
18
48
1
60
0
100
AcDbLine
10
14.760302
20
-3.789061
30
0
11
14.646012
21
-3.674771
31
0
39
0
210
0
220
0
230
1
0
LINE
5
78
100
AcDbEntity
8
1
62
256
6
ByLayer
370
18
48
1
60
0
100
AcDbLine
10
17.574409
20
-4.283046
30
0
11
17.787531
21
-4.496168
31
0
39
0
210
0
220
0
230
1
0
LINE
5
79
100
AcDbEntity
8
1
62
256
6
ByLayer
370
18
48
1
60
0
100
AcDbLine
10
12.42844
20
-7.368206
30
0
11
12.597582
21
-7.537348
31
0
39
0
210
0
220
0
230
1
0
LINE
5
7A
100
AcDbEntity
8
1
62
256
6
ByLayer
370
18
48
1
60
0
100
AcDbLine
10
19.66865
20
-0.46628
30
0
11
19.497564
21
-0.295194
31
0
39
0
210
0
220
0
230
1
0
LINE
5
7B
100
AcDbEntity
8
1
62
256
6
ByLayer
370
18
48
1
60
0
100
AcDbLine
10
9.320425
20
-3.550237
30
0
11
8.972576
21
-3.275645
31
0
39
0
210
0
220
0
230
1
0
LINE
5
7C
100
AcDbEntity
8
1
62
256
6
ByLayer
370
18
48
1
60
0
100
AcDbLine
10
24.294666
20
-16.970512
30
0
11
24.954825
21
-17.630671
31
0
39
0
210
0
220
0
230
1
0
LINE
5
7D
100
AcDbEntity
8
80
62
256
6
ByLayer
370
18
48
1
60
0
100
AcDbLine
10
0
20
0
30
0
11
-5
21
0
31
0
39
0
210
0
220
0
230
1
0
LINE
5
7E
100
AcDbEntity
8
81
62
256
6
ByLayer
370
18
48
1
60
0
100
AcDbLine
10
38.461974
20
-19.9125
30
0
11
48.461974
21
-19.9125
31
0
39
0
210
0
220
0
230
1
0
LINE
5
7F
100
AcDbEntity
8
SK1
62
256
6
ByLayer
370
18
48
1
60
0
100
AcDbLine
10
0
20
-11.542232
30
0
11
0
21
-9.978693
31
0
39
0
210
0
220
0
230
1
0
LINE
5
81
100
AcDbEntity
8
SK1
62
256
6
ByLayer
370
18
48
1
60
0
100
AcDbLine
10
-0.526634
20
-12.4375
30
0
11
0
21
-12.4375
31
0
39
0
210
0
220
0
230
1
0
LINE
5
82
100
AcDbEntity
8
SK1
62
256
6
ByLayer
370
18
48
1
60
0
100
AcDbLine
10
-2.458808
20
-12.4375
30
0
11
-132.888026
21
-12.4375
31
0
39
0
210
0
220
0
230
1
0
LINE
5
83
100
AcDbEntity
8
SK1
62
256
6
ByLayer
370
18
48
1
60
0
100
AcDbLine
10
0
20
-12.4375
30
0
11
0
21
-11.542232
31
0
39
0
210
0
220
0
230
1
0
LINE
5
84
100
AcDbEntity
8
SK1
62
256
6
ByLayer
370
18
48
1
60
0
100
AcDbLine
10
0
20
-9.978693
30
0
11
0
21
12.4375
31
0
39
0
210
0
220
0
230
1
0
LINE
5
85
100
AcDbEntity
8
SK1
62
256
6
ByLayer
370
18
48
1
60
0
100
AcDbLine
10
0
20
-11.542232
30
0
11
-0.526634
21
-12.4375
31
0
39
0
210
0
220
0
230
1
0
LINE
5
86
100
AcDbEntity
8
SK1
62
256
6
ByLayer
370
18
48
1
60
0
100
AcDbLine
10
0
20
-9.978693
30
0
11
-2.458808
21
-12.4375
31
0
39
0
210
0
220
0
230
1
0
LINE
5
87
100
AcDbEntity
8
SK1
62
256
6
ByLayer
370
18
48
1
60
0
100
AcDbLine
10
-2.458808
20
-12.4375
30
0
11
-0.526634
21
-12.4375
31
0
39
0
210
0
220
0
230
1
0
LINE
5
88
100
AcDbEntity
8
SK1
62
256
6
ByLayer
370
18
48
1
60
0
100
AcDbLine
10
-132.888026
20
-12.4375
30
0
11
-132.888026
21
12.4375
31
0
39
0
210
0
220
0
230
1
0
LINE
5
89
100
AcDbEntity
8
SK1
62
256
6
ByLayer
370
18
48
1
60
0
100
AcDbLine
10
-132.888026
20
12.4375
30
0
11
0
21
12.4375
31
0
39
0
210
0
220
0
230
1
0
LINE
5
8A
100
AcDbEntity
8
1
62
256
6
ByLayer
370
18
48
1
60
0
100
AcDbLine
10
1.599329
20
-14.036829
30
0
11
0.292535
21
-12.730035
31
0
39
0
210
0
220
0
230
1
0
LINE
5
8B
100
AcDbEntity
8
1
62
256
6
ByLayer
370
18
48
1
60
0
100
AcDbLine
10
0
20
-12.4375
30
0
11
0
21
-11.542232
31
0
39
0
210
0
220
0
230
1
0
LINE
5
8C
100
AcDbEntity
8
1
62
256
6
ByLayer
370
18
48
1
60
0
100
AcDbLine
10
23.766978
20
-17.037885
30
0
11
23.172888
21
-18.047825
31
0
39
0
210
0
220
0
230
1
0
LINE
5
8D
100
AcDbEntity
8
1
62
256
6
ByLayer
370
18
48
1
60
0
100
AcDbLine
10
23.848278
20
-17.067266
30
0
11
24.491415
21
-17.180894
31
0
39
0
210
0
220
0
230
1
0
LINE
5
8E
100
AcDbEntity
8
1
62
256
6
ByLayer
370
18
48
1
60
0
100
AcDbLine
10
0
20
-11.542232
30
0
11
0
21
-9.978693
31
0
39
0
210
0
220
0
230
1
0
LINE
5
8F
100
AcDbEntity
8
1
62
256
6
ByLayer
370
18
48
1
60
0
100
AcDbLine
10
32.012827
20
-3.187556
30
0
11
31.951316
21
-3.124669
31
0
39
0
210
0
220
0
230
1
0
LINE
5
90
100
AcDbEntity
8
1
62
256
6
ByLayer
370
18
48
1
60
0
100
AcDbLine
10
0.492972
20
-12.490517
30
0
11
0.704858
21
-12.186455
31
0
39
0
210
0
220
0
230
1
0
LINE
5
91
100
AcDbEntity
8
1
62
256
6
ByLayer
370
18
48
1
60
0
100
AcDbLine
10
32.012827
20
-3.187556
30
0
11
31.671484
21
-3.767834
31
0
39
0
210
0
220
0
230
1
0
LINE
5
92
100
AcDbEntity
8
1
62
256
6
ByLayer
370
18
48
1
60
0
100
AcDbLine
10
26.52681
20
2.360093
30
0
11
31.951316
21
-3.124669
31
0
39
0
210
0
220
0
230
1
0
LINE
5
93
100
AcDbEntity
8
1
62
256
6
ByLayer
370
18
48
1
60
0
100
AcDbLine
10
13.05804
20
8.869854
30
0
11
13.078832
21
8.849062
31
0
39
0
210
0
220
0
230
1
0
LINE
5
94
100
AcDbEntity
8
1
62
256
6
ByLayer
370
18
48
1
60
0
100
AcDbLine
10
9.703897
20
12.298527
30
0
11
22.857808
21
6.029094
31
0
39
0
210
0
220
0
230
1
0
LINE
5
95
100
AcDbEntity
8
1
62
256
6
ByLayer
370
18
48
1
60
0
100
AcDbLine
10
26.52681
20
2.360093
30
0
11
16.594174
21
7.009886
31
0
39
0
210
0
220
0
230
1
0
LINE
5
96
100
AcDbEntity
8
1
62
256
6
ByLayer
370
18
48
1
60
0
100
AcDbLine
10
23.892496
20
-16.991963
30
0
11
23.157057
21
-14.908698
31
0
39
0
210
0
220
0
230
1
0
LINE
5
97
100
AcDbEntity
8
1
62
256
6
ByLayer
370
18
48
1
60
0
100
AcDbLine
10
13.05804
20
8.869854
30
0
11
12.811254
21
8.450323
31
0
39
0
210
0
220
0
230
1
0
LINE
5
98
100
AcDbEntity
8
1
62
256
6
ByLayer
370
18
48
1
60
0
100
AcDbLine
10
4.033769
20
-6.471231
30
0
11
0.492972
21
-12.490517
31
0
39
0
210
0
220
0
230
1
0
LINE
5
99
100
AcDbEntity
8
1
62
256
6
ByLayer
370
18
48
1
60
0
100
AcDbLine
10
23.172888
20
-18.047825
30
0
11
23.289485
21
-18.017069
31
0
39
0
210
0
220
0
230
1
0
LINE
5
9A
100
AcDbEntity
8
1
62
256
6
ByLayer
370
18
48
1
60
0
100
AcDbLine
10
13.078832
20
8.849062
30
0
11
16.594174
21
7.009886
31
0
39
0
210
0
220
0
230
1
0
LINE
5
9B
100
AcDbEntity
8
1
62
256
6
ByLayer
370
18
48
1
60
0
100
AcDbLine
10
5.514957
20
12.445255
30
0
11
12.254534
21
9.290237
31
0
39
0
210
0
220
0
230
1
0
LINE
5
9C
100
AcDbEntity
8
1
62
256
6
ByLayer
370
18
48
1
60
0
100
AcDbLine
10
5.514957
20
12.445255
30
0
11
9.703897
21
12.298527
31
0
39
0
210
0
220
0
230
1
0
LINE
5
9D
100
AcDbEntity
8
1
62
256
6
ByLayer
370
18
48
1
60
0
100
AcDbLine
10
23.892496
20
-16.991963
30
0
11
23.766978
21
-17.037885
31
0
39
0
210
0
220
0
230
1
0
LINE
5
9E
100
AcDbEntity
8
1
62
256
6
ByLayer
370
18
48
1
60
0
100
AcDbLine
10
31.951316
20
-3.124669
30
0
11
31.627264
21
-3.675552
31
0
39
0
210
0
220
0
230
1
0
LINE
5
9F
100
AcDbEntity
8
1
62
256
6
ByLayer
370
18
48
1
60
0
100
AcDbLine
10
0
20
12.4375
30
0
11
2.132844
21
12.446806
31
0
39
0
210
0
220
0
230
1
0
LINE
5
A0
100
AcDbEntity
8
1
62
256
6
ByLayer
370
18
48
1
60
0
100
AcDbLine
10
2.132844
20
12.446806
30
0
11
0
21
-9.978693
31
0
39
0
210
0
220
0
230
1
0
LINE
5
A1
100
AcDbEntity
8
1
62
256
6
ByLayer
370
18
48
1
60
0
100
AcDbLine
10
31.671484
20
-3.767834
30
0
11
29.36555
21
-4.173675
31
0
39
0
210
0
220
0
230
1
0
LINE
5
A2
100
AcDbEntity
8
1
62
256
6
ByLayer
370
18
48
1
60
0
100
AcDbLine
10
23.766978
20
-17.037885
30
0
11
23.007287
21
-14.885921
31
0
39
0
210
0
220
0
230
1
0
LINE
5
A3
100
AcDbEntity
8
1
62
256
6
ByLayer
370
18
48
1
60
0
100
AcDbLine
10
12.254534
20
9.290237
30
0
11
11.797286
21
8.512926
31
0
39
0
210
0
220
0
230
1
0
LINE
5
A4
100
AcDbEntity
8
1
62
256
6
ByLayer
370
18
48
1
60
0
100
AcDbLine
10
3.486415
20
-5.615394
30
0
11
0
21
-11.542232
31
0
39
0
210
0
220
0
230
1
0
LINE
5
A5
100
AcDbEntity
8
1
62
256
6
ByLayer
370
18
48
1
60
0
100
AcDbLine
10
5.514957
20
12.445255
30
0
11
2.132844
21
12.446806
31
0
39
0
210
0
220
0
230
1
0
LINE
5
A6
100
AcDbEntity
8
1
62
256
6
ByLayer
370
18
48
1
60
0
100
AcDbLine
10
0
20
-9.978693
30
0
11
0
21
12.4375
31
0
39
0
210
0
220
0
230
1
0
LINE
5
A7
100
AcDbEntity
8
1
62
256
6
ByLayer
370
18
48
1
60
0
100
AcDbLine
10
31.627264
20
-3.675552
30
0
11
29.29714
21
-4.08565
31
0
39
0
210
0
220
0
230
1
0
LINE
5
A8
100
AcDbEntity
8
1
62
256
6
ByLayer
370
18
48
1
60
0
100
AcDbLine
10
0.704858
20
-12.186455
30
0
11
3.02605
21
-14.425848
31
0
39
0
210
0
220
0
230
1
0
LINE
5
A9
100
AcDbEntity
8
1
62
256
6
ByLayer
370
18
48
1
60
0
100
AcDbLine
10
16.594174
20
7.009886
30
0
11
16.292008
21
6.496211
31
0
39
0
210
0
220
0
230
1
0
LINE
5
AA
100
AcDbEntity
8
1
62
256
6
ByLayer
370
18
48
1
60
0
100
AcDbLine
10
32.147515
20
-3.337886
30
0
11
32.007646
21
-3.196464
31
0
39
0
210
0
220
0
230
1
0
LINE
5
AB
100
AcDbEntity
8
1
62
256
6
ByLayer
370
18
48
1
60
0
100
AcDbLine
10
0
20
-12.4375
30
0
11
0.292535
21
-12.730035
31
0
39
0
210
0
220
0
230
1
0
LINE
5
AC
100
AcDbEntity
8
1
62
256
6
ByLayer
370
18
48
1
60
0
100
AcDbLine
10
23.172888
20
-18.047825
30
0
11
3.861224
21
-14.635881
31
0
39
0
210
0
220
0
230
1
0
LINE
5
AD
100
AcDbEntity
8
1
62
256
6
ByLayer
370
18
48
1
60
0
100
AcDbLine
10
3.02605
20
-14.425848
30
0
11
3.861224
21
-14.635881
31
0
39
0
210
0
220
0
230
1
0
LINE
5
AE
100
AcDbEntity
8
1
62
256
6
ByLayer
370
18
48
1
60
0
100
AcDbLine
10
7.29916
20
-8.791456
30
0
11
3.861224
21
-14.635881
31
0
39
0
210
0
220
0
230
1
0
LINE
5
AF
100
AcDbEntity
8
1
62
256
6
ByLayer
370
18
48
1
60
0
100
AcDbLine
10
22.857808
20
6.029094
30
0
11
26.52681
21
2.360093
31
0
39
0
210
0
220
0
230
1
0
LINE
5
B0
100
AcDbEntity
8
1
62
256
6
ByLayer
370
18
48
1
60
0
100
AcDbLine
10
23.892496
20
-16.991963
30
0
11
23.289485
21
-18.017069
31
0
39
0
210
0
220
0
230
1
0
LINE
5
B1
100
AcDbEntity
8
1
62
256
6
ByLayer
370
18
48
1
60
0
100
AcDbLine
10
3.02605
20
-14.425848
30
0
11
1.599329
21
-14.036829
31
0
39
0
210
0
220
0
230
1
0
LINE
5
B2
100
AcDbEntity
8
1
62
256
6
ByLayer
370
18
48
1
60
0
100
AcDbLine
10
13.078832
20
8.849062
30
0
11
12.840053
21
8.443142
31
0
39
0
210
0
220
0
230
1
0
LINE
5
B3
100
AcDbEntity
8
1
62
256
6
ByLayer
370
18
48
1
60
0
100
AcDbLine
10
4.053371
20
-6.494047
30
0
11
0.704858
21
-12.186455
31
0
39
0
210
0
220
0
230
1
0
LINE
5
B4
100
AcDbEntity
8
1
62
256
6
ByLayer
370
18
48
1
60
0
100
AcDbLine
10
31.671484
20
-3.767834
30
0
11
31.627264
21
-3.675552
31
0
39
0
210
0
220
0
230
1
0
LINE
5
B5
100
AcDbEntity
8
1
62
256
6
ByLayer
370
18
48
1
60
0
100
AcDbLine
10
15.453446
20
-5.275239
30
0
11
15.244826
21
-5.066618
31
0
39
0
210
0
220
0
230
1
0
LINE
5
B6
100
AcDbEntity
8
1
62
256
6
ByLayer
370
18
48
1
60
0
100
AcDbLine
10
16.838548
20
-5.402607
30
0
11
16.629927
21
-5.193987
31
0
39
0
210
0
220
0
230
1
0
LINE
5
B7
100
AcDbEntity
8
1
62
256
6
ByLayer
370
18
48
1
60
0
100
AcDbLine
10
16.519853
20
-2.388766
30
0
11
16.732975
21
-2.601888
31
0
39
0
210
0
220
0
230
1
0
LINE
5
B8
100
AcDbEntity
8
1
62
256
6
ByLayer
370
18
48
1
60
0
100
AcDbLine
10
14.658632
20
-3.691075
30
0
11
14.722809
21
-3.755251
31
0
39
0
210
0
220
0
230
1
0
LINE
5
B9
100
AcDbEntity
8
1
62
256
6
ByLayer
370
18
48
1
60
0
100
AcDbLine
10
17.620367
20
-3.542129
30
0
11
17.83349
21
-3.755251
31
0
39
0
210
0
220
0
230
1
0
LINE
5
BA
100
AcDbEntity
8
1
62
256
6
ByLayer
370
18
48
1
60
0
100
AcDbLine
10
16.65756
20
-2.664998
30
0
11
16.86618
21
-2.873618
31
0
39
0
210
0
220
0
230
1
0
LINE
5
BB
100
AcDbEntity
8
1
62
256
6
ByLayer
370
18
48
1
60
0
100
AcDbLine
10
16.486184
20
-5.470219
30
0
11
16.699306
21
-5.683341
31
0
39
0
210
0
220
0
230
1
0
LINE
5
BC
100
AcDbEntity
8
1
62
256
6
ByLayer
370
18
48
1
60
0
100
AcDbLine
10
14.935076
20
-5.082855
30
0
11
15.148198
21
-5.295978
31
0
39
0
210
0
220
0
230
1
0
LINE
5
BD
100
AcDbEntity
8
1
62
256
6
ByLayer
370
18
48
1
60
0
100
AcDbLine
10
16.851914
20
-5.066618
30
0
11
17.060535
21
-5.275239
31
0
39
0
210
0
220
0
230
1
0
LINE
5
BE
100
AcDbEntity
8
1
62
256
6
ByLayer
370
18
48
1
60
0
100
AcDbLine
10
17.448679
20
-3.802124
30
0
11
17.6573
21
-4.010744
31
0
39
0
210
0
220
0
230
1
0
LINE
5
BF
100
AcDbEntity
8
1
62
256
6
ByLayer
370
18
48
1
60
0
100
AcDbLine
10
15.464029
20
-5.193987
30
0
11
15.67265
21
-5.402607
31
0
39
0
210
0
220
0
230
1
0
LINE
5
C0
100
AcDbEntity
8
1
62
256
6
ByLayer
370
18
48
1
60
0
100
AcDbLine
10
17.654517
20
-4.265481
30
0
11
17.445896
21
-4.056861
31
0
39
0
210
0
220
0
230
1
0
LINE
5
C1
100
AcDbEntity
8
1
62
256
6
ByLayer
370
18
48
1
60
0
100
AcDbLine
10
17.161309
20
-5.082855
30
0
11
17.374431
21
-5.295978
31
0
39
0
210
0
220
0
230
1
0
LINE
5
C2
100
AcDbEntity
8
1
62
256
6
ByLayer
370
18
48
1
60
0
100
AcDbLine
10
5.718575
20
-4.065279
30
0
11
11.160233
21
5.185434
31
0
39
0
210
0
220
0
230
1
0
LINE
5
C3
100
AcDbEntity
8
1
62
256
6
ByLayer
370
18
48
1
60
0
100
AcDbLine
10
11.924831
20
-11.466953
30
0
11
7.518242
21
-8.906502
31
0
39
0
210
0
220
0
230
1
0
LINE
5
C4
100
AcDbEntity
8
1
62
256
6
ByLayer
370
18
48
1
60
0
100
AcDbLine
10
20.901218
20
3.79273
30
0
11
16.494628
21
6.353181
31
0
39
0
210
0
220
0
230
1
0
LINE
5
C5
100
AcDbEntity
8
1
62
256
6
ByLayer
370
18
48
1
60
0
100
AcDbLine
10
8.931884
20
-3.281299
30
0
11
8.628492
21
-3.041801
31
0
39
0
210
0
220
0
230
1
0
LINE
5
C6
100
AcDbEntity
8
1
62
256
6
ByLayer
370
18
48
1
60
0
100
AcDbLine
10
32.806813
20
-9.578959
30
0
11
32.968762
21
-10.428089
31
0
39
0
210
0
220
0
230
1
0
LINE
5
C7
100
AcDbEntity
8
1
62
256
6
ByLayer
370
18
48
1
60
0
100
AcDbLine
10
14.314047
20
-8.864998
30
0
11
14.119033
21
-8.711054
31
0
39
0
210
0
220
0
230
1
0
LINE
5
C8
100
AcDbEntity
8
1
62
256
6
ByLayer
370
18
48
1
60
0
100
AcDbLine
10
12.047749
20
6.479594
30
0
11
20.377015
21
1.639871
31
0
39
0
210
0
220
0
230
1
0
LINE
5
C9
100
AcDbEntity
8
1
62
256
6
ByLayer
370
18
48
1
60
0
100
AcDbLine
10
7.491281
20
-8.903313
30
0
11
5.825345
21
-7.93532
31
0
39
0
210
0
220
0
230
1
0
LINE
5
CA
100
AcDbEntity
8
1
62
256
6
ByLayer
370
18
48
1
60
0
100
AcDbLine
10
14.813707
20
7.344721
30
0
11
16.479643
21
6.376728
31
0
39
0
210
0
220
0
230
1
0
LINE
5
CB
100
AcDbEntity
8
1
62
256
6
ByLayer
370
18
48
1
60
0
100
AcDbLine
10
16.479643
20
6.376728
30
0
11
16.494628
21
6.353181
31
0
39
0
210
0
220
0
230
1
0
LINE
5
CC
100
AcDbEntity
8
1
62
256
6
ByLayer
370
18
48
1
60
0
100
AcDbLine
10
16.479643
20
6.376728
30
0
11
14.329829
21
7.747069
31
0
39
0
210
0
220
0
230
1
0
LINE
5
CD
100
AcDbEntity
8
1
62
256
6
ByLayer
370
18
48
1
60
0
100
AcDbLine
10
8.628492
20
-3.041801
30
0
11
7.332806
21
-2.290096
31
0
39
0
210
0
220
0
230
1
0
LINE
5
CE
100
AcDbEntity
8
1
62
256
6
ByLayer
370
18
48
1
60
0
100
AcDbLine
10
7.332806
20
-2.290096
30
0
11
10.372839
21
2.8779
31
0
39
0
210
0
220
0
230
1
0
LINE
5
CF
100
AcDbEntity
8
1
62
256
6
ByLayer
370
18
48
1
60
0
100
AcDbLine
10
19.532769
20
0.006728
30
0
11
17.654732
21
1.097962
31
0
39
0
210
0
220
0
230
1
0
LINE
5
D0
100
AcDbEntity
8
1
62
256
6
ByLayer
370
18
48
1
60
0
100
AcDbLine
10
9.118712
20
6.79701
30
0
11
3.677055
21
-2.453703
31
0
39
0
210
0
220
0
230
1
0
LINE
5
D1
100
AcDbEntity
8
1
62
256
6
ByLayer
370
18
48
1
60
0
100
AcDbLine
10
7.491281
20
-8.903313
30
0
11
7.518242
21
-8.906502
31
0
39
0
210
0
220
0
230
1
0
LINE
5
D2
100
AcDbEntity
8
1
62
256
6
ByLayer
370
18
48
1
60
0
100
AcDbLine
10
30.30148
20
-12.071738
30
0
11
33.160246
21
-13.556613
31
0
39
0
210
0
220
0
230
1
0
LINE
5
D3
100
AcDbEntity
8
1
62
256
6
ByLayer
370
18
48
1
60
0
100
AcDbLine
10
5.054386
20
-5.408988
30
0
11
13.383652
21
-10.248711
31
0
39
0
210
0
220
0
230
1
0
LINE
5
D4
100
AcDbEntity
8
1
62
256
6
ByLayer
370
18
48
1
60
0
100
AcDbLine
10
5.718575
20
-4.065279
30
0
11
3.677055
21
-2.453703
31
0
39
0
210
0
220
0
230
1
0
LINE
5
D5
100
AcDbEntity
8
1
62
256
6
ByLayer
370
18
48
1
60
0
100
AcDbLine
10
30.347544
20
-14.88411
30
0
11
29.523887
21
-15.160279
31
0
39
0
210
0
220
0
230
1
0
LINE
5
D6
100
AcDbEntity
8
1
62
256
6
ByLayer
370
18
48
1
60
0
100
AcDbLine
10
12.43601
20
-7.773764
30
0
11
14.314047
21
-8.864998
31
0
39
0
210
0
220
0
230
1
0
LINE
5
D7
100
AcDbEntity
8
1
62
256
6
ByLayer
370
18
48
1
60
0
100
AcDbLine
10
11.160233
20
5.185434
30
0
11
9.118712
21
6.79701
31
0
39
0
210
0
220
0
230
1
0
LINE
5
D8
100
AcDbEntity
8
1
62
256
6
ByLayer
370
18
48
1
60
0
100
AcDbLine
10
14.813707
20
7.344721
30
0
11
14.19709
21
7.831479
31
0
39
0
210
0
220
0
230
1
0
LINE
5
D9
100
AcDbEntity
8
1
62
256
6
ByLayer
370
18
48
1
60
0
100
AcDbLine
10
24.294666
20
-16.970512
30
0
11
24.295181
21
-16.971026
31
0
39
0
210
0
220
0
230
1
0
MTEXT
5
165
100
AcDbEntity
8
SK6
62
256
6
ByLayer
370
18
48
1
60
0
100
AcDbMText
10
-61.338026
20
21.567153
30
0
210
0
220
0
230
1
1
\W0.7578;DRSNL 3225P 15
40
3.5
41
0
44
1.084337
50
0
71
7
72
5
7
iso_b_vert
0
DIMENSION
5
185
100
AcDbEntity
8
2
62
256
6
ByLayer
370
13
48
1
60
0
100
AcDbDimension
2
DimnDraft3D2
10
38.461974
20
-48.1625
30
0
11
13.949408
21
-48.1625
31
0
70
32
71
5
72
1
41
1
210
0
220
0
230
1
3
Standard
100
AcDbAlignedDimension
13
0
23
-14.4375
33
0
14
38.461974
24
-21.9125
34
0
50
0
100
AcDbRotatedDimension
1001
ACAD
1000
DSTYLE
1002
{
1070
   279
1070
     0
1070
   172
1070
     1
1070
   173
1070
     1
1070
   340
1005
166
1070
    77
1070
     1
1070
    73
1070
     0
1070
   171
1070
     3
1070
   274
1070
     4
1070
   177
1070
     2
1070
   176
1070
     2
1070
   178
1070
     7
1070
    78
1070
     8
1070
    41
1041
3.175
1070
   147
1041
2.25
1070
    42
1041
2.0
1070
    44
1041
2.0
1070
   140
1041
4.5
1070
   343
1005
186
1070
   344
1005
186
1002
}
0
DIMENSION
5
19A
100
AcDbEntity
8
2
62
256
6
ByLayer
370
13
48
1
60
0
100
AcDbDimension
2
DimnDraft3D3
10
60.711974
20
-19.9125
30
0
11
60.711974
21
-9.019079
31
0
70
32
71
5
72
1
41
1
210
0
220
0
230
1
3
Standard
100
AcDbAlignedDimension
13
2
23
12.4375
33
0
14
40.461974
24
-19.9125
34
0
50
90
100
AcDbRotatedDimension
1001
ACAD
1000
DSTYLE
1002
{
1070
    74
1070
     0
1070
   279
1070
     0
1070
   172
1070
     1
1070
   173
1070
     1
1070
   340
1005
166
1070
    77
1070
     1
1070
    73
1070
     0
1070
   171
1070
     3
1070
   274
1070
     4
1070
   177
1070
     2
1070
   176
1070
     2
1070
   178
1070
     7
1070
    78
1070
     8
1070
    41
1041
3.175
1070
   147
1041
2.25
1070
    42
1041
2.0
1070
    44
1041
2.0
1070
   140
1041
4.5
1070
   343
1005
186
1070
   344
1005
186
1002
}
0
DIMENSION
5
1A8
100
AcDbEntity
8
SK2
62
256
6
ByLayer
370
13
48
1
60
0
100
AcDbDimension
2
DimnDraft3D4
10
-140.638026
20
-12.4375
30
0
11
-140.638026
21
-5.281579
31
0
70
32
71
5
72
1
41
1
210
0
220
0
230
1
3
Standard
100
AcDbAlignedDimension
13
-134.888026
23
12.4375
33
0
14
-134.888026
24
-12.4375
34
0
50
90
100
AcDbRotatedDimension
1001
ACAD
1000
DSTYLE
1002
{
1070
    74
1070
     0
1070
   279
1070
     0
1070
   172
1070
     1
1070
   173
1070
     1
1070
   340
1005
166
1070
    77
1070
     1
1070
    73
1070
     0
1070
   171
1070
     3
1070
   274
1070
     4
1070
   177
1070
     2
1070
   176
1070
     2
1070
   178
1070
     7
1070
    78
1070
     8
1070
    41
1041
3.175
1070
   147
1041
2.25
1070
    42
1041
2.0
1070
    44
1041
2.0
1070
   140
1041
4.5
1070
   343
1005
186
1070
   344
1005
186
1002
}
0
ENDSEC
0
SECTION
2
OBJECTS
0
DICTIONARY
5
212
330
0
100
AcDbDictionary
280
0
281
1
3
ACAD_GROUP
350
213
3
ACAD_MLINESTYLE
350
214
0
DICTIONARY
5
213
330
0
100
AcDbDictionary
280
0
281
1
0
DICTIONARY
5
214
330
0
100
AcDbDictionary
280
0
281
1
3
Standard
350
18
0
MLINESTYLE
5
18
330
214
100
AcDbMlineStyle
2
Standard
70
0
3

62
256
51
90
52
90
71
2
49
-0.5
62
256
6
ByLayer
49
0.5
62
256
6
ByLayer
0
RASTERVARIABLES
5
201
330

100
AcDbRasterVariables
90
0
70
1
71
1
72
1
0
ENDSEC
0
EOF
