0
SECTION
2
HEADER
9
$ACADVER
1
AC1015
9
$DWGCODEPAGE
3
ANSI_1252
9
$HANDSEED
5
236
9
$ANGBASE
50
0
9
$ANGDIR
70
0
9
$ATTMODE
70
1
9
$AUNITS
70
0
9
$AUPREC
70
0
9
$CECOLOR
62
256
9
$CELTSCALE
40
1
9
$CELTYPE
6
ByLayer
9
$CELWEIGHT
370
18
9
$CLAYER
8
0
9
$CMLJUST
70
0
9
$CMLSCALE
40
1
9
$CMLSTYLE
2
Standard
9
$DIMSTYLE
2
Standard
9
$TEXTSIZE
40
0.2
9
$TEXTSTYLE
7
Standard
9
$LUNITS
70
2
9
$LUPREC
70
4
9
$EXTNAMES
290
1
9
$INSUNITS
70
4
9
$LTSCALE
40
1
9
$LWDISPLAY
290
1
9
$PDMODE
70
0
9
$PDSIZE
40
0
9
$PLINEGEN
70
0
0
ENDSEC
0
SECTION
2
CLASSES
0
CLASS
1
RASTERVARIABLES
2
AcDbRasterVariables
3
ISM
90
0
280
0
281
0
0
ENDSEC
0
SECTION
2
TABLES
0
TABLE
2
VPORT
5
22c
100
AcDbSymbolTable
0
VPORT
5
1
100
AcDbSymbolTableRecord
100
AcDbViewportTableRecord
2
*Active
70
0
10
0
20
0
11
1
21
1
12
-1
22
1
13
0
23
0
14
0.5
24
0.5
15
10
25
10
16
0
26
0
36
1
17
0
27
0
37
0
0
ENDTAB
0
TABLE
2
LTYPE
5
22d
100
AcDbSymbolTable
0
LTYPE
5
14
100
AcDbSymbolTableRecord
100
AcDbLinetypeTableRecord
70
0
2
ByBlock
3

72
65
73
0
40
0
0
LTYPE
5
15
100
AcDbSymbolTableRecord
100
AcDbLinetypeTableRecord
70
0
2
ByLayer
3

72
65
73
0
40
0
0
LTYPE
5
16
100
AcDbSymbolTableRecord
100
AcDbLinetypeTableRecord
70
0
2
CONTINUOUS
3
Solid line
72
65
73
0
40
0
0
LTYPE
5
6A
100
AcDbSymbolTableRecord
100
AcDbLinetypeTableRecord
70
0
2
CENTER
3
____ _ ____ _ ____ _ ____
72
65
73
4
40
47.5
49
22
74
0
49
-8.5
74
0
49
8.5
74
0
49
-8.5
74
0
0
LTYPE
5
6B
100
AcDbSymbolTableRecord
100
AcDbLinetypeTableRecord
70
0
2
DASHED
3
__ __ __ __ __ __ __ __ __
72
65
73
2
40
25.72
49
12.86
74
0
49
-12.86
74
0
0
ENDTAB
0
TABLE
2
LAYER
5
22e
100
AcDbSymbolTable
0
LAYER
5
10
100
AcDbSymbolTableRecord
100
AcDbLayerTableRecord
2
0
70
0
62
7
6
CONTINUOUS
290
1
370
-3
390
0
0
LAYER
5
6D
100
AcDbSymbolTableRecord
100
AcDbLayerTableRecord
2
2
70
0
62
7
6
CONTINUOUS
290
1
370
-3
390
0
0
LAYER
5
6F
100
AcDbSymbolTableRecord
100
AcDbLayerTableRecord
2
80
70
0
62
-6
6
CONTINUOUS
290
1
370
-3
390
0
0
LAYER
5
71
100
AcDbSymbolTableRecord
100
AcDbLayerTableRecord
2
81
70
0
62
-3
6
CONTINUOUS
290
1
370
-3
390
0
0
LAYER
5
73
100
AcDbSymbolTableRecord
100
AcDbLayerTableRecord
2
1
70
0
62
4
6
CONTINUOUS
290
1
370
-3
390
0
0
LAYER
5
219
100
AcDbSymbolTableRecord
100
AcDbLayerTableRecord
2
SK1
70
0
62
4
6
CONTINUOUS
290
1
370
-3
390
0
0
LAYER
5
21a
100
AcDbSymbolTableRecord
100
AcDbLayerTableRecord
2
SK6
70
0
62
5
6
CONTINUOUS
290
1
370
-3
390
0
0
LAYER
5
21b
100
AcDbSymbolTableRecord
100
AcDbLayerTableRecord
2
SK2
70
0
62
7
6
CONTINUOUS
290
1
370
-3
390
0
0
ENDTAB
0
TABLE
2
STYLE
5
22f
100
AcDbSymbolTable
0
STYLE
5
11
100
AcDbSymbolTableRecord
100
AcDbTextStyleTableRecord
2
Standard
3
txt
70
0
71
0
40
0
41
1
42
0
50
0
0
STYLE
5
16F
100
AcDbSymbolTableRecord
100
AcDbTextStyleTableRecord
2
iso_b_vert
3
simplex.shx
70
0
71
0
40
0
41
1
42
0
50
0
0
STYLE
5
170
100
AcDbSymbolTableRecord
100
AcDbTextStyleTableRecord
2
DWGDirectTextStyle
3
simplex
70
0
71
0
40
0
41
1
42
0
50
0
0
ENDTAB
0
TABLE
2
DIMSTYLE
5
230
100
AcDbSymbolTable
100
AcDbDimStyleTable
0
DIMSTYLE
105
27
100
AcDbSymbolTableRecord
100
AcDbDimStyleTableRecord
2
Standard
70
0
3
<>
41
0.18
42
0.0625
44
0.18
140
0.18
147
0.09
73
0
74
0
77
1
271
2
275
0
278
52
280
0
340
11
0
ENDTAB
0
TABLE
2
VIEW
5
231
100
AcDbSymbolTable
0
ENDTAB
0
TABLE
2
UCS
5
232
100
AcDbSymbolTable
0
ENDTAB
0
TABLE
2
APPID
5
233
100
AcDbSymbolTable
0
APPID
5
12
100
AcDbSymbolTableRecord
100
AcDbRegAppTableRecord
2
ACAD
70
0
0
ENDTAB
0
TABLE
2
BLOCK_RECORD
5
234
100
AcDbSymbolTable
0
BLOCK_RECORD
5
1F
100
AcDbSymbolTableRecord
100
AcDbBlockTableRecord
2
*Model_Space
340
0
70
0
0
BLOCK_RECORD
5
1B
100
AcDbSymbolTableRecord
100
AcDbBlockTableRecord
2
*Paper_Space
340
0
70
0
0
BLOCK_RECORD
5
23
100
AcDbSymbolTableRecord
100
AcDbBlockTableRecord
2
*Paper_Space0
340
0
70
0
0
BLOCK_RECORD
5
172
100
AcDbSymbolTableRecord
100
AcDbBlockTableRecord
2
DimnDraft3D1
340
0
70
0
0
BLOCK_RECORD
5
180
100
AcDbSymbolTableRecord
100
AcDbBlockTableRecord
2
_CLOSED
340
0
70
0
0
BLOCK_RECORD
5
187
100
AcDbSymbolTableRecord
100
AcDbBlockTableRecord
2
DimnDraft3D2
340
0
70
0
0
BLOCK_RECORD
5
196
100
AcDbSymbolTableRecord
100
AcDbBlockTableRecord
2
DimnDraft3D3
340
0
70
0
0
BLOCK_RECORD
5
1A4
100
AcDbSymbolTableRecord
100
AcDbBlockTableRecord
2
DimnDraft3D4
340
0
70
0
0
BLOCK_RECORD
5
1B2
100
AcDbSymbolTableRecord
100
AcDbBlockTableRecord
2
DimnDraft3D5
340
0
70
0
0
ENDTAB
0
ENDSEC
0
SECTION
2
BLOCKS
0
BLOCK
5
20
100
AcDbEntity
8
0
100
AcDbBlockBegin
2
*Model_Space
70
0
10
0
20
0
30
0
3
*Model_Space
0
ENDBLK
5
21
100
AcDbEntity
8
0
100
AcDbBlockEnd
0
BLOCK
5
1C
100
AcDbEntity
8
0
100
AcDbBlockBegin
2
*Paper_Space
70
0
10
0
20
0
30
0
3
*Paper_Space
0
ENDBLK
5
1D
100
AcDbEntity
8
0
100
AcDbBlockEnd
0
BLOCK
5
24
100
AcDbEntity
8
0
100
AcDbBlockBegin
2
*Paper_Space0
70
0
10
0
20
0
30
0
3
*Paper_Space0
0
ENDBLK
5
25
100
AcDbEntity
8
0
100
AcDbBlockEnd
0
BLOCK
5
17D
100
AcDbEntity
8
0
100
AcDbBlockBegin
2
DimnDraft3D1
70
0
10
0
20
0
30
0
3
DimnDraft3D1
0
MTEXT
5
173
100
AcDbEntity
8
2
62
256
6
ByLayer
370
18
48
1
60
0
100
AcDbMText
10
13.699319
20
15.805755
30
0
210
0
220
0
230
1
1
\W0.7645;62%%d30'
40
4.5
41
0
44
1.084337
50
31.0695878149999
71
7
72
5
7
iso_b_vert
0
LINE
5
174
100
AcDbEntity
8
2
62
256
6
ByLayer
370
13
48
1
60
0
100
AcDbLine
10
31.155366
20
2.5442
30
0
11
31.155366
21
23.500044
31
0
39
0
210
0
220
0
230
1
0
LINE
5
175
100
AcDbEntity
8
2
62
256
6
ByLayer
370
13
48
1
60
0
100
AcDbLine
10
26.246848
20
3.138831
30
0
11
10.86044
21
11.27205
31
0
39
0
210
0
220
0
230
1
0
ARC
5
176
100
AcDbEntity
8
2
62
256
6
ByLayer
370
13
48
1
60
0
100
AcDbCircle
39
0
10
31.155366
20
0.5442
30
0
40
20.9558441220057
210
0
220
0
230
1
100
AcDbArc
50
90
51
152.139176
0
LINE
5
177
100
AcDbEntity
8
2
62
256
6
ByLayer
370
13
48
1
60
0
100
AcDbLine
10
31.155366
20
21.500044
30
0
11
27.998435
21
20.962344
31
0
39
0
210
0
220
0
230
1
0
LINE
5
178
100
AcDbEntity
8
2
62
256
6
ByLayer
370
13
48
1
60
0
100
AcDbLine
10
31.155366
20
21.500044
30
0
11
27.966834
21
21.79774
31
0
39
0
210
0
220
0
230
1
0
LINE
5
179
100
AcDbEntity
8
2
62
256
6
ByLayer
370
13
48
1
60
0
100
AcDbLine
10
27.998435
20
20.962344
30
0
11
27.966834
21
21.79774
31
0
39
0
210
0
220
0
230
1
0
LINE
5
17A
100
AcDbEntity
8
2
62
256
6
ByLayer
370
13
48
1
60
0
100
AcDbLine
10
12.628611
20
10.337399
30
0
11
13.855503
21
13.295451
31
0
39
0
210
0
220
0
230
1
0
LINE
5
17B
100
AcDbEntity
8
2
62
256
6
ByLayer
370
13
48
1
60
0
100
AcDbLine
10
12.628611
20
10.337399
30
0
11
14.5793
21
12.877117
31
0
39
0
210
0
220
0
230
1
0
LINE
5
17C
100
AcDbEntity
8
2
62
256
6
ByLayer
370
13
48
1
60
0
100
AcDbLine
10
13.855503
20
13.295451
30
0
11
14.5793
21
12.877117
31
0
39
0
210
0
220
0
230
1
0
ENDBLK
5
17E
100
AcDbEntity
8
0
100
AcDbBlockEnd
0
BLOCK
5
181
100
AcDbEntity
8
0
100
AcDbBlockBegin
2
_CLOSED
70
0
10
0
20
0
30
0
3
_CLOSED
0
LINE
5
183
100
AcDbEntity
8
0
62
256
6
ByLayer
370
-2
48
1
60
0
100
AcDbLine
10
-1
20
0.166667
30
0
11
0
21
0
31
0
39
0
210
0
220
0
230
1
0
LINE
5
184
100
AcDbEntity
8
0
62
256
6
ByLayer
370
-2
48
1
60
0
100
AcDbLine
10
0
20
0
30
0
11
-1
21
-0.166667
31
0
39
0
210
0
220
0
230
1
0
LINE
5
185
100
AcDbEntity
8
0
62
256
6
ByLayer
370
-2
48
1
60
0
100
AcDbLine
10
-1
20
0.166667
30
0
11
-1
21
-0.166667
31
0
39
0
210
0
220
0
230
1
0
LINE
5
186
100
AcDbEntity
8
0
62
256
6
ByLayer
370
-2
48
1
60
0
100
AcDbLine
10
0
20
0
30
0
11
-1
21
0
31
0
39
0
210
0
220
0
230
1
0
ENDBLK
5
182
100
AcDbEntity
8
0
100
AcDbBlockEnd
0
BLOCK
5
193
100
AcDbEntity
8
0
100
AcDbBlockBegin
2
DimnDraft3D2
70
0
10
0
20
0
30
0
3
DimnDraft3D2
0
MTEXT
5
188
100
AcDbEntity
8
SK2
62
256
6
ByLayer
370
18
48
1
60
0
100
AcDbMText
10
-129.069634
20
-4.156579
30
0
210
0
220
0
230
1
1
\W0.7346;25.0
40
4.5
41
0
44
1.084337
50
90
71
7
72
5
7
iso_b_vert
0
LINE
5
18A
100
AcDbEntity
8
SK2
62
256
6
ByLayer
370
13
48
1
60
0
100
AcDbLine
10
-122.194634
20
-12.4375
30
0
11
-129.944634
21
-12.4375
31
0
39
0
210
0
220
0
230
1
0
LINE
5
18B
100
AcDbEntity
8
SK2
62
256
6
ByLayer
370
13
48
1
60
0
100
AcDbLine
10
-122.194634
20
12.4375
30
0
11
-129.944634
21
12.4375
31
0
39
0
210
0
220
0
230
1
0
LINE
5
18C
100
AcDbEntity
8
SK2
62
256
6
ByLayer
370
13
48
1
60
0
100
AcDbLine
10
-127.944634
20
-12.4375
30
0
11
-127.944634
21
12.4375
31
0
39
0
210
0
220
0
230
1
0
LINE
5
18D
100
AcDbEntity
8
SK2
62
256
6
ByLayer
370
13
48
1
60
0
100
AcDbLine
10
-127.944634
20
-12.4375
30
0
11
-128.362631
21
-9.262502
31
0
39
0
210
0
220
0
230
1
0
LINE
5
18E
100
AcDbEntity
8
SK2
62
256
6
ByLayer
370
13
48
1
60
0
100
AcDbLine
10
-127.944634
20
-12.4375
30
0
11
-127.526637
21
-9.262498
31
0
39
0
210
0
220
0
230
1
0
LINE
5
18F
100
AcDbEntity
8
SK2
62
256
6
ByLayer
370
13
48
1
60
0
100
AcDbLine
10
-128.362631
20
-9.262502
30
0
11
-127.526637
21
-9.262498
31
0
39
0
210
0
220
0
230
1
0
LINE
5
190
100
AcDbEntity
8
SK2
62
256
6
ByLayer
370
13
48
1
60
0
100
AcDbLine
10
-127.944634
20
12.4375
30
0
11
-127.526637
21
9.262502
31
0
39
0
210
0
220
0
230
1
0
LINE
5
191
100
AcDbEntity
8
SK2
62
256
6
ByLayer
370
13
48
1
60
0
100
AcDbLine
10
-127.944634
20
12.4375
30
0
11
-128.362631
21
9.262498
31
0
39
0
210
0
220
0
230
1
0
LINE
5
192
100
AcDbEntity
8
SK2
62
256
6
ByLayer
370
13
48
1
60
0
100
AcDbLine
10
-127.526637
20
9.262502
30
0
11
-128.362631
21
9.262498
31
0
39
0
210
0
220
0
230
1
0
ENDBLK
5
194
100
AcDbEntity
8
0
100
AcDbBlockEnd
0
BLOCK
5
1A1
100
AcDbEntity
8
0
100
AcDbBlockBegin
2
DimnDraft3D3
70
0
10
0
20
0
30
0
3
DimnDraft3D3
0
MTEXT
5
197
100
AcDbEntity
8
2
62
256
6
ByLayer
370
18
48
1
60
0
100
AcDbMText
10
52.280366
20
11.9242
30
0
210
0
220
0
230
1
1
\W0.6563;13.0
40
4.5
41
0
44
1.084337
50
90
71
7
72
5
7
iso_b_vert
0
LINE
5
198
100
AcDbEntity
8
2
62
256
6
ByLayer
370
13
48
1
60
0
100
AcDbLine
10
2
20
-12.4375
30
0
11
55.405366
21
-12.4375
31
0
39
0
210
0
220
0
230
1
0
LINE
5
199
100
AcDbEntity
8
2
62
256
6
ByLayer
370
13
48
1
60
0
100
AcDbLine
10
33.155366
20
0.5442
30
0
11
55.405366
21
0.5442
31
0
39
0
210
0
220
0
230
1
0
LINE
5
19A
100
AcDbEntity
8
2
62
256
6
ByLayer
370
13
48
1
60
0
100
AcDbLine
10
53.405366
20
-12.4375
30
0
11
53.405366
21
20.237358
31
0
39
0
210
0
220
0
230
1
0
LINE
5
19B
100
AcDbEntity
8
2
62
256
6
ByLayer
370
13
48
1
60
0
100
AcDbLine
10
53.405366
20
-12.4375
30
0
11
52.987369
21
-9.262502
31
0
39
0
210
0
220
0
230
1
0
LINE
5
19C
100
AcDbEntity
8
2
62
256
6
ByLayer
370
13
48
1
60
0
100
AcDbLine
10
53.405366
20
-12.4375
30
0
11
53.823363
21
-9.262498
31
0
39
0
210
0
220
0
230
1
0
LINE
5
19D
100
AcDbEntity
8
2
62
256
6
ByLayer
370
13
48
1
60
0
100
AcDbLine
10
52.987369
20
-9.262502
30
0
11
53.823363
21
-9.262498
31
0
39
0
210
0
220
0
230
1
0
LINE
5
19E
100
AcDbEntity
8
2
62
256
6
ByLayer
370
13
48
1
60
0
100
AcDbLine
10
53.405366
20
0.5442
30
0
11
53.823363
21
-2.630798
31
0
39
0
210
0
220
0
230
1
0
LINE
5
19F
100
AcDbEntity
8
2
62
256
6
ByLayer
370
13
48
1
60
0
100
AcDbLine
10
53.405366
20
0.5442
30
0
11
52.987369
21
-2.630802
31
0
39
0
210
0
220
0
230
1
0
LINE
5
1A0
100
AcDbEntity
8
2
62
256
6
ByLayer
370
13
48
1
60
0
100
AcDbLine
10
53.823363
20
-2.630798
30
0
11
52.987369
21
-2.630802
31
0
39
0
210
0
220
0
230
1
0
ENDBLK
5
1A2
100
AcDbEntity
8
0
100
AcDbBlockEnd
0
BLOCK
5
1AF
100
AcDbEntity
8
0
100
AcDbBlockBegin
2
DimnDraft3D4
70
0
10
0
20
0
30
0
3
DimnDraft3D4
0
MTEXT
5
1A5
100
AcDbEntity
8
2
62
256
6
ByLayer
370
18
48
1
60
0
100
AcDbMText
10
11.983604
20
31.4192
30
0
210
0
220
0
230
1
1
\W0.6563;31.2
40
4.5
41
0
44
1.084337
50
0
71
7
72
5
7
iso_b_vert
0
LINE
5
1A6
100
AcDbEntity
8
2
62
256
6
ByLayer
370
13
48
1
60
0
100
AcDbLine
10
0
20
14.4375
30
0
11
0
21
32.2942
31
0
39
0
210
0
220
0
230
1
0
LINE
5
1A7
100
AcDbEntity
8
2
62
256
6
ByLayer
370
13
48
1
60
0
100
AcDbLine
10
31.155366
20
2.5442
30
0
11
31.155366
21
32.2942
31
0
39
0
210
0
220
0
230
1
0
LINE
5
1A8
100
AcDbEntity
8
2
62
256
6
ByLayer
370
13
48
1
60
0
100
AcDbLine
10
0
20
30.2942
30
0
11
31.155366
21
30.2942
31
0
39
0
210
0
220
0
230
1
0
LINE
5
1A9
100
AcDbEntity
8
2
62
256
6
ByLayer
370
13
48
1
60
0
100
AcDbLine
10
0
20
30.2942
30
0
11
3.174998
21
30.712197
31
0
39
0
210
0
220
0
230
1
0
LINE
5
1AA
100
AcDbEntity
8
2
62
256
6
ByLayer
370
13
48
1
60
0
100
AcDbLine
10
0
20
30.2942
30
0
11
3.175002
21
29.876203
31
0
39
0
210
0
220
0
230
1
0
LINE
5
1AB
100
AcDbEntity
8
2
62
256
6
ByLayer
370
13
48
1
60
0
100
AcDbLine
10
3.174998
20
30.712197
30
0
11
3.175002
21
29.876203
31
0
39
0
210
0
220
0
230
1
0
LINE
5
1AC
100
AcDbEntity
8
2
62
256
6
ByLayer
370
13
48
1
60
0
100
AcDbLine
10
31.155366
20
30.2942
30
0
11
27.980367
21
29.876203
31
0
39
0
210
0
220
0
230
1
0
LINE
5
1AD
100
AcDbEntity
8
2
62
256
6
ByLayer
370
13
48
1
60
0
100
AcDbLine
10
31.155366
20
30.2942
30
0
11
27.980364
21
30.712197
31
0
39
0
210
0
220
0
230
1
0
LINE
5
1AE
100
AcDbEntity
8
2
62
256
6
ByLayer
370
13
48
1
60
0
100
AcDbLine
10
27.980367
20
29.876203
30
0
11
27.980364
21
30.712197
31
0
39
0
210
0
220
0
230
1
0
ENDBLK
5
1B0
100
AcDbEntity
8
0
100
AcDbBlockEnd
0
BLOCK
5
1BD
100
AcDbEntity
8
0
100
AcDbBlockBegin
2
DimnDraft3D5
70
0
10
0
20
0
30
0
3
DimnDraft3D5
0
MTEXT
5
1B3
100
AcDbEntity
8
SK2
62
256
6
ByLayer
370
18
48
1
60
0
100
AcDbMText
10
-49.795292
20
41.4192
30
0
210
0
220
0
230
1
1
\W0.6864;150.0
40
4.5
41
0
44
1.084337
50
0
71
7
72
5
7
iso_b_vert
0
LINE
5
1B4
100
AcDbEntity
8
SK2
62
256
6
ByLayer
370
13
48
1
60
0
100
AcDbLine
10
31.155366
20
2.5442
30
0
11
31.155366
21
42.2942
31
0
39
0
210
0
220
0
230
1
0
LINE
5
1B5
100
AcDbEntity
8
SK2
62
256
6
ByLayer
370
13
48
1
60
0
100
AcDbLine
10
-120.194634
20
14.4375
30
0
11
-120.194634
21
42.2942
31
0
39
0
210
0
220
0
230
1
0
LINE
5
1B6
100
AcDbEntity
8
SK2
62
256
6
ByLayer
370
13
48
1
60
0
100
AcDbLine
10
31.155366
20
40.2942
30
0
11
-120.194634
21
40.2942
31
0
39
0
210
0
220
0
230
1
0
LINE
5
1B7
100
AcDbEntity
8
SK2
62
256
6
ByLayer
370
13
48
1
60
0
100
AcDbLine
10
31.155366
20
40.2942
30
0
11
27.980367
21
39.876203
31
0
39
0
210
0
220
0
230
1
0
LINE
5
1B8
100
AcDbEntity
8
SK2
62
256
6
ByLayer
370
13
48
1
60
0
100
AcDbLine
10
31.155366
20
40.2942
30
0
11
27.980364
21
40.712197
31
0
39
0
210
0
220
0
230
1
0
LINE
5
1B9
100
AcDbEntity
8
SK2
62
256
6
ByLayer
370
13
48
1
60
0
100
AcDbLine
10
27.980367
20
39.876203
30
0
11
27.980364
21
40.712197
31
0
39
0
210
0
220
0
230
1
0
LINE
5
1BA
100
AcDbEntity
8
SK2
62
256
6
ByLayer
370
13
48
1
60
0
100
AcDbLine
10
-120.194634
20
40.2942
30
0
11
-117.019636
21
40.712197
31
0
39
0
210
0
220
0
230
1
0
LINE
5
1BB
100
AcDbEntity
8
SK2
62
256
6
ByLayer
370
13
48
1
60
0
100
AcDbLine
10
-120.194634
20
40.2942
30
0
11
-117.019633
21
39.876203
31
0
39
0
210
0
220
0
230
1
0
LINE
5
1BC
100
AcDbEntity
8
SK2
62
256
6
ByLayer
370
13
48
1
60
0
100
AcDbLine
10
-117.019636
20
40.712197
30
0
11
-117.019633
21
39.876203
31
0
39
0
210
0
220
0
230
1
0
ENDBLK
5
1BE
100
AcDbEntity
8
0
100
AcDbBlockEnd
0
ENDSEC
0
SECTION
2
ENTITIES
0
ELLIPSE
5
DE
100
AcDbEntity
8
1
62
256
6
ByLayer
370
18
48
1
60
0
100
AcDbEllipse
10
11.332658
20
4.424196
30
0
11
1.77567921304245E-17
21
0.29
31
0
210
0
220
0
230
1
40
0.984808
41
-0.715642636223859
42
-0.422883154893897
0
ELLIPSE
5
DF
100
AcDbEntity
8
1
62
256
6
ByLayer
370
18
48
1
60
0
100
AcDbEllipse
10
11.828873
20
3.705198
30
0
11
-5.87811049834741E-16
21
-3.2
31
0
210
0
220
0
230
1
40
0.984808
41
-3.14150537188134
42
-2.81837430398909E-16
0
ELLIPSE
5
E0
100
AcDbEntity
8
1
62
256
6
ByLayer
370
18
48
1
60
0
100
AcDbEllipse
10
11.898333
20
3.705198
30
0
11
-1.65321857766021E-16
21
-0.9
31
0
210
0
220
0
230
1
40
0.984808
41
0.0342522838734598
42
2.97861186410942
0
ELLIPSE
5
E1
100
AcDbEntity
8
1
62
256
6
ByLayer
370
18
48
1
60
0
100
AcDbEllipse
10
11.95911
20
3.705198
30
0
11
-1.65321857766021E-16
21
-0.9
31
0
210
0
220
0
230
1
40
0.984808
41
2.38859999146769
42
3.01323567210774
0
ELLIPSE
5
E2
100
AcDbEntity
8
1
62
256
6
ByLayer
370
18
48
1
60
0
100
AcDbEllipse
10
11.95911
20
3.705198
30
0
11
-1.65321857766021E-16
21
-0.9
31
0
210
0
220
0
230
1
40
0.984808
41
-0.396326372913562
42
0.10722083888743
0
ELLIPSE
5
E3
100
AcDbEntity
8
1
62
256
6
ByLayer
370
18
48
1
60
0
100
AcDbEllipse
10
11.95911
20
3.705198
30
0
11
-1.65321857766021E-16
21
-0.9
31
0
210
0
220
0
230
1
40
0.984808
41
-1.59453242407474
42
-1.00837763207455
0
ELLIPSE
5
E4
100
AcDbEntity
8
1
62
256
6
ByLayer
370
18
48
1
60
0
100
AcDbEllipse
10
11.95911
20
3.705198
30
0
11
-1.65321857766021E-16
21
-0.9
31
0
210
0
220
0
230
1
40
0.984808
41
-2.84738776451527
42
-2.30979458598397
0
ELLIPSE
5
E5
100
AcDbEntity
8
1
62
256
6
ByLayer
370
18
48
1
60
0
100
AcDbEllipse
10
11.659125
20
2.794807
30
0
11
1.77567921304245E-17
21
0.29
31
0
210
0
220
0
230
1
40
0.984808
41
-2.718716345137
42
-2.02452428940412
0
ELLIPSE
5
E6
100
AcDbEntity
8
1
62
256
6
ByLayer
370
18
48
1
60
0
100
AcDbEllipse
10
12.259094
20
4.615589
30
0
11
1.77567921304245E-17
21
0.29
31
0
210
0
220
0
230
1
40
0.984808
41
-1.76284018742045
42
-0.42287220672127
0
ELLIPSE
5
E7
100
AcDbEntity
8
1
62
256
6
ByLayer
370
18
48
1
60
0
100
AcDbEllipse
10
12.585561
20
2.986201
30
0
11
1.77567921304245E-17
21
0.29
31
0
210
0
220
0
230
1
40
0.984808
41
-2.71868058541544
42
-0.977326738207495
0
ELLIPSE
5
E8
100
AcDbEntity
8
1
62
256
6
ByLayer
370
18
48
1
60
0
100
AcDbEllipse
10
12.84395
20
4.500115
30
0
11
-5.78626502181073E-17
21
-0.315
31
0
210
0
220
0
230
1
40
0.984808
41
-0.576485033401785
42
-5.53146707667907E-06
0
ELLIPSE
5
E9
100
AcDbEntity
8
1
62
256
6
ByLayer
370
18
48
1
60
0
100
AcDbEllipse
10
12.885545
20
3.896591
30
0
11
1.77567921304245E-17
21
0.29
31
0
210
0
220
0
230
1
40
0.984808
41
-2.81003773861701
42
-0.100944396600975
0
ELLIPSE
5
EA
100
AcDbEntity
8
1
62
256
6
ByLayer
370
18
48
1
60
0
100
AcDbEllipse
10
12.690018
20
-1.53268
30
0
11
-3.37098916312685E-16
21
-1.83514163693225
31
0
210
0
220
0
230
1
40
0.984808
41
-1.31212278828601
42
-1.0908307824949
0
ELLIPSE
5
EB
100
AcDbEntity
8
1
62
256
6
ByLayer
370
18
48
1
60
0
100
AcDbEllipse
10
11.473061
20
-1.925176
30
0
11
-3.48692195176616E-16
21
-1.89825459197964
31
0
210
0
220
0
230
1
40
0.984808
41
0.447715014885844
42
0.47996554430005
0
ELLIPSE
5
EC
100
AcDbEntity
8
1
62
256
6
ByLayer
370
18
48
1
60
0
100
AcDbEllipse
10
11.447014
20
-1.925176
30
0
11
-3.21138552215612E-16
21
-1.74825459197964
31
0
210
0
220
0
230
1
40
0.984808
41
0.375335898942764
42
0.479965544300057
0
ELLIPSE
5
ED
100
AcDbEntity
8
1
62
256
6
ByLayer
370
18
48
1
60
0
100
AcDbEllipse
10
21.909208
20
0.062541
30
0
11
-3.49931265604744E-16
21
-1.905
31
0
210
0
220
0
230
1
40
0.984808
41
-0.222169726669844
42
-2.51508468072517E-16
0
ELLIPSE
5
EE
100
AcDbEntity
8
1
62
256
6
ByLayer
370
18
48
1
60
0
100
AcDbEllipse
10
21.909208
20
0.062541
30
0
11
-3.49931265604744E-16
21
-1.905
31
0
210
0
220
0
230
1
40
0.984808
41
0
42
2.71639752372618
0
ELLIPSE
5
EF
100
AcDbEntity
8
1
62
256
6
ByLayer
370
18
48
1
60
0
100
AcDbEllipse
10
21.082643
20
0.062541
30
0
11
1.16643755201581E-16
21
1.905
31
0
210
0
220
0
230
1
40
0.984808
41
-2.91942334287661
42
-2.65052253472914
0
ELLIPSE
5
F0
100
AcDbEntity
8
1
62
256
6
ByLayer
370
18
48
1
60
0
100
AcDbEllipse
10
21.082643
20
4.078839
30
0
11
6.12303176911189E-17
21
1
31
0
210
0
220
0
230
1
40
0.984808
41
-0.479965544296832
42
0.0322172223397424
0
ELLIPSE
5
F1
100
AcDbEntity
8
1
62
256
6
ByLayer
370
18
48
1
60
0
100
AcDbEllipse
10
21.082643
20
-3.953758
30
0
11
6.12303176911189E-17
21
1
31
0
210
0
220
0
230
1
40
0.984808
41
3.11346957334871
42
-2.66162710928976
0
ELLIPSE
5
F2
100
AcDbEntity
8
1
62
256
6
ByLayer
370
18
48
1
60
0
100
AcDbEllipse
10
9.164036
20
10.098156
30
0
11
-0.0874371315969338
21
-2.99872552062007
31
0
210
0
220
0
230
1
40
0.981784
41
-0.294220949637205
42
-0.1032538564028
0
ELLIPSE
5
F3
100
AcDbEntity
8
1
62
256
6
ByLayer
370
18
48
1
60
0
100
AcDbEllipse
10
12.466956
20
3.487154
30
0
11
0.097638130283238
21
3.34857683135908
31
0
210
0
220
0
230
1
40
0.981784
41
3.03846880500976
42
-0.294220949637223
0
ELLIPSE
5
F4
100
AcDbEntity
8
1
62
256
6
ByLayer
370
18
48
1
60
0
100
AcDbEllipse
10
8.537404
20
2.356619
30
0
11
4.27394910902625
21
-1.40831779561778
31
0
210
0
220
0
230
1
40
0.055099
41
1.92451967262802
42
2.36339624145736
0
ELLIPSE
5
F5
100
AcDbEntity
8
1
62
256
6
ByLayer
370
18
48
1
60
0
100
AcDbEllipse
10
22.285107
20
0.03557
30
0
11
-0.393236167801218
21
1.62059057895802
31
0
210
0
220
0
230
1
40
0.788684
41
-2.08277001348325
42
-1.80168632859218
0
ELLIPSE
5
F6
100
AcDbEntity
8
1
62
256
6
ByLayer
370
18
48
1
60
0
100
AcDbEllipse
10
8.136444
20
8.138545
30
0
11
-1.19742440484273
21
-1.34394002644725
31
0
210
0
220
0
230
1
40
0.791846
41
-2.70320272344457
42
-1.27297291699578
0
ELLIPSE
5
F7
100
AcDbEntity
8
1
62
256
6
ByLayer
370
18
48
1
60
0
100
AcDbEllipse
10
1.336362
20
1.353272
30
0
11
5.698598812035
21
-1.8777570608237
31
0
210
0
220
0
230
1
40
0.055099
41
-0.830796425857807
42
-0.828907304780611
0
ELLIPSE
5
F8
100
AcDbEntity
8
1
62
256
6
ByLayer
370
18
48
1
60
0
100
AcDbEllipse
10
8.135613
20
1.137271
30
0
11
-4.32332209884859
21
1.25791627300109
31
0
210
0
220
0
230
1
40
0.25183
41
-0.633398713244323
42
-0.571750534086362
0
ELLIPSE
5
F9
100
AcDbEntity
8
1
62
256
6
ByLayer
370
18
48
1
60
0
100
AcDbEllipse
10
7.700893
20
-0.482065
30
0
11
-2.61794167606861
21
0.679804365225161
31
0
210
0
220
0
230
1
40
0.382121
41
-0.649118974624019
42
0.0923719091063437
0
ELLIPSE
5
FA
100
AcDbEntity
8
1
62
256
6
ByLayer
370
18
48
1
60
0
100
AcDbEllipse
10
10.47129
20
7.648492
30
0
11
-2.52972674480136
21
2.59675835946258
31
0
210
0
220
0
230
1
40
0.392669
41
-0.656933582450594
42
-0.36530971890739
0
ELLIPSE
5
FB
100
AcDbEntity
8
1
62
256
6
ByLayer
370
18
48
1
60
0
100
AcDbEllipse
10
8.565137
20
1.863717
30
0
11
-3.70925905783374
21
-1.44408471791304
31
0
210
0
220
0
230
1
40
0.457071
41
0.206595772671535
42
0.49821963620613
0
ELLIPSE
5
FC
100
AcDbEntity
8
1
62
256
6
ByLayer
370
18
48
1
60
0
100
AcDbEllipse
10
10.946584
20
9.367928
30
0
11
-2.51391270385695
21
0.996990225482509
31
0
210
0
220
0
230
1
40
0.272385
41
-0.100793375141933
42
0.640697508593456
0
ELLIPSE
5
FD
100
AcDbEntity
8
1
62
256
6
ByLayer
370
18
48
1
60
0
100
AcDbEllipse
10
6.207143
20
2.283522
30
0
11
0.379528683986436
21
-1.75953345464971
31
0
210
0
220
0
230
1
40
0.760282
41
-2.02463207849776
42
-0.59440227204897
0
ELLIPSE
5
FE
100
AcDbEntity
8
1
62
256
6
ByLayer
370
18
48
1
60
0
100
AcDbEllipse
10
22.285107
20
0.03557
30
0
11
-0.93425784183215
21
-1.46924393597823
31
0
210
0
220
0
230
1
40
0.803719
41
1.43928809396742
42
1.72037177903951
0
ELLIPSE
5
FF
100
AcDbEntity
8
1
62
256
6
ByLayer
370
18
48
1
60
0
100
AcDbEllipse
10
5.538515
20
2.272701
30
0
11
-0.557826448920204
21
2.44022527944324
31
0
210
0
220
0
230
1
40
0.989691
41
1.02315838606261
42
2.1369527821746
0
ELLIPSE
5
100
100
AcDbEntity
8
1
62
256
6
ByLayer
370
18
48
1
60
0
100
AcDbEllipse
10
10.314123
20
7.748593
30
0
11
-4.22655012354894
21
1.55199698243537
31
0
210
0
220
0
230
1
40
0.141766
41
0.567658128612901
42
0.629306314951168
0
ELLIPSE
5
101
100
AcDbEntity
8
1
62
256
6
ByLayer
370
18
48
1
60
0
100
AcDbEllipse
10
9.912334
20
6.529243
30
0
11
4.27394910902625
21
-1.40831779561778
31
0
210
0
220
0
230
1
40
0.055099
41
1.92451967262805
42
2.36339624145743
0
ELLIPSE
5
102
100
AcDbEntity
8
1
62
256
6
ByLayer
370
18
48
1
60
0
100
AcDbEllipse
10
7.444668
20
8.057475
30
0
11
-0.557826448933717
21
2.44022527944096
31
0
210
0
220
0
230
1
40
0.989691
41
-0.0906360100544225
42
1.02315838605722
0
ELLIPSE
5
103
100
AcDbEntity
8
1
62
256
6
ByLayer
370
18
48
1
60
0
100
AcDbEllipse
10
7.064811
20
12.268947
30
0
11
-0.720452694080198
21
0.369620644360574
31
0
210
0
220
0
230
1
40
0.079241
41
1.41755338008974
42
2.98834970688517
0
ELLIPSE
5
104
100
AcDbEntity
8
1
62
256
6
ByLayer
370
18
48
1
60
0
100
AcDbEllipse
10
12.760012
20
-1.747774
30
0
11
-3.31731626616484E-16
21
-1.80592250770242
31
0
210
0
220
0
230
1
40
0.984808
41
-1.17926133044254
42
-1.09083078249491
0
ELLIPSE
5
105
100
AcDbEntity
8
1
62
256
6
ByLayer
370
18
48
1
60
0
100
AcDbEllipse
10
12.850959
20
-1.925176
30
0
11
-3.31731626616484E-16
21
-1.80592250770242
31
0
210
0
220
0
230
1
40
0.984808
41
-1.09083078249489
42
0.479965544300032
0
ELLIPSE
5
106
100
AcDbEntity
8
1
62
256
6
ByLayer
370
18
48
1
60
0
100
AcDbEllipse
10
1.163535
20
-5.640188
30
0
11
-0.0173014136228789
21
-2.52989857794005
31
0
210
0
220
0
230
1
40
0.081871
41
-1.48745845143722
42
0.083337875358768
0
ELLIPSE
5
107
100
AcDbEntity
8
1
62
256
6
ByLayer
370
18
48
1
60
0
100
AcDbEllipse
10
30.373142
20
0.062541
30
0
11
4.86168722467484E-17
21
0.794
31
0
210
0
220
0
230
1
40
0.984808
41
-2.66162710928976
42
-0.47996554429691
0
ELLIPSE
5
108
100
AcDbEntity
8
1
62
256
6
ByLayer
370
18
48
1
60
0
100
AcDbEllipse
10
20.952875
20
4.031041
30
0
11
4.86168722467484E-17
21
0.794
31
0
210
0
220
0
230
1
40
0.984808
41
0
42
0.479965544300061
0
ELLIPSE
5
109
100
AcDbEntity
8
1
62
256
6
ByLayer
370
18
48
1
60
0
100
AcDbEllipse
10
22.865541
20
4.031041
30
0
11
4.86168722467484E-17
21
0.794
31
0
210
0
220
0
230
1
40
0.984808
41
-0.479965544296879
42
1.56295538228272E-12
0
ELLIPSE
5
10A
100
AcDbEntity
8
1
62
256
6
ByLayer
370
18
48
1
60
0
100
AcDbEllipse
10
20.952875
20
-3.905959
30
0
11
4.86168722467484E-17
21
0.794
31
0
210
0
220
0
230
1
40
0.984808
41
2.66162710929291
42
-3.14159265358827
0
ELLIPSE
5
10B
100
AcDbEntity
8
1
62
256
6
ByLayer
370
18
48
1
60
0
100
AcDbEllipse
10
22.865541
20
-3.905959
30
0
11
4.86168722467484E-17
21
0.794
31
0
210
0
220
0
230
1
40
0.984808
41
-3.14159265358823
42
-2.66162710928976
0
ELLIPSE
5
10C
100
AcDbEntity
8
1
62
256
6
ByLayer
370
18
48
1
60
0
100
AcDbEllipse
10
11.957995
20
4.880772
30
0
11
-5.78626502181073E-17
21
-0.315
31
0
210
0
220
0
230
1
40
0.984808
41
0.643868096420499
42
1.11706836418573
0
ELLIPSE
5
10D
100
AcDbEntity
8
1
62
256
6
ByLayer
370
18
48
1
60
0
100
AcDbEllipse
10
12.493519
20
4.615589
30
0
11
1.77567921304245E-17
21
0.29
31
0
210
0
220
0
230
1
40
0.984808
41
-1.76284018742044
42
1.11706836418566
0
ELLIPSE
5
10E
100
AcDbEntity
8
1
62
256
6
ByLayer
370
18
48
1
60
0
100
AcDbEllipse
10
11.72357
20
4.880772
30
0
11
-5.78626502181073E-17
21
-0.315
31
0
210
0
220
0
230
1
40
0.984808
41
-0.715642636223828
42
-0.0692867898327711
0
ELLIPSE
5
10F
100
AcDbEntity
8
1
62
256
6
ByLayer
370
18
48
1
60
0
100
AcDbEllipse
10
11.957995
20
4.880772
30
0
11
-5.78626502181073E-17
21
-0.315
31
0
210
0
220
0
230
1
40
0.984808
41
-0.715642636223872
42
-0.242442368458626
0
ELLIPSE
5
110
100
AcDbEntity
8
1
62
256
6
ByLayer
370
18
48
1
60
0
100
AcDbEllipse
10
11.95911
20
3.705198
30
0
11
-1.65321857766021E-16
21
-0.9
31
0
210
0
220
0
230
1
40
0.984808
41
1.34140244027106
42
2.20161594128058
0
ELLIPSE
5
111
100
AcDbEntity
8
1
62
256
6
ByLayer
370
18
48
1
60
0
100
AcDbEllipse
10
12.194649
20
2.529624
30
0
11
-5.78626502181073E-17
21
-0.315
31
0
210
0
220
0
230
1
40
0.984808
41
-2.67088013579513
42
-2.02452428940411
0
ELLIPSE
5
112
100
AcDbEntity
8
1
62
256
6
ByLayer
370
18
48
1
60
0
100
AcDbEllipse
10
11.89355
20
2.794807
30
0
11
1.77567921304245E-17
21
0.29
31
0
210
0
220
0
230
1
40
0.984808
41
1.37875246616934
42
-2.02452428940408
0
ELLIPSE
5
113
100
AcDbEntity
8
1
62
256
6
ByLayer
370
18
48
1
60
0
100
AcDbEllipse
10
12.429074
20
2.529624
30
0
11
-5.78626502181073E-17
21
-0.315
31
0
210
0
220
0
230
1
40
0.984808
41
-2.49772455716931
42
-2.02452428940411
0
ELLIPSE
5
114
100
AcDbEntity
8
1
62
256
6
ByLayer
370
18
48
1
60
0
100
AcDbEllipse
10
12.193535
20
3.705198
30
0
11
-1.69914131592855E-16
21
-0.925
31
0
210
0
220
0
230
1
40
0.984808
41
0.0541678331927584
42
0.347257894769132
0
ELLIPSE
5
115
100
AcDbEntity
8
1
62
256
6
ByLayer
370
18
48
1
60
0
100
AcDbEllipse
10
12.117307
20
3.705198
30
0
11
1.9593701661158E-16
21
3.2
31
0
210
0
220
0
230
1
40
0.984808
41
0
42
6.28318530717959
0
ELLIPSE
5
116
100
AcDbEntity
8
1
62
256
6
ByLayer
370
18
48
1
60
0
100
AcDbEllipse
10
12.186015
20
3.705198
30
0
11
-1.65321857766021E-16
21
-0.9
31
0
210
0
220
0
230
1
40
0.984808
41
2.2016159412755
42
2.38859999147549
0
ELLIPSE
5
117
100
AcDbEntity
8
1
62
256
6
ByLayer
370
18
48
1
60
0
100
AcDbEllipse
10
12.819986
20
2.986201
30
0
11
1.77567921304245E-17
21
0.29
31
0
210
0
220
0
230
1
40
0.984808
41
2.42595001736601
42
-0.977326738207517
0
ELLIPSE
5
118
100
AcDbEntity
8
1
62
256
6
ByLayer
370
18
48
1
60
0
100
AcDbEllipse
10
12.193535
20
3.705198
30
0
11
-1.69914131592855E-16
21
-0.925
31
0
210
0
220
0
230
1
40
0.984808
41
1.10136538438934
42
1.39445544596569
0
ELLIPSE
5
119
100
AcDbEntity
8
1
62
256
6
ByLayer
370
18
48
1
60
0
100
AcDbEllipse
10
13.079489
20
3.324541
30
0
11
-5.78626502181073E-17
21
-0.315
31
0
210
0
220
0
230
1
40
0.984808
41
-1.62368258459858
42
-0.977326738207479
0
ELLIPSE
5
11A
100
AcDbEntity
8
1
62
256
6
ByLayer
370
18
48
1
60
0
100
AcDbEllipse
10
11.073155
20
4.085855
30
0
11
-5.78626502181073E-17
21
-0.315
31
0
210
0
220
0
230
1
40
0.984808
41
0.331554914972602
42
0.804755182737917
0
ELLIPSE
5
11B
100
AcDbEntity
8
1
62
256
6
ByLayer
370
18
48
1
60
0
100
AcDbEllipse
10
11.308694
20
2.910281
30
0
11
-5.78626502181073E-17
21
-0.315
31
0
210
0
220
0
230
1
40
0.984808
41
1.37875246616931
42
1.85195273393456
0
ELLIPSE
5
11C
100
AcDbEntity
8
1
62
256
6
ByLayer
370
18
48
1
60
0
100
AcDbEllipse
10
11.308694
20
2.910281
30
0
11
-5.78626502181073E-17
21
-0.315
31
0
210
0
220
0
230
1
40
0.984808
41
2.73826319881358
42
-3.07172184060074
0
ELLIPSE
5
11D
100
AcDbEntity
8
1
62
256
6
ByLayer
370
18
48
1
60
0
100
AcDbEllipse
10
12.193535
20
3.705198
30
0
11
1.16337603613126E-16
21
1.9
31
0
210
0
220
0
230
1
40
0.984808
41
0
42
6.28318530717959
0
ELLIPSE
5
11E
100
AcDbEntity
8
1
62
256
6
ByLayer
370
18
48
1
60
0
100
AcDbEllipse
10
13.078375
20
4.500115
30
0
11
-5.78626502181073E-17
21
-0.315
31
0
210
0
220
0
230
1
40
0.984808
41
-1.7628401874204
42
-1.28963991965524
0
ELLIPSE
5
11F
100
AcDbEntity
8
1
62
256
6
ByLayer
370
18
48
1
60
0
100
AcDbEllipse
10
13.079489
20
3.324541
30
0
11
-5.78626502181073E-17
21
-0.315
31
0
210
0
220
0
230
1
40
0.984808
41
-2.81003773861701
42
-2.16368189222604
0
ELLIPSE
5
120
100
AcDbEntity
8
1
62
256
6
ByLayer
370
18
48
1
60
0
100
AcDbEllipse
10
13.078375
20
4.500115
30
0
11
-5.78626502181073E-17
21
-0.315
31
0
210
0
220
0
230
1
40
0.984808
41
-0.403329454776029
42
0.0698708129891418
0
ELLIPSE
5
121
100
AcDbEntity
8
1
62
256
6
ByLayer
370
18
48
1
60
0
100
AcDbEllipse
10
11.073155
20
4.085855
30
0
11
-5.78626502181073E-17
21
-0.315
31
0
210
0
220
0
230
1
40
0.984808
41
1.69106564761699
42
2.1642659153823
0
ELLIPSE
5
122
100
AcDbEntity
8
1
62
256
6
ByLayer
370
18
48
1
60
0
100
AcDbEllipse
10
11.567083
20
4.424196
30
0
11
1.77567921304245E-17
21
0.29
31
0
210
0
220
0
230
1
40
0.984808
41
-0.715642636223782
42
2.1642659153823
0
ELLIPSE
5
123
100
AcDbEntity
8
1
62
256
6
ByLayer
370
18
48
1
60
0
100
AcDbEllipse
10
13.313914
20
3.324541
30
0
11
-5.78626502181073E-17
21
-0.315
31
0
210
0
220
0
230
1
40
0.984808
41
-1.45052700597278
42
-0.977326738207514
0
ELLIPSE
5
124
100
AcDbEntity
8
1
62
256
6
ByLayer
370
18
48
1
60
0
100
AcDbEllipse
10
13.313914
20
3.324541
30
0
11
-5.78626502181073E-17
21
-0.315
31
0
210
0
220
0
230
1
40
0.984808
41
-2.810037738617
42
-2.3368374708518
0
ELLIPSE
5
125
100
AcDbEntity
8
1
62
256
6
ByLayer
370
18
48
1
60
0
100
AcDbEllipse
10
11.95911
20
3.705198
30
0
11
-1.65321857766021E-16
21
-0.9
31
0
210
0
220
0
230
1
40
0.984808
41
0.294204889074518
42
1.15441839008397
0
ELLIPSE
5
126
100
AcDbEntity
8
1
62
256
6
ByLayer
370
18
48
1
60
0
100
AcDbEllipse
10
12.429074
20
2.529624
30
0
11
-5.78626502181073E-17
21
-0.315
31
0
210
0
220
0
230
1
40
0.984808
41
2.425950017366
42
2.89915028513127
0
ELLIPSE
5
127
100
AcDbEntity
8
1
62
256
6
ByLayer
370
18
48
1
60
0
100
AcDbEllipse
10
12.186015
20
3.705198
30
0
11
-1.65321857766021E-16
21
-0.9
31
0
210
0
220
0
230
1
40
0.984808
41
-3.03437181470256
42
-2.84738776450556
0
ELLIPSE
5
128
100
AcDbEntity
8
1
62
256
6
ByLayer
370
18
48
1
60
0
100
AcDbEllipse
10
11.267099
20
3.513805
30
0
11
1.77567921304245E-17
21
0.29
31
0
210
0
220
0
230
1
40
0.984808
41
0.331554914972779
42
-3.07172184060063
0
ELLIPSE
5
129
100
AcDbEntity
8
1
62
256
6
ByLayer
370
18
48
1
60
0
100
AcDbEllipse
10
12.193535
20
3.705198
30
0
11
-1.69914131592855E-16
21
-0.925
31
0
210
0
220
0
230
1
40
0.984808
41
2.14856293558595
42
2.44165299716234
0
ELLIPSE
5
12A
100
AcDbEntity
8
1
62
256
6
ByLayer
370
18
48
1
60
0
100
AcDbEllipse
10
12.84395
20
4.500115
30
0
11
-5.78626502181073E-17
21
-0.315
31
0
210
0
220
0
230
1
40
0.984808
41
-1.76284018742042
42
-1.11648434102936
0
ELLIPSE
5
12B
100
AcDbEntity
8
1
62
256
6
ByLayer
370
18
48
1
60
0
100
AcDbEllipse
10
12.186015
20
3.705198
30
0
11
-1.65321857766021E-16
21
-0.9
31
0
210
0
220
0
230
1
40
0.984808
41
-1.98717426350581
42
-1.80019021331873
0
ELLIPSE
5
12C
100
AcDbEntity
8
1
62
256
6
ByLayer
370
18
48
1
60
0
100
AcDbEllipse
10
12.193535
20
3.705198
30
0
11
-1.69914131592855E-16
21
-0.925
31
0
210
0
220
0
230
1
40
0.984808
41
-2.04022726920045
42
-1.7471372076241
0
ELLIPSE
5
12D
100
AcDbEntity
8
1
62
256
6
ByLayer
370
18
48
1
60
0
100
AcDbEllipse
10
12.186015
20
3.705198
30
0
11
-1.65321857766021E-16
21
-0.9
31
0
210
0
220
0
230
1
40
0.984808
41
0.107220838887269
42
0.29420488908427
0
ELLIPSE
5
12E
100
AcDbEntity
8
1
62
256
6
ByLayer
370
18
48
1
60
0
100
AcDbEllipse
10
12.186015
20
3.705198
30
0
11
-1.65321857766021E-16
21
-0.9
31
0
210
0
220
0
230
1
40
0.984808
41
-0.939976712309208
42
-0.752992662122083
0
ELLIPSE
5
12F
100
AcDbEntity
8
1
62
256
6
ByLayer
370
18
48
1
60
0
100
AcDbEllipse
10
13.119971
20
3.896591
30
0
11
1.77567921304245E-17
21
0.29
31
0
210
0
220
0
230
1
40
0.984808
41
-2.81003773861701
42
0.0698708129891636
0
ELLIPSE
5
130
100
AcDbEntity
8
1
62
256
6
ByLayer
370
18
48
1
60
0
100
AcDbEllipse
10
12.186015
20
3.705198
30
0
11
-1.65321857766021E-16
21
-0.9
31
0
210
0
220
0
230
1
40
0.984808
41
1.15441839008399
42
1.34140244027106
0
ELLIPSE
5
131
100
AcDbEntity
8
1
62
256
6
ByLayer
370
18
48
1
60
0
100
AcDbEllipse
10
12.193535
20
3.705198
30
0
11
-1.69914131592855E-16
21
-0.925
31
0
210
0
220
0
230
1
40
0.984808
41
-3.087424820397
42
-2.79433475882066
0
ELLIPSE
5
132
100
AcDbEntity
8
1
62
256
6
ByLayer
370
18
48
1
60
0
100
AcDbEllipse
10
12.193535
20
3.705198
30
0
11
-1.69914131592855E-16
21
-0.925
31
0
210
0
220
0
230
1
40
0.984808
41
-0.993029718003845
42
-0.699939656427495
0
POINT
5
6C
100
AcDbEntity
8
2
62
256
6
ByLayer
370
18
48
1
60
0
100
AcDbPoint
10
31.155366
20
0.5442
30
0
39
0
210
0
220
0
230
1
50
360
0
POINT
5
6E
100
AcDbEntity
8
80
62
256
6
ByLayer
370
18
48
1
60
0
100
AcDbPoint
10
0
20
0
30
0
39
0
210
0
220
0
230
1
50
360
0
POINT
5
70
100
AcDbEntity
8
81
62
256
6
ByLayer
370
18
48
1
60
0
100
AcDbPoint
10
31.155366
20
0.5442
30
0
39
0
210
0
220
0
230
1
50
360
0
SPLINE
5
133
100
AcDbEntity
8
1
62
256
6
ByLayer
370
18
48
1
60
0
100
AcDbSpline
70
4
71
3
72
10
73
6
40
0
40
0
40
0
40
0
40
0.472484934373349
40
0.472484934373349
40
1
40
1
40
1
40
1
41
1
10
7.94048929325169
20
10.5132162722169
30
0
41
1
10
7.81751444435326
20
10.5301311731307
30
0
41
1
10
7.6905550659136
20
10.5421404807519
30
0
41
1
10
7.41346085876512
20
10.5536074861827
30
0
41
1
10
7.26163728971812
20
10.5512146602552
30
0
41
1
10
7.10772394325505
20
10.5376534287759
30
0
0
SPLINE
5
134
100
AcDbEntity
8
1
62
256
6
ByLayer
370
18
48
1
60
0
100
AcDbSpline
70
4
71
3
72
8
73
4
40
0
40
0
40
0
40
0
40
1
40
1
40
1
40
1
41
1
10
19.0979365061447
20
-2.80172252093925
30
0
41
1
10
19.041109885816
20
-2.78675454601554
30
0
41
1
10
18.9844708519053
20
-2.77105497085393
30
0
41
1
10
18.928044277504
20
-2.75460047834486
30
0
0
SPLINE
5
135
100
AcDbEntity
8
1
62
256
6
ByLayer
370
18
48
1
60
0
100
AcDbSpline
70
4
71
3
72
11
73
7
40
0
40
0
40
0
40
0
40
0.559926195718567
40
0.559926195718567
40
0.559926195718567
40
1
40
1
40
1
40
1
41
1
10
21.2054721589933
20
4.15691544174842
30
0
41
1
10
20.9245157832378
20
4.29023415164258
30
0
41
1
10
20.6147307590644
20
4.47127078986094
30
0
41
1
10
20.3088431971506
20
4.68748745383368
30
0
41
1
10
20.0666961440355
20
4.85864913065319
30
0
41
1
10
19.8220761872732
20
5.05376050036404
30
0
41
1
10
19.5852207678818
20
5.26047209667331
30
0
0
SPLINE
5
136
100
AcDbEntity
8
1
62
256
6
ByLayer
370
18
48
1
60
0
100
AcDbSpline
70
4
71
3
72
8
73
4
40
0
40
0
40
0
40
0
40
1
40
1
40
1
40
1
41
1
10
21.8531805059116
20
3.5048657690316
30
0
41
1
10
20.7506442301877
20
3.82749095317885
30
0
41
1
10
19.9757175474284
20
3.02726835985226
30
0
41
1
10
18.9073413277836
20
3.16491993675533
30
0
0
SPLINE
5
137
100
AcDbEntity
8
1
62
256
6
ByLayer
370
18
48
1
60
0
100
AcDbSpline
70
4
71
3
72
8
73
4
40
0
40
0
40
0
40
0
40
1
40
1
40
1
40
1
41
1
10
21.2054721589933
20
4.15691544174837
30
0
41
1
10
21.2589577251138
20
4.13153560598576
30
0
41
1
10
21.3121663314591
20
4.10542540272928
30
0
41
1
10
21.365092302784
20
4.07861977624529
30
0
0
SPLINE
5
138
100
AcDbEntity
8
1
62
256
6
ByLayer
370
18
48
1
60
0
100
AcDbSpline
70
4
71
2
72
8
73
5
40
0
40
0
40
0
40
0.145991510278033
40
0.563470207586078
40
1
40
1
40
1
41
1.02393576174182
10
15.7786824265009
20
1.61712644313193
30
0
41
1.02323174907608
10
16.0335108900736
20
1.55270766501576
30
0
41
1.02039724512338
10
17.0112176760226
20
1.30948963828459
30
0
41
1.01644464721285
10
18.4448393685875
20
1.01272762631775
30
0
41
1.01495409538129
10
19.1362151282533
20
0.792060269006339
30
0
0
SPLINE
5
139
100
AcDbEntity
8
1
62
256
6
ByLayer
370
18
48
1
60
0
100
AcDbSpline
70
4
71
3
72
16
73
12
40
0
40
0
40
0
40
0
40
0.28382542465983
40
0.28382542465983
40
0.572792249827487
40
0.572792249827487
40
0.572792249827487
40
0.894188232602853
40
0.894188232602853
40
0.894188232602853
40
1
40
1
40
1
40
1
41
1
10
14.5478595496942
20
6.30725039713499
30
0
41
1
10
14.8521514157487
20
6.1234831861772
30
0
41
1
10
15.1348361404021
20
5.8886643880798
30
0
41
1
10
15.6206278313663
20
5.35418679598376
30
0
41
1
10
15.8289861064742
20
5.04698298691872
30
0
41
1
10
15.9841221620894
20
4.71972100027906
30
0
41
1
10
16.1556598896153
20
4.35785942483074
30
0
41
1
10
16.2668033278669
20
3.95717790323775
30
0
41
1
10
16.2897474920645
20
3.554707326748
30
0
41
1
10
16.2974416181635
20
3.41974231603936
30
0
41
1
10
16.295466029324
20
3.2835750308499
30
0
41
1
10
16.283401235234
20
3.14884215915143
30
0
0
SPLINE
5
13A
100
AcDbEntity
8
1
62
256
6
ByLayer
370
18
48
1
60
0
100
AcDbSpline
70
4
71
3
72
8
73
4
40
0
40
0
40
0
40
0
40
1
40
1
40
1
40
1
41
1
10
7.1297308628474
20
3.06536338542034
30
0
41
1
10
7.17241170336342
20
3.05225577815128
30
0
41
1
10
7.21543098807473
20
3.03897984170149
30
0
41
1
10
7.25872870245479
20
3.02555343693524
30
0
0
SPLINE
5
13B
100
AcDbEntity
8
1
62
256
6
ByLayer
370
18
48
1
60
0
100
AcDbSpline
70
4
71
3
72
8
73
4
40
0
40
0
40
0
40
0
40
1
40
1
40
1
40
1
41
1
10
8.63365867950438
20
7.19817751984473
30
0
41
1
10
8.59036096512438
20
7.21160392461093
30
0
41
1
10
8.54734168041256
20
7.224879861061
30
0
41
1
10
8.50466083989659
20
7.23798746833006
30
0
0
SPLINE
5
13C
100
AcDbEntity
8
1
62
256
6
ByLayer
370
18
48
1
60
0
100
AcDbSpline
70
4
71
2
72
6
73
3
40
0
40
0
40
0
40
1
40
1
40
1
41
1.02990374504916
10
11.6754369575553
20
-1.34140389054868
30
0
41
1.02990374504916
10
11.3676903491745
20
-1.69164385223141
30
0
41
1.02990374504916
10
11.0599437407936
20
-2.04188381391408
30
0
0
SPLINE
5
13D
100
AcDbEntity
8
1
62
256
6
ByLayer
370
18
48
1
60
0
100
AcDbSpline
70
4
71
3
72
8
73
4
40
0
40
0
40
0
40
0
40
1
40
1
40
1
40
1
41
1
10
8.36919686751867
20
2.40357120292507
30
0
41
1
10
7.37029358375275
20
1.6156426956631
30
0
41
1
10
6.40630537968269
20
0.938427340748916
30
0
41
1
10
5.77242221193586
20
0.664186640988447
30
0
0
SPLINE
5
13E
100
AcDbEntity
8
1
62
256
6
ByLayer
370
18
48
1
60
0
100
AcDbSpline
70
4
71
3
72
25
73
21
40
0
40
0
40
0
40
0
40
0.442411593548776
40
0.442411593548776
40
0.442411593548776
40
0.583396916265378
40
0.583396916265378
40
0.651602530488652
40
0.651602530488652
40
0.706341521306451
40
0.706341521306451
40
0.74247528698774
40
0.74247528698774
40
0.77897296874294
40
0.77897296874294
40
0.811539464980192
40
0.811539464980192
40
0.868309796146678
40
0.868309796146678
40
1
40
1
40
1
40
1
41
1
10
19.1362151281865
20
0.792060269027701
30
0
41
1
10
18.8282806248112
20
0.755172357095063
30
0
41
1
10
18.4959541841858
20
0.681773390025199
30
0
41
1
10
18.1701101847815
20
0.544300688643261
30
0
41
1
10
18.0643320635473
20
0.499673185605758
30
0
41
1
10
17.9577740159984
20
0.447542296400059
30
0
41
1
10
17.8081375539796
20
0.354912517106612
30
0
41
1
10
17.7600806379122
20
0.321829580169265
30
0
41
1
10
17.6805340711347
20
0.256717738207783
30
0
41
1
10
17.6469819513326
20
0.225166780656991
30
0
41
1
10
17.6017826441774
20
0.170231264530201
30
0
41
1
10
17.586338902399
20
0.14724027474432
30
0
41
1
10
17.5648903194811
20
0.102107449793607
30
0
41
1
10
17.5588454995138
20
0.0794110907946219
30
0
41
1
10
17.5574177564873
20
0.0405820337130081
30
0
41
1
10
17.5608259334498
20
0.0235472435912243
30
0
41
1
10
17.5780405444153
20
-0.0178541501243785
30
0
41
1
10
17.5975423799534
20
-0.0392966522926201
30
0
41
1
10
17.6730415085783
20
-0.0988262164424896
30
0
41
1
10
17.7435613336918
20
-0.12506773326507
30
0
41
1
10
17.815959163063
20
-0.147196010631404
30
0
0
SPLINE
5
13F
100
AcDbEntity
8
1
62
256
6
ByLayer
370
18
48
1
60
0
100
AcDbSpline
70
4
71
3
72
10
73
6
40
0
40
0
40
0
40
0
40
0.207845795367678
40
0.207845795367678
40
1
40
1
40
1
40
1
41
1
10
8.36919686751867
20
2.40357120292507
30
0
41
1
10
8.39872350854438
20
2.37526037825333
30
0
41
1
10
8.4275073463765
20
2.34629471223789
30
0
41
1
10
8.56115225061205
20
2.20508538290156
30
0
41
1
10
8.65583606696441
20
2.08414688560612
30
0
41
1
10
8.73637496443814
20
1.95800416313298
30
0
0
SPLINE
5
140
100
AcDbEntity
8
1
62
256
6
ByLayer
370
18
48
1
60
0
100
AcDbSpline
70
4
71
3
72
8
73
4
40
0
40
0
40
0
40
0
40
1
40
1
40
1
40
1
41
1
10
10.2412817420731
20
0.785518902089251
30
0
41
1
10
9.59778728779122
20
1.00415064200857
30
0
41
1
10
9.07934787948125
20
1.42082848038646
30
0
41
1
10
8.73637496443814
20
1.95800416313298
30
0
0
SPLINE
5
141
100
AcDbEntity
8
1
62
256
6
ByLayer
370
18
48
1
60
0
100
AcDbSpline
70
4
71
3
72
12
73
8
40
0
40
0
40
0
40
0
40
0.307573270173409
40
0.307573270173409
40
0.648852820657655
40
0.648852820657655
40
1
40
1
40
1
40
1
41
1
10
16.283401235234
20
3.14884215915143
30
0
41
1
10
16.2684763017121
20
2.98243141465281
30
0
41
1
10
16.241684764026
20
2.81651985734999
30
0
41
1
10
16.1612307695003
20
2.47346913154658
30
0
41
1
10
16.1046705429217
20
2.29591248540385
30
0
41
1
10
15.9633543331039
20
1.94877213062452
30
0
41
1
10
15.8773221418545
20
1.77831833590986
30
0
41
1
10
15.7786824269768
20
1.61712644301167
30
0
0
SPLINE
5
142
100
AcDbEntity
8
1
62
256
6
ByLayer
370
18
48
1
60
0
100
AcDbSpline
70
4
71
3
72
8
73
4
40
0
40
0
40
0
40
0
40
1
40
1
40
1
40
1
41
1
10
12.5036938260265
20
0.103636198296527
30
0
41
1
10
12.2612019236601
20
0.129984317512879
30
0
41
1
10
12.0173107992928
20
0.182100612555416
30
0
41
1
10
11.7853113577162
20
0.260924044886025
30
0
0
SPLINE
5
143
100
AcDbEntity
8
1
62
256
6
ByLayer
370
18
48
1
60
0
100
AcDbSpline
70
4
71
3
72
8
73
4
40
0
40
0
40
0
40
0
40
1
40
1
40
1
40
1
41
1
10
10.4508545779102
20
7.16109017059776
30
0
41
1
10
11.0328117770704
20
7.35927423730789
30
0
41
1
10
11.6996880686036
20
7.35511362024505
30
0
41
1
10
12.3349251162167
20
7.13928739197414
30
0
0
SPLINE
5
144
100
AcDbEntity
8
1
62
256
6
ByLayer
370
18
48
1
60
0
100
AcDbSpline
70
4
71
3
72
12
73
8
40
0
40
0
40
0
40
0
40
0.415356444741152
40
0.415356444741152
40
0.825259843212193
40
0.825259843212193
40
1
40
1
40
1
40
1
41
1
10
9.898057363237
20
7.04334212241014
30
0
41
1
10
9.72929011454789
20
7.02707471749932
30
0
41
1
10
9.54599644457437
20
7.02877094635579
30
0
41
1
10
9.19082029058882
20
7.06346838985203
30
0
41
1
10
9.01405209271474
20
7.09605161000752
30
0
41
1
10
8.77407239840693
20
7.15657544597525
30
0
41
1
10
8.70312627131068
20
7.17663596692259
30
0
41
1
10
8.63365867950438
20
7.19817751984473
30
0
0
SPLINE
5
145
100
AcDbEntity
8
1
62
256
6
ByLayer
370
18
48
1
60
0
100
AcDbSpline
70
4
71
2
72
6
73
3
40
0
40
0
40
0
40
1
40
1
40
1
41
1.01212826498425
10
19.0972546362707
20
-2.80185531951534
30
0
41
1.01163342726426
10
19.4624127004506
20
-2.73074661021993
30
0
41
1.01103575694871
10
19.8221071060455
20
-2.64315713534231
30
0
0
SPLINE
5
146
100
AcDbEntity
8
1
62
256
6
ByLayer
370
18
48
1
60
0
100
AcDbSpline
70
4
71
3
72
8
73
4
40
0
40
0
40
0
40
0
40
1
40
1
40
1
40
1
41
1
10
8.50466083989704
20
7.23798746832981
30
0
41
1
10
7.85492288653245
20
7.84937136575491
30
0
41
1
10
7.24320694112549
20
8.3628560040747
30
0
41
1
10
6.76772680099049
20
8.65061367535048
30
0
0
SPLINE
5
147
100
AcDbEntity
8
1
62
256
6
ByLayer
370
18
48
1
60
0
100
AcDbSpline
70
4
71
2
72
8
73
5
40
0
40
0
40
0
40
0.581603760044145
40
0.872405640066218
40
1
40
1
40
1
41
1.02990374504916
10
14.6719189679111
20
7.75229048597908
30
0
41
1.02669755169729
10
16.0215479869872
20
6.60382897502363
30
0
41
1.02039724512338
10
17.8492539654785
20
4.54755230145669
30
0
41
1.01761724169577
10
18.6535416287586
20
3.44382481556689
30
0
41
1.01686274329252
10
18.9073413277835
20
3.16491993675541
30
0
0
SPLINE
5
148
100
AcDbEntity
8
1
62
256
6
ByLayer
370
18
48
1
60
0
100
AcDbSpline
70
4
71
3
72
8
73
4
40
0
40
0
40
0
40
0
40
1
40
1
40
1
40
1
41
1
10
4.69570955591837
20
2.86794023932725
30
0
41
1
10
4.68648362785024
20
2.83994148281823
30
0
41
1
10
4.67837679472234
20
2.81204680983817
30
0
41
1
10
4.67130581116146
20
2.7842459810509
30
0
0
SPLINE
5
149
100
AcDbEntity
8
1
62
256
6
ByLayer
370
18
48
1
60
0
100
AcDbSpline
70
4
71
3
72
10
73
6
40
0
40
0
40
0
40
0
40
0.10661627058344
40
0.10661627058344
40
1
40
1
40
1
40
1
41
1
10
20.2195721043725
20
0.863038853120628
30
0
41
1
10
20.1821479150722
20
0.862725273374735
30
0
41
1
10
20.1445943893188
20
0.862175652369643
30
0
41
1
10
19.7915955124195
20
0.854812766942757
30
0
41
1
10
19.4669497303264
20
0.831573589864831
30
0
41
1
10
19.1362151281865
20
0.792060269027701
30
0
0
SPLINE
5
14A
100
AcDbEntity
8
1
62
256
6
ByLayer
370
18
48
1
60
0
100
AcDbSpline
70
4
71
2
72
6
73
3
40
0
40
0
40
0
40
1
40
1
40
1
41
1.02990374504916
10
14.6719189679111
20
7.75229048597911
30
0
41
0.929591662588769
10
14.7600237430282
20
7.35117513392588
30
0
41
0.932817050574084
10
14.5478595496965
20
6.30725039714606
30
0
0
SPLINE
5
14B
100
AcDbEntity
8
1
62
256
6
ByLayer
370
18
48
1
60
0
100
AcDbSpline
70
4
71
3
72
8
73
4
40
0
40
0
40
0
40
0
40
1
40
1
40
1
40
1
41
1
10
14.5180589228988
20
8.45277040934326
30
0
41
1
10
16.3691878334765
20
7.66103534637676
30
0
41
1
10
18.0626032542643
20
6.58931100446426
30
0
41
1
10
19.5852207678819
20
5.26047209667331
30
0
0
SPLINE
5
14C
100
AcDbEntity
8
1
62
256
6
ByLayer
370
18
48
1
60
0
100
AcDbSpline
70
4
71
3
72
10
73
6
40
0
40
0
40
0
40
0
40
0.715855354518056
40
0.715855354518056
40
1
40
1
40
1
40
1
41
1
10
5.1024530566296
20
-0.144747880798377
30
0
41
1
10
4.80241618618049
20
-0.0623432639892201
30
0
41
1
10
4.47792775018002
20
0.0596372339078357
30
0
41
1
10
4.0408389711888
20
0.318407479236583
30
0
41
1
10
3.91755046949828
20
0.402612597383836
30
0
41
1
10
3.79948702688057
20
0.497848304404698
30
0
0
SPLINE
5
14D
100
AcDbEntity
8
1
62
256
6
ByLayer
370
18
48
1
60
0
100
AcDbSpline
70
4
71
2
72
8
73
5
40
0
40
0
40
0
40
0.145991510275427
40
0.563470207592133
40
1
40
1
40
1
41
1.02393576174177
10
16.2834012347515
20
3.14884215937092
30
0
41
1.02323174907605
10
16.5234688771807
20
3.03962738526412
30
0
41
1.02039724512338
10
17.440827661704
20
2.61326583246804
30
0
41
1.01644464721292
10
18.7449124174115
20
1.92338638798132
30
0
41
1.01495409538139
10
19.4155291535984
20
1.63971974877901
30
0
0
SPLINE
5
14E
100
AcDbEntity
8
1
62
256
6
ByLayer
370
18
48
1
60
0
100
AcDbSpline
70
4
71
1
72
4
73
2
40
0
40
0
40
1
40
1
41
1
10
14.6719189679112
20
7.75229048597907
30
0
41
1
10
14.5180589228988
20
8.45277040934326
30
0
0
SPLINE
5
14F
100
AcDbEntity
8
1
62
256
6
ByLayer
370
18
48
1
60
0
100
AcDbSpline
70
4
71
3
72
16
73
12
40
0
40
0
40
0
40
0
40
0.346164403850461
40
0.346164403850461
40
0.574058138681867
40
0.574058138681867
40
0.756733946461147
40
0.756733946461147
40
0.941193093213316
40
0.941193093213316
40
1
40
1
40
1
40
1
41
1
10
5.07015100540275
20
0.102566441513943
30
0
41
1
10
4.87994910313142
20
0.286850468941168
30
0
41
1
10
4.77715505652742
20
0.49172211746253
30
0
41
1
10
4.64316182213844
20
0.90776962702617
30
0
41
1
10
4.5996003106211
20
1.09999098088338
30
0
41
1
10
4.5495117405377
20
1.50032856173476
30
0
41
1
10
4.53802829339531
20
1.70137772560599
30
0
41
1
10
4.55155009367519
20
2.12372751351427
30
0
41
1
10
4.57797063373761
20
2.35193172751252
30
0
41
1
10
4.63716242054016
20
2.64336543628949
30
0
41
1
10
4.65357406156397
20
2.71453045556328
30
0
41
1
10
4.67130581116146
20
2.7842459810509
30
0
0
SPLINE
5
150
100
AcDbEntity
8
1
62
256
6
ByLayer
370
18
48
1
60
0
100
AcDbSpline
70
4
71
3
72
14
73
10
40
0
40
0
40
0
40
0
40
0.262932482489339
40
0.262932482489339
40
0.52630571838246
40
0.52630571838246
40
0.786105451116563
40
0.786105451116563
40
1
40
1
40
1
40
1
41
1
10
21.861143470936
20
-1.60232437477819
30
0
41
1
10
21.9826888640306
20
-1.60405295207082
30
0
41
1
10
22.1166193918365
20
-1.58723822600331
30
0
41
1
10
22.3890014511082
20
-1.51589630640046
30
0
41
1
10
22.5309359515296
20
-1.46035469974794
30
0
41
1
10
22.8007342168817
20
-1.32158245444708
30
0
41
1
10
22.9319863562099
20
-1.23728841568914
30
0
41
1
10
23.1524217798019
20
-1.06914303425694
30
0
41
1
10
23.2465442500974
20
-0.986812672642458
30
0
41
1
10
23.3332610754957
20
-0.901488757793175
30
0
0
SPLINE
5
151
100
AcDbEntity
8
1
62
256
6
ByLayer
370
18
48
1
60
0
100
AcDbSpline
70
4
71
3
72
10
73
6
40
0
40
0
40
0
40
0
40
0.679966690484307
40
0.679966690484307
40
1
40
1
40
1
40
1
41
1
10
10.4508545779101
20
7.16109017059776
30
0
41
1
10
10.332698090119
20
7.12085227459369
30
0
41
1
10
10.2083251735257
20
7.08937335126473
30
0
41
1
10
10.0206808469324
20
7.05739941641568
30
0
41
1
10
9.9596212149761
20
7.04927623647487
30
0
41
1
10
9.898057363237
20
7.04334212241014
30
0
0
SPLINE
5
152
100
AcDbEntity
8
1
62
256
6
ByLayer
370
18
48
1
60
0
100
AcDbSpline
70
4
71
3
72
8
73
4
40
0
40
0
40
0
40
0
40
1
40
1
40
1
40
1
41
1
10
14.5478595333708
20
6.30725040670353
30
0
41
1
10
14.3336774338002
20
6.4328010380311
30
0
41
1
10
14.1108542489198
20
6.53590305249344
30
0
41
1
10
13.8789547318598
20
6.61469253477091
30
0
0
SPLINE
5
153
100
AcDbEntity
8
1
62
256
6
ByLayer
370
18
48
1
60
0
100
AcDbSpline
70
4
71
3
72
12
73
8
40
0
40
0
40
0
40
0
40
0.501637567130156
40
0.501637567130156
40
0.886957471304448
40
0.886957471304448
40
1
40
1
40
1
40
1
41
1
10
7.25872870245479
20
3.02555343693524
30
0
41
1
10
7.45605285247029
20
2.9643642045198
30
0
41
1
10
7.65754658253957
20
2.8831510800423
30
0
41
1
10
7.99368828407671
20
2.69998817640445
30
0
41
1
10
8.13602438520348
20
2.60507908036618
30
0
41
1
10
8.29881932031418
20
2.46875807459938
30
0
41
1
10
8.33483468556761
20
2.43651845580442
30
0
41
1
10
8.36919686751867
20
2.40357120292507
30
0
0
SPLINE
5
154
100
AcDbEntity
8
1
62
256
6
ByLayer
370
18
48
1
60
0
100
AcDbSpline
70
4
71
2
72
8
73
5
40
0
40
0
40
0
40
0.581603760070723
40
0.872405640106085
40
1
40
1
40
1
41
1.02990374504916
10
11.6754369575553
20
-1.34140389054868
30
0
41
1.02669755169729
10
13.4507434060675
20
-1.19802369212041
30
0
41
1.02039724512338
10
16.1451436995798
20
-0.62406491224804
30
0
41
1.01761724169608
10
17.4481195964946
20
-0.214378209976779
30
0
41
1.01686274329306
10
17.8159591630628
20
-0.147196010631426
30
0
0
SPLINE
5
155
100
AcDbEntity
8
1
62
256
6
ByLayer
370
18
48
1
60
0
100
AcDbSpline
70
4
71
3
72
12
73
8
40
0
40
0
40
0
40
0
40
0.39150220978161
40
0.39150220978161
40
0.886018843801017
40
0.886018843801017
40
1
40
1
40
1
40
1
41
1
10
4.83842601817025
20
2.79559047857194
30
0
41
1
10
5.06365236774337
20
2.80623488514274
30
0
41
1
10
5.3294077431961
20
2.82943921596166
30
0
41
1
10
5.98570331973235
20
2.90179820238717
30
0
41
1
10
6.39818703958093
20
2.95699664066243
30
0
41
1
10
6.92685683882371
20
3.0346975594679
30
0
41
1
10
7.02785996508465
20
3.04983500803832
30
0
41
1
10
7.12973086284745
20
3.06536338541943
30
0
0
SPLINE
5
156
100
AcDbEntity
8
1
62
256
6
ByLayer
370
18
48
1
60
0
100
AcDbSpline
70
4
71
3
72
12
73
8
40
0
40
0
40
0
40
0
40
0.369659083875782
40
0.369659083875782
40
0.727704501586107
40
0.727704501586107
40
1
40
1
40
1
40
1
41
1
10
8.76890422229167
20
9.75788101751624
30
0
41
1
10
8.908749496778
20
9.58376425765812
30
0
41
1
10
9.05502582237909
20
9.32664384427832
30
0
41
1
10
9.33605396909661
20
8.71660829970295
30
0
41
1
10
9.47452168659868
20
8.35984020515266
30
0
41
1
10
9.70675238469363
20
7.6811048199919
30
0
41
1
10
9.80480894988148
20
7.36680742224857
30
0
41
1
10
9.89805736323683
20
7.04334212241011
30
0
0
SPLINE
5
157
100
AcDbEntity
8
1
62
256
6
ByLayer
370
18
48
1
60
0
100
AcDbSpline
70
4
71
3
72
15
73
11
40
0
40
0
40
0
40
0
40
0.225043240787981
40
0.225043240787981
40
0.520482827227116
40
0.520482827227116
40
0.820975208236881
40
0.820975208236881
40
0.820975208236881
40
1
40
1
40
1
40
1
41
1
10
15.7786824269768
20
1.61712644301167
30
0
41
1
10
15.6315649357451
20
1.3767845965474
30
0
41
1
10
15.4426225373634
20
1.1549904790306
30
0
41
1
10
14.95235125792
20
0.718409380762466
30
0
41
1
10
14.6269917165434
20
0.518448362459168
30
0
41
1
10
13.93586585228
20
0.226505741951627
30
0
41
1
10
13.5589784851198
20
0.131916181145414
30
0
41
1
10
13.182508722051
20
0.0982625157067218
30
0
41
1
10
12.9563797022715
20
0.0780482219594205
30
0
41
1
10
12.7275313665818
20
0.0795161571560072
30
0
41
1
10
12.5036938260265
20
0.103636198296527
30
0
0
SPLINE
5
158
100
AcDbEntity
8
1
62
256
6
ByLayer
370
18
48
1
60
0
100
AcDbSpline
70
4
71
3
72
10
73
6
40
0
40
0
40
0
40
0
40
0.7599765320019
40
0.7599765320019
40
1
40
1
40
1
40
1
41
1
10
19.4155291535798
20
1.63971974878686
30
0
41
1
10
19.6159783886287
20
1.4276770250255
30
0
41
1
10
19.8194664128146
20
1.22661711761396
30
0
41
1
10
20.0894024045996
20
0.978504715426425
30
0
41
1
10
20.1544137263407
20
0.920144025570636
30
0
41
1
10
20.2195721043726
20
0.863038853120628
30
0
0
SPLINE
5
159
100
AcDbEntity
8
1
62
256
6
ByLayer
370
18
48
1
60
0
100
AcDbSpline
70
4
71
2
72
6
73
3
40
0
40
0
40
0
40
1
40
1
40
1
41
0.932817050425109
10
12.5036938041206
20
0.103636150234904
30
0
41
0.929591664905397
10
12.0278864193831
20
-0.940288548757836
30
0
41
1.02990374504916
10
11.6754369575553
20
-1.34140389054868
30
0
0
SPLINE
5
15A
100
AcDbEntity
8
1
62
256
6
ByLayer
370
18
48
1
60
0
100
AcDbSpline
70
4
71
3
72
8
73
4
40
0
40
0
40
0
40
0
40
1
40
1
40
1
40
1
41
1
10
6.6018624786463
20
8.65271453608815
30
0
41
1
10
6.61108840671443
20
8.68071329259715
30
0
41
1
10
6.62120888102555
20
8.70813467443895
30
0
41
1
10
6.63215844434774
20
8.73502242555492
30
0
0
SPLINE
5
15B
100
AcDbEntity
8
1
62
256
6
ByLayer
370
18
48
1
60
0
100
AcDbSpline
70
4
71
3
72
10
73
6
40
0
40
0
40
0
40
0
40
0.560518156563268
40
0.560518156563268
40
1
40
1
40
1
40
1
41
1
10
16.9987452722998
20
-2.58893850813399
30
0
41
1
10
17.3934753223341
20
-2.56317169852608
30
0
41
1
10
17.7866950824952
20
-2.56597794077774
30
0
41
1
10
18.4279935248388
20
-2.63379149240782
30
0
41
1
10
18.6940701138951
20
-2.68637152481952
30
0
41
1
10
18.9280442775039
20
-2.75460047834488
30
0
0
SPLINE
5
15C
100
AcDbEntity
8
1
62
256
6
ByLayer
370
18
48
1
60
0
100
AcDbSpline
70
4
71
3
72
14
73
10
40
0
40
0
40
0
40
0
40
0.30439177600899
40
0.30439177600899
40
0.577373879687172
40
0.577373879687172
40
0.851610378463925
40
0.851610378463925
40
1
40
1
40
1
40
1
41
1
10
23.6193121299999
20
-0.033383807803915
30
0
41
1
10
23.5906143641387
20
0.13084621741902
30
0
41
1
10
23.5467592310591
20
0.301863927553882
30
0
41
1
10
23.4336090074682
20
0.618581109715308
30
0
41
1
10
23.3657496150296
20
0.768529568200762
30
0
41
1
10
23.2088950457223
20
1.04242846767502
30
0
41
1
10
23.1175905002459
20
1.16983397615471
30
0
41
1
10
22.9697569284196
20
1.33370283417077
30
0
41
1
10
22.9155934314103
20
1.38615618238285
30
0
41
1
10
22.8610376874873
20
1.43214484037094
30
0
0
SPLINE
5
15D
100
AcDbEntity
8
1
62
256
6
ByLayer
370
18
48
1
60
0
100
AcDbSpline
70
4
71
3
72
8
73
4
40
0
40
0
40
0
40
0
40
1
40
1
40
1
40
1
41
1
10
17.815959163063
20
-0.147196010631404
30
0
41
1
10
18.7056167749865
20
-0.826028777463023
30
0
41
1
10
18.7941947946826
20
-2.09490411172567
30
0
41
1
10
19.8277890716982
20
-2.64177240415739
30
0
0
SPLINE
5
15E
100
AcDbEntity
8
1
62
256
6
ByLayer
370
18
48
1
60
0
100
AcDbSpline
70
4
71
2
72
6
73
3
40
0
40
0
40
0
40
1
40
1
40
1
41
1.01103575695168
10
21.8494633780477
20
3.50944390783358
30
0
41
1.01163342726563
10
21.6141104915416
20
3.79920486002212
30
0
41
1.01212826498448
10
21.3646264433374
20
4.07914252385341
30
0
0
SPLINE
5
15F
100
AcDbEntity
8
1
62
256
6
ByLayer
370
18
48
1
60
0
100
AcDbSpline
70
4
71
3
72
8
73
4
40
0
40
0
40
0
40
0
40
1
40
1
40
1
40
1
41
1
10
16.9987452722998
20
-2.58893850813399
30
0
41
1
10
15.0071478053942
20
-2.71894409737385
30
0
41
1
10
13.0007263889878
20
-2.53904846150772
30
0
41
1
10
11.0599437407936
20
-2.0418838139141
30
0
0
SPLINE
5
160
100
AcDbEntity
8
1
62
256
6
ByLayer
370
18
48
1
60
0
100
AcDbSpline
70
4
71
3
72
16
73
12
40
0
40
0
40
0
40
0
40
0.15179839492171
40
0.15179839492171
40
0.302355402833645
40
0.302355402833645
40
0.469907609657965
40
0.469907609657965
40
0.750934341340614
40
0.750934341340614
40
1
40
1
40
1
40
1
41
1
10
6.63215844434768
20
8.73502242555492
30
0
41
1
10
6.70202057605832
20
8.90657589801739
30
0
41
1
10
6.78433966850008
20
9.07747649322795
30
0
41
1
10
6.9628463710863
20
9.38549831483692
30
0
41
1
10
7.06098708077377
20
9.52733150902714
30
0
41
1
10
7.2702027821129
20
9.78724170122553
30
0
41
1
10
7.3834725285293
20
9.90394698418413
30
0
41
1
10
7.67024363460604
20
10.1580310986383
30
0
41
1
10
7.83476932406131
20
10.2631228280951
30
0
41
1
10
8.14220139040037
20
10.3933752551403
30
0
41
1
10
8.2918951665082
20
10.4287464249575
30
0
41
1
10
8.4727562551758
20
10.428759663587
30
0
0
SPLINE
5
161
100
AcDbEntity
8
1
62
256
6
ByLayer
370
18
48
1
60
0
100
AcDbSpline
70
4
71
3
72
24
73
20
40
0
40
0
40
0
40
0
40
0.142613444608225
40
0.142613444608225
40
0.19079521826949
40
0.19079521826949
40
0.226951176162321
40
0.226951176162321
40
0.263437466712854
40
0.263437466712854
40
0.296119365572351
40
0.296119365572351
40
0.352324850832271
40
0.352324850832271
40
0.455294648588074
40
0.455294648588074
40
0.662705158043559
40
0.662705158043559
40
1
40
1
40
1
40
1
41
1
10
18.9073413277836
20
3.16491993675533
30
0
41
1
10
18.8334655527997
20
3.20118018842717
30
0
41
1
10
18.7581939410376
20
3.23337991693143
30
0
41
1
10
18.6673472143684
20
3.23777793103491
30
0
41
1
10
18.6449618685646
20
3.23508597622578
30
0
41
1
10
18.6110912291385
20
3.21872812766037
30
0
41
1
10
18.5980835698316
20
3.20765253045838
30
0
41
1
10
18.5783750610668
20
3.17651430084814
30
0
41
1
10
18.5715565932666
20
3.15587962069552
30
0
41
1
10
18.5654475464497
20
3.11136872744848
30
0
41
1
10
18.5652920380155
20
3.08764758175562
30
0
41
1
10
18.5705056368027
20
3.02124006839992
30
0
41
1
10
18.5797558085884
20
2.97607538547936
30
0
41
1
10
18.6140380856936
20
2.85026459069897
30
0
41
1
10
18.6461635178217
20
2.76819396004163
30
0
41
1
10
18.7528444751879
20
2.53206292778773
30
0
41
1
10
18.8403742816473
20
2.38230576593668
30
0
41
1
10
19.0812572678592
20
2.01932446467205
30
0
41
1
10
19.2470052189289
20
1.81808639645797
30
0
41
1
10
19.4155291535798
20
1.63971974878686
30
0
0
SPLINE
5
162
100
AcDbEntity
8
1
62
256
6
ByLayer
370
18
48
1
60
0
100
AcDbSpline
70
4
71
3
72
10
73
6
40
0
40
0
40
0
40
0
40
0.315026012182808
40
0.315026012182808
40
1
40
1
40
1
40
1
41
1
10
11.4702670412045
20
3.17437198362532
30
0
41
1
10
11.4657725730053
20
3.17778064614004
30
0
41
1
10
11.4613716549444
20
3.18093920525581
30
0
41
1
10
11.4477719253197
20
3.1902079462107
30
0
41
1
10
11.4389028872675
20
3.19551214736037
30
0
41
1
10
11.4304482454011
20
3.20000529005927
30
0
0
SPLINE
5
163
100
AcDbEntity
8
1
62
256
6
ByLayer
370
18
48
1
60
0
100
AcDbSpline
70
4
71
3
72
8
73
4
40
0
40
0
40
0
40
0
40
1
40
1
40
1
40
1
41
1
10
11.3754163020684
20
4.06920359918178
30
0
41
1
10
11.3785566687529
20
4.08892754155073
30
0
41
1
10
11.3803079806042
20
4.10706257811336
30
0
41
1
10
11.3811283379266
20
4.12364857554638
30
0
0
SPLINE
5
164
100
AcDbEntity
8
1
62
256
6
ByLayer
370
18
48
1
60
0
100
AcDbSpline
70
4
71
3
72
10
73
6
40
0
40
0
40
0
40
0
40
0.123732606265526
40
0.123732606265526
40
1
40
1
40
1
40
1
41
1
10
12.2808661370841
20
2.81036651599032
30
0
41
1
10
12.278964226919
20
2.80924743189758
30
0
41
1
10
12.2771071627572
20
2.8081149113753
30
0
41
1
10
12.2625784419707
20
2.79894962420769
30
0
41
1
10
12.2519343908527
20
2.79034091585365
30
0
41
1
10
12.2428544920795
20
2.78155484606444
30
0
0
SPLINE
5
165
100
AcDbEntity
8
1
62
256
6
ByLayer
370
18
48
1
60
0
100
AcDbSpline
70
4
71
3
72
10
73
6
40
0
40
0
40
0
40
0
40
0.629893813379396
40
0.629893813379396
40
1
40
1
40
1
40
1
41
1
10
11.6067283488705
20
2.99768315077438
30
0
41
1
10
11.6020841072411
20
3.00781201860408
30
0
41
1
10
11.596882272606
20
3.01829382500915
30
0
41
1
10
11.5875632872269
20
3.03545184813282
30
0
41
1
10
11.5838718676852
20
3.04193441671288
30
0
41
1
10
11.5799224961742
20
3.04851701872926
30
0
0
SPLINE
5
166
100
AcDbEntity
8
1
62
256
6
ByLayer
370
18
48
1
60
0
100
AcDbSpline
70
4
71
3
72
10
73
6
40
0
40
0
40
0
40
0
40
0.516155291935523
40
0.516155291935523
40
1
40
1
40
1
40
1
41
1
10
11.8835204394974
20
4.57498436531347
30
0
41
1
10
11.890335955434
20
4.57290989562779
30
0
41
1
10
11.8976191343351
20
4.57109632920969
30
0
41
1
10
11.9127758626923
20
4.56826050871172
30
0
41
1
10
11.9206160099414
20
4.56719074489482
30
0
41
1
10
11.9289991921738
20
4.56652784079989
30
0
0
SPLINE
5
167
100
AcDbEntity
8
1
62
256
6
ByLayer
370
18
48
1
60
0
100
AcDbSpline
70
4
71
3
72
10
73
6
40
0
40
0
40
0
40
0
40
0.629893813379406
40
0.629893813379406
40
1
40
1
40
1
40
1
41
1
10
12.7803408203341
20
4.41271311232873
30
0
41
1
10
12.7814582665907
20
4.40258424449902
30
0
41
1
10
12.7832956292206
20
4.39210243809396
30
0
41
1
10
12.7877409171713
20
4.37494441497026
30
0
41
1
10
12.7897256728512
20
4.36846184639023
30
0
41
1
10
12.7921082997143
20
4.36187924437382
30
0
0
SPLINE
5
168
100
AcDbEntity
8
1
62
256
6
ByLayer
370
18
48
1
60
0
100
AcDbSpline
70
4
71
3
72
10
73
6
40
0
40
0
40
0
40
0
40
0.123732606265453
40
0.123732606265453
40
1
40
1
40
1
40
1
41
1
10
12.0911646588077
20
4.60002974711276
30
0
41
1
10
12.0935943018444
20
4.60114883120551
30
0
41
1
10
12.0959948819099
20
4.60228135172781
30
0
41
1
10
12.1149906287942
20
4.61144663889542
30
0
41
1
10
12.130238635959
20
4.62005534724943
30
0
41
1
10
12.1442146771304
20
4.6288414170387
30
0
0
SPLINE
5
169
100
AcDbEntity
8
1
62
256
6
ByLayer
370
18
48
1
60
0
100
AcDbSpline
70
4
71
3
72
10
73
6
40
0
40
0
40
0
40
0
40
0.51615529193567
40
0.51615529193567
40
1
40
1
40
1
40
1
41
1
10
12.5035487297125
20
2.83541189778964
30
0
41
1
10
12.49384263689
20
2.83748636747532
30
0
41
1
10
12.4837804721747
20
2.83929993389342
30
0
41
1
10
12.4635896810336
20
2.84213575439139
30
0
41
1
10
12.4534626307313
20
2.84320551820826
30
0
41
1
10
12.4430316037142
20
2.84386842230319
30
0
0
SPLINE
5
16A
100
AcDbEntity
8
1
62
256
6
ByLayer
370
18
48
1
60
0
100
AcDbSpline
70
4
71
3
72
8
73
4
40
0
40
0
40
0
40
0
40
1
40
1
40
1
40
1
41
1
10
12.9966144938235
20
3.34119266392131
30
0
41
1
10
12.9976983866996
20
3.32146872155235
30
0
41
1
10
13.001172457231
20
3.30333368498972
30
0
41
1
10
13.0059408312834
20
3.2867476875567
30
0
0
SPLINE
5
16B
100
AcDbEntity
8
1
62
256
6
ByLayer
370
18
48
1
60
0
100
AcDbSpline
70
4
71
3
72
8
73
4
40
0
40
0
40
0
40
0
40
1
40
1
40
1
40
1
41
1
10
13.0903549654597
20
3.54292687855667
30
0
41
1
10
13.0761540286544
20
3.53088702655506
30
0
41
1
10
13.0621052791192
20
3.5169301304247
30
0
41
1
10
13.0491245054858
20
3.50054953511716
30
0
0
SPLINE
5
16C
100
AcDbEntity
8
1
62
256
6
ByLayer
370
18
48
1
60
0
100
AcDbSpline
70
4
71
3
72
10
73
6
40
0
40
0
40
0
40
0
40
0.315026012182576
40
0.315026012182576
40
1
40
1
40
1
40
1
41
1
10
12.9017637546851
20
4.23602427947776
30
0
41
1
10
12.9075956578083
20
4.23261561696305
30
0
41
1
10
12.9134359098833
20
4.22945705784727
30
0
41
1
10
12.9318270250799
20
4.2201883168924
30
0
41
1
10
12.9443366887649
20
4.21488411574273
30
0
41
1
10
12.9566209238088
20
4.21039097304384
30
0
0
SPLINE
5
16D
100
AcDbEntity
8
1
62
256
6
ByLayer
370
18
48
1
60
0
100
AcDbSpline
70
4
71
3
72
8
73
4
40
0
40
0
40
0
40
0
40
1
40
1
40
1
40
1
41
1
10
11.2967142037502
20
3.86746938454647
30
0
41
1
10
11.3053264091807
20
3.87950923654805
30
0
41
1
10
11.3141497763334
20
3.89346613267841
30
0
41
1
10
11.3229062904061
20
3.90984672798595
30
0
0
LINE
5
72
100
AcDbEntity
8
1
62
256
6
ByLayer
370
18
48
1
60
0
100
AcDbLine
10
11.308694
20
3.225281
30
0
11
11.238316
21
3.225281
31
0
39
0
210
0
220
0
230
1
0
LINE
5
74
100
AcDbEntity
8
1
62
256
6
ByLayer
370
18
48
1
60
0
100
AcDbLine
10
12.117307
20
6.905198
30
0
11
11.830356
21
6.905198
31
0
39
0
210
0
220
0
230
1
0
LINE
5
75
100
AcDbEntity
8
1
62
256
6
ByLayer
370
18
48
1
60
0
100
AcDbLine
10
21.082643
20
5.078839
30
0
11
21.050482
21
5.078839
31
0
39
0
210
0
220
0
230
1
0
LINE
5
76
100
AcDbEntity
8
1
62
256
6
ByLayer
370
18
48
1
60
0
100
AcDbLine
10
8.667304
20
10.414983
30
0
11
7.93399
21
10.514075
31
0
39
0
210
0
220
0
230
1
0
LINE
5
77
100
AcDbEntity
8
1
62
256
6
ByLayer
370
18
48
1
60
0
100
AcDbLine
10
11.828873
20
0.505198
30
0
11
12.117307
21
0.505198
31
0
39
0
210
0
220
0
230
1
0
LINE
5
78
100
AcDbEntity
8
1
62
256
6
ByLayer
370
18
48
1
60
0
100
AcDbLine
10
12.84395
20
4.185115
30
0
11
13.078375
21
4.185115
31
0
39
0
210
0
220
0
230
1
0
LINE
5
79
100
AcDbEntity
8
1
62
256
6
ByLayer
370
18
48
1
60
0
100
AcDbLine
10
8.77342
20
7.124276
30
0
11
9.244915
21
7.060563
31
0
39
0
210
0
220
0
230
1
0
LINE
5
7A
100
AcDbEntity
8
1
62
256
6
ByLayer
370
18
48
1
60
0
100
AcDbLine
10
21.054611
20
-4.953758
30
0
11
21.082643
21
-4.953758
31
0
39
0
210
0
220
0
230
1
0
LINE
5
7B
100
AcDbEntity
8
80
62
256
6
ByLayer
370
18
48
1
60
0
100
AcDbLine
10
0
20
0
30
0
11
-5
21
0
31
0
39
0
210
0
220
0
230
1
0
LINE
5
7C
100
AcDbEntity
8
81
62
256
6
ByLayer
370
18
48
1
60
0
100
AcDbLine
10
31.155366
20
0.5442
30
0
11
41.155366
21
0.5442
31
0
39
0
210
0
220
0
230
1
0
LINE
5
7D
100
AcDbEntity
8
1
62
256
6
ByLayer
370
18
48
1
60
0
100
AcDbLine
10
11.247159
20
3.224513
30
0
11
11.287037
21
3.224513
31
0
39
0
210
0
220
0
230
1
0
LINE
5
7E
100
AcDbEntity
8
1
62
256
6
ByLayer
370
18
48
1
60
0
100
AcDbLine
10
1.215496
20
-8.109129
30
0
11
4.004869
21
0.356032
31
0
39
0
210
0
220
0
230
1
0
LINE
5
7F
100
AcDbEntity
8
1
62
256
6
ByLayer
370
18
48
1
60
0
100
AcDbLine
10
7.361633
20
10.543106
30
0
11
7.807079
21
11.894944
31
0
39
0
210
0
220
0
230
1
0
LINE
5
80
100
AcDbEntity
8
1
62
256
6
ByLayer
370
18
48
1
60
0
100
AcDbLine
10
5.697246
20
-3.152508
30
0
11
6.556826
21
-0.543861
31
0
39
0
210
0
220
0
230
1
0
LINE
5
81
100
AcDbEntity
8
1
62
256
6
ByLayer
370
18
48
1
60
0
100
AcDbLine
10
10.028759
20
9.992726
30
0
11
10.293549
21
10.796308
31
0
39
0
210
0
220
0
230
1
0
LINE
5
82
100
AcDbEntity
8
1
62
256
6
ByLayer
370
18
48
1
60
0
100
AcDbLine
10
20.247451
20
4.733491
30
0
11
21.005313
21
5.134095
31
0
39
0
210
0
220
0
230
1
0
LINE
5
83
100
AcDbEntity
8
1
62
256
6
ByLayer
370
18
48
1
60
0
100
AcDbLine
10
13.672173
20
-3.527049
30
0
11
15.379841
21
-2.624379
31
0
39
0
210
0
220
0
230
1
0
LINE
5
84
100
AcDbEntity
8
1
62
256
6
ByLayer
370
18
48
1
60
0
100
AcDbLine
10
16.433075
20
-2.610499
30
0
11
21.012283
21
-5.005329
31
0
39
0
210
0
220
0
230
1
0
LINE
5
85
100
AcDbEntity
8
1
62
256
6
ByLayer
370
18
48
1
60
0
100
AcDbLine
10
21.084594
20
5.037114
30
0
11
20.360191
21
4.654196
31
0
39
0
210
0
220
0
230
1
0
LINE
5
86
100
AcDbEntity
8
1
62
256
6
ByLayer
370
18
48
1
60
0
100
AcDbLine
10
12.336261
20
-3.608948
30
0
11
14.298462
21
-2.571734
31
0
39
0
210
0
220
0
230
1
0
LINE
5
87
100
AcDbEntity
8
1
62
256
6
ByLayer
370
18
48
1
60
0
100
AcDbLine
10
1.163535
20
-8.161424
30
0
11
3.976515
21
0.375381
31
0
39
0
210
0
220
0
230
1
0
LINE
5
88
100
AcDbEntity
8
1
62
256
6
ByLayer
370
18
48
1
60
0
100
AcDbLine
10
7.326668
20
10.542392
30
0
11
7.77235
21
11.894944
31
0
39
0
210
0
220
0
230
1
0
LINE
5
89
100
AcDbEntity
8
1
62
256
6
ByLayer
370
18
48
1
60
0
100
AcDbLine
10
0.955689
20
-5.849369
30
0
11
3.289199
21
1.232345
31
0
39
0
210
0
220
0
230
1
0
LINE
5
8A
100
AcDbEntity
8
1
62
256
6
ByLayer
370
18
48
1
60
0
100
AcDbLine
10
6.264879
20
10.26291
30
0
11
6.925892
21
12.268947
31
0
39
0
210
0
220
0
230
1
0
LINE
5
8B
100
AcDbEntity
8
1
62
256
6
ByLayer
370
18
48
1
60
0
100
AcDbLine
10
16.680871
20
-2.601055
30
0
11
19.674417
21
-4.166616
31
0
39
0
210
0
220
0
230
1
0
LINE
5
8C
100
AcDbEntity
8
1
62
256
6
ByLayer
370
18
48
1
60
0
100
AcDbLine
10
20.589931
20
-4.645411
30
0
11
21.092128
21
-4.90805
31
0
39
0
210
0
220
0
230
1
0
LINE
5
8D
100
AcDbEntity
8
1
62
256
6
ByLayer
370
18
48
1
60
0
100
AcDbLine
10
12.242004
20
-3.475897
30
0
11
14.011148
21
-2.540731
31
0
39
0
210
0
220
0
230
1
0
LINE
5
8E
100
AcDbEntity
8
1
62
256
6
ByLayer
370
18
48
1
60
0
100
AcDbLine
10
16.783469
20
-2.597162
30
0
11
20.591817
21
-4.610246
31
0
39
0
210
0
220
0
230
1
0
LINE
5
8F
100
AcDbEntity
8
1
62
256
6
ByLayer
370
18
48
1
60
0
100
AcDbLine
10
20.591817
20
4.735327
30
0
11
20.395211
21
4.631402
31
0
39
0
210
0
220
0
230
1
0
LINE
5
90
100
AcDbEntity
8
1
62
256
6
ByLayer
370
18
48
1
60
0
100
AcDbLine
10
20.591817
20
4.735327
30
0
11
20.513668
21
4.735327
31
0
39
0
210
0
220
0
230
1
0
LINE
5
91
100
AcDbEntity
8
1
62
256
6
ByLayer
370
18
48
1
60
0
100
AcDbLine
10
20.516212
20
-4.610246
30
0
11
20.591817
21
-4.610246
31
0
39
0
210
0
220
0
230
1
0
LINE
5
92
100
AcDbEntity
8
1
62
256
6
ByLayer
370
18
48
1
60
0
100
AcDbLine
10
20.952875
20
-4.699959
30
0
11
20.694225
21
-4.699959
31
0
39
0
210
0
220
0
230
1
0
LINE
5
93
100
AcDbEntity
8
1
62
256
6
ByLayer
370
18
48
1
60
0
100
AcDbLine
10
20.683389
20
4.825041
30
0
11
20.952875
21
4.825041
31
0
39
0
210
0
220
0
230
1
0
LINE
5
94
100
AcDbEntity
8
1
62
256
6
ByLayer
370
18
48
1
60
0
100
AcDbLine
10
21.537376
20
4.96585
30
0
11
21.803782
21
4.825028
31
0
39
0
210
0
220
0
230
1
0
LINE
5
95
100
AcDbEntity
8
1
62
256
6
ByLayer
370
18
48
1
60
0
100
AcDbLine
10
21.803782
20
-4.699947
30
0
11
21.537376
21
-4.840768
31
0
39
0
210
0
220
0
230
1
0
LINE
5
96
100
AcDbEntity
8
1
62
256
6
ByLayer
370
18
48
1
60
0
100
AcDbLine
10
6.922982
20
7.697535
30
0
11
5.548052
21
3.524911
31
0
39
0
210
0
220
0
230
1
0
LINE
5
97
100
AcDbEntity
8
1
62
256
6
ByLayer
370
18
48
1
60
0
100
AcDbLine
10
5.622207
20
-0.214982
30
0
11
6.730859
21
-0.591654
31
0
39
0
210
0
220
0
230
1
0
LINE
5
98
100
AcDbEntity
8
1
62
256
6
ByLayer
370
18
48
1
60
0
100
AcDbLine
10
10.199432
20
9.934739
30
0
11
9.090781
21
10.311411
31
0
39
0
210
0
220
0
230
1
0
LINE
5
99
100
AcDbEntity
8
1
62
256
6
ByLayer
370
18
48
1
60
0
100
AcDbLine
10
12.334925
20
7.139287
30
0
11
11.978051
21
7.187511
31
0
39
0
210
0
220
0
230
1
0
LINE
5
9A
100
AcDbEntity
8
1
62
256
6
ByLayer
370
18
48
1
60
0
100
AcDbLine
10
11.978051
20
7.187511
30
0
11
13.513778
21
6.664038
31
0
39
0
210
0
220
0
230
1
0
LINE
5
9B
100
AcDbEntity
8
1
62
256
6
ByLayer
370
18
48
1
60
0
100
AcDbLine
10
6.601862
20
8.652715
30
0
11
5.092343
21
8.856694
31
0
39
0
210
0
220
0
230
1
0
LINE
5
9C
100
AcDbEntity
8
1
62
256
6
ByLayer
370
18
48
1
60
0
100
AcDbLine
10
11.785311
20
0.260924
30
0
11
10.241282
21
0.785519
31
0
39
0
210
0
220
0
230
1
0
LINE
5
9D
100
AcDbEntity
8
1
62
256
6
ByLayer
370
18
48
1
60
0
100
AcDbLine
10
22.861038
20
1.432145
30
0
11
21.847864
21
3.515799
31
0
39
0
210
0
220
0
230
1
0
LINE
5
9E
100
AcDbEntity
8
1
62
256
6
ByLayer
370
18
48
1
60
0
100
AcDbLine
10
5.622207
20
-0.214982
30
0
11
5.102453
21
-0.144748
31
0
39
0
210
0
220
0
230
1
0
LINE
5
9F
100
AcDbEntity
8
1
62
256
6
ByLayer
370
18
48
1
60
0
100
AcDbLine
10
8.226584
20
7.253185
30
0
11
6.922982
21
7.697535
31
0
39
0
210
0
220
0
230
1
0
LINE
5
A0
100
AcDbEntity
8
1
62
256
6
ByLayer
370
18
48
1
60
0
100
AcDbLine
10
10.199432
20
9.934739
30
0
11
10.239536
21
9.906428
31
0
39
0
210
0
220
0
230
1
0
LINE
5
A1
100
AcDbEntity
8
1
62
256
6
ByLayer
370
18
48
1
60
0
100
AcDbLine
10
14.518059
20
8.45277
30
0
11
10.239536
21
9.906428
31
0
39
0
210
0
220
0
230
1
0
LINE
5
A2
100
AcDbEntity
8
1
62
256
6
ByLayer
370
18
48
1
60
0
100
AcDbLine
10
8.768904
20
9.757881
30
0
11
14.671919
21
7.75229
31
0
39
0
210
0
220
0
230
1
0
LINE
5
A3
100
AcDbEntity
8
1
62
256
6
ByLayer
370
18
48
1
60
0
100
AcDbLine
10
13.878955
20
6.614693
30
0
11
13.513778
21
6.664038
31
0
39
0
210
0
220
0
230
1
0
LINE
5
A4
100
AcDbEntity
8
1
62
256
6
ByLayer
370
18
48
1
60
0
100
AcDbLine
10
20.219572
20
0.863039
30
0
11
23.592003
21
-0.487983
31
0
39
0
210
0
220
0
230
1
0
LINE
5
A5
100
AcDbEntity
8
1
62
256
6
ByLayer
370
18
48
1
60
0
100
AcDbLine
10
4.69571
20
2.86794
30
0
11
3.18619
21
3.07192
31
0
39
0
210
0
220
0
230
1
0
LINE
5
A6
100
AcDbEntity
8
1
62
256
6
ByLayer
370
18
48
1
60
0
100
AcDbLine
10
12.334925
20
7.139287
30
0
11
13.878955
21
6.614693
31
0
39
0
210
0
220
0
230
1
0
LINE
5
A7
100
AcDbEntity
8
1
62
256
6
ByLayer
370
18
48
1
60
0
100
AcDbLine
10
6.601862
20
8.652715
30
0
11
4.69571
21
2.86794
31
0
39
0
210
0
220
0
230
1
0
LINE
5
A8
100
AcDbEntity
8
1
62
256
6
ByLayer
370
18
48
1
60
0
100
AcDbLine
10
5.772422
20
0.664187
30
0
11
11.675437
21
-1.341404
31
0
39
0
210
0
220
0
230
1
0
LINE
5
A9
100
AcDbEntity
8
1
62
256
6
ByLayer
370
18
48
1
60
0
100
AcDbLine
10
3.18619
20
3.07192
30
0
11
5.092343
21
8.856694
31
0
39
0
210
0
220
0
230
1
0
LINE
5
AA
100
AcDbEntity
8
1
62
256
6
ByLayer
370
18
48
1
60
0
100
AcDbLine
10
19.817063
20
-2.647255
30
0
11
21.861143
21
-1.602324
31
0
39
0
210
0
220
0
230
1
0
LINE
5
AB
100
AcDbEntity
8
1
62
256
6
ByLayer
370
18
48
1
60
0
100
AcDbLine
10
11.059944
20
-2.041884
30
0
11
6.781421
21
-0.588226
31
0
39
0
210
0
220
0
230
1
0
LINE
5
AC
100
AcDbEntity
8
1
62
256
6
ByLayer
370
18
48
1
60
0
100
AcDbLine
10
6.730859
20
-0.591654
30
0
11
6.781421
21
-0.588226
31
0
39
0
210
0
220
0
230
1
0
LINE
5
AD
100
AcDbEntity
8
1
62
256
6
ByLayer
370
18
48
1
60
0
100
AcDbLine
10
6.730859
20
-0.591654
30
0
11
5.110528
21
-0.146965
31
0
39
0
210
0
220
0
230
1
0
LINE
5
AE
100
AcDbEntity
8
1
62
256
6
ByLayer
370
18
48
1
60
0
100
AcDbLine
10
8.633659
20
7.198178
30
0
11
8.226584
21
7.253185
31
0
39
0
210
0
220
0
230
1
0
LINE
5
AF
100
AcDbEntity
8
1
62
256
6
ByLayer
370
18
48
1
60
0
100
AcDbLine
10
0
20
12.4375
30
0
11
0
21
-12.4375
31
0
39
0
210
0
220
0
230
1
0
LINE
5
B0
100
AcDbEntity
8
1
62
256
6
ByLayer
370
18
48
1
60
0
100
AcDbLine
10
5.697246
20
-12.458297
30
0
11
5.697246
21
-3.152508
31
0
39
0
210
0
220
0
230
1
0
LINE
5
B1
100
AcDbEntity
8
1
62
256
6
ByLayer
370
18
48
1
60
0
100
AcDbLine
10
12.336261
20
-3.608948
30
0
11
13.672173
21
-3.527049
31
0
39
0
210
0
220
0
230
1
0
LINE
5
B2
100
AcDbEntity
8
1
62
256
6
ByLayer
370
18
48
1
60
0
100
AcDbLine
10
0.955689
20
-5.849369
30
0
11
0.955689
21
12.4375
31
0
39
0
210
0
220
0
230
1
0
LINE
5
B3
100
AcDbEntity
8
1
62
256
6
ByLayer
370
18
48
1
60
0
100
AcDbLine
10
6.914545
20
-12.45736
30
0
11
5.697246
21
-12.458297
31
0
39
0
210
0
220
0
230
1
0
LINE
5
B4
100
AcDbEntity
8
1
62
256
6
ByLayer
370
18
48
1
60
0
100
AcDbLine
10
6.914545
20
-12.45736
30
0
11
21.012283
21
-5.005329
31
0
39
0
210
0
220
0
230
1
0
LINE
5
B5
100
AcDbEntity
8
1
62
256
6
ByLayer
370
18
48
1
60
0
100
AcDbLine
10
0.5
20
12.4375
30
0
11
0.5
21
-12.439682
31
0
39
0
210
0
220
0
230
1
0
LINE
5
B6
100
AcDbEntity
8
1
62
256
6
ByLayer
370
18
48
1
60
0
100
AcDbLine
10
21.005313
20
5.134095
30
0
11
21.084594
21
5.037114
31
0
39
0
210
0
220
0
230
1
0
LINE
5
B7
100
AcDbEntity
8
1
62
256
6
ByLayer
370
18
48
1
60
0
100
AcDbLine
10
0.5
20
-12.439682
30
0
11
1.606418
21
-12.457699
31
0
39
0
210
0
220
0
230
1
0
LINE
5
B8
100
AcDbEntity
8
1
62
256
6
ByLayer
370
18
48
1
60
0
100
AcDbLine
10
1.813393
20
-12.458297
30
0
11
5.697246
21
-12.458297
31
0
39
0
210
0
220
0
230
1
0
LINE
5
B9
100
AcDbEntity
8
1
62
256
6
ByLayer
370
18
48
1
60
0
100
AcDbLine
10
11.116114
20
-2.436928
30
0
11
11.086957
21
-2.380054
31
0
39
0
210
0
220
0
230
1
0
LINE
5
BA
100
AcDbEntity
8
1
62
256
6
ByLayer
370
18
48
1
60
0
100
AcDbLine
10
0.5
20
-12.439682
30
0
11
0
21
-12.4375
31
0
39
0
210
0
220
0
230
1
0
LINE
5
BB
100
AcDbEntity
8
1
62
256
6
ByLayer
370
18
48
1
60
0
100
AcDbLine
10
1.215496
20
-8.109129
30
0
11
1.163535
21
-8.161424
31
0
39
0
210
0
220
0
230
1
0
LINE
5
BC
100
AcDbEntity
8
1
62
256
6
ByLayer
370
18
48
1
60
0
100
AcDbLine
10
6.607024
20
12.4375
30
0
11
6.925892
21
12.268947
31
0
39
0
210
0
220
0
230
1
0
LINE
5
BD
100
AcDbEntity
8
1
62
256
6
ByLayer
370
18
48
1
60
0
100
AcDbLine
10
21.012283
20
-5.005329
30
0
11
21.092128
21
-4.90805
31
0
39
0
210
0
220
0
230
1
0
LINE
5
BE
100
AcDbEntity
8
1
62
256
6
ByLayer
370
18
48
1
60
0
100
AcDbLine
10
21.005313
20
5.134095
30
0
11
10.293549
21
10.796308
31
0
39
0
210
0
220
0
230
1
0
LINE
5
BF
100
AcDbEntity
8
1
62
256
6
ByLayer
370
18
48
1
60
0
100
AcDbLine
10
1.813393
20
-12.458297
30
0
11
1.606418
21
-12.457699
31
0
39
0
210
0
220
0
230
1
0
LINE
5
C0
100
AcDbEntity
8
1
62
256
6
ByLayer
370
18
48
1
60
0
100
AcDbLine
10
12.242004
20
-3.475897
30
0
11
12.336261
21
-3.608948
31
0
39
0
210
0
220
0
230
1
0
LINE
5
C1
100
AcDbEntity
8
1
62
256
6
ByLayer
370
18
48
1
60
0
100
AcDbLine
10
0.955689
20
12.4375
30
0
11
0.5
21
12.4375
31
0
39
0
210
0
220
0
230
1
0
LINE
5
C2
100
AcDbEntity
8
1
62
256
6
ByLayer
370
18
48
1
60
0
100
AcDbLine
10
7.807079
20
11.894944
30
0
11
10.293549
21
10.796308
31
0
39
0
210
0
220
0
230
1
0
LINE
5
C3
100
AcDbEntity
8
1
62
256
6
ByLayer
370
18
48
1
60
0
100
AcDbLine
10
5.697246
20
-3.152508
30
0
11
1.813393
21
-12.458297
31
0
39
0
210
0
220
0
230
1
0
LINE
5
C4
100
AcDbEntity
8
1
62
256
6
ByLayer
370
18
48
1
60
0
100
AcDbLine
10
0.955689
20
12.4375
30
0
11
6.607024
21
12.4375
31
0
39
0
210
0
220
0
230
1
0
LINE
5
C5
100
AcDbEntity
8
1
62
256
6
ByLayer
370
18
48
1
60
0
100
AcDbLine
10
1.606418
20
-12.457699
30
0
11
1.215496
21
-8.109129
31
0
39
0
210
0
220
0
230
1
0
LINE
5
C6
100
AcDbEntity
8
1
62
256
6
ByLayer
370
18
48
1
60
0
100
AcDbLine
10
7.77235
20
11.894944
30
0
11
7.807079
21
11.894944
31
0
39
0
210
0
220
0
230
1
0
LINE
5
C7
100
AcDbEntity
8
1
62
256
6
ByLayer
370
18
48
1
60
0
100
AcDbLine
10
11.273422
20
-2.759058
30
0
11
11.182476
21
-2.581656
31
0
39
0
210
0
220
0
230
1
0
LINE
5
C8
100
AcDbEntity
8
1
62
256
6
ByLayer
370
18
48
1
60
0
100
AcDbLine
10
0
20
12.4375
30
0
11
0.5
21
12.4375
31
0
39
0
210
0
220
0
230
1
0
LINE
5
C9
100
AcDbEntity
8
SK1
62
256
6
ByLayer
370
18
48
1
60
0
100
AcDbLine
10
-120.194634
20
12.4375
30
0
11
-120.194634
21
-12.4375
31
0
39
0
210
0
220
0
230
1
0
LINE
5
CB
100
AcDbEntity
8
SK1
62
256
6
ByLayer
370
18
48
1
60
0
100
AcDbLine
10
0
20
12.4375
30
0
11
-120.194634
21
12.4375
31
0
39
0
210
0
220
0
230
1
0
LINE
5
CC
100
AcDbEntity
8
SK1
62
256
6
ByLayer
370
18
48
1
60
0
100
AcDbLine
10
-120.194634
20
-12.4375
30
0
11
0
21
-12.4375
31
0
39
0
210
0
220
0
230
1
0
LINE
5
CD
100
AcDbEntity
8
SK1
62
256
6
ByLayer
370
18
48
1
60
0
100
AcDbLine
10
0
20
12.4375
30
0
11
0
21
-12.4375
31
0
39
0
210
0
220
0
230
1
0
LINE
5
CE
100
AcDbEntity
8
1
62
256
6
ByLayer
370
18
48
1
60
0
100
AcDbLine
10
20.952875
20
4.825041
30
0
11
22.865541
21
4.825041
31
0
39
0
210
0
220
0
230
1
0
LINE
5
CF
100
AcDbEntity
8
1
62
256
6
ByLayer
370
18
48
1
60
0
100
AcDbLine
10
22.865541
20
-4.699959
30
0
11
20.952875
21
-4.699959
31
0
39
0
210
0
220
0
230
1
0
LINE
5
D0
100
AcDbEntity
8
1
62
256
6
ByLayer
370
18
48
1
60
0
100
AcDbLine
10
30.7342
20
0.766827
30
0
11
23.226599
21
4.735327
31
0
39
0
210
0
220
0
230
1
0
LINE
5
D1
100
AcDbEntity
8
1
62
256
6
ByLayer
370
18
48
1
60
0
100
AcDbLine
10
23.226599
20
-4.610246
30
0
11
30.7342
21
-0.641746
31
0
39
0
210
0
220
0
230
1
0
LINE
5
D2
100
AcDbEntity
8
1
62
256
6
ByLayer
370
18
48
1
60
0
100
AcDbLine
10
12.443032
20
2.843868
30
0
11
12.216126
21
2.843868
31
0
39
0
210
0
220
0
230
1
0
LINE
5
D3
100
AcDbEntity
8
1
62
256
6
ByLayer
370
18
48
1
60
0
100
AcDbLine
10
12.539438
20
4.560238
30
0
11
12.773863
21
4.560238
31
0
39
0
210
0
220
0
230
1
0
LINE
5
D4
100
AcDbEntity
8
1
62
256
6
ByLayer
370
18
48
1
60
0
100
AcDbLine
10
12.769709
20
3.341193
30
0
11
12.996614
21
3.341193
31
0
39
0
210
0
220
0
230
1
0
LINE
5
D5
100
AcDbEntity
8
1
62
256
6
ByLayer
370
18
48
1
60
0
100
AcDbLine
10
13.049125
20
3.50055
30
0
11
12.822219
21
3.50055
31
0
39
0
210
0
220
0
230
1
0
LINE
5
D6
100
AcDbEntity
8
1
62
256
6
ByLayer
370
18
48
1
60
0
100
AcDbLine
10
12.82232
20
3.14838
30
0
11
13.056745
21
3.14838
31
0
39
0
210
0
220
0
230
1
0
LINE
5
D7
100
AcDbEntity
8
1
62
256
6
ByLayer
370
18
48
1
60
0
100
AcDbLine
10
12.674858
20
4.236024
30
0
11
12.901764
21
4.236024
31
0
39
0
210
0
220
0
230
1
0
LINE
5
D8
100
AcDbEntity
8
1
62
256
6
ByLayer
370
18
48
1
60
0
100
AcDbLine
10
12.05396
20
2.810367
30
0
11
12.280866
21
2.810367
31
0
39
0
210
0
220
0
230
1
0
LINE
5
D9
100
AcDbEntity
8
1
62
256
6
ByLayer
370
18
48
1
60
0
100
AcDbLine
10
12.792108
20
4.361879
30
0
11
12.565202
21
4.361879
31
0
39
0
210
0
220
0
230
1
0
LINE
5
DA
100
AcDbEntity
8
1
62
256
6
ByLayer
370
18
48
1
60
0
100
AcDbLine
10
11.520037
20
4.64305
30
0
11
11.754462
21
4.64305
31
0
39
0
210
0
220
0
230
1
0
LINE
5
DB
100
AcDbEntity
8
1
62
256
6
ByLayer
370
18
48
1
60
0
100
AcDbLine
10
11.915822
20
2.667695
30
0
11
12.150247
21
2.667695
31
0
39
0
210
0
220
0
230
1
0
LINE
5
DC
100
AcDbEntity
8
1
62
256
6
ByLayer
370
18
48
1
60
0
100
AcDbLine
10
12.97851
20
3.622386
30
0
11
13.212935
21
3.622386
31
0
39
0
210
0
220
0
230
1
0
LINE
5
DD
100
AcDbEntity
8
1
62
256
6
ByLayer
370
18
48
1
60
0
100
AcDbLine
10
11.928999
20
4.566528
30
0
11
11.702093
21
4.566528
31
0
39
0
210
0
220
0
230
1
0
MTEXT
5
16E
100
AcDbEntity
8
SK6
62
256
6
ByLayer
370
18
48
1
60
0
100
AcDbMText
10
-58.644634
20
-23.322898
30
0
210
0
220
0
230
1
1
\W0.7449;DDNNN 2525M 11
40
3.5
41
0
44
1.084337
50
0
71
7
72
5
7
iso_b_vert
0
DIMENSION
5
17F
100
AcDbEntity
8
2
62
256
6
ByLayer
370
13
48
1
60
0
100
AcDbDimension
2
DimnDraft3D1
10
28.015019
20
2.20418
30
0
11
18.018146
21
22.348178
31
0
70
34
71
5
72
1
41
1
210
0
220
0
230
1
3
Standard
100
AcDb2LineAngularDimension
13
31.155366
23
0.5442
33
0
14
31.155366
24
-1.0433
34
0
15
31.155366
25
0.5442
35
0
16
20.3405
26
18.493743
36
0
40
0
0
DIMENSION
5
195
100
AcDbEntity
8
SK2
62
256
6
ByLayer
370
13
48
1
60
0
100
AcDbDimension
2
DimnDraft3D2
10
-127.944634
20
12.4375
30
0
11
-127.944634
21
-5.281579
31
0
70
32
71
5
72
1
41
1
210
0
220
0
230
1
3
Standard
100
AcDbAlignedDimension
13
-122.194634
23
-12.4375
33
0
14
-122.194634
24
12.4375
34
0
50
90
100
AcDbRotatedDimension
1001
ACAD
1000
DSTYLE
1002
{
1070
    74
1070
     0
1070
   279
1070
     0
1070
   172
1070
     1
1070
   173
1070
     1
1070
   340
1005
16F
1070
    77
1070
     1
1070
    73
1070
     0
1070
   171
1070
     3
1070
   274
1070
     4
1070
   177
1070
     2
1070
   176
1070
     2
1070
   178
1070
     7
1070
    78
1070
     8
1070
    41
1041
3.175
1070
   147
1041
2.25
1070
    42
1041
2.0
1070
    44
1041
2.0
1070
   140
1041
4.5
1070
   343
1005
180
1070
   344
1005
180
1002
}
0
DIMENSION
5
1A3
100
AcDbEntity
8
2
62
256
6
ByLayer
370
13
48
1
60
0
100
AcDbDimension
2
DimnDraft3D3
10
53.405366
20
0.5442
30
0
11
53.405366
21
10.7992
31
0
70
32
71
5
72
1
41
1
210
0
220
0
230
1
3
Standard
100
AcDbAlignedDimension
13
2
23
-12.4375
33
0
14
33.155366
24
0.5442
34
0
50
90
100
AcDbRotatedDimension
1001
ACAD
1000
DSTYLE
1002
{
1070
    74
1070
     0
1070
   279
1070
     0
1070
   172
1070
     1
1070
   173
1070
     1
1070
   340
1005
16F
1070
    77
1070
     1
1070
    73
1070
     0
1070
   171
1070
     3
1070
   274
1070
     4
1070
   177
1070
     2
1070
   176
1070
     2
1070
   178
1070
     7
1070
    78
1070
     8
1070
    41
1041
3.175
1070
   147
1041
2.25
1070
    42
1041
2.0
1070
    44
1041
2.0
1070
   140
1041
4.5
1070
   343
1005
180
1070
   344
1005
180
1002
}
0
DIMENSION
5
1B1
100
AcDbEntity
8
2
62
256
6
ByLayer
370
13
48
1
60
0
100
AcDbDimension
2
DimnDraft3D4
10
31.155366
20
30.2942
30
0
11
10.858604
21
30.2942
31
0
70
32
71
5
72
1
41
1
210
0
220
0
230
1
3
Standard
100
AcDbAlignedDimension
13
0
23
14.4375
33
0
14
31.155366
24
2.5442
34
0
50
0
100
AcDbRotatedDimension
1001
ACAD
1000
DSTYLE
1002
{
1070
   279
1070
     0
1070
   172
1070
     1
1070
   173
1070
     1
1070
   340
1005
16F
1070
    77
1070
     1
1070
    73
1070
     0
1070
   171
1070
     3
1070
   274
1070
     4
1070
   177
1070
     2
1070
   176
1070
     2
1070
   178
1070
     7
1070
    78
1070
     8
1070
    41
1041
3.175
1070
   147
1041
2.25
1070
    42
1041
2.0
1070
    44
1041
2.0
1070
   140
1041
4.5
1070
   343
1005
180
1070
   344
1005
180
1002
}
0
DIMENSION
5
1BF
100
AcDbEntity
8
SK2
62
256
6
ByLayer
370
13
48
1
60
0
100
AcDbDimension
2
DimnDraft3D5
10
-120.194634
20
40.2942
30
0
11
-50.920292
21
40.2942
31
0
70
32
71
5
72
1
41
1
210
0
220
0
230
1
3
Standard
100
AcDbAlignedDimension
13
31.155366
23
2.5442
33
0
14
-120.194634
24
14.4375
34
0
50
0
100
AcDbRotatedDimension
1001
ACAD
1000
DSTYLE
1002
{
1070
   279
1070
     0
1070
   172
1070
     1
1070
   173
1070
     1
1070
   340
1005
16F
1070
    77
1070
     1
1070
    73
1070
     0
1070
   171
1070
     3
1070
   274
1070
     4
1070
   177
1070
     2
1070
   176
1070
     2
1070
   178
1070
     7
1070
    78
1070
     8
1070
    41
1041
3.175
1070
   147
1041
2.25
1070
    42
1041
2.0
1070
    44
1041
2.0
1070
   140
1041
4.5
1070
   343
1005
180
1070
   344
1005
180
1002
}
0
ENDSEC
0
SECTION
2
OBJECTS
0
DICTIONARY
5
229
330
0
100
AcDbDictionary
280
0
281
1
3
ACAD_GROUP
350
22a
3
ACAD_MLINESTYLE
350
22b
0
DICTIONARY
5
22a
330
0
100
AcDbDictionary
280
0
281
1
0
DICTIONARY
5
22b
330
0
100
AcDbDictionary
280
0
281
1
3
Standard
350
18
0
MLINESTYLE
5
18
330
22b
100
AcDbMlineStyle
2
Standard
70
0
3

62
256
51
90
52
90
71
2
49
-0.5
62
256
6
ByLayer
49
0.5
62
256
6
ByLayer
0
RASTERVARIABLES
5
218
330

100
AcDbRasterVariables
90
0
70
1
71
1
72
1
0
ENDSEC
0
EOF
