0
SECTION
2
HEADER
9
$ACADVER
1
AC1015
9
$DWGCODEPAGE
3
ANSI_1252
9
$HANDSEED
5
221
9
$ANGBASE
50
0
9
$ANGDIR
70
0
9
$ATTMODE
70
1
9
$AUNITS
70
0
9
$AUPREC
70
0
9
$CECOLOR
62
256
9
$CELTSCALE
40
1
9
$CELTYPE
6
ByLayer
9
$CELWEIGHT
370
18
9
$CLAYER
8
0
9
$CMLJUST
70
0
9
$CMLSCALE
40
1
9
$CMLSTYLE
2
Standard
9
$DIMSTYLE
2
Standard
9
$TEXTSIZE
40
0.2
9
$TEXTSTYLE
7
Standard
9
$LUNITS
70
2
9
$LUPREC
70
4
9
$EXTNAMES
290
1
9
$INSUNITS
70
4
9
$LTSCALE
40
1
9
$LWDISPLAY
290
1
9
$PDMODE
70
0
9
$PDSIZE
40
0
9
$PLINEGEN
70
0
0
ENDSEC
0
SECTION
2
CLASSES
0
CLASS
1
RASTERVARIABLES
2
AcDbRasterVariables
3
ISM
90
0
280
0
281
0
0
ENDSEC
0
SECTION
2
TABLES
0
TABLE
2
VPORT
5
217
100
AcDbSymbolTable
0
VPORT
5
1
100
AcDbSymbolTableRecord
100
AcDbViewportTableRecord
2
*Active
70
0
10
0
20
0
11
1
21
1
12
-1
22
1
13
0
23
0
14
0.5
24
0.5
15
10
25
10
16
0
26
0
36
1
17
0
27
0
37
0
0
ENDTAB
0
TABLE
2
LTYPE
5
218
100
AcDbSymbolTable
0
LTYPE
5
14
100
AcDbSymbolTableRecord
100
AcDbLinetypeTableRecord
70
0
2
ByBlock
3

72
65
73
0
40
0
0
LTYPE
5
15
100
AcDbSymbolTableRecord
100
AcDbLinetypeTableRecord
70
0
2
ByLayer
3

72
65
73
0
40
0
0
LTYPE
5
16
100
AcDbSymbolTableRecord
100
AcDbLinetypeTableRecord
70
0
2
CONTINUOUS
3
Solid line
72
65
73
0
40
0
0
LTYPE
5
6A
100
AcDbSymbolTableRecord
100
AcDbLinetypeTableRecord
70
0
2
CENTER
3
____ _ ____ _ ____ _ ____
72
65
73
4
40
47.5
49
22
74
0
49
-8.5
74
0
49
8.5
74
0
49
-8.5
74
0
0
LTYPE
5
6B
100
AcDbSymbolTableRecord
100
AcDbLinetypeTableRecord
70
0
2
DASHED
3
__ __ __ __ __ __ __ __ __
72
65
73
2
40
25.72
49
12.86
74
0
49
-12.86
74
0
0
ENDTAB
0
TABLE
2
LAYER
5
219
100
AcDbSymbolTable
0
LAYER
5
10
100
AcDbSymbolTableRecord
100
AcDbLayerTableRecord
2
0
70
0
62
7
6
CONTINUOUS
290
1
370
-3
390
0
0
LAYER
5
6D
100
AcDbSymbolTableRecord
100
AcDbLayerTableRecord
2
2
70
0
62
7
6
CONTINUOUS
290
1
370
-3
390
0
0
LAYER
5
6F
100
AcDbSymbolTableRecord
100
AcDbLayerTableRecord
2
80
70
0
62
-6
6
CONTINUOUS
290
1
370
-3
390
0
0
LAYER
5
71
100
AcDbSymbolTableRecord
100
AcDbLayerTableRecord
2
81
70
0
62
-3
6
CONTINUOUS
290
1
370
-3
390
0
0
LAYER
5
73
100
AcDbSymbolTableRecord
100
AcDbLayerTableRecord
2
1
70
0
62
4
6
CONTINUOUS
290
1
370
-3
390
0
0
LAYER
5
204
100
AcDbSymbolTableRecord
100
AcDbLayerTableRecord
2
SK1
70
0
62
4
6
CONTINUOUS
290
1
370
-3
390
0
0
LAYER
5
205
100
AcDbSymbolTableRecord
100
AcDbLayerTableRecord
2
SK6
70
0
62
5
6
CONTINUOUS
290
1
370
-3
390
0
0
LAYER
5
206
100
AcDbSymbolTableRecord
100
AcDbLayerTableRecord
2
SK2
70
0
62
7
6
CONTINUOUS
290
1
370
-3
390
0
0
ENDTAB
0
TABLE
2
STYLE
5
21a
100
AcDbSymbolTable
0
STYLE
5
11
100
AcDbSymbolTableRecord
100
AcDbTextStyleTableRecord
2
Standard
3
txt
70
0
71
0
40
0
41
1
42
0
50
0
0
STYLE
5
15A
100
AcDbSymbolTableRecord
100
AcDbTextStyleTableRecord
2
iso_b_vert
3
simplex.shx
70
0
71
0
40
0
41
1
42
0
50
0
0
STYLE
5
15B
100
AcDbSymbolTableRecord
100
AcDbTextStyleTableRecord
2
DWGDirectTextStyle
3
simplex
70
0
71
0
40
0
41
1
42
0
50
0
0
ENDTAB
0
TABLE
2
DIMSTYLE
5
21b
100
AcDbSymbolTable
100
AcDbDimStyleTable
0
DIMSTYLE
105
27
100
AcDbSymbolTableRecord
100
AcDbDimStyleTableRecord
2
Standard
70
0
3
<>
41
0.18
42
0.0625
44
0.18
140
0.18
147
0.09
73
0
74
0
77
1
271
2
275
0
278
52
280
0
340
11
0
ENDTAB
0
TABLE
2
VIEW
5
21c
100
AcDbSymbolTable
0
ENDTAB
0
TABLE
2
UCS
5
21d
100
AcDbSymbolTable
0
ENDTAB
0
TABLE
2
APPID
5
21e
100
AcDbSymbolTable
0
APPID
5
12
100
AcDbSymbolTableRecord
100
AcDbRegAppTableRecord
2
ACAD
70
0
0
ENDTAB
0
TABLE
2
BLOCK_RECORD
5
21f
100
AcDbSymbolTable
0
BLOCK_RECORD
5
1F
100
AcDbSymbolTableRecord
100
AcDbBlockTableRecord
2
*Model_Space
340
0
70
0
0
BLOCK_RECORD
5
1B
100
AcDbSymbolTableRecord
100
AcDbBlockTableRecord
2
*Paper_Space
340
0
70
0
0
BLOCK_RECORD
5
23
100
AcDbSymbolTableRecord
100
AcDbBlockTableRecord
2
*Paper_Space0
340
0
70
0
0
BLOCK_RECORD
5
15D
100
AcDbSymbolTableRecord
100
AcDbBlockTableRecord
2
DimnDraft3D1
340
0
70
0
0
BLOCK_RECORD
5
16B
100
AcDbSymbolTableRecord
100
AcDbBlockTableRecord
2
_CLOSED
340
0
70
0
0
BLOCK_RECORD
5
172
100
AcDbSymbolTableRecord
100
AcDbBlockTableRecord
2
DimnDraft3D2
340
0
70
0
0
BLOCK_RECORD
5
181
100
AcDbSymbolTableRecord
100
AcDbBlockTableRecord
2
DimnDraft3D3
340
0
70
0
0
BLOCK_RECORD
5
18F
100
AcDbSymbolTableRecord
100
AcDbBlockTableRecord
2
DimnDraft3D4
340
0
70
0
0
BLOCK_RECORD
5
19D
100
AcDbSymbolTableRecord
100
AcDbBlockTableRecord
2
DimnDraft3D5
340
0
70
0
0
ENDTAB
0
ENDSEC
0
SECTION
2
BLOCKS
0
BLOCK
5
20
100
AcDbEntity
8
0
100
AcDbBlockBegin
2
*Model_Space
70
0
10
0
20
0
30
0
3
*Model_Space
0
ENDBLK
5
21
100
AcDbEntity
8
0
100
AcDbBlockEnd
0
BLOCK
5
1C
100
AcDbEntity
8
0
100
AcDbBlockBegin
2
*Paper_Space
70
0
10
0
20
0
30
0
3
*Paper_Space
0
ENDBLK
5
1D
100
AcDbEntity
8
0
100
AcDbBlockEnd
0
BLOCK
5
24
100
AcDbEntity
8
0
100
AcDbBlockBegin
2
*Paper_Space0
70
0
10
0
20
0
30
0
3
*Paper_Space0
0
ENDBLK
5
25
100
AcDbEntity
8
0
100
AcDbBlockEnd
0
BLOCK
5
168
100
AcDbEntity
8
0
100
AcDbBlockBegin
2
DimnDraft3D1
70
0
10
0
20
0
30
0
3
DimnDraft3D1
0
MTEXT
5
15E
100
AcDbEntity
8
2
62
256
6
ByLayer
370
18
48
1
60
0
100
AcDbMText
10
21.420441
20
33.016447
30
0
210
0
220
0
230
1
1
\W0.7399;93%%d
40
4.5
41
0
44
1.084337
50
46.5000000000004
71
7
72
5
7
iso_b_vert
0
LINE
5
15F
100
AcDbEntity
8
2
62
256
6
ByLayer
370
13
48
1
60
0
100
AcDbLine
10
39.424798
20
21.9125
30
0
11
39.424798
21
42.880865
31
0
39
0
210
0
220
0
230
1
0
LINE
5
160
100
AcDbEntity
8
2
62
256
6
ByLayer
370
13
48
1
60
0
100
AcDbLine
10
35.593618
20
19.754404
30
0
11
16.53054
21
18.755351
31
0
39
0
210
0
220
0
230
1
0
ARC
5
161
100
AcDbEntity
8
2
62
256
6
ByLayer
370
13
48
1
60
0
100
AcDbCircle
39
0
10
39.424798
20
19.955188
30
0
40
20.9256770833572
210
0
220
0
230
1
100
AcDbArc
50
90
51
183
0
LINE
5
162
100
AcDbEntity
8
2
62
256
6
ByLayer
370
13
48
1
60
0
100
AcDbLine
10
39.424798
20
40.880865
30
0
11
36.267896
21
40.342993
31
0
39
0
210
0
220
0
230
1
0
LINE
5
163
100
AcDbEntity
8
2
62
256
6
ByLayer
370
13
48
1
60
0
100
AcDbLine
10
39.424798
20
40.880865
30
0
11
36.23625
21
41.178387
31
0
39
0
210
0
220
0
230
1
0
LINE
5
164
100
AcDbEntity
8
2
62
256
6
ByLayer
370
13
48
1
60
0
100
AcDbLine
10
36.267896
20
40.342993
30
0
11
36.23625
21
41.178387
31
0
39
0
210
0
220
0
230
1
0
LINE
5
165
100
AcDbEntity
8
2
62
256
6
ByLayer
370
13
48
1
60
0
100
AcDbLine
10
18.527799
20
18.860023
30
0
11
18.063809
21
22.028626
31
0
39
0
210
0
220
0
230
1
0
LINE
5
166
100
AcDbEntity
8
2
62
256
6
ByLayer
370
13
48
1
60
0
100
AcDbLine
10
18.527799
20
18.860023
30
0
11
18.899714
21
22.040751
31
0
39
0
210
0
220
0
230
1
0
LINE
5
167
100
AcDbEntity
8
2
62
256
6
ByLayer
370
13
48
1
60
0
100
AcDbLine
10
18.063809
20
22.028626
30
0
11
18.899714
21
22.040751
31
0
39
0
210
0
220
0
230
1
0
ENDBLK
5
169
100
AcDbEntity
8
0
100
AcDbBlockEnd
0
BLOCK
5
16C
100
AcDbEntity
8
0
100
AcDbBlockBegin
2
_CLOSED
70
0
10
0
20
0
30
0
3
_CLOSED
0
LINE
5
16E
100
AcDbEntity
8
0
62
256
6
ByLayer
370
-2
48
1
60
0
100
AcDbLine
10
-1
20
0.166667
30
0
11
0
21
0
31
0
39
0
210
0
220
0
230
1
0
LINE
5
16F
100
AcDbEntity
8
0
62
256
6
ByLayer
370
-2
48
1
60
0
100
AcDbLine
10
0
20
0
30
0
11
-1
21
-0.166667
31
0
39
0
210
0
220
0
230
1
0
LINE
5
170
100
AcDbEntity
8
0
62
256
6
ByLayer
370
-2
48
1
60
0
100
AcDbLine
10
-1
20
0.166667
30
0
11
-1
21
-0.166667
31
0
39
0
210
0
220
0
230
1
0
LINE
5
171
100
AcDbEntity
8
0
62
256
6
ByLayer
370
-2
48
1
60
0
100
AcDbLine
10
0
20
0
30
0
11
-1
21
0
31
0
39
0
210
0
220
0
230
1
0
ENDBLK
5
16D
100
AcDbEntity
8
0
100
AcDbBlockEnd
0
BLOCK
5
17E
100
AcDbEntity
8
0
100
AcDbBlockBegin
2
DimnDraft3D2
70
0
10
0
20
0
30
0
3
DimnDraft3D2
0
MTEXT
5
173
100
AcDbEntity
8
SK2
62
256
6
ByLayer
370
18
48
1
60
0
100
AcDbMText
10
-140.800202
20
-4.156579
30
0
210
0
220
0
230
1
1
\W0.7346;25.0
40
4.5
41
0
44
1.084337
50
90
71
7
72
5
7
iso_b_vert
0
LINE
5
175
100
AcDbEntity
8
SK2
62
256
6
ByLayer
370
13
48
1
60
0
100
AcDbLine
10
-133.925202
20
-12.4375
30
0
11
-141.675202
21
-12.4375
31
0
39
0
210
0
220
0
230
1
0
LINE
5
176
100
AcDbEntity
8
SK2
62
256
6
ByLayer
370
13
48
1
60
0
100
AcDbLine
10
-133.925202
20
12.4375
30
0
11
-141.675202
21
12.4375
31
0
39
0
210
0
220
0
230
1
0
LINE
5
177
100
AcDbEntity
8
SK2
62
256
6
ByLayer
370
13
48
1
60
0
100
AcDbLine
10
-139.675202
20
-12.4375
30
0
11
-139.675202
21
12.4375
31
0
39
0
210
0
220
0
230
1
0
LINE
5
178
100
AcDbEntity
8
SK2
62
256
6
ByLayer
370
13
48
1
60
0
100
AcDbLine
10
-139.675202
20
-12.4375
30
0
11
-140.093199
21
-9.262502
31
0
39
0
210
0
220
0
230
1
0
LINE
5
179
100
AcDbEntity
8
SK2
62
256
6
ByLayer
370
13
48
1
60
0
100
AcDbLine
10
-139.675202
20
-12.4375
30
0
11
-139.257205
21
-9.262498
31
0
39
0
210
0
220
0
230
1
0
LINE
5
17A
100
AcDbEntity
8
SK2
62
256
6
ByLayer
370
13
48
1
60
0
100
AcDbLine
10
-140.093199
20
-9.262502
30
0
11
-139.257205
21
-9.262498
31
0
39
0
210
0
220
0
230
1
0
LINE
5
17B
100
AcDbEntity
8
SK2
62
256
6
ByLayer
370
13
48
1
60
0
100
AcDbLine
10
-139.675202
20
12.4375
30
0
11
-139.257205
21
9.262502
31
0
39
0
210
0
220
0
230
1
0
LINE
5
17C
100
AcDbEntity
8
SK2
62
256
6
ByLayer
370
13
48
1
60
0
100
AcDbLine
10
-139.675202
20
12.4375
30
0
11
-140.093199
21
9.262498
31
0
39
0
210
0
220
0
230
1
0
LINE
5
17D
100
AcDbEntity
8
SK2
62
256
6
ByLayer
370
13
48
1
60
0
100
AcDbLine
10
-139.257205
20
9.262502
30
0
11
-140.093199
21
9.262498
31
0
39
0
210
0
220
0
230
1
0
ENDBLK
5
17F
100
AcDbEntity
8
0
100
AcDbBlockEnd
0
BLOCK
5
18C
100
AcDbEntity
8
0
100
AcDbBlockBegin
2
DimnDraft3D3
70
0
10
0
20
0
30
0
3
DimnDraft3D3
0
MTEXT
5
182
100
AcDbEntity
8
2
62
256
6
ByLayer
370
18
48
1
60
0
100
AcDbMText
10
60.549798
20
-0.419079
30
0
210
0
220
0
230
1
1
\W0.7346;32.0
40
4.5
41
0
44
1.084337
50
90
71
7
72
5
7
iso_b_vert
0
LINE
5
183
100
AcDbEntity
8
2
62
256
6
ByLayer
370
13
48
1
60
0
100
AcDbLine
10
2
20
-12.4375
30
0
11
63.674798
21
-12.4375
31
0
39
0
210
0
220
0
230
1
0
LINE
5
184
100
AcDbEntity
8
2
62
256
6
ByLayer
370
13
48
1
60
0
100
AcDbLine
10
41.424798
20
19.9125
30
0
11
63.674798
21
19.9125
31
0
39
0
210
0
220
0
230
1
0
LINE
5
185
100
AcDbEntity
8
2
62
256
6
ByLayer
370
13
48
1
60
0
100
AcDbLine
10
61.674798
20
-12.4375
30
0
11
61.674798
21
19.9125
31
0
39
0
210
0
220
0
230
1
0
LINE
5
186
100
AcDbEntity
8
2
62
256
6
ByLayer
370
13
48
1
60
0
100
AcDbLine
10
61.674798
20
-12.4375
30
0
11
61.256801
21
-9.262502
31
0
39
0
210
0
220
0
230
1
0
LINE
5
187
100
AcDbEntity
8
2
62
256
6
ByLayer
370
13
48
1
60
0
100
AcDbLine
10
61.674798
20
-12.4375
30
0
11
62.092795
21
-9.262498
31
0
39
0
210
0
220
0
230
1
0
LINE
5
188
100
AcDbEntity
8
2
62
256
6
ByLayer
370
13
48
1
60
0
100
AcDbLine
10
61.256801
20
-9.262502
30
0
11
62.092795
21
-9.262498
31
0
39
0
210
0
220
0
230
1
0
LINE
5
189
100
AcDbEntity
8
2
62
256
6
ByLayer
370
13
48
1
60
0
100
AcDbLine
10
61.674798
20
19.9125
30
0
11
62.092795
21
16.737502
31
0
39
0
210
0
220
0
230
1
0
LINE
5
18A
100
AcDbEntity
8
2
62
256
6
ByLayer
370
13
48
1
60
0
100
AcDbLine
10
61.674798
20
19.9125
30
0
11
61.256801
21
16.737498
31
0
39
0
210
0
220
0
230
1
0
LINE
5
18B
100
AcDbEntity
8
2
62
256
6
ByLayer
370
13
48
1
60
0
100
AcDbLine
10
62.092795
20
16.737502
30
0
11
61.256801
21
16.737498
31
0
39
0
210
0
220
0
230
1
0
ENDBLK
5
18D
100
AcDbEntity
8
0
100
AcDbBlockEnd
0
BLOCK
5
19A
100
AcDbEntity
8
0
100
AcDbBlockBegin
2
DimnDraft3D4
70
0
10
0
20
0
30
0
3
DimnDraft3D4
0
MTEXT
5
190
100
AcDbEntity
8
2
62
256
6
ByLayer
370
18
48
1
60
0
100
AcDbMText
10
15.318978
20
50.7875
30
0
210
0
220
0
230
1
1
\W0.7528;39.4
40
4.5
41
0
44
1.084337
50
0
71
7
72
5
7
iso_b_vert
0
LINE
5
191
100
AcDbEntity
8
2
62
256
6
ByLayer
370
13
48
1
60
0
100
AcDbLine
10
0
20
14.4375
30
0
11
0
21
51.6625
31
0
39
0
210
0
220
0
230
1
0
LINE
5
192
100
AcDbEntity
8
2
62
256
6
ByLayer
370
13
48
1
60
0
100
AcDbLine
10
39.424798
20
21.9125
30
0
11
39.424798
21
51.6625
31
0
39
0
210
0
220
0
230
1
0
LINE
5
193
100
AcDbEntity
8
2
62
256
6
ByLayer
370
13
48
1
60
0
100
AcDbLine
10
0
20
49.6625
30
0
11
39.424798
21
49.6625
31
0
39
0
210
0
220
0
230
1
0
LINE
5
194
100
AcDbEntity
8
2
62
256
6
ByLayer
370
13
48
1
60
0
100
AcDbLine
10
0
20
49.6625
30
0
11
3.174998
21
50.080497
31
0
39
0
210
0
220
0
230
1
0
LINE
5
195
100
AcDbEntity
8
2
62
256
6
ByLayer
370
13
48
1
60
0
100
AcDbLine
10
0
20
49.6625
30
0
11
3.175002
21
49.244503
31
0
39
0
210
0
220
0
230
1
0
LINE
5
196
100
AcDbEntity
8
2
62
256
6
ByLayer
370
13
48
1
60
0
100
AcDbLine
10
3.174998
20
50.080497
30
0
11
3.175002
21
49.244503
31
0
39
0
210
0
220
0
230
1
0
LINE
5
197
100
AcDbEntity
8
2
62
256
6
ByLayer
370
13
48
1
60
0
100
AcDbLine
10
39.424798
20
49.6625
30
0
11
36.249799
21
49.244503
31
0
39
0
210
0
220
0
230
1
0
LINE
5
198
100
AcDbEntity
8
2
62
256
6
ByLayer
370
13
48
1
60
0
100
AcDbLine
10
39.424798
20
49.6625
30
0
11
36.249796
21
50.080497
31
0
39
0
210
0
220
0
230
1
0
LINE
5
199
100
AcDbEntity
8
2
62
256
6
ByLayer
370
13
48
1
60
0
100
AcDbLine
10
36.249799
20
49.244503
30
0
11
36.249796
21
50.080497
31
0
39
0
210
0
220
0
230
1
0
ENDBLK
5
19B
100
AcDbEntity
8
0
100
AcDbBlockEnd
0
BLOCK
5
1A8
100
AcDbEntity
8
0
100
AcDbBlockBegin
2
DimnDraft3D5
70
0
10
0
20
0
30
0
3
DimnDraft3D5
0
MTEXT
5
19E
100
AcDbEntity
8
SK2
62
256
6
ByLayer
370
18
48
1
60
0
100
AcDbMText
10
-51.52586
20
60.7875
30
0
210
0
220
0
230
1
1
\W0.6864;170.0
40
4.5
41
0
44
1.084337
50
0
71
7
72
5
7
iso_b_vert
0
LINE
5
19F
100
AcDbEntity
8
SK2
62
256
6
ByLayer
370
13
48
1
60
0
100
AcDbLine
10
39.424798
20
21.9125
30
0
11
39.424798
21
61.6625
31
0
39
0
210
0
220
0
230
1
0
LINE
5
1A0
100
AcDbEntity
8
SK2
62
256
6
ByLayer
370
13
48
1
60
0
100
AcDbLine
10
-131.925202
20
14.4375
30
0
11
-131.925202
21
61.6625
31
0
39
0
210
0
220
0
230
1
0
LINE
5
1A1
100
AcDbEntity
8
SK2
62
256
6
ByLayer
370
13
48
1
60
0
100
AcDbLine
10
39.424798
20
59.6625
30
0
11
-131.925202
21
59.6625
31
0
39
0
210
0
220
0
230
1
0
LINE
5
1A2
100
AcDbEntity
8
SK2
62
256
6
ByLayer
370
13
48
1
60
0
100
AcDbLine
10
39.424798
20
59.6625
30
0
11
36.249799
21
59.244503
31
0
39
0
210
0
220
0
230
1
0
LINE
5
1A3
100
AcDbEntity
8
SK2
62
256
6
ByLayer
370
13
48
1
60
0
100
AcDbLine
10
39.424798
20
59.6625
30
0
11
36.249796
21
60.080497
31
0
39
0
210
0
220
0
230
1
0
LINE
5
1A4
100
AcDbEntity
8
SK2
62
256
6
ByLayer
370
13
48
1
60
0
100
AcDbLine
10
36.249799
20
59.244503
30
0
11
36.249796
21
60.080497
31
0
39
0
210
0
220
0
230
1
0
LINE
5
1A5
100
AcDbEntity
8
SK2
62
256
6
ByLayer
370
13
48
1
60
0
100
AcDbLine
10
-131.925202
20
59.6625
30
0
11
-128.750204
21
60.080497
31
0
39
0
210
0
220
0
230
1
0
LINE
5
1A6
100
AcDbEntity
8
SK2
62
256
6
ByLayer
370
13
48
1
60
0
100
AcDbLine
10
-131.925202
20
59.6625
30
0
11
-128.750201
21
59.244503
31
0
39
0
210
0
220
0
230
1
0
LINE
5
1A7
100
AcDbEntity
8
SK2
62
256
6
ByLayer
370
13
48
1
60
0
100
AcDbLine
10
-128.750204
20
60.080497
30
0
11
-128.750201
21
59.244503
31
0
39
0
210
0
220
0
230
1
0
ENDBLK
5
1A9
100
AcDbEntity
8
0
100
AcDbBlockEnd
0
ENDSEC
0
SECTION
2
ENTITIES
0
ELLIPSE
5
E5
100
AcDbEntity
8
1
62
256
6
ByLayer
370
18
48
1
60
0
100
AcDbEllipse
10
13.657637
20
10.376859
30
0
11
-0.265178536275319
21
0.272177045135845
31
0
210
0
220
0
230
1
40
0.987534
41
-0.403396498438493
42
-0.342180053776492
0
ELLIPSE
5
E6
100
AcDbEntity
8
1
62
256
6
ByLayer
370
18
48
1
60
0
100
AcDbEllipse
10
15.222035
20
9.089199
30
0
11
0.296581257676342
21
-0.304408537322985
31
0
210
0
220
0
230
1
40
0.987534
41
3.14158584376966
42
-2.8044423652365
0
ELLIPSE
5
E7
100
AcDbEntity
8
1
62
256
6
ByLayer
370
18
48
1
60
0
100
AcDbEllipse
10
13.364482
20
11.124931
30
0
11
0.296581257676342
21
-0.304408537322985
31
0
210
0
220
0
230
1
40
0.987534
41
-0.403396498438493
42
1.88105428723902E-05
0
ELLIPSE
5
E8
100
AcDbEntity
8
1
62
256
6
ByLayer
370
18
48
1
60
0
100
AcDbEllipse
10
15.719962
20
9.709093
30
0
11
-0.265178536275319
21
0.272177045135845
31
0
210
0
220
0
230
1
40
0.987534
41
-2.79939683891877
42
-1.75724481403997
0
ELLIPSE
5
E9
100
AcDbEntity
8
1
62
256
6
ByLayer
370
18
48
1
60
0
100
AcDbEllipse
10
14.028145
20
11.563191
30
0
11
-0.265178536275319
21
0.272177045135845
31
0
210
0
220
0
230
1
40
0.987534
41
-1.45059404963505
42
-0.342174994296277
0
ELLIPSE
5
EA
100
AcDbEntity
8
1
62
256
6
ByLayer
370
18
48
1
60
0
100
AcDbEllipse
10
16.383625
20
10.147353
30
0
11
0.296581257676342
21
-0.304408537322985
31
0
210
0
220
0
230
1
40
0.987534
41
-3.141572449933
42
-1.75724481403977
0
ELLIPSE
5
EB
100
AcDbEntity
8
1
62
256
6
ByLayer
370
18
48
1
60
0
100
AcDbEllipse
10
14.526071
20
12.183085
30
0
11
0.296581257676342
21
-0.304408537322985
31
0
210
0
220
0
230
1
40
0.987534
41
-1.45059404963501
42
-6.81496141015697E-06
0
ELLIPSE
5
EC
100
AcDbEntity
8
1
62
256
6
ByLayer
370
18
48
1
60
0
100
AcDbEllipse
10
14.783858
20
10.548266
30
0
11
2.79135301342439
21
-2.86502152774574
31
0
210
0
220
0
230
1
40
0.987534
41
3.14152162621429
42
-0.778646137219371
0
ELLIPSE
5
ED
100
AcDbEntity
8
1
62
256
6
ByLayer
370
18
48
1
60
0
100
AcDbEllipse
10
14.783858
20
10.548266
30
0
11
2.79135301342439
21
-2.86502152774574
31
0
210
0
220
0
230
1
40
0.987534
41
-0.778645885634937
42
-4.49695109079853E-16
0
ELLIPSE
5
EE
100
AcDbEntity
8
1
62
256
6
ByLayer
370
18
48
1
60
0
100
AcDbEllipse
10
16.09047
20
10.895424
30
0
11
-0.265178536275319
21
0.272177045135845
31
0
210
0
220
0
230
1
40
0.987534
41
-2.79935548313881
42
-0.710047262843254
0
ELLIPSE
5
EF
100
AcDbEntity
8
1
62
256
6
ByLayer
370
18
48
1
60
0
100
AcDbEllipse
10
15.244561
20
11.822474
30
0
11
-0.265178536275319
21
0.272177045135845
31
0
210
0
220
0
230
1
40
0.987534
41
-2.49779160083158
42
-0.342171625757594
0
ELLIPSE
5
F0
100
AcDbEntity
8
1
62
256
6
ByLayer
370
18
48
1
60
0
100
AcDbEllipse
10
14.874053
20
10.636142
30
0
11
0.802513991359512
21
-0.823693689226903
31
0
210
0
220
0
230
1
40
0.987534
41
-1.29804002362821
42
-0.778646487249857
0
ELLIPSE
5
F1
100
AcDbEntity
8
1
62
256
6
ByLayer
370
18
48
1
60
0
100
AcDbEllipse
10
14.874053
20
10.636142
30
0
11
0.802513991359512
21
-0.823693689226903
31
0
210
0
220
0
230
1
40
0.987534
41
-2.58854668707934
42
-1.92164538258303
0
ELLIPSE
5
F2
100
AcDbEntity
8
1
62
256
6
ByLayer
370
18
48
1
60
0
100
AcDbEllipse
10
14.874053
20
10.636142
30
0
11
0.802513991359512
21
-0.823693689226903
31
0
210
0
220
0
230
1
40
0.987534
41
-0.195831875445833
42
0
0
ELLIPSE
5
F3
100
AcDbEntity
8
1
62
256
6
ByLayer
370
18
48
1
60
0
100
AcDbEllipse
10
14.874053
20
10.636142
30
0
11
0.802513991359512
21
-0.823693689226903
31
0
210
0
220
0
230
1
40
0.987534
41
0
42
-3.00009578200859
0
ELLIPSE
5
F4
100
AcDbEntity
8
1
62
256
6
ByLayer
370
18
48
1
60
0
100
AcDbEllipse
10
14.874053
20
10.636142
30
0
11
0.802513991359512
21
-0.823693689226903
31
0
210
0
220
0
230
1
40
0.987534
41
-0.778645612173612
42
-0.634966971337273
0
ELLIPSE
5
F5
100
AcDbEntity
8
1
62
256
6
ByLayer
370
18
48
1
60
0
100
AcDbEllipse
10
14.817681
20
10.581219
30
0
11
0.802513991359512
21
-0.823693689226903
31
0
210
0
220
0
230
1
40
0.987534
41
0.0346827327960013
42
3.10686561729262
0
ELLIPSE
5
F6
100
AcDbEntity
8
1
62
256
6
ByLayer
370
18
48
1
60
0
100
AcDbEllipse
10
28.410738
20
13.053841
30
0
11
1.80042269365873
21
-1.84793888539601
31
0
210
0
220
0
230
1
40
0.987534
41
-0.330418070028273
42
0
0
ELLIPSE
5
F7
100
AcDbEntity
8
1
62
256
6
ByLayer
370
18
48
1
60
0
100
AcDbEllipse
10
28.410738
20
13.053841
30
0
11
1.80042269365873
21
-1.84793888539601
31
0
210
0
220
0
230
1
40
0.987534
41
0
42
2.3383648589003
0
ELLIPSE
5
F8
100
AcDbEntity
8
1
62
256
6
ByLayer
370
18
48
1
60
0
100
AcDbEllipse
10
27.874076
20
12.530978
30
0
11
1.80042269365873
21
-1.84793888539601
31
0
210
0
220
0
230
1
40
0.987534
41
0.147659301541733
42
0.549881255949593
0
ELLIPSE
5
F9
100
AcDbEntity
8
1
62
256
6
ByLayer
370
18
48
1
60
0
100
AcDbEllipse
10
31.89045
20
8.458361
30
0
11
0.554083573164742
21
-0.568706773257531
31
0
210
0
220
0
230
1
40
0.987534
41
-0.233835969021911
42
4.87391192166833E-06
0
ELLIPSE
5
FA
100
AcDbEntity
8
1
62
256
6
ByLayer
370
18
48
1
60
0
100
AcDbEllipse
10
18.744649
20
4.772533
30
0
11
1.65314319602558
21
-1.69677243339755
31
0
210
0
220
0
230
1
40
0.987534
41
-1.68413813115885
42
-1.32466675151839
0
ELLIPSE
5
FB
100
AcDbEntity
8
1
62
256
6
ByLayer
370
18
48
1
60
0
100
AcDbEllipse
10
29.962184
20
7.273255
30
0
11
1.10781822720282
21
-1.1370554188241
31
0
210
0
220
0
230
1
40
0.987534
41
-0.71380151332031
42
-2.45072522414325E-06
0
ELLIPSE
5
FC
100
AcDbEntity
8
1
62
256
6
ByLayer
370
18
48
1
60
0
100
AcDbEllipse
10
24.432476
20
16.47001
30
0
11
1.10781822720284
21
-1.13705541882412
31
0
210
0
220
0
230
1
40
0.987534
41
3.14158978678912
42
-2.89546307831333
0
ELLIPSE
5
FD
100
AcDbEntity
8
1
62
256
6
ByLayer
370
18
48
1
60
0
100
AcDbEllipse
10
27.383235
20
12.133633
30
0
11
1.90160924039536
21
-1.95179591577678
31
0
210
0
220
0
230
1
40
0.987534
41
0.323882917365386
42
0.550863121161784
0
ELLIPSE
5
FE
100
AcDbEntity
8
1
62
256
6
ByLayer
370
18
48
1
60
0
100
AcDbEllipse
10
7.972142
20
14.797477
30
0
11
1.97548026366514
21
-2.25775944862811
31
0
210
0
220
0
230
1
40
0.985051
41
-0.503892937168498
42
-0.187717665000406
0
ELLIPSE
5
FF
100
AcDbEntity
8
1
62
256
6
ByLayer
370
18
48
1
60
0
100
AcDbEllipse
10
13.49631
20
10.26271
30
0
11
2.73274769807011
21
-3.12323390393556
31
0
210
0
220
0
230
1
40
0.985051
41
2.6376997164213
42
2.93053762613469
0
ELLIPSE
5
100
100
AcDbEntity
8
1
62
256
6
ByLayer
370
18
48
1
60
0
100
AcDbEllipse
10
15.478949
20
10.682245
30
0
11
-2.7327476980701
21
3.12323390393556
31
0
210
0
220
0
230
1
40
0.985051
41
3.0229866199574
42
-0.503892937168489
0
ELLIPSE
5
101
100
AcDbEntity
8
1
62
256
6
ByLayer
370
18
48
1
60
0
100
AcDbEllipse
10
13.418938
20
10.246338
30
0
11
-1.71208289517645
21
1.9567248554777
31
0
210
0
220
0
230
1
40
0.985051
41
0.97643523335149
42
1.16738499093872
0
ELLIPSE
5
102
100
AcDbEntity
8
1
62
256
6
ByLayer
370
18
48
1
60
0
100
AcDbEllipse
10
8.051744
20
13.271278
30
0
11
-0.444337541742468
21
-1.95001644839172
31
0
210
0
220
0
230
1
40
0.807679
41
-2.66386309697103
42
-1.25118760271146
0
ELLIPSE
5
103
100
AcDbEntity
8
1
62
256
6
ByLayer
370
18
48
1
60
0
100
AcDbEllipse
10
28.851864
20
13.402473
30
0
11
-0.244919138437121
21
2.36066737615064
31
0
210
0
220
0
230
1
40
0.796311
41
-2.42084415876632
42
-1.56563282528824
0
ELLIPSE
5
104
100
AcDbEntity
8
1
62
256
6
ByLayer
370
18
48
1
60
0
100
AcDbEllipse
10
28.851864
20
13.402473
30
0
11
-1.67589864627228
21
1.43101267968517
31
0
210
0
220
0
230
1
40
0.772193
41
-2.1983932260473
42
-1.34318189256655
0
ELLIPSE
5
105
100
AcDbEntity
8
1
62
256
6
ByLayer
370
18
48
1
60
0
100
AcDbEllipse
10
12.401319
20
7.129661
30
0
11
5.36591329077102
21
1.20705201044815
31
0
210
0
220
0
230
1
40
0.083175
41
1.9830114060476
42
2.42477914533364
0
ELLIPSE
5
106
100
AcDbEntity
8
1
62
256
6
ByLayer
370
18
48
1
60
0
100
AcDbEllipse
10
9.891708
20
5.09177
30
0
11
1.49832280026797
21
-1.3247749945546
31
0
210
0
220
0
230
1
40
0.754402
41
-2.12034306913166
42
-0.70766757487206
0
ELLIPSE
5
107
100
AcDbEntity
8
1
62
256
6
ByLayer
370
18
48
1
60
0
100
AcDbEllipse
10
9.508739
20
4.505349
30
0
11
-2.66344707798053
21
1.40123612193913
31
0
210
0
220
0
230
1
40
0.988643
41
0.699939923664615
42
1.75162898673008
0
ELLIPSE
5
108
100
AcDbEntity
8
1
62
256
6
ByLayer
370
18
48
1
60
0
100
AcDbEllipse
10
10.368793
20
14.245775
30
0
11
-3.82773442489086
21
0.907594688978548
31
0
210
0
220
0
230
1
40
0.449589
41
-0.758730297685896
42
-0.399114564336661
0
ELLIPSE
5
109
100
AcDbEntity
8
1
62
256
6
ByLayer
370
18
48
1
60
0
100
AcDbEllipse
10
7.671629
20
12.672166
30
0
11
-2.66344707797755
21
1.40123612192981
31
0
210
0
220
0
230
1
40
0.988643
41
-0.351749139402091
42
0.699939923664005
0
ELLIPSE
5
10A
100
AcDbEntity
8
1
62
256
6
ByLayer
370
18
48
1
60
0
100
AcDbEllipse
10
10.783866
20
14.319998
30
0
11
-5.40555265854456
21
-1.0305114593791
31
0
210
0
220
0
230
1
40
0.153994
41
0.548524150484785
42
0.601516459386612
0
ELLIPSE
5
10B
100
AcDbEntity
8
1
62
256
6
ByLayer
370
18
48
1
60
0
100
AcDbEllipse
10
12.205903
20
6.078959
30
0
11
-2.40333798685801
21
-3.82847615128511
31
0
210
0
220
0
230
1
40
0.535969
41
0.120157045490302
42
0.479772778842711
0
ELLIPSE
5
10C
100
AcDbEntity
8
1
62
256
6
ByLayer
370
18
48
1
60
0
100
AcDbEllipse
10
10.454333
20
16.216694
30
0
11
-3.45654390318259
21
-0.579964293014385
31
0
210
0
220
0
230
1
40
0.288972
41
-0.110851984962743
42
0.612366121441171
0
ELLIPSE
5
10D
100
AcDbEntity
8
1
62
256
6
ByLayer
370
18
48
1
60
0
100
AcDbEllipse
10
11.26406
20
12.185309
30
0
11
5.36591329077102
21
1.20705201044815
31
0
210
0
220
0
230
1
40
0.083175
41
1.98301140604761
42
2.42477914533362
0
ELLIPSE
5
10E
100
AcDbEntity
8
1
62
256
6
ByLayer
370
18
48
1
60
0
100
AcDbEllipse
10
5.725496
20
1.148668
30
0
11
6.82934418825403
21
1.53624801329765
31
0
210
0
220
0
230
1
40
0.083175
41
-0.812513867698229
42
-0.797732830958245
0
ELLIPSE
5
10F
100
AcDbEntity
8
1
62
256
6
ByLayer
370
18
48
1
60
0
100
AcDbEllipse
10
13.370377
20
3.253511
30
0
11
-3.36435260976227
21
-0.985138713412329
31
0
210
0
220
0
230
1
40
0.454664
41
-0.625392807794304
42
0.0978252986101742
0
ELLIPSE
5
110
100
AcDbEntity
8
1
62
256
6
ByLayer
370
18
48
1
60
0
100
AcDbEllipse
10
12.881512
20
4.994973
30
0
11
-5.32236391168997
21
-1.39900139767845
31
0
210
0
220
0
230
1
40
0.320139
41
-0.607907422719684
42
-0.554915113883819
0
ELLIPSE
5
111
100
AcDbEntity
8
1
62
256
6
ByLayer
370
18
48
1
60
0
100
AcDbEllipse
10
13.544872
20
11.300683
30
0
11
0.296581257676342
21
-0.304408537322985
31
0
210
0
220
0
230
1
40
0.987534
41
-0.403396498438432
42
1.38434783954987
0
ELLIPSE
5
112
100
AcDbEntity
8
1
62
256
6
ByLayer
370
18
48
1
60
0
100
AcDbEllipse
10
16.564015
20
10.323105
30
0
11
0.296581257676342
21
-0.304408537322985
31
0
210
0
220
0
230
1
40
0.987534
41
2.73819615515133
42
-1.75724481403993
0
ELLIPSE
5
113
100
AcDbEntity
8
1
62
256
6
ByLayer
370
18
48
1
60
0
100
AcDbEllipse
10
16.035643
20
11.694296
30
0
11
0.296581257676342
21
-0.304408537322985
31
0
210
0
220
0
230
1
40
0.987534
41
-2.49779160083167
42
-0.710047262843343
0
ELLIPSE
5
114
100
AcDbEntity
8
1
62
256
6
ByLayer
370
18
48
1
60
0
100
AcDbEllipse
10
15.054444
20
10.811894
30
0
11
-1.60502798271903
21
1.6473873784538
31
0
210
0
220
0
230
1
40
0.987534
41
0
42
6.28318530717959
0
ELLIPSE
5
115
100
AcDbEntity
8
1
62
256
6
ByLayer
370
18
48
1
60
0
100
AcDbEllipse
10
15.402426
20
9.264951
30
0
11
0.296581257676342
21
-0.304408537322985
31
0
210
0
220
0
230
1
40
0.987534
41
1.69099860395469
42
-2.8044423652365
0
ELLIPSE
5
116
100
AcDbEntity
8
1
62
256
6
ByLayer
370
18
48
1
60
0
100
AcDbEllipse
10
16.27086
20
11.071177
30
0
11
-0.265178536275319
21
0.272177045135845
31
0
210
0
220
0
230
1
40
0.987534
41
2.7381961551514
42
-0.710047262843258
0
ELLIPSE
5
117
100
AcDbEntity
8
1
62
256
6
ByLayer
370
18
48
1
60
0
100
AcDbEllipse
10
16.216034
20
11.870048
30
0
11
0.296581257676342
21
-0.304408537322985
31
0
210
0
220
0
230
1
40
0.987534
41
-2.49779160083164
42
-0.710047262843393
0
ELLIPSE
5
118
100
AcDbEntity
8
1
62
256
6
ByLayer
370
18
48
1
60
0
100
AcDbEllipse
10
13.838027
20
10.552611
30
0
11
-0.265178536275319
21
0.272177045135845
31
0
210
0
220
0
230
1
40
0.987534
41
-0.403396498438427
42
2.4315453907464
0
ELLIPSE
5
119
100
AcDbEntity
8
1
62
256
6
ByLayer
370
18
48
1
60
0
100
AcDbEllipse
10
13.892854
20
9.75374
30
0
11
0.296581257676342
21
-0.304408537322985
31
0
210
0
220
0
230
1
40
0.987534
41
0.643801052758158
42
2.43154539074657
0
ELLIPSE
5
11A
100
AcDbEntity
8
1
62
256
6
ByLayer
370
18
48
1
60
0
100
AcDbEllipse
10
15.900353
20
9.884845
30
0
11
-0.265178536275319
21
0.272177045135845
31
0
210
0
220
0
230
1
40
0.987534
41
1.69099860395471
42
-1.75724481403983
0
ELLIPSE
5
11B
100
AcDbEntity
8
1
62
256
6
ByLayer
370
18
48
1
60
0
100
AcDbEllipse
10
15.424952
20
11.998226
30
0
11
-0.265178536275319
21
0.272177045135845
31
0
210
0
220
0
230
1
40
0.987534
41
-2.49779160083162
42
0.337150288353362
0
ELLIPSE
5
11C
100
AcDbEntity
8
1
62
256
6
ByLayer
370
18
48
1
60
0
100
AcDbEllipse
10
14.971685
20
10.731263
30
0
11
-2.7913530134244
21
2.86502152774573
31
0
210
0
220
0
230
1
40
0.987534
41
0
42
6.28318530717959
0
ELLIPSE
5
11D
100
AcDbEntity
8
1
62
256
6
ByLayer
370
18
48
1
60
0
100
AcDbEllipse
10
14.706462
20
12.358837
30
0
11
0.296581257676342
21
-0.304408537322985
31
0
210
0
220
0
230
1
40
0.987534
41
-1.45059404963508
42
0.337150288353236
0
ELLIPSE
5
11E
100
AcDbEntity
8
1
62
256
6
ByLayer
370
18
48
1
60
0
100
AcDbEllipse
10
14.208535
20
11.738943
30
0
11
-0.265178536275319
21
0.272177045135845
31
0
210
0
220
0
230
1
40
0.987534
41
-1.45059404963508
42
1.38434783954994
0
ELLIPSE
5
11F
100
AcDbEntity
8
1
62
256
6
ByLayer
370
18
48
1
60
0
100
AcDbEllipse
10
14.683936
20
9.625562
30
0
11
-0.265178536275319
21
0.272177045135845
31
0
210
0
220
0
230
1
40
0.987534
41
0.643801052758198
42
-2.80444236523644
0
ELLIPSE
5
120
100
AcDbEntity
8
1
62
256
6
ByLayer
370
18
48
1
60
0
100
AcDbEllipse
10
18.999394
20
4.614505
30
0
11
1.65314319602558
21
-1.69677243339755
31
0
210
0
220
0
230
1
40
0.987534
41
-1.32466675151839
42
0.246129575276505
0
ELLIPSE
5
121
100
AcDbEntity
8
1
62
256
6
ByLayer
370
18
48
1
60
0
100
AcDbEllipse
10
38.635649
20
19.12328
30
0
11
-0.554083573164744
21
0.568706773257528
31
0
210
0
220
0
230
1
40
0.987534
41
-2.89546307831325
42
-0.713801513320335
0
ELLIPSE
5
122
100
AcDbEntity
8
1
62
256
6
ByLayer
370
18
48
1
60
0
100
AcDbEllipse
10
30.116503
20
7.609661
30
0
11
-0.554083573164744
21
0.568706773257528
31
0
210
0
220
0
230
1
40
0.987534
41
2.42779114026947
42
2.90775668456792
0
ELLIPSE
5
123
100
AcDbEntity
8
1
62
256
6
ByLayer
370
18
48
1
60
0
100
AcDbEllipse
10
32.427111
20
8.981223
30
0
11
-0.554083573164744
21
0.568706773257528
31
0
210
0
220
0
230
1
40
0.987534
41
2.90775668456788
42
-2.89546307831329
0
ELLIPSE
5
124
100
AcDbEntity
8
1
62
256
6
ByLayer
370
18
48
1
60
0
100
AcDbEllipse
10
26.704973
20
18.49802
30
0
11
-0.554083573164744
21
0.568706773257528
31
0
210
0
220
0
230
1
40
0.987534
41
-0.713801513320348
42
-0.233835969021882
0
ELLIPSE
5
125
100
AcDbEntity
8
1
62
256
6
ByLayer
370
18
48
1
60
0
100
AcDbEllipse
10
24.394365
20
17.126458
30
0
11
-0.554083573164744
21
0.568706773257528
31
0
210
0
220
0
230
1
40
0.987534
41
-0.233835969021915
42
0.246129575276539
0
ELLIPSE
5
126
100
AcDbEntity
8
1
62
256
6
ByLayer
370
18
48
1
60
0
100
AcDbEllipse
10
25.108941
20
17.129081
30
0
11
-1.10781822720281
21
1.13705541882409
31
0
210
0
220
0
230
1
40
0.987534
41
-0.713801513320381
42
0.246129575276509
0
ELLIPSE
5
127
100
AcDbEntity
8
1
62
256
6
ByLayer
370
18
48
1
60
0
100
AcDbEllipse
10
30.638648
20
7.932326
30
0
11
-1.10781822720281
21
1.13705541882409
31
0
210
0
220
0
230
1
40
0.987534
41
2.42779114026949
42
-2.89546307831325
0
POINT
5
6C
100
AcDbEntity
8
2
62
256
6
ByLayer
370
18
48
1
60
0
100
AcDbPoint
10
39.424798
20
19.9125
30
0
39
0
210
0
220
0
230
1
50
360
0
POINT
5
6E
100
AcDbEntity
8
80
62
256
6
ByLayer
370
18
48
1
60
0
100
AcDbPoint
10
0
20
0
30
0
39
0
210
0
220
0
230
1
50
360
0
POINT
5
70
100
AcDbEntity
8
81
62
256
6
ByLayer
370
18
48
1
60
0
100
AcDbPoint
10
39.424798
20
19.9125
30
0
39
0
210
0
220
0
230
1
50
360
0
SPLINE
5
128
100
AcDbEntity
8
1
62
256
6
ByLayer
370
18
48
1
60
0
100
AcDbSpline
70
4
71
3
72
8
73
4
40
0
40
0
40
0
40
0
40
1
40
1
40
1
40
1
41
1
10
6.23706121328382
20
15.3084517219168
30
0
41
1
10
6.03723341192364
20
15.1920370513023
30
0
41
1
10
5.83724306924557
20
15.0546170753795
30
0
41
1
10
5.64856028696732
20
14.8948493692087
30
0
0
SPLINE
5
129
100
AcDbEntity
8
1
62
256
6
ByLayer
370
18
48
1
60
0
100
AcDbSpline
70
4
71
3
72
8
73
4
40
0
40
0
40
0
40
0
40
1
40
1
40
1
40
1
41
1
10
29.3504878171111
20
15.10307735662
30
0
41
1
10
29.2733742897663
20
15.1429392276386
30
0
41
1
10
29.1961653073465
20
15.178868140111
30
0
41
1
10
29.1202686079655
20
15.2103687434874
30
0
0
SPLINE
5
12A
100
AcDbEntity
8
1
62
256
6
ByLayer
370
18
48
1
60
0
100
AcDbSpline
70
4
71
3
72
8
73
4
40
0
40
0
40
0
40
0
40
1
40
1
40
1
40
1
41
1
10
10.8884090785953
20
7.16863412193501
30
0
41
1
10
10.6350125572704
20
7.1567450511769
30
0
41
1
10
10.3923497373637
20
7.11633483407491
30
0
41
1
10
10.1595330394725
20
7.05499382100135
30
0
0
SPLINE
5
12B
100
AcDbEntity
8
1
62
256
6
ByLayer
370
18
48
1
60
0
100
AcDbSpline
70
4
71
2
72
6
73
3
40
0
40
0
40
0
40
1
40
1
40
1
41
0.937301687603847
10
17.6164254072273
20
7.15671205831388
30
0
41
0.930554446910518
10
17.8264209966129
20
5.67668339600868
30
0
41
1.02805999725225
10
17.7790590058251
20
4.92731615734413
30
0
0
SPLINE
5
12C
100
AcDbEntity
8
1
62
256
6
ByLayer
370
18
48
1
60
0
100
AcDbSpline
70
4
71
3
72
10
73
6
40
0
40
0
40
0
40
0
40
0.5
40
0.5
40
1
40
1
40
1
40
1
41
1
10
10.0658561671863
20
2.12368265604312
30
0
41
1
10
9.63379230755163
20
2.2760352899854
30
0
41
1
10
9.33214198965186
20
2.5451486286824
30
0
41
1
10
8.6635398957261
20
3.37687766296313
30
0
41
1
10
8.30921235198434
20
4.01128351056468
30
0
41
1
10
8.12182218582734
20
4.70363253196626
30
0
0
SPLINE
5
12D
100
AcDbEntity
8
1
62
256
6
ByLayer
370
18
48
1
60
0
100
AcDbSpline
70
4
71
3
72
8
73
4
40
0
40
0
40
0
40
0
40
1
40
1
40
1
40
1
41
1
10
14.8107275366891
20
6.46525277310417
30
0
41
1
10
13.9090881207866
20
6.27306585066222
30
0
41
1
10
12.9899682958084
20
6.43084152795626
30
0
41
1
10
12.2168002977399
20
6.86922866534678
30
0
0
SPLINE
5
12E
100
AcDbEntity
8
1
62
256
6
ByLayer
370
18
48
1
60
0
100
AcDbSpline
70
4
71
3
72
15
73
11
40
0
40
0
40
0
40
0
40
0.322163720426461
40
0.322163720426461
40
0.644833452600231
40
0.644833452600231
40
0.912233455904558
40
0.912233455904558
40
0.912233455904558
40
1
40
1
40
1
40
1
41
1
10
15.8392281152825
20
15.0571890037006
30
0
41
1
10
16.3236178203965
20
15.0666443417324
30
0
41
1
10
16.8162760477525
20
14.9924154844211
30
0
41
1
10
17.7382788061835
20
14.7026451183118
30
0
41
1
10
18.1808390470542
20
14.4826811385715
30
0
41
1
10
18.8895785352473
20
13.9596359626424
30
0
41
1
10
19.1808862663224
20
13.6699391416601
30
0
41
1
10
19.4141334411518
20
13.3418948220323
30
0
41
1
10
19.4916470346595
20
13.2328778786856
30
0
41
1
10
19.5632710736237
20
13.1191360931359
30
0
41
1
10
19.6279806479965
20
13.00184005365
30
0
0
SPLINE
5
12F
100
AcDbEntity
8
1
62
256
6
ByLayer
370
18
48
1
60
0
100
AcDbSpline
70
4
71
3
72
11
73
7
40
0
40
0
40
0
40
0
40
0.423407924946042
40
0.740963868655574
40
0.89974184051034
40
1
40
1
40
1
40
1
41
1.02805999725224
10
15.1206975515332
20
16.7449817888045
30
0
41
1.02767136955277
10
15.980568958846
20
16.8259855805525
30
0
41
1.02349884684923
10
19.1957187682302
20
16.3129171389511
30
0
41
1.01876555595691
10
23.2769202164601
20
15.2337809962704
30
0
41
1.01635405201144
10
24.8188987817617
20
14.8143789921052
30
0
41
1.01722454828215
10
25.3088845259022
20
14.8553930208114
30
0
41
1.0177432798788
10
25.510605875708
20
14.8801022794869
30
0
0
SPLINE
5
130
100
AcDbEntity
8
1
62
256
6
ByLayer
370
18
48
1
60
0
100
AcDbSpline
70
4
71
3
72
10
73
6
40
0
40
0
40
0
40
0
40
0.967465556419478
40
0.967465556419478
40
1
40
1
40
1
40
1
41
1
10
26.8854045057173
20
13.7500861493778
30
0
41
1
10
27.2771991467395
20
13.5989035305189
30
0
41
1
10
27.6664949427436
20
13.4573940468234
30
0
41
1
10
28.0626225256135
20
13.3267138697026
30
0
41
1
10
28.0755146958668
20
13.322476207272
30
0
41
1
10
28.0883997289384
20
13.3182565842081
30
0
0
SPLINE
5
131
100
AcDbEntity
8
1
62
256
6
ByLayer
370
18
48
1
60
0
100
AcDbSpline
70
4
71
3
72
8
73
4
40
0
40
0
40
0
40
0
40
1
40
1
40
1
40
1
41
1
10
8.25687205695908
20
4.81979206227666
30
0
41
1
10
8.91900206299806
20
5.36433474078814
30
0
41
1
10
9.87643108657818
20
6.23632766335945
30
0
41
1
10
10.8884090785953
20
7.16863412193501
30
0
0
SPLINE
5
132
100
AcDbEntity
8
1
62
256
6
ByLayer
370
18
48
1
60
0
100
AcDbSpline
70
4
71
3
72
20
73
16
40
0
40
0
40
0
40
0
40
0.110576036200127
40
0.110576036200127
40
0.197179369122805
40
0.197179369122805
40
0.284291117387369
40
0.284291117387369
40
0.365904217918087
40
0.365904217918087
40
0.497270233392076
40
0.497270233392076
40
0.733496364826707
40
0.733496364826707
40
1
40
1
40
1
40
1
41
1
10
25.5106058757919
20
14.8801022794971
30
0
41
1
10
25.4946618871273
20
14.8460655780456
30
0
41
1
10
25.4864758056396
20
14.8060310385163
30
0
41
1
10
25.4942960805075
20
14.7241100302728
30
0
41
1
10
25.5057947174552
20
14.683631606261
30
0
41
1
10
25.5467585041824
20
14.5984587710847
30
0
41
1
10
25.5769482551384
20
14.5526563103836
30
0
41
1
10
25.6481174386163
20
14.4659909916949
30
0
41
1
10
25.6889491413075
20
14.4240276163384
30
0
41
1
10
25.8023924582504
20
14.3208593378754
30
0
41
1
10
25.8809431636452
20
14.2615203788507
30
0
41
1
10
26.1023137166155
20
14.1124872593516
30
0
41
1
10
26.2511056480216
20
14.0319569488234
30
0
41
1
10
26.5609521541749
20
13.8810790699118
30
0
41
1
10
26.7245511735453
20
13.8121234203165
30
0
41
1
10
26.8854045057173
20
13.7500861493778
30
0
0
SPLINE
5
133
100
AcDbEntity
8
1
62
256
6
ByLayer
370
18
48
1
60
0
100
AcDbSpline
70
4
71
3
72
8
73
4
40
0
40
0
40
0
40
0
40
1
40
1
40
1
40
1
41
1
10
24.6887018449254
20
17.1772533791916
30
0
41
1
10
24.7951776871313
20
17.178754082473
30
0
41
1
10
24.901995448891
20
17.1777470125125
30
0
41
1
10
25.00902124398
20
17.1744486947775
30
0
0
SPLINE
5
134
100
AcDbEntity
8
1
62
256
6
ByLayer
370
18
48
1
60
0
100
AcDbSpline
70
4
71
3
72
10
73
6
40
0
40
0
40
0
40
0
40
0.5
40
0.5
40
1
40
1
40
1
40
1
41
1
10
26.4005511442221
20
10.923877441998
30
0
41
1
10
26.7540308606606
20
10.5296245571855
30
0
41
1
10
27.1366896207772
20
10.1929834361965
30
0
41
1
10
28.0780443958047
20
9.86727313177784
30
0
41
1
10
28.6489806236004
20
9.90680139366677
30
0
41
1
10
29.2365598951618
20
10.3404185137634
30
0
0
SPLINE
5
135
100
AcDbEntity
8
1
62
256
6
ByLayer
370
18
48
1
60
0
100
AcDbSpline
70
4
71
2
72
6
73
3
40
0
40
0
40
0
40
1
40
1
40
1
41
1.02805999725224
10
17.7790590058252
20
4.92731615734413
30
0
41
1.02805999725224
10
17.7343404584956
20
4.2197738059352
30
0
41
1.02805999725224
10
17.6896219111661
20
3.51223145452624
30
0
0
SPLINE
5
136
100
AcDbEntity
8
1
62
256
6
ByLayer
370
18
48
1
60
0
100
AcDbSpline
70
4
71
3
72
8
73
4
40
0
40
0
40
0
40
0
40
1
40
1
40
1
40
1
41
1
10
27.0856488222645
20
7.94286345585215
30
0
41
1
10
26.9874185771051
20
7.90706142176481
30
0
41
1
10
26.8883866872756
20
7.87345663298237
30
0
41
1
10
26.7885837652281
20
7.84229166447778
30
0
0
SPLINE
5
137
100
AcDbEntity
8
1
62
256
6
ByLayer
370
18
48
1
60
0
100
AcDbSpline
70
4
71
3
72
8
73
4
40
0
40
0
40
0
40
0
40
1
40
1
40
1
40
1
41
1
10
9.7200624521887
20
12.3624837958484
30
0
41
1
10
9.48850917537573
20
12.2534912407121
30
0
41
1
10
9.25509129305027
20
12.1719829325501
30
0
41
1
10
9.02227459515905
20
12.1106419194766
30
0
0
SPLINE
5
138
100
AcDbEntity
8
1
62
256
6
ByLayer
370
18
48
1
60
0
100
AcDbSpline
70
4
71
3
72
10
73
6
40
0
40
0
40
0
40
0
40
0.655488757716267
40
0.655488757716267
40
1
40
1
40
1
40
1
41
1
10
10.514637716051
20
1.79270668362659
30
0
41
1
10
10.1630451845277
20
1.68399062045893
30
0
41
1
10
9.75907015392744
20
1.60297165899445
30
0
41
1
10
9.09991791450949
20
1.59629672748253
30
0
41
1
10
8.86245588750819
20
1.61552627882375
30
0
41
1
10
8.62502250312525
20
1.66307639926873
30
0
0
SPLINE
5
139
100
AcDbEntity
8
1
62
256
6
ByLayer
370
18
48
1
60
0
100
AcDbSpline
70
4
71
3
72
8
73
4
40
0
40
0
40
0
40
0
40
1
40
1
40
1
40
1
41
1
10
9.7200624521887
20
12.3624837958484
30
0
41
1
10
8.41718864600546
20
12.7183956425922
30
0
41
1
10
7.21469513863769
20
12.9735005430501
30
0
41
1
10
6.41690721176263
20
12.9993002623629
30
0
0
SPLINE
5
13A
100
AcDbEntity
8
1
62
256
6
ByLayer
370
18
48
1
60
0
100
AcDbSpline
70
4
71
3
72
8
73
4
40
0
40
0
40
0
40
0
40
1
40
1
40
1
40
1
41
1.01923193622652
10
27.0856875266345
20
7.94289870025099
30
0
41
1.02059843499303
10
27.5060772101814
20
8.32570864142472
30
0
41
1.02233811057541
10
28.0146063984571
20
8.81903865245042
30
0
41
1.02417041321379
10
28.4982175514012
20
9.35181604274599
30
0
0
SPLINE
5
13B
100
AcDbEntity
8
1
62
256
6
ByLayer
370
18
48
1
60
0
100
AcDbSpline
70
4
71
3
72
10
73
6
40
0
40
0
40
0
40
0
40
0.5
40
0.5
40
1
40
1
40
1
40
1
41
1
10
27.9853905127774
20
15.9024542484341
30
0
41
1
10
27.2617422520261
20
16.1257101813173
30
0
41
1
10
26.6919653297833
20
16.0483753518617
30
0
41
1
10
25.9265956863825
20
15.6104006712631
30
0
41
1
10
25.6896909701209
20
15.2625063386197
30
0
41
1
10
25.5106058757906
20
14.880102279497
30
0
0
SPLINE
5
13C
100
AcDbEntity
8
1
62
256
6
ByLayer
370
18
48
1
60
0
100
AcDbSpline
70
4
71
3
72
8
73
4
40
0
40
0
40
0
40
0
40
1
40
1
40
1
40
1
41
1
10
29.9774783896314
20
11.3996685246036
30
0
41
1
10
30.0341547914071
20
11.4536111742773
30
0
41
1
10
30.0899390663861
20
11.5129251522605
30
0
41
1
10
30.1437371104059
20
11.5767115588407
30
0
0
SPLINE
5
13D
100
AcDbEntity
8
1
62
256
6
ByLayer
370
18
48
1
60
0
100
AcDbSpline
70
4
71
3
72
11
73
7
40
0
40
0
40
0
40
0
40
0.564783939443773
40
0.564783939443773
40
0.564783939443773
40
1
40
1
40
1
40
1
41
1
10
24.6887018449254
20
17.1772533791916
30
0
41
1
10
24.321025706653
20
17.1720712385692
30
0
41
1
10
23.9019125062899
20
17.1813587126287
30
0
41
1
10
23.4695992793189
20
17.2329117082217
30
0
41
1
10
23.1337153827009
20
17.2729655857388
30
0
41
1
10
22.7847741415926
20
17.3311191574029
30
0
41
1
10
22.4367105409892
20
17.3971562829909
30
0
0
SPLINE
5
13E
100
AcDbEntity
8
1
62
256
6
ByLayer
370
18
48
1
60
0
100
AcDbSpline
70
4
71
3
72
8
73
4
40
0
40
0
40
0
40
0
40
1
40
1
40
1
40
1
41
1
10
6.26798346277462
20
12.9380043477138
30
0
41
1
10
6.26283936664731
20
12.9608722718295
30
0
41
1
10
6.25821331588378
20
12.9837435014275
30
0
41
1
10
6.25408134313267
20
13.0066180908154
30
0
0
SPLINE
5
13F
100
AcDbEntity
8
1
62
256
6
ByLayer
370
18
48
1
60
0
100
AcDbSpline
70
4
71
3
72
12
73
8
40
0
40
0
40
0
40
0
40
0.108853988607133
40
0.502629237162306
40
0.699516861439892
40
0.896404485717478
40
1
40
1
40
1
40
1
41
1.02441262532206
10
20.1556700328617
20
10.656012815771
30
0
41
1.02394775682001
10
20.4818445245042
20
10.7496945783191
30
0
41
1.02173322384668
10
22.0246525967467
20
11.1961509244515
30
0
41
1.01876555595691
10
24.1887567220221
20
11.8362225760055
30
0
41
1.01610930227499
10
25.6349477119278
20
12.2736661261615
30
0
41
1.01814069306376
10
26.3245994662494
20
12.3836916678545
30
0
41
1.02005196006971
10
26.9348845585473
20
12.4970923107564
30
0
41
1.02076673234773
10
27.157531804651
20
12.5403524531067
30
0
0
SPLINE
5
140
100
AcDbEntity
8
1
62
256
6
ByLayer
370
18
48
1
60
0
100
AcDbSpline
70
4
71
3
72
8
73
4
40
0
40
0
40
0
40
0
40
1
40
1
40
1
40
1
41
1
10
7.72221080298755
20
15.167973980747
30
0
41
1
10
8.42224410023584
20
14.8855607687371
30
0
41
1
10
9.51542353594272
20
14.0471913599604
30
0
41
1
10
10.6575462075431
20
13.0267903544786
30
0
0
SPLINE
5
141
100
AcDbEntity
8
1
62
256
6
ByLayer
370
18
48
1
60
0
100
AcDbSpline
70
4
71
3
72
8
73
4
40
0
40
0
40
0
40
0
40
1
40
1
40
1
40
1
41
1
10
10.7950743028049
20
13.189468676566
30
0
41
1
10
10.7521870815346
20
13.1340416781514
30
0
41
1
10
10.7063662655188
20
13.0797700925337
30
0
41
1
10
10.6575462075497
20
13.0267903544842
30
0
0
SPLINE
5
142
100
AcDbEntity
8
1
62
256
6
ByLayer
370
18
48
1
60
0
100
AcDbSpline
70
4
71
3
72
12
73
8
40
0
40
0
40
0
40
0
40
0.108854002841681
40
0.502629245107339
40
0.699516866240167
40
0.896404487372996
40
1
40
1
40
1
40
1
41
1.0244126255267
10
19.6279804991531
20
13.0018400360396
30
0
41
1.02394775696077
10
19.9662262945512
20
13.0418593979417
30
0
41
1.02173322391444
10
21.5689175434608
20
13.2221071187939
30
0
41
1.01876555595691
10
23.8342428575115
20
13.4122032635466
30
0
41
1.01610930227499
10
25.3593209957283
20
13.498956376247
30
0
41
1.01814069306376
10
26.0448758161881
20
13.627194713796
30
0
41
1.0200519600697
10
26.659981974782
20
13.7191634519342
30
0
41
1.02076673234771
10
26.8854045056993
20
13.7500861493754
30
0
0
SPLINE
5
143
100
AcDbEntity
8
1
62
256
6
ByLayer
370
18
48
1
60
0
100
AcDbSpline
70
4
71
3
72
8
73
4
40
0
40
0
40
0
40
0
40
1
40
1
40
1
40
1
41
1.02417048357497
10
26.8972324223299
20
16.4690499566402
30
0
41
1.02233815524058
10
26.2291402275934
20
16.7563452122935
30
0
41
1.02059845272928
10
25.5553435843302
20
16.9976652847446
30
0
41
1.01923193651505
10
25.0090716529126
20
17.1744323831127
30
0
0
SPLINE
5
144
100
AcDbEntity
8
1
62
256
6
ByLayer
370
18
48
1
60
0
100
AcDbSpline
70
4
71
3
72
10
73
6
40
0
40
0
40
0
40
0
40
0.5
40
0.5
40
1
40
1
40
1
40
1
41
1
10
14.5412210060225
20
17.5083526782615
30
0
41
1
10
15.8484807143176
20
17.7741310716751
30
0
41
1
10
17.1637968960714
20
17.8291539053983
30
0
41
1
10
19.8001591741052
20
17.7893062790682
30
0
41
1
10
21.1300767168262
20
17.645060234436
30
0
41
1
10
22.4367105409888
20
17.397156282991
30
0
0
SPLINE
5
145
100
AcDbEntity
8
1
62
256
6
ByLayer
370
18
48
1
60
0
100
AcDbSpline
70
4
71
3
72
8
73
4
40
0
40
0
40
0
40
0
40
1
40
1
40
1
40
1
41
1
10
15.8392281000366
20
15.0571890033734
30
0
41
1
10
15.549548183108
20
15.0509718571008
30
0
41
1
10
15.2651396258585
20
15.0186273988714
30
0
41
1
10
14.9864184888315
20
14.9592172215877
30
0
0
SPLINE
5
146
100
AcDbEntity
8
1
62
256
6
ByLayer
370
18
48
1
60
0
100
AcDbSpline
70
4
71
3
72
12
73
8
40
0
40
0
40
0
40
0
40
0.466938972358623
40
0.466938972358623
40
0.928803236876552
40
0.928803236876552
40
1
40
1
40
1
40
1
41
1
10
10.6575462075497
20
13.0267903544842
30
0
41
1
10
10.542586380134
20
12.9020354525841
30
0
41
1
10
10.4035444074827
20
12.7806361174761
30
0
41
1
10
10.1098527337369
20
12.5697546054484
30
0
41
1
10
9.95168853495602
20
12.4767039398781
30
0
41
1
10
9.76932142350773
20
12.3859897314579
30
0
41
1
10
9.74469996856089
20
12.3740807203169
30
0
41
1
10
9.7200624521887
20
12.3624837958484
30
0
0
SPLINE
5
147
100
AcDbEntity
8
1
62
256
6
ByLayer
370
18
48
1
60
0
100
AcDbSpline
70
4
71
3
72
10
73
6
40
0
40
0
40
0
40
0
40
0.5
40
0.5
40
1
40
1
40
1
40
1
41
1
10
24.8148658703544
20
6.82513852493074
30
0
41
1
10
23.7393331644425
20
6.07195578999472
30
0
41
1
10
22.6096767322324
20
5.4077977505298
30
0
41
1
10
20.2213661766498
20
4.29166181804436
30
0
41
1
10
18.9874890688027
20
3.80170478241752
30
0
41
1
10
17.6896219111661
20
3.51223145452624
30
0
0
SPLINE
5
148
100
AcDbEntity
8
1
62
256
6
ByLayer
370
18
48
1
60
0
100
AcDbSpline
70
4
71
2
72
6
73
3
40
0
40
0
40
0
40
1
40
1
40
1
41
1.02805999725224
10
15.1206975515332
20
16.7449817888045
30
0
41
0.93055444607248
10
15.4275630996087
20
16.3407338029405
30
0
41
0.937301687719828
10
15.8392281152815
20
15.0571890037036
30
0
0
SPLINE
5
149
100
AcDbEntity
8
1
62
256
6
ByLayer
370
18
48
1
60
0
100
AcDbSpline
70
4
71
3
72
8
73
4
40
0
40
0
40
0
40
0
40
1
40
1
40
1
40
1
41
1
10
17.6164253958872
20
7.15671208011162
30
0
41
1
10
17.3571284982417
20
7.04091369033978
30
0
41
1
10
17.0820389305494
20
6.94938904642399
30
0
41
1
10
16.8016579287935
20
6.88962506440606
30
0
0
SPLINE
5
14A
100
AcDbEntity
8
1
62
256
6
ByLayer
370
18
48
1
60
0
100
AcDbSpline
70
4
71
3
72
8
73
4
40
0
40
0
40
0
40
0
40
1
40
1
40
1
40
1
41
1
10
24.8148658703547
20
6.82513852493088
30
0
41
1
10
25.4796819423
20
7.29070129633231
30
0
41
1
10
26.1686112938939
20
7.64869590448978
30
0
41
1
10
26.7885837652282
20
7.84229166447787
30
0
0
SPLINE
5
14B
100
AcDbEntity
8
1
62
256
6
ByLayer
370
18
48
1
60
0
100
AcDbSpline
70
4
71
3
72
12
73
8
40
0
40
0
40
0
40
0
40
0.286978363858296
40
0.286978363858296
40
0.569998995185617
40
0.569998995185617
40
1
40
1
40
1
40
1
41
1
10
19.6279806479957
20
13.0018400536501
30
0
41
1
10
19.7410818260539
20
12.7968009422158
30
0
41
1
10
19.8377765446776
20
12.5817914814515
30
0
41
1
10
19.9933854112544
20
12.1440645288131
30
0
41
1
10
20.0533371850677
20
11.9199917979691
30
0
41
1
10
20.1574099485288
20
11.3517385352518
30
0
41
1
10
20.1781273138246
20
11.0003626854528
30
0
41
1
10
20.1556700328616
20
10.656012815771
30
0
0
SPLINE
5
14C
100
AcDbEntity
8
1
62
256
6
ByLayer
370
18
48
1
60
0
100
AcDbSpline
70
4
71
3
72
20
73
16
40
0
40
0
40
0
40
0
40
0.332873226652384
40
0.332873226652384
40
0.501657261698204
40
0.501657261698204
40
0.631212321676516
40
0.631212321676516
40
0.722542323637685
40
0.722542323637685
40
0.814765347404219
40
0.814765347404219
40
0.896421359038845
40
0.896421359038845
40
1
40
1
40
1
40
1
41
1
10
27.1575318046614
20
12.5403524531087
30
0
41
1
10
27.0049088557369
20
12.4045266592683
30
0
41
1
10
26.8527063376578
20
12.2554640708419
30
0
41
1
10
26.6374073451432
20
11.9962661574259
30
0
41
1
10
26.5666318730995
20
11.9018731111026
30
0
41
1
10
26.4544410032206
20
11.7208274369042
30
0
41
1
10
26.4092387445548
20
11.635883697737
30
0
41
1
10
26.3488590725283
20
11.4862583178911
30
0
41
1
10
26.3284241820057
20
11.4216667589717
30
0
41
1
10
26.3028693910457
20
11.2964267100061
30
0
41
1
10
26.2977489169501
20
11.2341794767378
30
0
41
1
10
26.3039425689452
20
11.1298802222073
30
0
41
1
10
26.3133854035976
20
11.0850640012626
30
0
41
1
10
26.3454055940331
20
10.9973522213007
30
0
41
1
10
26.371003556508
20
10.9568282752656
30
0
41
1
10
26.4005511442221
20
10.923877441998
30
0
0
SPLINE
5
14D
100
AcDbEntity
8
1
62
256
6
ByLayer
370
18
48
1
60
0
100
AcDbSpline
70
4
71
3
72
10
73
6
40
0
40
0
40
0
40
0
40
0.5
40
0.5
40
1
40
1
40
1
40
1
41
1
10
6.25408134313273
20
13.0066180908154
30
0
41
1
10
6.124762737938
20
13.7225255210464
30
0
41
1
10
6.18684668613162
20
14.376948936973
30
0
41
1
10
6.47464884710104
20
15.2558196461303
30
0
41
1
10
6.65572686824891
20
15.5226878273663
30
0
41
1
10
7.00046510173956
20
15.7507861421512
30
0
0
SPLINE
5
14E
100
AcDbEntity
8
1
62
256
6
ByLayer
370
18
48
1
60
0
100
AcDbSpline
70
4
71
3
72
8
73
4
40
0
40
0
40
0
40
0
40
1
40
1
40
1
40
1
41
1
10
10.7950743028049
20
13.1894686765659
30
0
41
1
10
11.3196451342562
20
13.8674185595849
30
0
41
1
10
12.0910884204098
20
14.3420696507413
30
0
41
1
10
12.9954880967273
20
14.5348449302858
30
0
0
SPLINE
5
14F
100
AcDbEntity
8
1
62
256
6
ByLayer
370
18
48
1
60
0
100
AcDbSpline
70
4
71
3
72
8
73
4
40
0
40
0
40
0
40
0
40
1
40
1
40
1
40
1
41
1
10
12.0201159201215
20
6.96952781139683
30
0
41
1
10
12.0873566517055
20
6.9388768841861
30
0
41
1
10
12.153067909803
20
6.90536500205053
30
0
41
1
10
12.2168002977399
20
6.86922866534678
30
0
0
SPLINE
5
150
100
AcDbEntity
8
1
62
256
6
ByLayer
370
18
48
1
60
0
100
AcDbSpline
70
4
71
3
72
8
73
4
40
0
40
0
40
0
40
0
40
1
40
1
40
1
40
1
41
1
10
8.10509325743476
20
4.77118818863838
30
0
41
1
10
8.11023735356207
20
4.74832026452265
30
0
41
1
10
8.11582036824075
20
4.72580740174669
30
0
41
1
10
8.12182218582734
20
4.70363253196629
30
0
0
SPLINE
5
151
100
AcDbEntity
8
1
62
256
6
ByLayer
370
18
48
1
60
0
100
AcDbSpline
70
4
71
3
72
12
73
8
40
0
40
0
40
0
40
0
40
0.471343086678517
40
0.471343086678517
40
0.892619726108232
40
0.892619726108232
40
1
40
1
40
1
40
1
41
1
10
10.8884090785953
20
7.16863412193501
30
0
41
1
10
11.0648334640121
20
7.17691174938906
30
0
41
1
10
11.2493040734863
20
7.16963450404239
30
0
41
1
10
11.5926275600801
20
7.11720178830407
30
0
41
1
10
11.7556629004185
20
7.07523091611299
30
0
41
1
10
11.9447420769308
20
7.0025033225279
30
0
41
1
10
11.982889663597
20
6.98649697952112
30
0
41
1
10
12.0201159201215
20
6.9695278113968
30
0
0
SPLINE
5
152
100
AcDbEntity
8
1
62
256
6
ByLayer
370
18
48
1
60
0
100
AcDbSpline
70
4
71
3
72
10
73
6
40
0
40
0
40
0
40
0
40
0.264715639145578
40
0.264715639145578
40
1
40
1
40
1
40
1
41
1
10
28.0883997289228
20
13.3182565842132
30
0
41
1
10
28.0057401376604
20
13.2542779042839
30
0
41
1
10
27.9232031123858
20
13.1888258783718
30
0
41
1
10
27.6119784020665
20
12.9368831005999
30
0
41
1
10
27.3841160085877
20
12.7420913767414
30
0
41
1
10
27.1575318046614
20
12.5403524531087
30
0
0
SPLINE
5
153
100
AcDbEntity
8
1
62
256
6
ByLayer
370
18
48
1
60
0
100
AcDbSpline
70
4
71
3
72
8
73
4
40
0
40
0
40
0
40
0
40
1
40
1
40
1
40
1
41
1
10
28.498297198686
20
9.35190378796202
30
0
41
1
10
28.744525284814
20
9.68088259089009
30
0
41
1
10
28.9910452238159
20
10.0109632008502
30
0
41
1
10
29.2365598951618
20
10.3404185137635
30
0
0
SPLINE
5
154
100
AcDbEntity
8
1
62
256
6
ByLayer
370
18
48
1
60
0
100
AcDbSpline
70
4
71
3
72
8
73
4
40
0
40
0
40
0
40
0
40
1
40
1
40
1
40
1
41
1
10
26.8973168417543
20
16.4690136540572
30
0
41
1
10
27.2592871481961
20
16.2834639092583
30
0
41
1
10
27.622611412928
20
16.0942944139175
30
0
41
1
10
27.9853905128007
20
15.9024542484269
30
0
0
SPLINE
5
155
100
AcDbEntity
8
1
62
256
6
ByLayer
370
18
48
1
60
0
100
AcDbSpline
70
4
71
1
72
4
73
2
40
0
40
0
40
1
40
1
41
1
10
15.1206975515332
20
16.7449817888045
30
0
41
1
10
14.5412210060225
20
17.5083526782615
30
0
0
SPLINE
5
156
100
AcDbEntity
8
1
62
256
6
ByLayer
370
18
48
1
60
0
100
AcDbSpline
70
4
71
3
72
15
73
11
40
0
40
0
40
0
40
0
40
0.227604479949748
40
0.227604479949748
40
0.479423709218441
40
0.479423709218441
40
0.785574270382839
40
0.785574270382839
40
0.785574270382839
40
1
40
1
40
1
40
1
41
1
10
20.1556700328616
20
10.656012815771
30
0
41
1
10
20.1335876466887
20
10.3176447657076
30
0
41
1
10
20.0602051512716
20
9.97527485226095
30
0
41
1
10
19.8173876240954
20
9.29435812579146
30
0
41
1
10
19.6365799559594
20
8.95184329963286
30
0
41
1
10
19.1518053048134
20
8.26534374738731
30
0
41
1
10
18.8230474138066
20
7.92683173114867
30
0
41
1
10
18.454847582464
20
7.6503572831833
30
0
41
1
10
18.19537453278
20
7.45552376598232
30
0
41
1
10
17.9126139394681
20
7.28883231848644
30
0
41
1
10
17.6164254036431
20
7.15671208357529
30
0
0
SPLINE
5
157
100
AcDbEntity
8
1
62
256
6
ByLayer
370
18
48
1
60
0
100
AcDbSpline
70
4
71
3
72
11
73
7
40
0
40
0
40
0
40
0
40
0.423407924939467
40
0.740963868644068
40
0.899741840496368
40
1
40
1
40
1
40
1
41
1.02805999725225
10
17.7790590058251
20
4.92731615734413
30
0
41
1.02767136955277
10
18.5916732791545
20
5.21840011241176
30
0
41
1.02349884684923
10
21.2659340449014
20
7.10983759365681
30
0
41
1.01876555595691
10
24.5055271916744
20
9.77204576012766
30
0
41
1.01635405201137
10
25.7333499711291
20
10.7492138226647
30
0
41
1.01722454828226
10
26.2032858127558
20
10.8793590880909
30
0
41
1.01774327987904
10
26.4005511442224
20
10.9238774419981
30
0
0
SPLINE
5
158
100
AcDbEntity
8
1
62
256
6
ByLayer
370
18
48
1
60
0
100
AcDbSpline
70
4
71
3
72
8
73
4
40
0
40
0
40
0
40
0
40
1
40
1
40
1
40
1
41
1
10
12.0201159201215
20
6.9695278113968
30
0
41
1
10
11.4372628480111
20
5.50000261896145
30
0
41
1
10
10.8427532887126
20
4.12917323185155
30
0
41
1
10
10.3805722572795
20
3.35030834928668
30
0
0
LINE
5
72
100
AcDbEntity
8
1
62
256
6
ByLayer
370
18
48
1
60
0
100
AcDbLine
10
25.006728
20
18.704817
30
0
11
25.546631
21
18.733112
31
0
39
0
210
0
220
0
230
1
0
LINE
5
74
100
AcDbEntity
8
1
62
256
6
ByLayer
370
18
48
1
60
0
100
AcDbLine
10
15.105845
20
9.569359
30
0
11
14.925454
21
9.393607
31
0
39
0
210
0
220
0
230
1
0
LINE
5
75
100
AcDbEntity
8
1
62
256
6
ByLayer
370
18
48
1
60
0
100
AcDbLine
10
13.661063
20
10.820522
30
0
11
13.841454
21
10.996274
31
0
39
0
210
0
220
0
230
1
0
LINE
5
76
100
AcDbEntity
8
1
62
256
6
ByLayer
370
18
48
1
60
0
100
AcDbLine
10
16.267434
20
10.627514
30
0
11
16.087044
21
10.451761
31
0
39
0
210
0
220
0
230
1
0
LINE
5
77
100
AcDbEntity
8
1
62
256
6
ByLayer
370
18
48
1
60
0
100
AcDbLine
10
14.822653
20
11.878677
30
0
11
15.003043
21
12.054429
31
0
39
0
210
0
220
0
230
1
0
LINE
5
78
100
AcDbEntity
8
1
62
256
6
ByLayer
370
18
48
1
60
0
100
AcDbLine
10
17.575211
20
7.683244
30
0
11
17.763038
21
7.866242
31
0
39
0
210
0
220
0
230
1
0
LINE
5
79
100
AcDbEntity
8
1
62
256
6
ByLayer
370
18
48
1
60
0
100
AcDbLine
10
12.180332
20
13.596285
30
0
11
11.992505
21
13.413287
31
0
39
0
210
0
220
0
230
1
0
LINE
5
7A
100
AcDbEntity
8
1
62
256
6
ByLayer
370
18
48
1
60
0
100
AcDbLine
10
32.444533
20
7.889654
30
0
11
32.981195
21
8.412516
31
0
39
0
210
0
220
0
230
1
0
LINE
5
7B
100
AcDbEntity
8
1
62
256
6
ByLayer
370
18
48
1
60
0
100
AcDbLine
10
31.070002
20
6.1362
30
0
11
31.746467
21
6.79527
31
0
39
0
210
0
220
0
230
1
0
LINE
5
7C
100
AcDbEntity
8
1
62
256
6
ByLayer
370
18
48
1
60
0
100
AcDbLine
10
24.001123
20
18.266136
30
0
11
23.324658
21
17.607066
31
0
39
0
210
0
220
0
230
1
0
LINE
5
7D
100
AcDbEntity
8
1
62
256
6
ByLayer
370
18
48
1
60
0
100
AcDbLine
10
7.08164
20
15.801206
30
0
11
6.23476
21
15.30711
31
0
39
0
210
0
220
0
230
1
0
LINE
5
7E
100
AcDbEntity
8
1
62
256
6
ByLayer
370
18
48
1
60
0
100
AcDbLine
10
23.840281
20
17.695165
30
0
11
23.397007
21
17.263289
31
0
39
0
210
0
220
0
230
1
0
LINE
5
7F
100
AcDbEntity
8
1
62
256
6
ByLayer
370
18
48
1
60
0
100
AcDbLine
10
9.497323
20
12.215908
30
0
11
9.998459
21
12.508286
31
0
39
0
210
0
220
0
230
1
0
LINE
5
80
100
AcDbEntity
8
80
62
256
6
ByLayer
370
18
48
1
60
0
100
AcDbLine
10
0
20
0
30
0
11
-5
21
0
31
0
39
0
210
0
220
0
230
1
0
LINE
5
81
100
AcDbEntity
8
81
62
256
6
ByLayer
370
18
48
1
60
0
100
AcDbLine
10
39.424798
20
19.9125
30
0
11
49.424798
21
19.9125
31
0
39
0
210
0
220
0
230
1
0
LINE
5
82
100
AcDbEntity
8
1
62
256
6
ByLayer
370
18
48
1
60
0
100
AcDbLine
10
14.845273
20
9.282082
30
0
11
15.023099
21
9.455336
31
0
39
0
210
0
220
0
230
1
0
LINE
5
83
100
AcDbEntity
8
1
62
256
6
ByLayer
370
18
48
1
60
0
100
AcDbLine
10
17.575211
20
7.683244
30
0
11
17.575288
21
7.683319
31
0
39
0
210
0
220
0
230
1
0
LINE
5
84
100
AcDbEntity
8
1
62
256
6
ByLayer
370
18
48
1
60
0
100
AcDbLine
10
24.322154
20
6.515197
30
0
11
30.167626
21
6.821545
31
0
39
0
210
0
220
0
230
1
0
LINE
5
85
100
AcDbEntity
8
1
62
256
6
ByLayer
370
18
48
1
60
0
100
AcDbLine
10
23.720141
20
17.544705
30
0
11
23.526512
21
17.2284
31
0
39
0
210
0
220
0
230
1
0
LINE
5
86
100
AcDbEntity
8
1
62
256
6
ByLayer
370
18
48
1
60
0
100
AcDbLine
10
30.119192
20
6.774357
30
0
11
30.167626
21
6.821545
31
0
39
0
210
0
220
0
230
1
0
LINE
5
87
100
AcDbEntity
8
1
62
256
6
ByLayer
370
18
48
1
60
0
100
AcDbLine
10
23.720141
20
17.544705
30
0
11
23.433245
21
17.265186
31
0
39
0
210
0
220
0
230
1
0
LINE
5
88
100
AcDbEntity
8
1
62
256
6
ByLayer
370
18
48
1
60
0
100
AcDbLine
10
30.525375
20
6.929645
30
0
11
30.385331
21
6.793203
31
0
39
0
210
0
220
0
230
1
0
LINE
5
89
100
AcDbEntity
8
1
62
256
6
ByLayer
370
18
48
1
60
0
100
AcDbLine
10
32.299321
20
7.778345
30
0
11
30.666624
21
6.809186
31
0
39
0
210
0
220
0
230
1
0
LINE
5
8A
100
AcDbEntity
8
1
62
256
6
ByLayer
370
18
48
1
60
0
100
AcDbLine
10
12.616268
20
-0.113638
30
0
11
12.077799
21
2.28011
31
0
39
0
210
0
220
0
230
1
0
LINE
5
8B
100
AcDbEntity
8
1
62
256
6
ByLayer
370
18
48
1
60
0
100
AcDbLine
10
8.92133
20
16.312097
30
0
11
8.878521
21
16.502402
31
0
39
0
210
0
220
0
230
1
0
LINE
5
8C
100
AcDbEntity
8
1
62
256
6
ByLayer
370
18
48
1
60
0
100
AcDbLine
10
23.351665
20
17.260908
30
0
11
23.293321
21
17.25785
31
0
39
0
210
0
220
0
230
1
0
LINE
5
8D
100
AcDbEntity
8
1
62
256
6
ByLayer
370
18
48
1
60
0
100
AcDbLine
10
10.129544
20
16.567966
30
0
11
8.878521
21
16.502402
31
0
39
0
210
0
220
0
230
1
0
LINE
5
8E
100
AcDbEntity
8
1
62
256
6
ByLayer
370
18
48
1
60
0
100
AcDbLine
10
21.010984
20
3.366639
30
0
11
22.142932
21
5.21575
31
0
39
0
210
0
220
0
230
1
0
LINE
5
8F
100
AcDbEntity
8
1
62
256
6
ByLayer
370
18
48
1
60
0
100
AcDbLine
10
24.01545
20
6.322115
30
0
11
30.633907
21
6.697989
31
0
39
0
210
0
220
0
230
1
0
LINE
5
90
100
AcDbEntity
8
1
62
256
6
ByLayer
370
18
48
1
60
0
100
AcDbLine
10
11.241309
20
-9.380633
30
0
11
8.759824
21
1.650733
31
0
39
0
210
0
220
0
230
1
0
LINE
5
91
100
AcDbEntity
8
1
62
256
6
ByLayer
370
18
48
1
60
0
100
AcDbLine
10
5.762655
20
14.974559
30
0
11
5.459279
21
16.323207
31
0
39
0
210
0
220
0
230
1
0
LINE
5
92
100
AcDbEntity
8
1
62
256
6
ByLayer
370
18
48
1
60
0
100
AcDbLine
10
20.472938
20
2.760013
30
0
11
21.010984
21
3.366639
31
0
39
0
210
0
220
0
230
1
0
LINE
5
93
100
AcDbEntity
8
1
62
256
6
ByLayer
370
18
48
1
60
0
100
AcDbLine
10
23.531713
20
17.270344
30
0
11
23.506991
21
17.229959
31
0
39
0
210
0
220
0
230
1
0
LINE
5
94
100
AcDbEntity
8
1
62
256
6
ByLayer
370
18
48
1
60
0
100
AcDbLine
10
20.156871
20
2.549901
30
0
11
21.632176
21
4.959908
31
0
39
0
210
0
220
0
230
1
0
LINE
5
95
100
AcDbEntity
8
1
62
256
6
ByLayer
370
18
48
1
60
0
100
AcDbLine
10
10.385554
20
-9.799764
30
0
11
7.699181
21
2.142426
31
0
39
0
210
0
220
0
230
1
0
LINE
5
96
100
AcDbEntity
8
1
62
256
6
ByLayer
370
18
48
1
60
0
100
AcDbLine
10
5.013266
20
14.08258
30
0
11
4.520311
21
16.273998
31
0
39
0
210
0
220
0
230
1
0
LINE
5
97
100
AcDbEntity
8
1
62
256
6
ByLayer
370
18
48
1
60
0
100
AcDbLine
10
11.216547
20
-9.392761
30
0
11
8.731679
21
1.653645
31
0
39
0
210
0
220
0
230
1
0
LINE
5
98
100
AcDbEntity
8
1
62
256
6
ByLayer
370
18
48
1
60
0
100
AcDbLine
10
5.738865
20
14.958109
30
0
11
5.432109
21
16.321783
31
0
39
0
210
0
220
0
230
1
0
LINE
5
99
100
AcDbEntity
8
1
62
256
6
ByLayer
370
18
48
1
60
0
100
AcDbLine
10
24.206437
20
6.442299
30
0
11
28.782476
21
6.702181
31
0
39
0
210
0
220
0
230
1
0
LINE
5
9A
100
AcDbEntity
8
1
62
256
6
ByLayer
370
18
48
1
60
0
100
AcDbLine
10
30.215518
20
6.783566
30
0
11
30.70325
21
6.811265
31
0
39
0
210
0
220
0
230
1
0
LINE
5
9B
100
AcDbEntity
8
1
62
256
6
ByLayer
370
18
48
1
60
0
100
AcDbLine
10
19.899525
20
2.427743
30
0
11
21.377038
21
4.84136
31
0
39
0
210
0
220
0
230
1
0
LINE
5
9C
100
AcDbEntity
8
1
62
256
6
ByLayer
370
18
48
1
60
0
100
AcDbLine
10
30.740861
20
6.35659
30
0
11
30.414433
21
6.339483
31
0
39
0
210
0
220
0
230
1
0
LINE
5
9D
100
AcDbEntity
8
1
62
256
6
ByLayer
370
18
48
1
60
0
100
AcDbLine
10
23.328935
20
17.25964
30
0
11
23.760917
21
17.965311
31
0
39
0
210
0
220
0
230
1
0
LINE
5
9E
100
AcDbEntity
8
1
62
256
6
ByLayer
370
18
48
1
60
0
100
AcDbLine
10
32.513806
20
7.957204
30
0
11
31.986672
21
7.096095
31
0
39
0
210
0
220
0
230
1
0
LINE
5
9F
100
AcDbEntity
8
1
62
256
6
ByLayer
370
18
48
1
60
0
100
AcDbLine
10
30.064396
20
5.69752
30
0
11
30.0199
21
5.695188
31
0
39
0
210
0
220
0
230
1
0
LINE
5
A0
100
AcDbEntity
8
1
62
256
6
ByLayer
370
18
48
1
60
0
100
AcDbLine
10
23.04686
20
17.244832
30
0
11
23.084453
21
17.306241
31
0
39
0
210
0
220
0
230
1
0
LINE
5
A1
100
AcDbEntity
8
1
62
256
6
ByLayer
370
18
48
1
60
0
100
AcDbLine
10
12.58869
20
14.297506
30
0
11
13.940695
21
14.583596
31
0
39
0
210
0
220
0
230
1
0
LINE
5
A2
100
AcDbEntity
8
1
62
256
6
ByLayer
370
18
48
1
60
0
100
AcDbLine
10
11.021033
20
2.088154
30
0
11
12.416601
21
2.385623
31
0
39
0
210
0
220
0
230
1
0
LINE
5
A3
100
AcDbEntity
8
1
62
256
6
ByLayer
370
18
48
1
60
0
100
AcDbLine
10
28.925672
20
15.351842
30
0
11
27.985391
21
15.902454
31
0
39
0
210
0
220
0
230
1
0
LINE
5
A4
100
AcDbEntity
8
1
62
256
6
ByLayer
370
18
48
1
60
0
100
AcDbLine
10
12.995488
20
14.534845
30
0
11
14.986418
21
14.959217
31
0
39
0
210
0
220
0
230
1
0
LINE
5
A5
100
AcDbEntity
8
1
62
256
6
ByLayer
370
18
48
1
60
0
100
AcDbLine
10
17.689622
20
3.512231
30
0
11
12.421035
21
2.389218
31
0
39
0
210
0
220
0
230
1
0
LINE
5
A6
100
AcDbEntity
8
1
62
256
6
ByLayer
370
18
48
1
60
0
100
AcDbLine
10
10.380572
20
3.350308
30
0
11
17.779059
21
4.927316
31
0
39
0
210
0
220
0
230
1
0
LINE
5
A7
100
AcDbEntity
8
1
62
256
6
ByLayer
370
18
48
1
60
0
100
AcDbLine
10
9.022275
20
12.110642
30
0
11
8.628252
21
11.880757
31
0
39
0
210
0
220
0
230
1
0
LINE
5
A8
100
AcDbEntity
8
1
62
256
6
ByLayer
370
18
48
1
60
0
100
AcDbLine
10
29.861425
20
11.191979
30
0
11
29.23656
21
10.340419
31
0
39
0
210
0
220
0
230
1
0
LINE
5
A9
100
AcDbEntity
8
1
62
256
6
ByLayer
370
18
48
1
60
0
100
AcDbLine
10
8.628252
20
11.880757
30
0
11
7.152723
21
11.568529
31
0
39
0
210
0
220
0
230
1
0
LINE
5
AA
100
AcDbEntity
8
1
62
256
6
ByLayer
370
18
48
1
60
0
100
AcDbLine
10
12.416601
20
2.385623
30
0
11
10.586101
21
1.814895
31
0
39
0
210
0
220
0
230
1
0
LINE
5
AB
100
AcDbEntity
8
1
62
256
6
ByLayer
370
18
48
1
60
0
100
AcDbLine
10
16.801658
20
6.889625
30
0
11
14.810728
21
6.465253
31
0
39
0
210
0
220
0
230
1
0
LINE
5
AC
100
AcDbEntity
8
1
62
256
6
ByLayer
370
18
48
1
60
0
100
AcDbLine
10
11.021033
20
2.088154
30
0
11
10.514638
21
1.792707
31
0
39
0
210
0
220
0
230
1
0
LINE
5
AD
100
AcDbEntity
8
1
62
256
6
ByLayer
370
18
48
1
60
0
100
AcDbLine
10
8.105093
20
4.771188
30
0
11
6.579133
21
3.880896
31
0
39
0
210
0
220
0
230
1
0
LINE
5
AE
100
AcDbEntity
8
1
62
256
6
ByLayer
370
18
48
1
60
0
100
AcDbLine
10
14.986418
20
14.959217
30
0
11
14.571329
21
14.717041
31
0
39
0
210
0
220
0
230
1
0
LINE
5
AF
100
AcDbEntity
8
1
62
256
6
ByLayer
370
18
48
1
60
0
100
AcDbLine
10
29.550207
20
14.986125
30
0
11
29.350488
21
15.103077
31
0
39
0
210
0
220
0
230
1
0
LINE
5
B0
100
AcDbEntity
8
1
62
256
6
ByLayer
370
18
48
1
60
0
100
AcDbLine
10
9.26727
20
16.385879
30
0
11
7.871702
21
16.08841
31
0
39
0
210
0
220
0
230
1
0
LINE
5
B1
100
AcDbEntity
8
1
62
256
6
ByLayer
370
18
48
1
60
0
100
AcDbLine
10
12.416601
20
2.385623
30
0
11
12.421035
21
2.389218
31
0
39
0
210
0
220
0
230
1
0
LINE
5
B2
100
AcDbEntity
8
1
62
256
6
ByLayer
370
18
48
1
60
0
100
AcDbLine
10
29.861425
20
11.191979
30
0
11
29.977478
21
11.399669
31
0
39
0
210
0
220
0
230
1
0
LINE
5
B3
100
AcDbEntity
8
1
62
256
6
ByLayer
370
18
48
1
60
0
100
AcDbLine
10
7.722211
20
15.167974
30
0
11
15.120698
21
16.744982
31
0
39
0
210
0
220
0
230
1
0
LINE
5
B4
100
AcDbEntity
8
1
62
256
6
ByLayer
370
18
48
1
60
0
100
AcDbLine
10
7.152723
20
11.568529
30
0
11
8.289981
21
6.512881
31
0
39
0
210
0
220
0
230
1
0
LINE
5
B5
100
AcDbEntity
8
1
62
256
6
ByLayer
370
18
48
1
60
0
100
AcDbLine
10
9.26727
20
16.385879
30
0
11
9.272634
21
16.385339
31
0
39
0
210
0
220
0
230
1
0
LINE
5
B6
100
AcDbEntity
8
1
62
256
6
ByLayer
370
18
48
1
60
0
100
AcDbLine
10
29.120269
20
15.210369
30
0
11
28.925672
21
15.351842
31
0
39
0
210
0
220
0
230
1
0
LINE
5
B7
100
AcDbEntity
8
1
62
256
6
ByLayer
370
18
48
1
60
0
100
AcDbLine
10
28.0884
20
13.318257
30
0
11
30.730401
21
13.609692
31
0
39
0
210
0
220
0
230
1
0
LINE
5
B8
100
AcDbEntity
8
1
62
256
6
ByLayer
370
18
48
1
60
0
100
AcDbLine
10
6.579133
20
3.880896
30
0
11
4.742024
21
12.047712
31
0
39
0
210
0
220
0
230
1
0
LINE
5
B9
100
AcDbEntity
8
1
62
256
6
ByLayer
370
18
48
1
60
0
100
AcDbLine
10
6.267983
20
12.938004
30
0
11
8.105093
21
4.771188
31
0
39
0
210
0
220
0
230
1
0
LINE
5
BA
100
AcDbEntity
8
1
62
256
6
ByLayer
370
18
48
1
60
0
100
AcDbLine
10
14.541221
20
17.508353
30
0
11
9.272634
21
16.385339
31
0
39
0
210
0
220
0
230
1
0
LINE
5
BB
100
AcDbEntity
8
1
62
256
6
ByLayer
370
18
48
1
60
0
100
AcDbLine
10
6.267983
20
12.938004
30
0
11
4.742024
21
12.047712
31
0
39
0
210
0
220
0
230
1
0
LINE
5
BC
100
AcDbEntity
8
1
62
256
6
ByLayer
370
18
48
1
60
0
100
AcDbLine
10
30.276461
20
11.757586
30
0
11
30.143737
21
11.576712
31
0
39
0
210
0
220
0
230
1
0
LINE
5
BD
100
AcDbEntity
8
1
62
256
6
ByLayer
370
18
48
1
60
0
100
AcDbLine
10
12.995488
20
14.534845
30
0
11
12.58869
21
14.297506
31
0
39
0
210
0
220
0
230
1
0
LINE
5
BE
100
AcDbEntity
8
1
62
256
6
ByLayer
370
18
48
1
60
0
100
AcDbLine
10
16.064589
20
11.272532
30
0
11
16.244979
21
11.448284
31
0
39
0
210
0
220
0
230
1
0
LINE
5
BF
100
AcDbEntity
8
1
62
256
6
ByLayer
370
18
48
1
60
0
100
AcDbLine
10
16.033244
20
9.915973
30
0
11
16.213635
21
10.091725
31
0
39
0
210
0
220
0
230
1
0
LINE
5
C0
100
AcDbEntity
8
1
62
256
6
ByLayer
370
18
48
1
60
0
100
AcDbLine
10
13.519253
20
10.729986
30
0
11
13.699644
21
10.905738
31
0
39
0
210
0
220
0
230
1
0
LINE
5
C1
100
AcDbEntity
8
1
62
256
6
ByLayer
370
18
48
1
60
0
100
AcDbLine
10
15.617991
20
11.761968
30
0
11
15.798382
21
11.93772
31
0
39
0
210
0
220
0
230
1
0
LINE
5
C2
100
AcDbEntity
8
1
62
256
6
ByLayer
370
18
48
1
60
0
100
AcDbLine
10
14.263191
20
11.855812
30
0
11
14.443581
21
12.031564
31
0
39
0
210
0
220
0
230
1
0
LINE
5
C3
100
AcDbEntity
8
1
62
256
6
ByLayer
370
18
48
1
60
0
100
AcDbLine
10
18.284207
20
-5.931164
30
0
11
12.616268
21
-0.113638
31
0
39
0
210
0
220
0
230
1
0
LINE
5
C4
100
AcDbEntity
8
1
62
256
6
ByLayer
370
18
48
1
60
0
100
AcDbLine
10
10.385554
20
-9.799764
30
0
11
11.216547
21
-9.392761
31
0
39
0
210
0
220
0
230
1
0
LINE
5
C5
100
AcDbEntity
8
1
62
256
6
ByLayer
370
18
48
1
60
0
100
AcDbLine
10
3.906653
20
-12.454546
30
0
11
1.292542
21
13.730042
31
0
39
0
210
0
220
0
230
1
0
LINE
5
C6
100
AcDbEntity
8
1
62
256
6
ByLayer
370
18
48
1
60
0
100
AcDbLine
10
4.966275
20
-12.454018
30
0
11
3.906653
21
-12.454546
31
0
39
0
210
0
220
0
230
1
0
LINE
5
C7
100
AcDbEntity
8
1
62
256
6
ByLayer
370
18
48
1
60
0
100
AcDbLine
10
12.616268
20
-0.113638
30
0
11
13.536133
21
-8.256674
31
0
39
0
210
0
220
0
230
1
0
LINE
5
C8
100
AcDbEntity
8
1
62
256
6
ByLayer
370
18
48
1
60
0
100
AcDbLine
10
5.459279
20
16.323207
30
0
11
8.878521
21
16.502402
31
0
39
0
210
0
220
0
230
1
0
LINE
5
C9
100
AcDbEntity
8
1
62
256
6
ByLayer
370
18
48
1
60
0
100
AcDbLine
10
0
20
-12.4375
30
0
11
3.906653
21
-12.454546
31
0
39
0
210
0
220
0
230
1
0
LINE
5
CA
100
AcDbEntity
8
1
62
256
6
ByLayer
370
18
48
1
60
0
100
AcDbLine
10
4.966275
20
-12.454018
30
0
11
10.385554
21
-9.799764
31
0
39
0
210
0
220
0
230
1
0
LINE
5
CB
100
AcDbEntity
8
1
62
256
6
ByLayer
370
18
48
1
60
0
100
AcDbLine
10
23.351665
20
17.260908
30
0
11
23.531713
21
17.270344
31
0
39
0
210
0
220
0
230
1
0
LINE
5
CC
100
AcDbEntity
8
1
62
256
6
ByLayer
370
18
48
1
60
0
100
AcDbLine
10
30.633907
20
6.697989
30
0
11
30.70325
21
6.811265
31
0
39
0
210
0
220
0
230
1
0
LINE
5
CD
100
AcDbEntity
8
1
62
256
6
ByLayer
370
18
48
1
60
0
100
AcDbLine
10
1.292542
20
13.730042
30
0
11
0
21
12.4375
31
0
39
0
210
0
220
0
230
1
0
LINE
5
CE
100
AcDbEntity
8
1
62
256
6
ByLayer
370
18
48
1
60
0
100
AcDbLine
10
24.880631
20
-2.700368
30
0
11
18.284207
21
-5.931164
31
0
39
0
210
0
220
0
230
1
0
LINE
5
CF
100
AcDbEntity
8
1
62
256
6
ByLayer
370
18
48
1
60
0
100
AcDbLine
10
0
20
-12.4375
30
0
11
0
21
12.4375
31
0
39
0
210
0
220
0
230
1
0
LINE
5
D0
100
AcDbEntity
8
1
62
256
6
ByLayer
370
18
48
1
60
0
100
AcDbLine
10
11.216547
20
-9.392761
30
0
11
11.241309
21
-9.380633
31
0
39
0
210
0
220
0
230
1
0
LINE
5
D1
100
AcDbEntity
8
1
62
256
6
ByLayer
370
18
48
1
60
0
100
AcDbLine
10
1.292542
20
13.730042
30
0
11
3.798679
21
16.236179
31
0
39
0
210
0
220
0
230
1
0
LINE
5
D2
100
AcDbEntity
8
1
62
256
6
ByLayer
370
18
48
1
60
0
100
AcDbLine
10
24.880631
20
-2.700368
30
0
11
30.633907
21
6.697989
31
0
39
0
210
0
220
0
230
1
0
LINE
5
D3
100
AcDbEntity
8
1
62
256
6
ByLayer
370
18
48
1
60
0
100
AcDbLine
10
11.241309
20
-9.380633
30
0
11
13.536133
21
-8.256674
31
0
39
0
210
0
220
0
230
1
0
LINE
5
D4
100
AcDbEntity
8
1
62
256
6
ByLayer
370
18
48
1
60
0
100
AcDbLine
10
3.798679
20
16.236179
30
0
11
4.520311
21
16.273998
31
0
39
0
210
0
220
0
230
1
0
LINE
5
D5
100
AcDbEntity
8
1
62
256
6
ByLayer
370
18
48
1
60
0
100
AcDbLine
10
5.432109
20
16.321783
30
0
11
5.459279
21
16.323207
31
0
39
0
210
0
220
0
230
1
0
LINE
5
D6
100
AcDbEntity
8
1
62
256
6
ByLayer
370
18
48
1
60
0
100
AcDbLine
10
4.520311
20
16.273998
30
0
11
5.432109
21
16.321783
31
0
39
0
210
0
220
0
230
1
0
LINE
5
D7
100
AcDbEntity
8
1
62
256
6
ByLayer
370
18
48
1
60
0
100
AcDbLine
10
17.777064
20
2.617748
30
0
11
17.52232
21
2.775776
31
0
39
0
210
0
220
0
230
1
0
LINE
5
D8
100
AcDbEntity
8
1
62
256
6
ByLayer
370
18
48
1
60
0
100
AcDbLine
10
18.284207
20
-5.931164
30
0
11
13.536133
21
-8.256674
31
0
39
0
210
0
220
0
230
1
0
LINE
5
D9
100
AcDbEntity
8
SK1
62
256
6
ByLayer
370
18
48
1
60
0
100
AcDbLine
10
0
20
12.4375
30
0
11
0
21
-12.4375
31
0
39
0
210
0
220
0
230
1
0
LINE
5
DB
100
AcDbEntity
8
SK1
62
256
6
ByLayer
370
18
48
1
60
0
100
AcDbLine
10
-131.925202
20
12.4375
30
0
11
-131.925202
21
-12.4375
31
0
39
0
210
0
220
0
230
1
0
LINE
5
DC
100
AcDbEntity
8
SK1
62
256
6
ByLayer
370
18
48
1
60
0
100
AcDbLine
10
-131.925202
20
-12.4375
30
0
11
0
21
-12.4375
31
0
39
0
210
0
220
0
230
1
0
LINE
5
DD
100
AcDbEntity
8
SK1
62
256
6
ByLayer
370
18
48
1
60
0
100
AcDbLine
10
0
20
12.4375
30
0
11
-131.925202
21
12.4375
31
0
39
0
210
0
220
0
230
1
0
LINE
5
DE
100
AcDbEntity
8
1
62
256
6
ByLayer
370
18
48
1
60
0
100
AcDbLine
10
33.101336
20
8.562976
30
0
11
39.309873
21
18.705033
31
0
39
0
210
0
220
0
230
1
0
LINE
5
DF
100
AcDbEntity
8
1
62
256
6
ByLayer
370
18
48
1
60
0
100
AcDbLine
10
32.835983
20
8.301207
30
0
11
30.525375
21
6.929645
31
0
39
0
210
0
220
0
230
1
0
LINE
5
E0
100
AcDbEntity
8
1
62
256
6
ByLayer
370
18
48
1
60
0
100
AcDbLine
10
23.985494
20
17.806474
30
0
11
26.296102
21
19.178036
31
0
39
0
210
0
220
0
230
1
0
LINE
5
E1
100
AcDbEntity
8
1
62
256
6
ByLayer
370
18
48
1
60
0
100
AcDbLine
10
38.584526
20
19.911396
30
0
11
26.653851
21
19.286136
31
0
39
0
210
0
220
0
230
1
0
LINE
5
E2
100
AcDbEntity
8
1
62
256
6
ByLayer
370
18
48
1
60
0
100
AcDbLine
10
32.299321
20
7.778345
30
0
11
32.835983
21
8.301207
31
0
39
0
210
0
220
0
230
1
0
LINE
5
E3
100
AcDbEntity
8
1
62
256
6
ByLayer
370
18
48
1
60
0
100
AcDbLine
10
23.760917
20
17.965311
30
0
11
23.084453
21
17.306241
31
0
39
0
210
0
220
0
230
1
0
LINE
5
E4
100
AcDbEntity
8
1
62
256
6
ByLayer
370
18
48
1
60
0
100
AcDbLine
10
30.740861
20
6.35659
30
0
11
30.064396
21
5.69752
31
0
39
0
210
0
220
0
230
1
0
MTEXT
5
159
100
AcDbEntity
8
SK6
62
256
6
ByLayer
370
18
48
1
60
0
100
AcDbMText
10
-60.375202
20
-23.321023
30
0
210
0
220
0
230
1
1
\W0.7582;DDJNR 3225P 1504
40
3.5
41
0
44
1.084337
50
0
71
7
72
5
7
iso_b_vert
0
DIMENSION
5
16A
100
AcDbEntity
8
2
62
256
6
ByLayer
370
13
48
1
60
0
100
AcDbDimension
2
DimnDraft3D1
10
37.590877
20
19.859076
30
0
11
20.981663
21
37.457069
31
0
70
34
71
5
72
1
41
1
210
0
220
0
230
1
3
Standard
100
AcDb2LineAngularDimension
13
39.424798
23
19.9125
33
0
14
39.424798
24
18.325
34
0
15
38.589506
25
19.911412
35
0
16
24.245848
26
34.359474
36
0
40
0
0
DIMENSION
5
180
100
AcDbEntity
8
SK2
62
256
6
ByLayer
370
13
48
1
60
0
100
AcDbDimension
2
DimnDraft3D2
10
-139.675202
20
12.4375
30
0
11
-139.675202
21
-5.281579
31
0
70
32
71
5
72
1
41
1
210
0
220
0
230
1
3
Standard
100
AcDbAlignedDimension
13
-133.925202
23
-12.4375
33
0
14
-133.925202
24
12.4375
34
0
50
90
100
AcDbRotatedDimension
1001
ACAD
1000
DSTYLE
1002
{
1070
    74
1070
     0
1070
   279
1070
     0
1070
   172
1070
     1
1070
   173
1070
     1
1070
   340
1005
15A
1070
    77
1070
     1
1070
    73
1070
     0
1070
   171
1070
     3
1070
   274
1070
     4
1070
   177
1070
     2
1070
   176
1070
     2
1070
   178
1070
     7
1070
    78
1070
     8
1070
    41
1041
3.175
1070
   147
1041
2.25
1070
    42
1041
2.0
1070
    44
1041
2.0
1070
   140
1041
4.5
1070
   343
1005
16B
1070
   344
1005
16B
1002
}
0
DIMENSION
5
18E
100
AcDbEntity
8
2
62
256
6
ByLayer
370
13
48
1
60
0
100
AcDbDimension
2
DimnDraft3D3
10
61.674798
20
19.9125
30
0
11
61.674798
21
-1.544079
31
0
70
32
71
5
72
1
41
1
210
0
220
0
230
1
3
Standard
100
AcDbAlignedDimension
13
2
23
-12.4375
33
0
14
41.424798
24
19.9125
34
0
50
90
100
AcDbRotatedDimension
1001
ACAD
1000
DSTYLE
1002
{
1070
    74
1070
     0
1070
   279
1070
     0
1070
   172
1070
     1
1070
   173
1070
     1
1070
   340
1005
15A
1070
    77
1070
     1
1070
    73
1070
     0
1070
   171
1070
     3
1070
   274
1070
     4
1070
   177
1070
     2
1070
   176
1070
     2
1070
   178
1070
     7
1070
    78
1070
     8
1070
    41
1041
3.175
1070
   147
1041
2.25
1070
    42
1041
2.0
1070
    44
1041
2.0
1070
   140
1041
4.5
1070
   343
1005
16B
1070
   344
1005
16B
1002
}
0
DIMENSION
5
19C
100
AcDbEntity
8
2
62
256
6
ByLayer
370
13
48
1
60
0
100
AcDbDimension
2
DimnDraft3D4
10
39.424798
20
49.6625
30
0
11
14.193978
21
49.6625
31
0
70
32
71
5
72
1
41
1
210
0
220
0
230
1
3
Standard
100
AcDbAlignedDimension
13
0
23
14.4375
33
0
14
39.424798
24
21.9125
34
0
50
0
100
AcDbRotatedDimension
1001
ACAD
1000
DSTYLE
1002
{
1070
   279
1070
     0
1070
   172
1070
     1
1070
   173
1070
     1
1070
   340
1005
15A
1070
    77
1070
     1
1070
    73
1070
     0
1070
   171
1070
     3
1070
   274
1070
     4
1070
   177
1070
     2
1070
   176
1070
     2
1070
   178
1070
     7
1070
    78
1070
     8
1070
    41
1041
3.175
1070
   147
1041
2.25
1070
    42
1041
2.0
1070
    44
1041
2.0
1070
   140
1041
4.5
1070
   343
1005
16B
1070
   344
1005
16B
1002
}
0
DIMENSION
5
1AA
100
AcDbEntity
8
SK2
62
256
6
ByLayer
370
13
48
1
60
0
100
AcDbDimension
2
DimnDraft3D5
10
-131.925202
20
59.6625
30
0
11
-52.65086
21
59.6625
31
0
70
32
71
5
72
1
41
1
210
0
220
0
230
1
3
Standard
100
AcDbAlignedDimension
13
39.424798
23
21.9125
33
0
14
-131.925202
24
14.4375
34
0
50
0
100
AcDbRotatedDimension
1001
ACAD
1000
DSTYLE
1002
{
1070
   279
1070
     0
1070
   172
1070
     1
1070
   173
1070
     1
1070
   340
1005
15A
1070
    77
1070
     1
1070
    73
1070
     0
1070
   171
1070
     3
1070
   274
1070
     4
1070
   177
1070
     2
1070
   176
1070
     2
1070
   178
1070
     7
1070
    78
1070
     8
1070
    41
1041
3.175
1070
   147
1041
2.25
1070
    42
1041
2.0
1070
    44
1041
2.0
1070
   140
1041
4.5
1070
   343
1005
16B
1070
   344
1005
16B
1002
}
0
ENDSEC
0
SECTION
2
OBJECTS
0
DICTIONARY
5
214
330
0
100
AcDbDictionary
280
0
281
1
3
ACAD_GROUP
350
215
3
ACAD_MLINESTYLE
350
216
0
DICTIONARY
5
215
330
0
100
AcDbDictionary
280
0
281
1
0
DICTIONARY
5
216
330
0
100
AcDbDictionary
280
0
281
1
3
Standard
350
18
0
MLINESTYLE
5
18
330
216
100
AcDbMlineStyle
2
Standard
70
0
3

62
256
51
90
52
90
71
2
49
-0.5
62
256
6
ByLayer
49
0.5
62
256
6
ByLayer
0
RASTERVARIABLES
5
203
330

100
AcDbRasterVariables
90
0
70
1
71
1
72
1
0
ENDSEC
0
EOF
