0
SECTION
2
HEADER
9
$ACADVER
1
AC1015
9
$DWGCODEPAGE
3
ANSI_1252
9
$HANDSEED
5
221
9
$ANGBASE
50
0
9
$ANGDIR
70
0
9
$ATTMODE
70
1
9
$AUNITS
70
0
9
$AUPREC
70
0
9
$CECOLOR
62
256
9
$CELTSCALE
40
1
9
$CELTYPE
6
ByLayer
9
$CELWEIGHT
370
18
9
$CLAYER
8
0
9
$CMLJUST
70
0
9
$CMLSCALE
40
1
9
$CMLSTYLE
2
Standard
9
$DIMSTYLE
2
Standard
9
$TEXTSIZE
40
0.2
9
$TEXTSTYLE
7
Standard
9
$LUNITS
70
2
9
$LUPREC
70
4
9
$EXTNAMES
290
1
9
$INSUNITS
70
4
9
$LTSCALE
40
1
9
$LWDISPLAY
290
1
9
$PDMODE
70
0
9
$PDSIZE
40
0
9
$PLINEGEN
70
0
0
ENDSEC
0
SECTION
2
CLASSES
0
CLASS
1
RASTERVARIABLES
2
AcDbRasterVariables
3
ISM
90
0
280
0
281
0
0
ENDSEC
0
SECTION
2
TABLES
0
TABLE
2
VPORT
5
217
100
AcDbSymbolTable
0
VPORT
5
1
100
AcDbSymbolTableRecord
100
AcDbViewportTableRecord
2
*Active
70
0
10
0
20
0
11
1
21
1
12
-1
22
1
13
0
23
0
14
0.5
24
0.5
15
10
25
10
16
0
26
0
36
1
17
0
27
0
37
0
0
ENDTAB
0
TABLE
2
LTYPE
5
218
100
AcDbSymbolTable
0
LTYPE
5
14
100
AcDbSymbolTableRecord
100
AcDbLinetypeTableRecord
70
0
2
ByBlock
3

72
65
73
0
40
0
0
LTYPE
5
15
100
AcDbSymbolTableRecord
100
AcDbLinetypeTableRecord
70
0
2
ByLayer
3

72
65
73
0
40
0
0
LTYPE
5
16
100
AcDbSymbolTableRecord
100
AcDbLinetypeTableRecord
70
0
2
CONTINUOUS
3
Solid line
72
65
73
0
40
0
0
LTYPE
5
6A
100
AcDbSymbolTableRecord
100
AcDbLinetypeTableRecord
70
0
2
CENTER
3
____ _ ____ _ ____ _ ____
72
65
73
4
40
47.5
49
22
74
0
49
-8.5
74
0
49
8.5
74
0
49
-8.5
74
0
0
LTYPE
5
6B
100
AcDbSymbolTableRecord
100
AcDbLinetypeTableRecord
70
0
2
DASHED
3
__ __ __ __ __ __ __ __ __
72
65
73
2
40
25.72
49
12.86
74
0
49
-12.86
74
0
0
ENDTAB
0
TABLE
2
LAYER
5
219
100
AcDbSymbolTable
0
LAYER
5
10
100
AcDbSymbolTableRecord
100
AcDbLayerTableRecord
2
0
70
0
62
7
6
CONTINUOUS
290
1
370
-3
390
0
0
LAYER
5
6D
100
AcDbSymbolTableRecord
100
AcDbLayerTableRecord
2
2
70
0
62
7
6
CONTINUOUS
290
1
370
-3
390
0
0
LAYER
5
6F
100
AcDbSymbolTableRecord
100
AcDbLayerTableRecord
2
80
70
0
62
-6
6
CONTINUOUS
290
1
370
-3
390
0
0
LAYER
5
71
100
AcDbSymbolTableRecord
100
AcDbLayerTableRecord
2
81
70
0
62
-3
6
CONTINUOUS
290
1
370
-3
390
0
0
LAYER
5
73
100
AcDbSymbolTableRecord
100
AcDbLayerTableRecord
2
1
70
0
62
4
6
CONTINUOUS
290
1
370
-3
390
0
0
LAYER
5
204
100
AcDbSymbolTableRecord
100
AcDbLayerTableRecord
2
SK1
70
0
62
4
6
CONTINUOUS
290
1
370
-3
390
0
0
LAYER
5
205
100
AcDbSymbolTableRecord
100
AcDbLayerTableRecord
2
SK6
70
0
62
5
6
CONTINUOUS
290
1
370
-3
390
0
0
LAYER
5
206
100
AcDbSymbolTableRecord
100
AcDbLayerTableRecord
2
SK2
70
0
62
7
6
CONTINUOUS
290
1
370
-3
390
0
0
ENDTAB
0
TABLE
2
STYLE
5
21a
100
AcDbSymbolTable
0
STYLE
5
11
100
AcDbSymbolTableRecord
100
AcDbTextStyleTableRecord
2
Standard
3
txt
70
0
71
0
40
0
41
1
42
0
50
0
0
STYLE
5
15A
100
AcDbSymbolTableRecord
100
AcDbTextStyleTableRecord
2
iso_b_vert
3
simplex.shx
70
0
71
0
40
0
41
1
42
0
50
0
0
STYLE
5
15B
100
AcDbSymbolTableRecord
100
AcDbTextStyleTableRecord
2
DWGDirectTextStyle
3
simplex
70
0
71
0
40
0
41
1
42
0
50
0
0
ENDTAB
0
TABLE
2
DIMSTYLE
5
21b
100
AcDbSymbolTable
100
AcDbDimStyleTable
0
DIMSTYLE
105
27
100
AcDbSymbolTableRecord
100
AcDbDimStyleTableRecord
2
Standard
70
0
3
<>
41
0.18
42
0.0625
44
0.18
140
0.18
147
0.09
73
0
74
0
77
1
271
2
275
0
278
52
280
0
340
11
0
ENDTAB
0
TABLE
2
VIEW
5
21c
100
AcDbSymbolTable
0
ENDTAB
0
TABLE
2
UCS
5
21d
100
AcDbSymbolTable
0
ENDTAB
0
TABLE
2
APPID
5
21e
100
AcDbSymbolTable
0
APPID
5
12
100
AcDbSymbolTableRecord
100
AcDbRegAppTableRecord
2
ACAD
70
0
0
ENDTAB
0
TABLE
2
BLOCK_RECORD
5
21f
100
AcDbSymbolTable
0
BLOCK_RECORD
5
1F
100
AcDbSymbolTableRecord
100
AcDbBlockTableRecord
2
*Model_Space
340
0
70
0
0
BLOCK_RECORD
5
1B
100
AcDbSymbolTableRecord
100
AcDbBlockTableRecord
2
*Paper_Space
340
0
70
0
0
BLOCK_RECORD
5
23
100
AcDbSymbolTableRecord
100
AcDbBlockTableRecord
2
*Paper_Space0
340
0
70
0
0
BLOCK_RECORD
5
15D
100
AcDbSymbolTableRecord
100
AcDbBlockTableRecord
2
DimnDraft3D1
340
0
70
0
0
BLOCK_RECORD
5
16B
100
AcDbSymbolTableRecord
100
AcDbBlockTableRecord
2
_CLOSED
340
0
70
0
0
BLOCK_RECORD
5
172
100
AcDbSymbolTableRecord
100
AcDbBlockTableRecord
2
DimnDraft3D2
340
0
70
0
0
BLOCK_RECORD
5
181
100
AcDbSymbolTableRecord
100
AcDbBlockTableRecord
2
DimnDraft3D3
340
0
70
0
0
BLOCK_RECORD
5
18F
100
AcDbSymbolTableRecord
100
AcDbBlockTableRecord
2
DimnDraft3D4
340
0
70
0
0
BLOCK_RECORD
5
19D
100
AcDbSymbolTableRecord
100
AcDbBlockTableRecord
2
DimnDraft3D5
340
0
70
0
0
ENDTAB
0
ENDSEC
0
SECTION
2
BLOCKS
0
BLOCK
5
20
100
AcDbEntity
8
0
100
AcDbBlockBegin
2
*Model_Space
70
0
10
0
20
0
30
0
3
*Model_Space
0
ENDBLK
5
21
100
AcDbEntity
8
0
100
AcDbBlockEnd
0
BLOCK
5
1C
100
AcDbEntity
8
0
100
AcDbBlockBegin
2
*Paper_Space
70
0
10
0
20
0
30
0
3
*Paper_Space
0
ENDBLK
5
1D
100
AcDbEntity
8
0
100
AcDbBlockEnd
0
BLOCK
5
24
100
AcDbEntity
8
0
100
AcDbBlockBegin
2
*Paper_Space0
70
0
10
0
20
0
30
0
3
*Paper_Space0
0
ENDBLK
5
25
100
AcDbEntity
8
0
100
AcDbBlockEnd
0
BLOCK
5
168
100
AcDbEntity
8
0
100
AcDbBlockBegin
2
DimnDraft3D1
70
0
10
0
20
0
30
0
3
DimnDraft3D1
0
MTEXT
5
15E
100
AcDbEntity
8
2
62
256
6
ByLayer
370
18
48
1
60
0
100
AcDbMText
10
21.395441
20
33.016447
30
0
210
0
220
0
230
1
1
\W0.7399;93%%d
40
4.5
41
0
44
1.084337
50
46.5000000000004
71
7
72
5
7
iso_b_vert
0
LINE
5
15F
100
AcDbEntity
8
2
62
256
6
ByLayer
370
13
48
1
60
0
100
AcDbLine
10
39.399798
20
21.9125
30
0
11
39.399798
21
42.880865
31
0
39
0
210
0
220
0
230
1
0
LINE
5
160
100
AcDbEntity
8
2
62
256
6
ByLayer
370
13
48
1
60
0
100
AcDbLine
10
35.568618
20
19.754404
30
0
11
16.50554
21
18.755351
31
0
39
0
210
0
220
0
230
1
0
ARC
5
161
100
AcDbEntity
8
2
62
256
6
ByLayer
370
13
48
1
60
0
100
AcDbCircle
39
0
10
39.399798
20
19.955188
30
0
40
20.9256770833572
210
0
220
0
230
1
100
AcDbArc
50
90
51
183
0
LINE
5
162
100
AcDbEntity
8
2
62
256
6
ByLayer
370
13
48
1
60
0
100
AcDbLine
10
39.399798
20
40.880865
30
0
11
36.242896
21
40.342993
31
0
39
0
210
0
220
0
230
1
0
LINE
5
163
100
AcDbEntity
8
2
62
256
6
ByLayer
370
13
48
1
60
0
100
AcDbLine
10
39.399798
20
40.880865
30
0
11
36.21125
21
41.178387
31
0
39
0
210
0
220
0
230
1
0
LINE
5
164
100
AcDbEntity
8
2
62
256
6
ByLayer
370
13
48
1
60
0
100
AcDbLine
10
36.242896
20
40.342993
30
0
11
36.21125
21
41.178387
31
0
39
0
210
0
220
0
230
1
0
LINE
5
165
100
AcDbEntity
8
2
62
256
6
ByLayer
370
13
48
1
60
0
100
AcDbLine
10
18.502799
20
18.860023
30
0
11
18.038809
21
22.028626
31
0
39
0
210
0
220
0
230
1
0
LINE
5
166
100
AcDbEntity
8
2
62
256
6
ByLayer
370
13
48
1
60
0
100
AcDbLine
10
18.502799
20
18.860023
30
0
11
18.874714
21
22.040751
31
0
39
0
210
0
220
0
230
1
0
LINE
5
167
100
AcDbEntity
8
2
62
256
6
ByLayer
370
13
48
1
60
0
100
AcDbLine
10
18.038809
20
22.028626
30
0
11
18.874714
21
22.040751
31
0
39
0
210
0
220
0
230
1
0
ENDBLK
5
169
100
AcDbEntity
8
0
100
AcDbBlockEnd
0
BLOCK
5
16C
100
AcDbEntity
8
0
100
AcDbBlockBegin
2
_CLOSED
70
0
10
0
20
0
30
0
3
_CLOSED
0
LINE
5
16E
100
AcDbEntity
8
0
62
256
6
ByLayer
370
-2
48
1
60
0
100
AcDbLine
10
-1
20
0.166667
30
0
11
0
21
0
31
0
39
0
210
0
220
0
230
1
0
LINE
5
16F
100
AcDbEntity
8
0
62
256
6
ByLayer
370
-2
48
1
60
0
100
AcDbLine
10
0
20
0
30
0
11
-1
21
-0.166667
31
0
39
0
210
0
220
0
230
1
0
LINE
5
170
100
AcDbEntity
8
0
62
256
6
ByLayer
370
-2
48
1
60
0
100
AcDbLine
10
-1
20
0.166667
30
0
11
-1
21
-0.166667
31
0
39
0
210
0
220
0
230
1
0
LINE
5
171
100
AcDbEntity
8
0
62
256
6
ByLayer
370
-2
48
1
60
0
100
AcDbLine
10
0
20
0
30
0
11
-1
21
0
31
0
39
0
210
0
220
0
230
1
0
ENDBLK
5
16D
100
AcDbEntity
8
0
100
AcDbBlockEnd
0
BLOCK
5
17E
100
AcDbEntity
8
0
100
AcDbBlockBegin
2
DimnDraft3D2
70
0
10
0
20
0
30
0
3
DimnDraft3D2
0
MTEXT
5
173
100
AcDbEntity
8
SK2
62
256
6
ByLayer
370
18
48
1
60
0
100
AcDbMText
10
-120.825202
20
-4.156579
30
0
210
0
220
0
230
1
1
\W0.7346;25.0
40
4.5
41
0
44
1.084337
50
90
71
7
72
5
7
iso_b_vert
0
LINE
5
175
100
AcDbEntity
8
SK2
62
256
6
ByLayer
370
13
48
1
60
0
100
AcDbLine
10
-113.950202
20
-12.4375
30
0
11
-121.700202
21
-12.4375
31
0
39
0
210
0
220
0
230
1
0
LINE
5
176
100
AcDbEntity
8
SK2
62
256
6
ByLayer
370
13
48
1
60
0
100
AcDbLine
10
-113.950202
20
12.4375
30
0
11
-121.700202
21
12.4375
31
0
39
0
210
0
220
0
230
1
0
LINE
5
177
100
AcDbEntity
8
SK2
62
256
6
ByLayer
370
13
48
1
60
0
100
AcDbLine
10
-119.700202
20
-12.4375
30
0
11
-119.700202
21
12.4375
31
0
39
0
210
0
220
0
230
1
0
LINE
5
178
100
AcDbEntity
8
SK2
62
256
6
ByLayer
370
13
48
1
60
0
100
AcDbLine
10
-119.700202
20
-12.4375
30
0
11
-120.118199
21
-9.262502
31
0
39
0
210
0
220
0
230
1
0
LINE
5
179
100
AcDbEntity
8
SK2
62
256
6
ByLayer
370
13
48
1
60
0
100
AcDbLine
10
-119.700202
20
-12.4375
30
0
11
-119.282205
21
-9.262498
31
0
39
0
210
0
220
0
230
1
0
LINE
5
17A
100
AcDbEntity
8
SK2
62
256
6
ByLayer
370
13
48
1
60
0
100
AcDbLine
10
-120.118199
20
-9.262502
30
0
11
-119.282205
21
-9.262498
31
0
39
0
210
0
220
0
230
1
0
LINE
5
17B
100
AcDbEntity
8
SK2
62
256
6
ByLayer
370
13
48
1
60
0
100
AcDbLine
10
-119.700202
20
12.4375
30
0
11
-119.282205
21
9.262502
31
0
39
0
210
0
220
0
230
1
0
LINE
5
17C
100
AcDbEntity
8
SK2
62
256
6
ByLayer
370
13
48
1
60
0
100
AcDbLine
10
-119.700202
20
12.4375
30
0
11
-120.118199
21
9.262498
31
0
39
0
210
0
220
0
230
1
0
LINE
5
17D
100
AcDbEntity
8
SK2
62
256
6
ByLayer
370
13
48
1
60
0
100
AcDbLine
10
-119.282205
20
9.262502
30
0
11
-120.118199
21
9.262498
31
0
39
0
210
0
220
0
230
1
0
ENDBLK
5
17F
100
AcDbEntity
8
0
100
AcDbBlockEnd
0
BLOCK
5
18C
100
AcDbEntity
8
0
100
AcDbBlockBegin
2
DimnDraft3D3
70
0
10
0
20
0
30
0
3
DimnDraft3D3
0
MTEXT
5
182
100
AcDbEntity
8
2
62
256
6
ByLayer
370
18
48
1
60
0
100
AcDbMText
10
60.524798
20
-0.419079
30
0
210
0
220
0
230
1
1
\W0.7346;32.0
40
4.5
41
0
44
1.084337
50
90
71
7
72
5
7
iso_b_vert
0
LINE
5
183
100
AcDbEntity
8
2
62
256
6
ByLayer
370
13
48
1
60
0
100
AcDbLine
10
2
20
-12.4375
30
0
11
63.649798
21
-12.4375
31
0
39
0
210
0
220
0
230
1
0
LINE
5
184
100
AcDbEntity
8
2
62
256
6
ByLayer
370
13
48
1
60
0
100
AcDbLine
10
41.399798
20
19.9125
30
0
11
63.649798
21
19.9125
31
0
39
0
210
0
220
0
230
1
0
LINE
5
185
100
AcDbEntity
8
2
62
256
6
ByLayer
370
13
48
1
60
0
100
AcDbLine
10
61.649798
20
-12.4375
30
0
11
61.649798
21
19.9125
31
0
39
0
210
0
220
0
230
1
0
LINE
5
186
100
AcDbEntity
8
2
62
256
6
ByLayer
370
13
48
1
60
0
100
AcDbLine
10
61.649798
20
-12.4375
30
0
11
61.231801
21
-9.262502
31
0
39
0
210
0
220
0
230
1
0
LINE
5
187
100
AcDbEntity
8
2
62
256
6
ByLayer
370
13
48
1
60
0
100
AcDbLine
10
61.649798
20
-12.4375
30
0
11
62.067795
21
-9.262498
31
0
39
0
210
0
220
0
230
1
0
LINE
5
188
100
AcDbEntity
8
2
62
256
6
ByLayer
370
13
48
1
60
0
100
AcDbLine
10
61.231801
20
-9.262502
30
0
11
62.067795
21
-9.262498
31
0
39
0
210
0
220
0
230
1
0
LINE
5
189
100
AcDbEntity
8
2
62
256
6
ByLayer
370
13
48
1
60
0
100
AcDbLine
10
61.649798
20
19.9125
30
0
11
62.067795
21
16.737502
31
0
39
0
210
0
220
0
230
1
0
LINE
5
18A
100
AcDbEntity
8
2
62
256
6
ByLayer
370
13
48
1
60
0
100
AcDbLine
10
61.649798
20
19.9125
30
0
11
61.231801
21
16.737498
31
0
39
0
210
0
220
0
230
1
0
LINE
5
18B
100
AcDbEntity
8
2
62
256
6
ByLayer
370
13
48
1
60
0
100
AcDbLine
10
62.067795
20
16.737502
30
0
11
61.231801
21
16.737498
31
0
39
0
210
0
220
0
230
1
0
ENDBLK
5
18D
100
AcDbEntity
8
0
100
AcDbBlockEnd
0
BLOCK
5
19A
100
AcDbEntity
8
0
100
AcDbBlockBegin
2
DimnDraft3D4
70
0
10
0
20
0
30
0
3
DimnDraft3D4
0
MTEXT
5
190
100
AcDbEntity
8
2
62
256
6
ByLayer
370
18
48
1
60
0
100
AcDbMText
10
15.306478
20
50.7875
30
0
210
0
220
0
230
1
1
\W0.7528;39.4
40
4.5
41
0
44
1.084337
50
0
71
7
72
5
7
iso_b_vert
0
LINE
5
191
100
AcDbEntity
8
2
62
256
6
ByLayer
370
13
48
1
60
0
100
AcDbLine
10
0
20
14.4375
30
0
11
0
21
51.6625
31
0
39
0
210
0
220
0
230
1
0
LINE
5
192
100
AcDbEntity
8
2
62
256
6
ByLayer
370
13
48
1
60
0
100
AcDbLine
10
39.399798
20
21.9125
30
0
11
39.399798
21
51.6625
31
0
39
0
210
0
220
0
230
1
0
LINE
5
193
100
AcDbEntity
8
2
62
256
6
ByLayer
370
13
48
1
60
0
100
AcDbLine
10
0
20
49.6625
30
0
11
39.399798
21
49.6625
31
0
39
0
210
0
220
0
230
1
0
LINE
5
194
100
AcDbEntity
8
2
62
256
6
ByLayer
370
13
48
1
60
0
100
AcDbLine
10
0
20
49.6625
30
0
11
3.174998
21
50.080497
31
0
39
0
210
0
220
0
230
1
0
LINE
5
195
100
AcDbEntity
8
2
62
256
6
ByLayer
370
13
48
1
60
0
100
AcDbLine
10
0
20
49.6625
30
0
11
3.175002
21
49.244503
31
0
39
0
210
0
220
0
230
1
0
LINE
5
196
100
AcDbEntity
8
2
62
256
6
ByLayer
370
13
48
1
60
0
100
AcDbLine
10
3.174998
20
50.080497
30
0
11
3.175002
21
49.244503
31
0
39
0
210
0
220
0
230
1
0
LINE
5
197
100
AcDbEntity
8
2
62
256
6
ByLayer
370
13
48
1
60
0
100
AcDbLine
10
39.399798
20
49.6625
30
0
11
36.224799
21
49.244503
31
0
39
0
210
0
220
0
230
1
0
LINE
5
198
100
AcDbEntity
8
2
62
256
6
ByLayer
370
13
48
1
60
0
100
AcDbLine
10
39.399798
20
49.6625
30
0
11
36.224796
21
50.080497
31
0
39
0
210
0
220
0
230
1
0
LINE
5
199
100
AcDbEntity
8
2
62
256
6
ByLayer
370
13
48
1
60
0
100
AcDbLine
10
36.224799
20
49.244503
30
0
11
36.224796
21
50.080497
31
0
39
0
210
0
220
0
230
1
0
ENDBLK
5
19B
100
AcDbEntity
8
0
100
AcDbBlockEnd
0
BLOCK
5
1A8
100
AcDbEntity
8
0
100
AcDbBlockBegin
2
DimnDraft3D5
70
0
10
0
20
0
30
0
3
DimnDraft3D5
0
MTEXT
5
19E
100
AcDbEntity
8
SK2
62
256
6
ByLayer
370
18
48
1
60
0
100
AcDbMText
10
-41.55086
20
60.7875
30
0
210
0
220
0
230
1
1
\W0.6864;150.0
40
4.5
41
0
44
1.084337
50
0
71
7
72
5
7
iso_b_vert
0
LINE
5
19F
100
AcDbEntity
8
SK2
62
256
6
ByLayer
370
13
48
1
60
0
100
AcDbLine
10
39.399798
20
21.9125
30
0
11
39.399798
21
61.6625
31
0
39
0
210
0
220
0
230
1
0
LINE
5
1A0
100
AcDbEntity
8
SK2
62
256
6
ByLayer
370
13
48
1
60
0
100
AcDbLine
10
-111.950202
20
14.4375
30
0
11
-111.950202
21
61.6625
31
0
39
0
210
0
220
0
230
1
0
LINE
5
1A1
100
AcDbEntity
8
SK2
62
256
6
ByLayer
370
13
48
1
60
0
100
AcDbLine
10
39.399798
20
59.6625
30
0
11
-111.950202
21
59.6625
31
0
39
0
210
0
220
0
230
1
0
LINE
5
1A2
100
AcDbEntity
8
SK2
62
256
6
ByLayer
370
13
48
1
60
0
100
AcDbLine
10
39.399798
20
59.6625
30
0
11
36.224799
21
59.244503
31
0
39
0
210
0
220
0
230
1
0
LINE
5
1A3
100
AcDbEntity
8
SK2
62
256
6
ByLayer
370
13
48
1
60
0
100
AcDbLine
10
39.399798
20
59.6625
30
0
11
36.224796
21
60.080497
31
0
39
0
210
0
220
0
230
1
0
LINE
5
1A4
100
AcDbEntity
8
SK2
62
256
6
ByLayer
370
13
48
1
60
0
100
AcDbLine
10
36.224799
20
59.244503
30
0
11
36.224796
21
60.080497
31
0
39
0
210
0
220
0
230
1
0
LINE
5
1A5
100
AcDbEntity
8
SK2
62
256
6
ByLayer
370
13
48
1
60
0
100
AcDbLine
10
-111.950202
20
59.6625
30
0
11
-108.775204
21
60.080497
31
0
39
0
210
0
220
0
230
1
0
LINE
5
1A6
100
AcDbEntity
8
SK2
62
256
6
ByLayer
370
13
48
1
60
0
100
AcDbLine
10
-111.950202
20
59.6625
30
0
11
-108.775201
21
59.244503
31
0
39
0
210
0
220
0
230
1
0
LINE
5
1A7
100
AcDbEntity
8
SK2
62
256
6
ByLayer
370
13
48
1
60
0
100
AcDbLine
10
-108.775204
20
60.080497
30
0
11
-108.775201
21
59.244503
31
0
39
0
210
0
220
0
230
1
0
ENDBLK
5
1A9
100
AcDbEntity
8
0
100
AcDbBlockEnd
0
ENDSEC
0
SECTION
2
ENTITIES
0
ELLIPSE
5
E5
100
AcDbEntity
8
1
62
256
6
ByLayer
370
18
48
1
60
0
100
AcDbEllipse
10
28.385738
20
13.053841
30
0
11
1.80042269365874
21
-1.847938885396
31
0
210
0
220
0
230
1
40
0.987534
41
-0.330418070028273
42
0
0
ELLIPSE
5
E6
100
AcDbEntity
8
1
62
256
6
ByLayer
370
18
48
1
60
0
100
AcDbEllipse
10
28.385738
20
13.053841
30
0
11
1.80042269365874
21
-1.847938885396
31
0
210
0
220
0
230
1
40
0.987534
41
0
42
2.3383648589003
0
ELLIPSE
5
E7
100
AcDbEntity
8
1
62
256
6
ByLayer
370
18
48
1
60
0
100
AcDbEllipse
10
27.669813
20
12.356324
30
0
11
-1.80042269365874
21
1.847938885396
31
0
210
0
220
0
230
1
40
0.987534
41
-2.94406070229373
42
-2.64305685094319
0
ELLIPSE
5
E8
100
AcDbEntity
8
1
62
256
6
ByLayer
370
18
48
1
60
0
100
AcDbEllipse
10
31.3992
20
8.574713
30
0
11
0.831125359747117
21
-0.853060159886292
31
0
210
0
220
0
230
1
40
0.987534
41
-0.233835969021945
42
4.44879700150114E-06
0
ELLIPSE
5
E9
100
AcDbEntity
8
1
62
256
6
ByLayer
370
18
48
1
60
0
100
AcDbEllipse
10
29.929927
20
7.285325
30
0
11
1.11654120536981
21
-1.14600861109834
31
0
210
0
220
0
230
1
40
0.987534
41
-0.713801513320347
42
-2.69989449884986E-06
0
ELLIPSE
5
EA
100
AcDbEntity
8
1
62
256
6
ByLayer
370
18
48
1
60
0
100
AcDbEllipse
10
24.414733
20
16.457941
30
0
11
1.11654120536984
21
-1.14600861109837
31
0
210
0
220
0
230
1
40
0.987534
41
3.14158983163967
42
-2.89546307831325
0
ELLIPSE
5
EB
100
AcDbEntity
8
1
62
256
6
ByLayer
370
18
48
1
60
0
100
AcDbEllipse
10
13.632637
20
10.376859
30
0
11
-0.265178536275318
21
0.272177045135845
31
0
210
0
220
0
230
1
40
0.987534
41
-0.403396498438459
42
-0.342180053776458
0
ELLIPSE
5
EC
100
AcDbEntity
8
1
62
256
6
ByLayer
370
18
48
1
60
0
100
AcDbEllipse
10
15.197035
20
9.089199
30
0
11
0.296581257676343
21
-0.304408537322984
31
0
210
0
220
0
230
1
40
0.987534
41
3.14158584376972
42
-2.80444236523644
0
ELLIPSE
5
ED
100
AcDbEntity
8
1
62
256
6
ByLayer
370
18
48
1
60
0
100
AcDbEllipse
10
13.339482
20
11.124931
30
0
11
0.296581257676343
21
-0.304408537322984
31
0
210
0
220
0
230
1
40
0.987534
41
-0.403396498438493
42
1.88105428723902E-05
0
ELLIPSE
5
EE
100
AcDbEntity
8
1
62
256
6
ByLayer
370
18
48
1
60
0
100
AcDbEllipse
10
15.694962
20
9.709093
30
0
11
-0.265178536275318
21
0.272177045135845
31
0
210
0
220
0
230
1
40
0.987534
41
-2.79939683891873
42
-1.75724481403995
0
ELLIPSE
5
EF
100
AcDbEntity
8
1
62
256
6
ByLayer
370
18
48
1
60
0
100
AcDbEllipse
10
14.003145
20
11.563191
30
0
11
-0.265178536275318
21
0.272177045135845
31
0
210
0
220
0
230
1
40
0.987534
41
-1.45059404963505
42
-0.342174994296277
0
ELLIPSE
5
F0
100
AcDbEntity
8
1
62
256
6
ByLayer
370
18
48
1
60
0
100
AcDbEllipse
10
16.358625
20
10.147353
30
0
11
0.296581257676343
21
-0.304408537322984
31
0
210
0
220
0
230
1
40
0.987534
41
-3.14157244993307
42
-1.75724481403983
0
ELLIPSE
5
F1
100
AcDbEntity
8
1
62
256
6
ByLayer
370
18
48
1
60
0
100
AcDbEllipse
10
14.501071
20
12.183085
30
0
11
0.296581257676343
21
-0.304408537322984
31
0
210
0
220
0
230
1
40
0.987534
41
-1.45059404963508
42
-6.81496148210819E-06
0
ELLIPSE
5
F2
100
AcDbEntity
8
1
62
256
6
ByLayer
370
18
48
1
60
0
100
AcDbEllipse
10
14.758858
20
10.548266
30
0
11
2.79135301342441
21
-2.86502152774573
31
0
210
0
220
0
230
1
40
0.987534
41
3.14152162621429
42
-0.77864613721936
0
ELLIPSE
5
F3
100
AcDbEntity
8
1
62
256
6
ByLayer
370
18
48
1
60
0
100
AcDbEllipse
10
14.758858
20
10.548266
30
0
11
2.79135301342441
21
-2.86502152774573
31
0
210
0
220
0
230
1
40
0.987534
41
-0.77864588563493
42
-4.49695109079852E-16
0
ELLIPSE
5
F4
100
AcDbEntity
8
1
62
256
6
ByLayer
370
18
48
1
60
0
100
AcDbEllipse
10
16.06547
20
10.895424
30
0
11
-0.265178536275318
21
0.272177045135845
31
0
210
0
220
0
230
1
40
0.987534
41
-2.79935548313882
42
-0.710047262843254
0
ELLIPSE
5
F5
100
AcDbEntity
8
1
62
256
6
ByLayer
370
18
48
1
60
0
100
AcDbEllipse
10
15.219561
20
11.822474
30
0
11
-0.265178536275318
21
0.272177045135845
31
0
210
0
220
0
230
1
40
0.987534
41
-2.49779160083161
42
-0.342171625757624
0
ELLIPSE
5
F6
100
AcDbEntity
8
1
62
256
6
ByLayer
370
18
48
1
60
0
100
AcDbEllipse
10
14.849053
20
10.636142
30
0
11
0.802513991359517
21
-0.823693689226898
31
0
210
0
220
0
230
1
40
0.987534
41
-1.29804002362822
42
-0.778646487249863
0
ELLIPSE
5
F7
100
AcDbEntity
8
1
62
256
6
ByLayer
370
18
48
1
60
0
100
AcDbEllipse
10
14.849053
20
10.636142
30
0
11
0.802513991359517
21
-0.823693689226898
31
0
210
0
220
0
230
1
40
0.987534
41
-2.58854668707934
42
-1.92164538258303
0
ELLIPSE
5
F8
100
AcDbEntity
8
1
62
256
6
ByLayer
370
18
48
1
60
0
100
AcDbEllipse
10
14.849053
20
10.636142
30
0
11
0.802513991359517
21
-0.823693689226898
31
0
210
0
220
0
230
1
40
0.987534
41
-0.195831875445837
42
0
0
ELLIPSE
5
F9
100
AcDbEntity
8
1
62
256
6
ByLayer
370
18
48
1
60
0
100
AcDbEllipse
10
14.849053
20
10.636142
30
0
11
0.802513991359517
21
-0.823693689226898
31
0
210
0
220
0
230
1
40
0.987534
41
0
42
-3.00009578200859
0
ELLIPSE
5
FA
100
AcDbEntity
8
1
62
256
6
ByLayer
370
18
48
1
60
0
100
AcDbEllipse
10
14.849053
20
10.636142
30
0
11
0.802513991359517
21
-0.823693689226898
31
0
210
0
220
0
230
1
40
0.987534
41
-0.778645612173609
42
-0.63496697133727
0
ELLIPSE
5
FB
100
AcDbEntity
8
1
62
256
6
ByLayer
370
18
48
1
60
0
100
AcDbEllipse
10
14.792681
20
10.581219
30
0
11
0.802513991359517
21
-0.823693689226898
31
0
210
0
220
0
230
1
40
0.987534
41
0.0346827327959966
42
3.10686561729261
0
ELLIPSE
5
FC
100
AcDbEntity
8
1
62
256
6
ByLayer
370
18
48
1
60
0
100
AcDbEllipse
10
7.947142
20
14.797477
30
0
11
1.97548026366514
21
-2.25775944862811
31
0
210
0
220
0
230
1
40
0.985051
41
-0.503892937168493
42
-0.187717665000401
0
ELLIPSE
5
FD
100
AcDbEntity
8
1
62
256
6
ByLayer
370
18
48
1
60
0
100
AcDbEllipse
10
13.47131
20
10.26271
30
0
11
2.73274769807011
21
-3.12323390393555
31
0
210
0
220
0
230
1
40
0.985051
41
2.6376997164213
42
2.93053762613469
0
ELLIPSE
5
FE
100
AcDbEntity
8
1
62
256
6
ByLayer
370
18
48
1
60
0
100
AcDbEllipse
10
15.453949
20
10.682245
30
0
11
-2.7327476980701
21
3.12323390393556
31
0
210
0
220
0
230
1
40
0.985051
41
3.0229866199574
42
-0.503892937168491
0
ELLIPSE
5
FF
100
AcDbEntity
8
1
62
256
6
ByLayer
370
18
48
1
60
0
100
AcDbEllipse
10
13.393938
20
10.246338
30
0
11
-1.71208289517645
21
1.9567248554777
31
0
210
0
220
0
230
1
40
0.985051
41
0.976435233351491
42
1.16738499093872
0
ELLIPSE
5
100
100
AcDbEntity
8
1
62
256
6
ByLayer
370
18
48
1
60
0
100
AcDbEllipse
10
18.719649
20
4.772533
30
0
11
1.65314319602558
21
-1.69677243339754
31
0
210
0
220
0
230
1
40
0.987534
41
-1.68413813115885
42
-1.32466675151838
0
ELLIPSE
5
101
100
AcDbEntity
8
1
62
256
6
ByLayer
370
18
48
1
60
0
100
AcDbEllipse
10
27.358235
20
12.133633
30
0
11
1.90160924039538
21
-1.95179591577678
31
0
210
0
220
0
230
1
40
0.987534
41
0.323882917365413
42
0.539474732847362
0
ELLIPSE
5
102
100
AcDbEntity
8
1
62
256
6
ByLayer
370
18
48
1
60
0
100
AcDbEllipse
10
18.974394
20
4.614505
30
0
11
1.65314319602558
21
-1.69677243339754
31
0
210
0
220
0
230
1
40
0.987534
41
-1.3246667515184
42
0.246129575276505
0
ELLIPSE
5
103
100
AcDbEntity
8
1
62
256
6
ByLayer
370
18
48
1
60
0
100
AcDbEllipse
10
32.115124
20
9.272229
30
0
11
-0.831125359747115
21
0.853060159886294
31
0
210
0
220
0
230
1
40
0.987534
41
2.90775668456785
42
-2.89546307831329
0
ELLIPSE
5
104
100
AcDbEntity
8
1
62
256
6
ByLayer
370
18
48
1
60
0
100
AcDbEllipse
10
24.656352
20
16.835452
30
0
11
-0.831125359747115
21
0.853060159886294
31
0
210
0
220
0
230
1
40
0.987534
41
-0.233835969021928
42
0.246129575276516
0
ELLIPSE
5
105
100
AcDbEntity
8
1
62
256
6
ByLayer
370
18
48
1
60
0
100
AcDbEllipse
10
26.801857
20
18.10901
30
0
11
-0.831125359747115
21
0.853060159886294
31
0
210
0
220
0
230
1
40
0.987534
41
-0.713801513320385
42
-0.233835969021924
0
ELLIPSE
5
106
100
AcDbEntity
8
1
62
256
6
ByLayer
370
18
48
1
60
0
100
AcDbEllipse
10
29.969619
20
7.998671
30
0
11
-0.831125359747115
21
0.853060159886294
31
0
210
0
220
0
230
1
40
0.987534
41
2.42779114026945
42
2.90775668456786
0
ELLIPSE
5
107
100
AcDbEntity
8
1
62
256
6
ByLayer
370
18
48
1
60
0
100
AcDbEllipse
10
38.610649
20
19.12328
30
0
11
-0.554083573164743
21
0.568706773257529
31
0
210
0
220
0
230
1
40
0.987534
41
-2.89546307831326
42
-0.713801513320351
0
ELLIPSE
5
108
100
AcDbEntity
8
1
62
256
6
ByLayer
370
18
48
1
60
0
100
AcDbEllipse
10
30.42741
20
7.770016
30
0
11
-1.11654120536976
21
1.14600861109829
31
0
210
0
220
0
230
1
40
0.987534
41
2.42779114026944
42
-2.89546307831327
0
ELLIPSE
5
109
100
AcDbEntity
8
1
62
256
6
ByLayer
370
18
48
1
60
0
100
AcDbEllipse
10
24.912216
20
16.942633
30
0
11
-1.11654120536976
21
1.14600861109829
31
0
210
0
220
0
230
1
40
0.987534
41
-0.713801513320369
42
0.246129575276497
0
ELLIPSE
5
10A
100
AcDbEntity
8
1
62
256
6
ByLayer
370
18
48
1
60
0
100
AcDbEllipse
10
5.700496
20
1.148668
30
0
11
6.82934418825403
21
1.53624801329765
31
0
210
0
220
0
230
1
40
0.083175
41
-0.812513867698234
42
-0.797732830958245
0
ELLIPSE
5
10B
100
AcDbEntity
8
1
62
256
6
ByLayer
370
18
48
1
60
0
100
AcDbEllipse
10
12.856512
20
4.994973
30
0
11
-5.3223641961775
21
-1.39900141641304
31
0
210
0
220
0
230
1
40
0.320139
41
-0.607907405063459
42
-0.554915097817952
0
ELLIPSE
5
10C
100
AcDbEntity
8
1
62
256
6
ByLayer
370
18
48
1
60
0
100
AcDbEllipse
10
10.343793
20
14.245775
30
0
11
-3.82773442475421
21
0.907594688903793
31
0
210
0
220
0
230
1
40
0.449589
41
-0.758730297705475
42
-0.399114564348462
0
ELLIPSE
5
10D
100
AcDbEntity
8
1
62
256
6
ByLayer
370
18
48
1
60
0
100
AcDbEllipse
10
10.429333
20
16.216694
30
0
11
-3.45654390322921
21
-0.579964293026909
31
0
210
0
220
0
230
1
40
0.288972
41
-0.110851984962269
42
0.612366121436436
0
ELLIPSE
5
10E
100
AcDbEntity
8
1
62
256
6
ByLayer
370
18
48
1
60
0
100
AcDbEllipse
10
28.826864
20
13.402473
30
0
11
-0.244919138435994
21
2.36066737615022
31
0
210
0
220
0
230
1
40
0.796311
41
-2.42084415876588
42
-1.56563282528766
0
ELLIPSE
5
10F
100
AcDbEntity
8
1
62
256
6
ByLayer
370
18
48
1
60
0
100
AcDbEllipse
10
12.376319
20
7.129661
30
0
11
5.36591329077102
21
1.20705201044815
31
0
210
0
220
0
230
1
40
0.083175
41
1.98301140604761
42
2.42477914533364
0
ELLIPSE
5
110
100
AcDbEntity
8
1
62
256
6
ByLayer
370
18
48
1
60
0
100
AcDbEllipse
10
8.026744
20
13.271278
30
0
11
-0.444337541742468
21
-1.95001644839172
31
0
210
0
220
0
230
1
40
0.807679
41
-2.66386309697108
42
-1.25118760271147
0
ELLIPSE
5
111
100
AcDbEntity
8
1
62
256
6
ByLayer
370
18
48
1
60
0
100
AcDbEllipse
10
9.866708
20
5.09177
30
0
11
1.49832280026797
21
-1.3247749945546
31
0
210
0
220
0
230
1
40
0.754402
41
-2.12034306913165
42
-0.707667574872056
0
ELLIPSE
5
112
100
AcDbEntity
8
1
62
256
6
ByLayer
370
18
48
1
60
0
100
AcDbEllipse
10
10.758866
20
14.319998
30
0
11
-5.40555364123959
21
-1.03051173428086
31
0
210
0
220
0
230
1
40
0.153994
41
0.548524101484736
42
0.601516404638522
0
ELLIPSE
5
113
100
AcDbEntity
8
1
62
256
6
ByLayer
370
18
48
1
60
0
100
AcDbEllipse
10
28.826864
20
13.402473
30
0
11
-1.67589864627288
21
1.43101267968529
31
0
210
0
220
0
230
1
40
0.772193
41
-2.19839322604737
42
-1.34318189256682
0
ELLIPSE
5
114
100
AcDbEntity
8
1
62
256
6
ByLayer
370
18
48
1
60
0
100
AcDbEllipse
10
9.483739
20
4.505349
30
0
11
-2.66344707802405
21
1.40123612186369
31
0
210
0
220
0
230
1
40
0.988643
41
0.699939923636394
42
1.75162898670066
0
ELLIPSE
5
115
100
AcDbEntity
8
1
62
256
6
ByLayer
370
18
48
1
60
0
100
AcDbEllipse
10
7.646629
20
12.672166
30
0
11
-2.66344707801914
21
1.40123612186991
31
0
210
0
220
0
230
1
40
0.988643
41
-0.35174913942535
42
0.699939923639155
0
ELLIPSE
5
116
100
AcDbEntity
8
1
62
256
6
ByLayer
370
18
48
1
60
0
100
AcDbEllipse
10
12.180903
20
6.078959
30
0
11
-2.40333798686536
21
-3.82847615131039
31
0
210
0
220
0
230
1
40
0.535969
41
0.120157045489167
42
0.479772778840504
0
ELLIPSE
5
117
100
AcDbEntity
8
1
62
256
6
ByLayer
370
18
48
1
60
0
100
AcDbEllipse
10
11.23906
20
12.185309
30
0
11
5.36591329077102
21
1.20705201044815
31
0
210
0
220
0
230
1
40
0.083175
41
1.9830114060476
42
2.42477914533364
0
ELLIPSE
5
118
100
AcDbEntity
8
1
62
256
6
ByLayer
370
18
48
1
60
0
100
AcDbEllipse
10
13.345377
20
3.253511
30
0
11
-3.36435260982275
21
-0.985138713420962
31
0
210
0
220
0
230
1
40
0.454664
41
-0.625392807787594
42
0.0978252986103915
0
ELLIPSE
5
119
100
AcDbEntity
8
1
62
256
6
ByLayer
370
18
48
1
60
0
100
AcDbEllipse
10
15.029444
20
10.811894
30
0
11
-1.60502798271903
21
1.6473873784538
31
0
210
0
220
0
230
1
40
0.987534
41
0
42
6.28318530717959
0
ELLIPSE
5
11A
100
AcDbEntity
8
1
62
256
6
ByLayer
370
18
48
1
60
0
100
AcDbEllipse
10
15.875353
20
9.884845
30
0
11
-0.265178536275318
21
0.272177045135845
31
0
210
0
220
0
230
1
40
0.987534
41
1.69099860395475
42
-1.7572448140398
0
ELLIPSE
5
11B
100
AcDbEntity
8
1
62
256
6
ByLayer
370
18
48
1
60
0
100
AcDbEllipse
10
16.539015
20
10.323105
30
0
11
0.296581257676343
21
-0.304408537322984
31
0
210
0
220
0
230
1
40
0.987534
41
2.7381961551513
42
-1.75724481403993
0
ELLIPSE
5
11C
100
AcDbEntity
8
1
62
256
6
ByLayer
370
18
48
1
60
0
100
AcDbEllipse
10
14.946685
20
10.731263
30
0
11
-2.7913530134244
21
2.86502152774574
31
0
210
0
220
0
230
1
40
0.987534
41
0
42
6.28318530717959
0
ELLIPSE
5
11D
100
AcDbEntity
8
1
62
256
6
ByLayer
370
18
48
1
60
0
100
AcDbEllipse
10
13.867854
20
9.75374
30
0
11
0.296581257676343
21
-0.304408537322984
31
0
210
0
220
0
230
1
40
0.987534
41
0.643801052758158
42
2.4315453907465
0
ELLIPSE
5
11E
100
AcDbEntity
8
1
62
256
6
ByLayer
370
18
48
1
60
0
100
AcDbEllipse
10
16.24586
20
11.071177
30
0
11
-0.265178536275318
21
0.272177045135845
31
0
210
0
220
0
230
1
40
0.987534
41
2.73819615515142
42
-0.710047262843281
0
ELLIPSE
5
11F
100
AcDbEntity
8
1
62
256
6
ByLayer
370
18
48
1
60
0
100
AcDbEllipse
10
14.658936
20
9.625562
30
0
11
-0.265178536275318
21
0.272177045135845
31
0
210
0
220
0
230
1
40
0.987534
41
0.643801052758158
42
-2.80444236523647
0
ELLIPSE
5
120
100
AcDbEntity
8
1
62
256
6
ByLayer
370
18
48
1
60
0
100
AcDbEllipse
10
13.519872
20
11.300683
30
0
11
0.296581257676343
21
-0.304408537322984
31
0
210
0
220
0
230
1
40
0.987534
41
-0.4033964984384
42
1.38434783954991
0
ELLIPSE
5
121
100
AcDbEntity
8
1
62
256
6
ByLayer
370
18
48
1
60
0
100
AcDbEllipse
10
13.813027
20
10.552611
30
0
11
-0.265178536275318
21
0.272177045135845
31
0
210
0
220
0
230
1
40
0.987534
41
-0.403396498438457
42
2.43154539074654
0
ELLIPSE
5
122
100
AcDbEntity
8
1
62
256
6
ByLayer
370
18
48
1
60
0
100
AcDbEllipse
10
14.183535
20
11.738943
30
0
11
-0.265178536275318
21
0.272177045135845
31
0
210
0
220
0
230
1
40
0.987534
41
-1.45059404963504
42
1.38434783954996
0
ELLIPSE
5
123
100
AcDbEntity
8
1
62
256
6
ByLayer
370
18
48
1
60
0
100
AcDbEllipse
10
15.399952
20
11.998226
30
0
11
-0.265178536275318
21
0.272177045135845
31
0
210
0
220
0
230
1
40
0.987534
41
-2.49779160083158
42
0.337150288353281
0
ELLIPSE
5
124
100
AcDbEntity
8
1
62
256
6
ByLayer
370
18
48
1
60
0
100
AcDbEllipse
10
16.010643
20
11.694296
30
0
11
0.296581257676343
21
-0.304408537322984
31
0
210
0
220
0
230
1
40
0.987534
41
-2.49779160083167
42
-0.710047262843346
0
ELLIPSE
5
125
100
AcDbEntity
8
1
62
256
6
ByLayer
370
18
48
1
60
0
100
AcDbEllipse
10
14.681462
20
12.358837
30
0
11
0.296581257676343
21
-0.304408537322984
31
0
210
0
220
0
230
1
40
0.987534
41
-1.45059404963508
42
0.337150288353321
0
ELLIPSE
5
126
100
AcDbEntity
8
1
62
256
6
ByLayer
370
18
48
1
60
0
100
AcDbEllipse
10
16.191034
20
11.870048
30
0
11
0.296581257676343
21
-0.304408537322984
31
0
210
0
220
0
230
1
40
0.987534
41
-2.49779160083169
42
-0.710047262843319
0
ELLIPSE
5
127
100
AcDbEntity
8
1
62
256
6
ByLayer
370
18
48
1
60
0
100
AcDbEllipse
10
15.377426
20
9.264951
30
0
11
0.296581257676343
21
-0.304408537322984
31
0
210
0
220
0
230
1
40
0.987534
41
1.69099860395475
42
-2.80444236523644
0
POINT
5
6C
100
AcDbEntity
8
2
62
256
6
ByLayer
370
18
48
1
60
0
100
AcDbPoint
10
39.399798
20
19.9125
30
0
39
0
210
0
220
0
230
1
50
360
0
POINT
5
6E
100
AcDbEntity
8
80
62
256
6
ByLayer
370
18
48
1
60
0
100
AcDbPoint
10
0
20
0
30
0
39
0
210
0
220
0
230
1
50
360
0
POINT
5
70
100
AcDbEntity
8
81
62
256
6
ByLayer
370
18
48
1
60
0
100
AcDbPoint
10
39.399798
20
19.9125
30
0
39
0
210
0
220
0
230
1
50
360
0
SPLINE
5
128
100
AcDbEntity
8
1
62
256
6
ByLayer
370
18
48
1
60
0
100
AcDbSpline
70
4
71
3
72
8
73
4
40
0
40
0
40
0
40
0
40
1
40
1
40
1
40
1
41
1
10
6.21206121328396
20
15.3084517219168
30
0
41
1
10
6.01223341192383
20
15.1920370513023
30
0
41
1
10
5.81224306924582
20
15.0546170753795
30
0
41
1
10
5.62356028696757
20
14.8948493692087
30
0
0
SPLINE
5
129
100
AcDbEntity
8
1
62
256
6
ByLayer
370
18
48
1
60
0
100
AcDbSpline
70
4
71
3
72
8
73
4
40
0
40
0
40
0
40
0
40
1
40
1
40
1
40
1
41
1
10
29.3254878171114
20
15.10307735662
30
0
41
1
10
29.2483742897666
20
15.1429392276386
30
0
41
1
10
29.1711653073468
20
15.1788681401109
30
0
41
1
10
29.0952686079658
20
15.2103687434874
30
0
0
SPLINE
5
12A
100
AcDbEntity
8
1
62
256
6
ByLayer
370
18
48
1
60
0
100
AcDbSpline
70
4
71
3
72
8
73
4
40
0
40
0
40
0
40
0
40
1
40
1
40
1
40
1
41
1
10
29.9524783896317
20
11.3996685246036
30
0
41
1
10
30.0091547914074
20
11.4536111742773
30
0
41
1
10
30.0649390663864
20
11.5129251522605
30
0
41
1
10
30.1187371104062
20
11.5767115588407
30
0
0
SPLINE
5
12B
100
AcDbEntity
8
1
62
256
6
ByLayer
370
18
48
1
60
0
100
AcDbSpline
70
4
71
2
72
6
73
3
40
0
40
0
40
0
40
1
40
1
40
1
41
1.02805999725224
10
15.0956975515334
20
16.7449817888045
30
0
41
0.93055444607248
10
15.402563099609
20
16.3407338029405
30
0
41
0.937301687719828
10
15.8142281152818
20
15.0571890037036
30
0
0
SPLINE
5
12C
100
AcDbEntity
8
1
62
256
6
ByLayer
370
18
48
1
60
0
100
AcDbSpline
70
4
71
3
72
12
73
8
40
0
40
0
40
0
40
0
40
0.108854002841678
40
0.502629245107336
40
0.699516866240165
40
0.896404487372994
40
1
40
1
40
1
40
1
41
1.0244126255267
10
19.6029804991533
20
13.0018400360396
30
0
41
1.02394775696077
10
19.9412262945515
20
13.0418593979418
30
0
41
1.02173322391444
10
21.543917543461
20
13.2221071187939
30
0
41
1.01876555595691
10
23.8092428575117
20
13.4122032635466
30
0
41
1.01610930227499
10
25.3343209957286
20
13.4989563762471
30
0
41
1.01814069306376
10
26.0198758161884
20
13.627194713796
30
0
41
1.0200519600697
10
26.6349819747822
20
13.7191634519342
30
0
41
1.02076673234771
10
26.8604045056995
20
13.7500861493754
30
0
0
SPLINE
5
12D
100
AcDbEntity
8
1
62
256
6
ByLayer
370
18
48
1
60
0
100
AcDbSpline
70
4
71
3
72
10
73
6
40
0
40
0
40
0
40
0
40
0.5
40
0.5
40
1
40
1
40
1
40
1
41
1
10
27.9603905127776
20
15.9024542484341
30
0
41
1
10
27.2367422520264
20
16.1257101813172
30
0
41
1
10
26.6669653297838
20
16.0483753518616
30
0
41
1
10
25.9015956863827
20
15.6104006712632
30
0
41
1
10
25.6646909701211
20
15.2625063386197
30
0
41
1
10
25.4856058757908
20
14.880102279497
30
0
0
SPLINE
5
12E
100
AcDbEntity
8
1
62
256
6
ByLayer
370
18
48
1
60
0
100
AcDbSpline
70
4
71
3
72
8
73
4
40
0
40
0
40
0
40
0
40
1
40
1
40
1
40
1
41
1.01923193622652
10
27.0606875266349
20
7.94289870025102
30
0
41
1.02059843499303
10
27.4810772101816
20
8.32570864142475
30
0
41
1.02233811057541
10
27.9896063984574
20
8.81903865245042
30
0
41
1.02417041321379
10
28.4732175514015
20
9.35181604274599
30
0
0
SPLINE
5
12F
100
AcDbEntity
8
1
62
256
6
ByLayer
370
18
48
1
60
0
100
AcDbSpline
70
4
71
3
72
8
73
4
40
0
40
0
40
0
40
0
40
1
40
1
40
1
40
1
41
1
10
8.23187205695933
20
4.81979206227666
30
0
41
1
10
8.89400206299837
20
5.36433474078811
30
0
41
1
10
9.85143108657843
20
6.23632766335945
30
0
41
1
10
10.8634090785956
20
7.16863412193501
30
0
0
SPLINE
5
130
100
AcDbEntity
8
1
62
256
6
ByLayer
370
18
48
1
60
0
100
AcDbSpline
70
4
71
3
72
15
73
11
40
0
40
0
40
0
40
0
40
0.322163720426461
40
0.322163720426461
40
0.644833452600231
40
0.644833452600231
40
0.912233455904558
40
0.912233455904558
40
0.912233455904558
40
1
40
1
40
1
40
1
41
1
10
15.8142281152827
20
15.0571890037006
30
0
41
1
10
16.2986178203968
20
15.0666443417324
30
0
41
1
10
16.7912760477528
20
14.9924154844211
30
0
41
1
10
17.7132788061838
20
14.7026451183118
30
0
41
1
10
18.1558390470545
20
14.4826811385715
30
0
41
1
10
18.8645785352475
20
13.9596359626424
30
0
41
1
10
19.1558862663227
20
13.6699391416601
30
0
41
1
10
19.389133441152
20
13.3418948220323
30
0
41
1
10
19.4666470346598
20
13.2328778786856
30
0
41
1
10
19.538271073624
20
13.1191360931359
30
0
41
1
10
19.6029806479968
20
13.00184005365
30
0
0
SPLINE
5
131
100
AcDbEntity
8
1
62
256
6
ByLayer
370
18
48
1
60
0
100
AcDbSpline
70
4
71
3
72
11
73
7
40
0
40
0
40
0
40
0
40
0.423407924939467
40
0.740963868644068
40
0.899741840496368
40
1
40
1
40
1
40
1
41
1.02805999725225
10
17.7540590058253
20
4.92731615734413
30
0
41
1.02767136955277
10
18.5666732791547
20
5.21840011241176
30
0
41
1.02349884684923
10
21.2409340449017
20
7.10983759365681
30
0
41
1.01876555595691
10
24.4805271916746
20
9.77204576012766
30
0
41
1.01635405201137
10
25.7083499711293
20
10.7492138226647
30
0
41
1.01722454828226
10
26.1782858127559
20
10.8793590880908
30
0
41
1.01774327987904
10
26.3755511442227
20
10.9238774419981
30
0
0
SPLINE
5
132
100
AcDbEntity
8
1
62
256
6
ByLayer
370
18
48
1
60
0
100
AcDbSpline
70
4
71
3
72
10
73
6
40
0
40
0
40
0
40
0
40
0.967465556419478
40
0.967465556419478
40
1
40
1
40
1
40
1
41
1
10
26.8604045057175
20
13.7500861493778
30
0
41
1
10
27.2521991467398
20
13.5989035305189
30
0
41
1
10
27.6414949427438
20
13.4573940468234
30
0
41
1
10
28.0376225256138
20
13.3267138697026
30
0
41
1
10
28.0505146958672
20
13.322476207272
30
0
41
1
10
28.0633997289388
20
13.3182565842081
30
0
0
SPLINE
5
133
100
AcDbEntity
8
1
62
256
6
ByLayer
370
18
48
1
60
0
100
AcDbSpline
70
4
71
3
72
12
73
8
40
0
40
0
40
0
40
0
40
0.466938972358618
40
0.466938972358618
40
0.92880323687655
40
0.92880323687655
40
1
40
1
40
1
40
1
41
1
10
10.6325462075499
20
13.0267903544842
30
0
41
1
10
10.5175863801342
20
12.9020354525841
30
0
41
1
10
10.3785444074829
20
12.7806361174761
30
0
41
1
10
10.0848527337372
20
12.5697546054484
30
0
41
1
10
9.92668853495621
20
12.4767039398781
30
0
41
1
10
9.74432142350798
20
12.3859897314579
30
0
41
1
10
9.71969996856114
20
12.3740807203169
30
0
41
1
10
9.69506245218895
20
12.3624837958484
30
0
0
SPLINE
5
134
100
AcDbEntity
8
1
62
256
6
ByLayer
370
18
48
1
60
0
100
AcDbSpline
70
4
71
3
72
8
73
4
40
0
40
0
40
0
40
0
40
1
40
1
40
1
40
1
41
1
10
24.6637018449256
20
17.1772533791916
30
0
41
1
10
24.7701776871315
20
17.178754082473
30
0
41
1
10
24.8769954488913
20
17.1777470125125
30
0
41
1
10
24.9840212439802
20
17.1744486947775
30
0
0
SPLINE
5
135
100
AcDbEntity
8
1
62
256
6
ByLayer
370
18
48
1
60
0
100
AcDbSpline
70
4
71
3
72
11
73
7
40
0
40
0
40
0
40
0
40
0.423407924946042
40
0.740963868655573
40
0.899741840510339
40
1
40
1
40
1
40
1
41
1.02805999725224
10
15.0956975515334
20
16.7449817888045
30
0
41
1.02767136955277
10
15.9555689588462
20
16.8259855805525
30
0
41
1.02349884684923
10
19.1707187682305
20
16.3129171389511
30
0
41
1.01876555595691
10
23.2519202164603
20
15.2337809962704
30
0
41
1.01635405201144
10
24.7938987817619
20
14.8143789921052
30
0
41
1.01722454828215
10
25.2838845259025
20
14.8553930208114
30
0
41
1.0177432798788
10
25.4856058757083
20
14.8801022794869
30
0
0
SPLINE
5
136
100
AcDbEntity
8
1
62
256
6
ByLayer
370
18
48
1
60
0
100
AcDbSpline
70
4
71
3
72
8
73
4
40
0
40
0
40
0
40
0
40
1
40
1
40
1
40
1
41
1
10
6.24298346277482
20
12.9380043477138
30
0
41
1
10
6.23783936664751
20
12.9608722718295
30
0
41
1
10
6.23321331588409
20
12.9837435014275
30
0
41
1
10
6.22908134313292
20
13.0066180908154
30
0
0
SPLINE
5
137
100
AcDbEntity
8
1
62
256
6
ByLayer
370
18
48
1
60
0
100
AcDbSpline
70
4
71
3
72
15
73
11
40
0
40
0
40
0
40
0
40
0.227604479949748
40
0.227604479949748
40
0.479423709218441
40
0.479423709218441
40
0.785574270382838
40
0.785574270382838
40
0.785574270382838
40
1
40
1
40
1
40
1
41
1
10
20.1306700328619
20
10.656012815771
30
0
41
1
10
20.108587646689
20
10.3176447657076
30
0
41
1
10
20.0352051512718
20
9.97527485226095
30
0
41
1
10
19.7923876240956
20
9.29435812579146
30
0
41
1
10
19.6115799559597
20
8.95184329963286
30
0
41
1
10
19.1268053048137
20
8.26534374738731
30
0
41
1
10
18.7980474138069
20
7.92683173114867
30
0
41
1
10
18.4298475824643
20
7.6503572831833
30
0
41
1
10
18.1703745327802
20
7.45552376598232
30
0
41
1
10
17.8876139394683
20
7.28883231848644
30
0
41
1
10
17.5914254036434
20
7.15671208357529
30
0
0
SPLINE
5
138
100
AcDbEntity
8
1
62
256
6
ByLayer
370
18
48
1
60
0
100
AcDbSpline
70
4
71
3
72
8
73
4
40
0
40
0
40
0
40
0
40
1
40
1
40
1
40
1
41
1
10
15.8142281000369
20
15.0571890033734
30
0
41
1
10
15.5245481831082
20
15.0509718571009
30
0
41
1
10
15.2401396258587
20
15.0186273988714
30
0
41
1
10
14.9614184888318
20
14.9592172215877
30
0
0
SPLINE
5
139
100
AcDbEntity
8
1
62
256
6
ByLayer
370
18
48
1
60
0
100
AcDbSpline
70
4
71
3
72
20
73
16
40
0
40
0
40
0
40
0
40
0.332873226652384
40
0.332873226652384
40
0.501657261698202
40
0.501657261698202
40
0.631212321676501
40
0.631212321676501
40
0.722542323637657
40
0.722542323637657
40
0.814765347404176
40
0.814765347404176
40
0.896421359038783
40
0.896421359038783
40
1
40
1
40
1
40
1
41
1
10
27.1325318046616
20
12.5403524531087
30
0
41
1
10
26.9799088557371
20
12.4045266592683
30
0
41
1
10
26.827706337658
20
12.2554640708419
30
0
41
1
10
26.6124073451434
20
11.9962661574259
30
0
41
1
10
26.5416318730997
20
11.9018731111026
30
0
41
1
10
26.4294410032209
20
11.7208274369042
30
0
41
1
10
26.3842387445551
20
11.635883697737
30
0
41
1
10
26.3238590725285
20
11.4862583178911
30
0
41
1
10
26.303424182006
20
11.4216667589717
30
0
41
1
10
26.277869391046
20
11.2964267100061
30
0
41
1
10
26.2727489169504
20
11.2341794767378
30
0
41
1
10
26.2789425689455
20
11.1298802222074
30
0
41
1
10
26.2883854035979
20
11.0850640012626
30
0
41
1
10
26.3204055940333
20
10.9973522213007
30
0
41
1
10
26.3460035565083
20
10.9568282752656
30
0
41
1
10
26.3755511442223
20
10.923877441998
30
0
0
SPLINE
5
13A
100
AcDbEntity
8
1
62
256
6
ByLayer
370
18
48
1
60
0
100
AcDbSpline
70
4
71
3
72
8
73
4
40
0
40
0
40
0
40
0
40
1
40
1
40
1
40
1
41
1
10
14.7857275366893
20
6.46525277310417
30
0
41
1
10
13.8840881207867
20
6.27306585066222
30
0
41
1
10
12.9649682958086
20
6.43084152795626
30
0
41
1
10
12.1918002977402
20
6.86922866534678
30
0
0
SPLINE
5
13B
100
AcDbEntity
8
1
62
256
6
ByLayer
370
18
48
1
60
0
100
AcDbSpline
70
4
71
3
72
10
73
6
40
0
40
0
40
0
40
0
40
0.5
40
0.5
40
1
40
1
40
1
40
1
41
1
10
10.0408561671866
20
2.12368265604312
30
0
41
1
10
9.60879230755188
20
2.2760352899854
30
0
41
1
10
9.30714198965211
20
2.5451486286824
30
0
41
1
10
8.63853989572641
20
3.37687766296313
30
0
41
1
10
8.28421235198465
20
4.01128351056468
30
0
41
1
10
8.09682218582753
20
4.70363253196626
30
0
0
SPLINE
5
13C
100
AcDbEntity
8
1
62
256
6
ByLayer
370
18
48
1
60
0
100
AcDbSpline
70
4
71
3
72
8
73
4
40
0
40
0
40
0
40
0
40
1
40
1
40
1
40
1
41
1
10
9.69506245218895
20
12.3624837958484
30
0
41
1
10
9.46350917537598
20
12.2534912407121
30
0
41
1
10
9.23009129305052
20
12.1719829325501
30
0
41
1
10
8.9972745951593
20
12.1106419194766
30
0
0
SPLINE
5
13D
100
AcDbEntity
8
1
62
256
6
ByLayer
370
18
48
1
60
0
100
AcDbSpline
70
4
71
3
72
20
73
16
40
0
40
0
40
0
40
0
40
0.110576036200127
40
0.110576036200127
40
0.197179369122808
40
0.197179369122808
40
0.284291117387372
40
0.284291117387372
40
0.365904217918086
40
0.365904217918086
40
0.497270233392076
40
0.497270233392076
40
0.733496364826714
40
0.733496364826714
40
1
40
1
40
1
40
1
41
1
10
25.4856058757922
20
14.8801022794971
30
0
41
1
10
25.4696618871276
20
14.8460655780456
30
0
41
1
10
25.4614758056399
20
14.8060310385163
30
0
41
1
10
25.4692960805078
20
14.7241100302728
30
0
41
1
10
25.4807947174554
20
14.683631606261
30
0
41
1
10
25.5217585041826
20
14.5984587710847
30
0
41
1
10
25.5519482551387
20
14.5526563103836
30
0
41
1
10
25.6231174386166
20
14.4659909916949
30
0
41
1
10
25.6639491413077
20
14.4240276163384
30
0
41
1
10
25.7773924582506
20
14.3208593378754
30
0
41
1
10
25.8559431636454
20
14.2615203788507
30
0
41
1
10
26.0773137166158
20
14.1124872593516
30
0
41
1
10
26.2261056480219
20
14.0319569488234
30
0
41
1
10
26.5359521541751
20
13.8810790699118
30
0
41
1
10
26.6995511735455
20
13.8121234203165
30
0
41
1
10
26.8604045057175
20
13.7500861493778
30
0
0
SPLINE
5
13E
100
AcDbEntity
8
1
62
256
6
ByLayer
370
18
48
1
60
0
100
AcDbSpline
70
4
71
3
72
11
73
7
40
0
40
0
40
0
40
0
40
0.564783939443781
40
0.564783939443781
40
0.564783939443781
40
1
40
1
40
1
40
1
41
1
10
24.6637018449256
20
17.1772533791916
30
0
41
1
10
24.2960257066533
20
17.1720712385692
30
0
41
1
10
23.8769125062902
20
17.1813587126287
30
0
41
1
10
23.4445992793192
20
17.2329117082217
30
0
41
1
10
23.1087153827011
20
17.2729655857388
30
0
41
1
10
22.7597741415929
20
17.3311191574029
30
0
41
1
10
22.4117105409894
20
17.3971562829909
30
0
0
SPLINE
5
13F
100
AcDbEntity
8
1
62
256
6
ByLayer
370
18
48
1
60
0
100
AcDbSpline
70
4
71
3
72
8
73
4
40
0
40
0
40
0
40
0
40
1
40
1
40
1
40
1
41
1
10
10.7700743028051
20
13.1894686765659
30
0
41
1
10
11.2946451342564
20
13.867418559585
30
0
41
1
10
12.06608842041
20
14.3420696507413
30
0
41
1
10
12.9704880967275
20
14.5348449302858
30
0
0
SPLINE
5
140
100
AcDbEntity
8
1
62
256
6
ByLayer
370
18
48
1
60
0
100
AcDbSpline
70
4
71
3
72
10
73
6
40
0
40
0
40
0
40
0
40
0.5
40
0.5
40
1
40
1
40
1
40
1
41
1
10
26.3755511442223
20
10.9238774419981
30
0
41
1
10
26.7290308606608
20
10.5296245571854
30
0
41
1
10
27.1116896207774
20
10.1929834361964
30
0
41
1
10
28.053044395805
20
9.86727313177792
30
0
41
1
10
28.6239806236007
20
9.90680139366677
30
0
41
1
10
29.2115598951621
20
10.3404185137634
30
0
0
SPLINE
5
141
100
AcDbEntity
8
1
62
256
6
ByLayer
370
18
48
1
60
0
100
AcDbSpline
70
4
71
3
72
8
73
4
40
0
40
0
40
0
40
0
40
1
40
1
40
1
40
1
41
1
10
10.8634090785956
20
7.16863412193501
30
0
41
1
10
10.6100125572706
20
7.1567450511769
30
0
41
1
10
10.3673497373639
20
7.11633483407491
30
0
41
1
10
10.1345330394727
20
7.05499382100135
30
0
0
SPLINE
5
142
100
AcDbEntity
8
1
62
256
6
ByLayer
370
18
48
1
60
0
100
AcDbSpline
70
4
71
3
72
8
73
4
40
0
40
0
40
0
40
0
40
1
40
1
40
1
40
1
41
1
10
26.8723168417546
20
16.4690136540573
30
0
41
1
10
27.2342871481964
20
16.2834639092583
30
0
41
1
10
27.5976114129282
20
16.0942944139175
30
0
41
1
10
27.9603905128009
20
15.9024542484269
30
0
0
SPLINE
5
143
100
AcDbEntity
8
1
62
256
6
ByLayer
370
18
48
1
60
0
100
AcDbSpline
70
4
71
3
72
8
73
4
40
0
40
0
40
0
40
0
40
1
40
1
40
1
40
1
41
1
10
17.5914253958874
20
7.15671208011162
30
0
41
1
10
17.3321284982419
20
7.04091369033978
30
0
41
1
10
17.0570389305496
20
6.94938904642399
30
0
41
1
10
16.7766579287937
20
6.88962506440606
30
0
0
SPLINE
5
144
100
AcDbEntity
8
1
62
256
6
ByLayer
370
18
48
1
60
0
100
AcDbSpline
70
4
71
3
72
10
73
6
40
0
40
0
40
0
40
0
40
0.5
40
0.5
40
1
40
1
40
1
40
1
41
1
10
24.7898658703547
20
6.82513852493076
30
0
41
1
10
23.7143331644428
20
6.07195578999472
30
0
41
1
10
22.5846767322327
20
5.40779775052977
30
0
41
1
10
20.19636617665
20
4.29166181804439
30
0
41
1
10
18.9624890688029
20
3.80170478241752
30
0
41
1
10
17.6646219111664
20
3.51223145452627
30
0
0
SPLINE
5
145
100
AcDbEntity
8
1
62
256
6
ByLayer
370
18
48
1
60
0
100
AcDbSpline
70
4
71
3
72
10
73
6
40
0
40
0
40
0
40
0
40
0.264715639145577
40
0.264715639145577
40
1
40
1
40
1
40
1
41
1
10
28.0633997289229
20
13.3182565842133
30
0
41
1
10
27.9807401376606
20
13.254277904284
30
0
41
1
10
27.8982031123861
20
13.1888258783718
30
0
41
1
10
27.5869784020667
20
12.9368831005999
30
0
41
1
10
27.3591160085879
20
12.7420913767415
30
0
41
1
10
27.1325318046616
20
12.5403524531087
30
0
0
SPLINE
5
146
100
AcDbEntity
8
1
62
256
6
ByLayer
370
18
48
1
60
0
100
AcDbSpline
70
4
71
1
72
4
73
2
40
0
40
0
40
1
40
1
41
1
10
15.0956975515335
20
16.7449817888045
30
0
41
1
10
14.5162210060228
20
17.5083526782615
30
0
0
SPLINE
5
147
100
AcDbEntity
8
1
62
256
6
ByLayer
370
18
48
1
60
0
100
AcDbSpline
70
4
71
3
72
8
73
4
40
0
40
0
40
0
40
0
40
1
40
1
40
1
40
1
41
1
10
27.0606488222647
20
7.94286345585215
30
0
41
1
10
26.9624185771054
20
7.90706142176481
30
0
41
1
10
26.8633866872759
20
7.87345663298242
30
0
41
1
10
26.7635837652284
20
7.84229166447787
30
0
0
SPLINE
5
148
100
AcDbEntity
8
1
62
256
6
ByLayer
370
18
48
1
60
0
100
AcDbSpline
70
4
71
3
72
8
73
4
40
0
40
0
40
0
40
0
40
1
40
1
40
1
40
1
41
1
10
8.08009325743495
20
4.77118818863838
30
0
41
1
10
8.08523735356232
20
4.74832026452265
30
0
41
1
10
8.090820368241
20
4.72580740174669
30
0
41
1
10
8.09682218582753
20
4.70363253196626
30
0
0
SPLINE
5
149
100
AcDbEntity
8
1
62
256
6
ByLayer
370
18
48
1
60
0
100
AcDbSpline
70
4
71
3
72
12
73
8
40
0
40
0
40
0
40
0
40
0.471343086678518
40
0.471343086678518
40
0.892619726108215
40
0.892619726108215
40
1
40
1
40
1
40
1
41
1
10
10.8634090785955
20
7.16863412193501
30
0
41
1
10
11.0398334640123
20
7.17691174938906
30
0
41
1
10
11.2243040734866
20
7.16963450404239
30
0
41
1
10
11.5676275600804
20
7.11720178830407
30
0
41
1
10
11.7306629004188
20
7.07523091611299
30
0
41
1
10
11.919742076931
20
7.0025033225279
30
0
41
1
10
11.9578896635972
20
6.98649697952112
30
0
41
1
10
11.9951159201217
20
6.9695278113968
30
0
0
SPLINE
5
14A
100
AcDbEntity
8
1
62
256
6
ByLayer
370
18
48
1
60
0
100
AcDbSpline
70
4
71
3
72
10
73
6
40
0
40
0
40
0
40
0
40
0.655488757716275
40
0.655488757716275
40
1
40
1
40
1
40
1
41
1
10
10.4896377160512
20
1.79270668362659
30
0
41
1
10
10.138045184528
20
1.68399062045893
30
0
41
1
10
9.73407015392763
20
1.60297165899445
30
0
41
1
10
9.07491791450974
20
1.59629672748253
30
0
41
1
10
8.83745588750838
20
1.61552627882378
30
0
41
1
10
8.6000225031255
20
1.66307639926876
30
0
0
SPLINE
5
14B
100
AcDbEntity
8
1
62
256
6
ByLayer
370
18
48
1
60
0
100
AcDbSpline
70
4
71
3
72
8
73
4
40
0
40
0
40
0
40
0
40
1
40
1
40
1
40
1
41
1
10
9.69506245218895
20
12.3624837958484
30
0
41
1
10
8.39218864600571
20
12.7183956425922
30
0
41
1
10
7.18969513863794
20
12.9735005430501
30
0
41
1
10
6.39190721176288
20
12.9993002623629
30
0
0
SPLINE
5
14C
100
AcDbEntity
8
1
62
256
6
ByLayer
370
18
48
1
60
0
100
AcDbSpline
70
4
71
3
72
8
73
4
40
0
40
0
40
0
40
0
40
1
40
1
40
1
40
1
41
1
10
7.6972108029878
20
15.167973980747
30
0
41
1
10
8.39724410023609
20
14.8855607687371
30
0
41
1
10
9.49042353594297
20
14.0471913599604
30
0
41
1
10
10.6325462075433
20
13.0267903544786
30
0
0
SPLINE
5
14D
100
AcDbEntity
8
1
62
256
6
ByLayer
370
18
48
1
60
0
100
AcDbSpline
70
4
71
3
72
8
73
4
40
0
40
0
40
0
40
0
40
1
40
1
40
1
40
1
41
1
10
11.9951159201217
20
6.9695278113968
30
0
41
1
10
12.0623566517058
20
6.9388768841861
30
0
41
1
10
12.1280679098032
20
6.90536500205053
30
0
41
1
10
12.1918002977402
20
6.86922866534678
30
0
0
SPLINE
5
14E
100
AcDbEntity
8
1
62
256
6
ByLayer
370
18
48
1
60
0
100
AcDbSpline
70
4
71
3
72
8
73
4
40
0
40
0
40
0
40
0
40
1
40
1
40
1
40
1
41
1.02417048357497
10
26.8722324223302
20
16.4690499566402
30
0
41
1.02233815524058
10
26.2041402275936
20
16.7563452122935
30
0
41
1.02059845272928
10
25.5303435843305
20
16.9976652847446
30
0
41
1.01923193651505
10
24.984071652913
20
17.1744323831127
30
0
0
SPLINE
5
14F
100
AcDbEntity
8
1
62
256
6
ByLayer
370
18
48
1
60
0
100
AcDbSpline
70
4
71
2
72
6
73
3
40
0
40
0
40
0
40
1
40
1
40
1
41
0.937301687603846
10
17.5914254072276
20
7.15671205831394
30
0
41
0.930554446910518
10
17.8014209966132
20
5.67668339600872
30
0
41
1.02805999725225
10
17.7540590058253
20
4.92731615734413
30
0
0
SPLINE
5
150
100
AcDbEntity
8
1
62
256
6
ByLayer
370
18
48
1
60
0
100
AcDbSpline
70
4
71
3
72
8
73
4
40
0
40
0
40
0
40
0
40
1
40
1
40
1
40
1
41
1
10
10.7700743028051
20
13.189468676566
30
0
41
1
10
10.7271870815348
20
13.1340416781514
30
0
41
1
10
10.681366265519
20
13.0797700925337
30
0
41
1
10
10.6325462075499
20
13.0267903544843
30
0
0
SPLINE
5
151
100
AcDbEntity
8
1
62
256
6
ByLayer
370
18
48
1
60
0
100
AcDbSpline
70
4
71
3
72
8
73
4
40
0
40
0
40
0
40
0
40
1
40
1
40
1
40
1
41
1
10
11.9951159201217
20
6.9695278113968
30
0
41
1
10
11.4122628480113
20
5.50000261896142
30
0
41
1
10
10.8177532887128
20
4.12917323185155
30
0
41
1
10
10.3555722572797
20
3.35030834928668
30
0
0
SPLINE
5
152
100
AcDbEntity
8
1
62
256
6
ByLayer
370
18
48
1
60
0
100
AcDbSpline
70
4
71
3
72
12
73
8
40
0
40
0
40
0
40
0
40
0.286978363858296
40
0.286978363858296
40
0.569998995185617
40
0.569998995185617
40
1
40
1
40
1
40
1
41
1
10
19.6029806479959
20
13.0018400536501
30
0
41
1
10
19.7160818260541
20
12.7968009422158
30
0
41
1
10
19.8127765446778
20
12.5817914814515
30
0
41
1
10
19.9683854112546
20
12.1440645288131
30
0
41
1
10
20.0283371850679
20
11.9199917979691
30
0
41
1
10
20.132409948529
20
11.3517385352518
30
0
41
1
10
20.1531273138249
20
11.0003626854528
30
0
41
1
10
20.1306700328619
20
10.656012815771
30
0
0
SPLINE
5
153
100
AcDbEntity
8
1
62
256
6
ByLayer
370
18
48
1
60
0
100
AcDbSpline
70
4
71
3
72
10
73
6
40
0
40
0
40
0
40
0
40
0.5
40
0.5
40
1
40
1
40
1
40
1
41
1
10
14.5162210060228
20
17.5083526782615
30
0
41
1
10
15.8234807143178
20
17.7741310716751
30
0
41
1
10
17.1387968960717
20
17.8291539053983
30
0
41
1
10
19.7751591741054
20
17.7893062790683
30
0
41
1
10
21.1050767168265
20
17.645060234436
30
0
41
1
10
22.4117105409891
20
17.397156282991
30
0
0
SPLINE
5
154
100
AcDbEntity
8
1
62
256
6
ByLayer
370
18
48
1
60
0
100
AcDbSpline
70
4
71
3
72
12
73
8
40
0
40
0
40
0
40
0
40
0.10885398860713
40
0.502629237162303
40
0.69951686143989
40
0.896404485717477
40
1
40
1
40
1
40
1
41
1.02441262532206
10
20.130670032862
20
10.6560128157711
30
0
41
1.02394775682001
10
20.4568445245045
20
10.7496945783191
30
0
41
1.02173322384668
10
21.9996525967469
20
11.1961509244515
30
0
41
1.01876555595691
10
24.1637567220223
20
11.8362225760055
30
0
41
1.01610930227499
10
25.609947711928
20
12.2736661261615
30
0
41
1.01814069306376
10
26.2995994662497
20
12.3836916678545
30
0
41
1.02005196006971
10
26.9098845585475
20
12.4970923107565
30
0
41
1.02076673234773
10
27.1325318046513
20
12.5403524531067
30
0
0
SPLINE
5
155
100
AcDbEntity
8
1
62
256
6
ByLayer
370
18
48
1
60
0
100
AcDbSpline
70
4
71
3
72
8
73
4
40
0
40
0
40
0
40
0
40
1
40
1
40
1
40
1
41
1
10
24.7898658703548
20
6.82513852493088
30
0
41
1
10
25.4546819423002
20
7.29070129633234
30
0
41
1
10
26.1436112938941
20
7.64869590448993
30
0
41
1
10
26.7635837652284
20
7.84229166447787
30
0
0
SPLINE
5
156
100
AcDbEntity
8
1
62
256
6
ByLayer
370
18
48
1
60
0
100
AcDbSpline
70
4
71
3
72
10
73
6
40
0
40
0
40
0
40
0
40
0.5
40
0.5
40
1
40
1
40
1
40
1
41
1
10
6.22908134313292
20
13.0066180908154
30
0
41
1
10
6.09976273793819
20
13.7225255210464
30
0
41
1
10
6.16184668613187
20
14.3769489369731
30
0
41
1
10
6.44964884710134
20
15.2558196461304
30
0
41
1
10
6.63072686824921
20
15.5226878273663
30
0
41
1
10
6.97546510173976
20
15.7507861421512
30
0
0
SPLINE
5
157
100
AcDbEntity
8
1
62
256
6
ByLayer
370
18
48
1
60
0
100
AcDbSpline
70
4
71
3
72
8
73
4
40
0
40
0
40
0
40
0
40
1
40
1
40
1
40
1
41
1
10
28.4732971986862
20
9.35190378796202
30
0
41
1
10
28.7195252848143
20
9.68088259089009
30
0
41
1
10
28.9660452238162
20
10.0109632008502
30
0
41
1
10
29.2115598951622
20
10.3404185137635
30
0
0
SPLINE
5
158
100
AcDbEntity
8
1
62
256
6
ByLayer
370
18
48
1
60
0
100
AcDbSpline
70
4
71
2
72
6
73
3
40
0
40
0
40
0
40
1
40
1
40
1
41
1.02805999725224
10
17.7540590058253
20
4.92731615734413
30
0
41
1.02805999725224
10
17.7093404584958
20
4.2197738059352
30
0
41
1.02805999725224
10
17.6646219111663
20
3.51223145452627
30
0
0
LINE
5
72
100
AcDbEntity
8
1
62
256
6
ByLayer
370
18
48
1
60
0
100
AcDbLine
10
23.825227
20
17.688512
30
0
11
23.389732
21
17.264215
31
0
39
0
210
0
220
0
230
1
0
LINE
5
74
100
AcDbEntity
8
1
62
256
6
ByLayer
370
18
48
1
60
0
100
AcDbLine
10
15.080845
20
9.569359
30
0
11
14.900454
21
9.393607
31
0
39
0
210
0
220
0
230
1
0
LINE
5
75
100
AcDbEntity
8
1
62
256
6
ByLayer
370
18
48
1
60
0
100
AcDbLine
10
16.242434
20
10.627514
30
0
11
16.062044
21
10.451761
31
0
39
0
210
0
220
0
230
1
0
LINE
5
76
100
AcDbEntity
8
1
62
256
6
ByLayer
370
18
48
1
60
0
100
AcDbLine
10
14.797653
20
11.878677
30
0
11
14.978043
21
12.054429
31
0
39
0
210
0
220
0
230
1
0
LINE
5
77
100
AcDbEntity
8
1
62
256
6
ByLayer
370
18
48
1
60
0
100
AcDbLine
10
7.05664
20
15.801206
30
0
11
6.20976
21
15.30711
31
0
39
0
210
0
220
0
230
1
0
LINE
5
78
100
AcDbEntity
8
1
62
256
6
ByLayer
370
18
48
1
60
0
100
AcDbLine
10
23.795675
20
18.088641
30
0
11
23.298192
21
17.60395
31
0
39
0
210
0
220
0
230
1
0
LINE
5
79
100
AcDbEntity
8
1
62
256
6
ByLayer
370
18
48
1
60
0
100
AcDbLine
10
32.230325
20
7.721653
30
0
11
32.94625
21
8.419169
31
0
39
0
210
0
220
0
230
1
0
LINE
5
7A
100
AcDbEntity
8
1
62
256
6
ByLayer
370
18
48
1
60
0
100
AcDbLine
10
13.636063
20
10.820522
30
0
11
13.816454
21
10.996274
31
0
39
0
210
0
220
0
230
1
0
LINE
5
7B
100
AcDbEntity
8
1
62
256
6
ByLayer
370
18
48
1
60
0
100
AcDbLine
10
17.550211
20
7.683244
30
0
11
17.738038
21
7.866242
31
0
39
0
210
0
220
0
230
1
0
LINE
5
7C
100
AcDbEntity
8
1
62
256
6
ByLayer
370
18
48
1
60
0
100
AcDbLine
10
12.155332
20
13.596285
30
0
11
11.967505
21
13.413287
31
0
39
0
210
0
220
0
230
1
0
LINE
5
7D
100
AcDbEntity
8
1
62
256
6
ByLayer
370
18
48
1
60
0
100
AcDbLine
10
9.472323
20
12.215908
30
0
11
9.973459
21
12.508286
31
0
39
0
210
0
220
0
230
1
0
LINE
5
7E
100
AcDbEntity
8
1
62
256
6
ByLayer
370
18
48
1
60
0
100
AcDbLine
10
31.046468
20
6.139316
30
0
11
31.543952
21
6.624007
31
0
39
0
210
0
220
0
230
1
0
LINE
5
7F
100
AcDbEntity
8
80
62
256
6
ByLayer
370
18
48
1
60
0
100
AcDbLine
10
0
20
0
30
0
11
-5
21
0
31
0
39
0
210
0
220
0
230
1
0
LINE
5
80
100
AcDbEntity
8
81
62
256
6
ByLayer
370
18
48
1
60
0
100
AcDbLine
10
39.399798
20
19.9125
30
0
11
49.399798
21
19.9125
31
0
39
0
210
0
220
0
230
1
0
LINE
5
81
100
AcDbEntity
8
1
62
256
6
ByLayer
370
18
48
1
60
0
100
AcDbLine
10
24.297211
20
6.5152
30
0
11
30.046303
21
6.816497
31
0
39
0
210
0
220
0
230
1
0
LINE
5
82
100
AcDbEntity
8
1
62
256
6
ByLayer
370
18
48
1
60
0
100
AcDbLine
10
23.645016
20
17.462822
30
0
11
23.501448
21
17.228295
31
0
39
0
210
0
220
0
230
1
0
LINE
5
83
100
AcDbEntity
8
1
62
256
6
ByLayer
370
18
48
1
60
0
100
AcDbLine
10
29.997709
20
6.769153
30
0
11
30.046303
21
6.816497
31
0
39
0
210
0
220
0
230
1
0
LINE
5
84
100
AcDbEntity
8
1
62
256
6
ByLayer
370
18
48
1
60
0
100
AcDbLine
10
23.645016
20
17.462822
30
0
11
23.444087
21
17.26706
31
0
39
0
210
0
220
0
230
1
0
LINE
5
85
100
AcDbEntity
8
1
62
256
6
ByLayer
370
18
48
1
60
0
100
AcDbLine
10
30.582926
20
6.978647
30
0
11
30.394582
21
6.795146
31
0
39
0
210
0
220
0
230
1
0
LINE
5
86
100
AcDbEntity
8
1
62
256
6
ByLayer
370
18
48
1
60
0
100
AcDbLine
10
32.012506
20
7.554689
30
0
11
30.631538
21
6.734956
31
0
39
0
210
0
220
0
230
1
0
LINE
5
87
100
AcDbEntity
8
1
62
256
6
ByLayer
370
18
48
1
60
0
100
AcDbLine
10
30.530428
20
6.181873
30
0
11
30.284992
21
6.16901
31
0
39
0
210
0
220
0
230
1
0
LINE
5
88
100
AcDbEntity
8
1
62
256
6
ByLayer
370
18
48
1
60
0
100
AcDbLine
10
23.233621
20
17.262776
30
0
11
23.553578
21
17.785448
31
0
39
0
210
0
220
0
230
1
0
LINE
5
89
100
AcDbEntity
8
1
62
256
6
ByLayer
370
18
48
1
60
0
100
AcDbLine
10
24.809199
20
18.530776
30
0
11
25.216702
21
18.552132
31
0
39
0
210
0
220
0
230
1
0
LINE
5
8A
100
AcDbEntity
8
1
62
256
6
ByLayer
370
18
48
1
60
0
100
AcDbLine
10
32.334613
20
7.823318
30
0
11
31.786048
21
6.927201
31
0
39
0
210
0
220
0
230
1
0
LINE
5
8B
100
AcDbEntity
8
1
62
256
6
ByLayer
370
18
48
1
60
0
100
AcDbLine
10
30.032944
20
5.697182
30
0
11
29.995033
21
5.695195
31
0
39
0
210
0
220
0
230
1
0
LINE
5
8C
100
AcDbEntity
8
1
62
256
6
ByLayer
370
18
48
1
60
0
100
AcDbLine
10
23.021874
20
17.244854
30
0
11
23.056095
21
17.300756
31
0
39
0
210
0
220
0
230
1
0
LINE
5
8D
100
AcDbEntity
8
1
62
256
6
ByLayer
370
18
48
1
60
0
100
AcDbLine
10
14.820273
20
9.282082
30
0
11
14.998099
21
9.455336
31
0
39
0
210
0
220
0
230
1
0
LINE
5
8E
100
AcDbEntity
8
1
62
256
6
ByLayer
370
18
48
1
60
0
100
AcDbLine
10
17.550211
20
7.683244
30
0
11
17.550288
21
7.683319
31
0
39
0
210
0
220
0
230
1
0
LINE
5
8F
100
AcDbEntity
8
1
62
256
6
ByLayer
370
18
48
1
60
0
100
AcDbLine
10
19.874525
20
2.427743
30
0
11
21.352038
21
4.84136
31
0
39
0
210
0
220
0
230
1
0
LINE
5
90
100
AcDbEntity
8
1
62
256
6
ByLayer
370
18
48
1
60
0
100
AcDbLine
10
12.56369
20
14.297506
30
0
11
13.915695
21
14.583596
31
0
39
0
210
0
220
0
230
1
0
LINE
5
91
100
AcDbEntity
8
1
62
256
6
ByLayer
370
18
48
1
60
0
100
AcDbLine
10
11.218013
20
-9.388208
30
0
11
8.734803
21
1.650827
31
0
39
0
210
0
220
0
230
1
0
LINE
5
92
100
AcDbEntity
8
1
62
256
6
ByLayer
370
18
48
1
60
0
100
AcDbLine
10
5.737654
20
14.974563
30
0
11
5.434279
21
16.323207
31
0
39
0
210
0
220
0
230
1
0
LINE
5
93
100
AcDbEntity
8
1
62
256
6
ByLayer
370
18
48
1
60
0
100
AcDbLine
10
12.591268
20
-0.113638
30
0
11
12.052799
21
2.28011
31
0
39
0
210
0
220
0
230
1
0
LINE
5
94
100
AcDbEntity
8
1
62
256
6
ByLayer
370
18
48
1
60
0
100
AcDbLine
10
8.89633
20
16.312097
30
0
11
8.853521
21
16.502402
31
0
39
0
210
0
220
0
230
1
0
LINE
5
95
100
AcDbEntity
8
1
62
256
6
ByLayer
370
18
48
1
60
0
100
AcDbLine
10
23.326665
20
17.260908
30
0
11
23.268321
21
17.25785
31
0
39
0
210
0
220
0
230
1
0
LINE
5
96
100
AcDbEntity
8
1
62
256
6
ByLayer
370
18
48
1
60
0
100
AcDbLine
10
10.104544
20
16.567966
30
0
11
8.853521
21
16.502402
31
0
39
0
210
0
220
0
230
1
0
LINE
5
97
100
AcDbEntity
8
1
62
256
6
ByLayer
370
18
48
1
60
0
100
AcDbLine
10
20.985984
20
3.366639
30
0
11
22.117932
21
5.21575
31
0
39
0
210
0
220
0
230
1
0
LINE
5
98
100
AcDbEntity
8
1
62
256
6
ByLayer
370
18
48
1
60
0
100
AcDbLine
10
23.99045
20
6.322115
30
0
11
30.608907
21
6.697989
31
0
39
0
210
0
220
0
230
1
0
LINE
5
99
100
AcDbEntity
8
1
62
256
6
ByLayer
370
18
48
1
60
0
100
AcDbLine
10
20.447938
20
2.760013
30
0
11
20.985984
21
3.366639
31
0
39
0
210
0
220
0
230
1
0
LINE
5
9A
100
AcDbEntity
8
1
62
256
6
ByLayer
370
18
48
1
60
0
100
AcDbLine
10
23.506713
20
17.270344
30
0
11
23.481991
21
17.229959
31
0
39
0
210
0
220
0
230
1
0
LINE
5
9B
100
AcDbEntity
8
1
62
256
6
ByLayer
370
18
48
1
60
0
100
AcDbLine
10
20.131871
20
2.549901
30
0
11
21.607176
21
4.959908
31
0
39
0
210
0
220
0
230
1
0
LINE
5
9C
100
AcDbEntity
8
1
62
256
6
ByLayer
370
18
48
1
60
0
100
AcDbLine
10
10.362365
20
-9.807815
30
0
11
7.674154
21
2.142546
31
0
39
0
210
0
220
0
230
1
0
LINE
5
9D
100
AcDbEntity
8
1
62
256
6
ByLayer
370
18
48
1
60
0
100
AcDbLine
10
4.988235
20
14.082718
30
0
11
4.495311
21
16.273998
31
0
39
0
210
0
220
0
230
1
0
LINE
5
9E
100
AcDbEntity
8
1
62
256
6
ByLayer
370
18
48
1
60
0
100
AcDbLine
10
11.193254
20
-9.40035
30
0
11
8.706748
21
1.653335
31
0
39
0
210
0
220
0
230
1
0
LINE
5
9F
100
AcDbEntity
8
1
62
256
6
ByLayer
370
18
48
1
60
0
100
AcDbLine
10
5.713865
20
14.958108
30
0
11
5.407109
21
16.321783
31
0
39
0
210
0
220
0
230
1
0
LINE
5
A0
100
AcDbEntity
8
1
62
256
6
ByLayer
370
18
48
1
60
0
100
AcDbLine
10
24.181437
20
6.442299
30
0
11
28.757476
21
6.702181
31
0
39
0
210
0
220
0
230
1
0
LINE
5
A1
100
AcDbEntity
8
1
62
256
6
ByLayer
370
18
48
1
60
0
100
AcDbLine
10
30.11323
20
6.779177
30
0
11
30.67825
21
6.811265
31
0
39
0
210
0
220
0
230
1
0
LINE
5
A2
100
AcDbEntity
8
1
62
256
6
ByLayer
370
18
48
1
60
0
100
AcDbLine
10
0
20
-12.4375
30
0
11
0
21
12.4375
31
0
39
0
210
0
220
0
230
1
0
LINE
5
A3
100
AcDbEntity
8
1
62
256
6
ByLayer
370
18
48
1
60
0
100
AcDbLine
10
18.261889
20
-5.933916
30
0
11
12.591268
21
-0.113638
31
0
39
0
210
0
220
0
230
1
0
LINE
5
A4
100
AcDbEntity
8
1
62
256
6
ByLayer
370
18
48
1
60
0
100
AcDbLine
10
1.269811
20
13.707311
30
0
11
0
21
12.4375
31
0
39
0
210
0
220
0
230
1
0
LINE
5
A5
100
AcDbEntity
8
1
62
256
6
ByLayer
370
18
48
1
60
0
100
AcDbLine
10
17.752064
20
2.617748
30
0
11
17.49732
21
2.775776
31
0
39
0
210
0
220
0
230
1
0
LINE
5
A6
100
AcDbEntity
8
1
62
256
6
ByLayer
370
18
48
1
60
0
100
AcDbLine
10
5.407109
20
16.321783
30
0
11
5.434279
21
16.323207
31
0
39
0
210
0
220
0
230
1
0
LINE
5
A7
100
AcDbEntity
8
1
62
256
6
ByLayer
370
18
48
1
60
0
100
AcDbLine
10
0
20
-12.4375
30
0
11
3.881642
21
-12.454437
31
0
39
0
210
0
220
0
230
1
0
LINE
5
A8
100
AcDbEntity
8
1
62
256
6
ByLayer
370
18
48
1
60
0
100
AcDbLine
10
18.261889
20
-5.933916
30
0
11
13.511882
21
-8.263303
31
0
39
0
210
0
220
0
230
1
0
LINE
5
A9
100
AcDbEntity
8
1
62
256
6
ByLayer
370
18
48
1
60
0
100
AcDbLine
10
11.193254
20
-9.40035
30
0
11
11.218013
21
-9.388208
31
0
39
0
210
0
220
0
230
1
0
LINE
5
AA
100
AcDbEntity
8
1
62
256
6
ByLayer
370
18
48
1
60
0
100
AcDbLine
10
5.434279
20
16.323207
30
0
11
8.853521
21
16.502402
31
0
39
0
210
0
220
0
230
1
0
LINE
5
AB
100
AcDbEntity
8
1
62
256
6
ByLayer
370
18
48
1
60
0
100
AcDbLine
10
23.326665
20
17.260908
30
0
11
23.506713
21
17.270344
31
0
39
0
210
0
220
0
230
1
0
LINE
5
AC
100
AcDbEntity
8
1
62
256
6
ByLayer
370
18
48
1
60
0
100
AcDbLine
10
3.800062
20
16.237562
30
0
11
4.495311
21
16.273998
31
0
39
0
210
0
220
0
230
1
0
LINE
5
AD
100
AcDbEntity
8
1
62
256
6
ByLayer
370
18
48
1
60
0
100
AcDbLine
10
10.362365
20
-9.807815
30
0
11
11.193254
21
-9.40035
31
0
39
0
210
0
220
0
230
1
0
LINE
5
AE
100
AcDbEntity
8
1
62
256
6
ByLayer
370
18
48
1
60
0
100
AcDbLine
10
3.881642
20
-12.454437
30
0
11
1.269811
21
13.707311
31
0
39
0
210
0
220
0
230
1
0
LINE
5
AF
100
AcDbEntity
8
1
62
256
6
ByLayer
370
18
48
1
60
0
100
AcDbLine
10
12.591268
20
-0.113638
30
0
11
13.511882
21
-8.263303
31
0
39
0
210
0
220
0
230
1
0
LINE
5
B0
100
AcDbEntity
8
1
62
256
6
ByLayer
370
18
48
1
60
0
100
AcDbLine
10
4.966565
20
-12.453896
30
0
11
10.362365
21
-9.807815
31
0
39
0
210
0
220
0
230
1
0
LINE
5
B1
100
AcDbEntity
8
1
62
256
6
ByLayer
370
18
48
1
60
0
100
AcDbLine
10
4.495311
20
16.273998
30
0
11
5.407109
21
16.321783
31
0
39
0
210
0
220
0
230
1
0
LINE
5
B2
100
AcDbEntity
8
1
62
256
6
ByLayer
370
18
48
1
60
0
100
AcDbLine
10
24.855631
20
-2.700368
30
0
11
18.261889
21
-5.933916
31
0
39
0
210
0
220
0
230
1
0
LINE
5
B3
100
AcDbEntity
8
1
62
256
6
ByLayer
370
18
48
1
60
0
100
AcDbLine
10
4.966565
20
-12.453896
30
0
11
3.881642
21
-12.454437
31
0
39
0
210
0
220
0
230
1
0
LINE
5
B4
100
AcDbEntity
8
1
62
256
6
ByLayer
370
18
48
1
60
0
100
AcDbLine
10
30.608907
20
6.697989
30
0
11
30.67825
21
6.811265
31
0
39
0
210
0
220
0
230
1
0
LINE
5
B5
100
AcDbEntity
8
1
62
256
6
ByLayer
370
18
48
1
60
0
100
AcDbLine
10
1.269811
20
13.707311
30
0
11
3.800062
21
16.237562
31
0
39
0
210
0
220
0
230
1
0
LINE
5
B6
100
AcDbEntity
8
1
62
256
6
ByLayer
370
18
48
1
60
0
100
AcDbLine
10
24.855631
20
-2.700368
30
0
11
30.608907
21
6.697989
31
0
39
0
210
0
220
0
230
1
0
LINE
5
B7
100
AcDbEntity
8
1
62
256
6
ByLayer
370
18
48
1
60
0
100
AcDbLine
10
11.218013
20
-9.388208
30
0
11
13.511882
21
-8.263303
31
0
39
0
210
0
220
0
230
1
0
LINE
5
B8
100
AcDbEntity
8
SK1
62
256
6
ByLayer
370
18
48
1
60
0
100
AcDbLine
10
-111.950202
20
12.4375
30
0
11
-111.950202
21
-12.4375
31
0
39
0
210
0
220
0
230
1
0
LINE
5
BA
100
AcDbEntity
8
SK1
62
256
6
ByLayer
370
18
48
1
60
0
100
AcDbLine
10
-111.950202
20
-12.4375
30
0
11
0
21
-12.4375
31
0
39
0
210
0
220
0
230
1
0
LINE
5
BB
100
AcDbEntity
8
SK1
62
256
6
ByLayer
370
18
48
1
60
0
100
AcDbLine
10
0
20
12.4375
30
0
11
-111.950202
21
12.4375
31
0
39
0
210
0
220
0
230
1
0
LINE
5
BC
100
AcDbEntity
8
SK1
62
256
6
ByLayer
370
18
48
1
60
0
100
AcDbLine
10
0
20
12.4375
30
0
11
0
21
-12.4375
31
0
39
0
210
0
220
0
230
1
0
LINE
5
BD
100
AcDbEntity
8
1
62
256
6
ByLayer
370
18
48
1
60
0
100
AcDbLine
10
33.126461
20
8.644859
30
0
11
39.284873
21
18.705033
31
0
39
0
210
0
220
0
230
1
0
LINE
5
BE
100
AcDbEntity
8
1
62
256
6
ByLayer
370
18
48
1
60
0
100
AcDbLine
10
32.728431
20
8.252205
30
0
11
30.582926
21
6.978647
31
0
39
0
210
0
220
0
230
1
0
LINE
5
BF
100
AcDbEntity
8
1
62
256
6
ByLayer
370
18
48
1
60
0
100
AcDbLine
10
24.043045
20
17.855476
30
0
11
26.188551
21
19.129034
31
0
39
0
210
0
220
0
230
1
0
LINE
5
C0
100
AcDbEntity
8
1
62
256
6
ByLayer
370
18
48
1
60
0
100
AcDbLine
10
32.012506
20
7.554689
30
0
11
32.728431
21
8.252205
31
0
39
0
210
0
220
0
230
1
0
LINE
5
C1
100
AcDbEntity
8
1
62
256
6
ByLayer
370
18
48
1
60
0
100
AcDbLine
10
38.559526
20
19.911396
30
0
11
26.725174
21
19.291184
31
0
39
0
210
0
220
0
230
1
0
LINE
5
C2
100
AcDbEntity
8
1
62
256
6
ByLayer
370
18
48
1
60
0
100
AcDbLine
10
23.553578
20
17.785448
30
0
11
23.056095
21
17.300756
31
0
39
0
210
0
220
0
230
1
0
LINE
5
C3
100
AcDbEntity
8
1
62
256
6
ByLayer
370
18
48
1
60
0
100
AcDbLine
10
30.530428
20
6.181873
30
0
11
30.032944
21
5.697182
31
0
39
0
210
0
220
0
230
1
0
LINE
5
C4
100
AcDbEntity
8
1
62
256
6
ByLayer
370
18
48
1
60
0
100
AcDbLine
10
14.961418
20
14.959217
30
0
11
14.546329
21
14.717041
31
0
39
0
210
0
220
0
230
1
0
LINE
5
C5
100
AcDbEntity
8
1
62
256
6
ByLayer
370
18
48
1
60
0
100
AcDbLine
10
17.664622
20
3.512231
30
0
11
12.396035
21
2.389218
31
0
39
0
210
0
220
0
230
1
0
LINE
5
C6
100
AcDbEntity
8
1
62
256
6
ByLayer
370
18
48
1
60
0
100
AcDbLine
10
10.355572
20
3.350308
30
0
11
17.754059
21
4.927316
31
0
39
0
210
0
220
0
230
1
0
LINE
5
C7
100
AcDbEntity
8
1
62
256
6
ByLayer
370
18
48
1
60
0
100
AcDbLine
10
10.996033
20
2.088154
30
0
11
12.391601
21
2.385623
31
0
39
0
210
0
220
0
230
1
0
LINE
5
C8
100
AcDbEntity
8
1
62
256
6
ByLayer
370
18
48
1
60
0
100
AcDbLine
10
6.242983
20
12.938004
30
0
11
8.080093
21
4.771188
31
0
39
0
210
0
220
0
230
1
0
LINE
5
C9
100
AcDbEntity
8
1
62
256
6
ByLayer
370
18
48
1
60
0
100
AcDbLine
10
14.516221
20
17.508353
30
0
11
9.247634
21
16.385339
31
0
39
0
210
0
220
0
230
1
0
LINE
5
CA
100
AcDbEntity
8
1
62
256
6
ByLayer
370
18
48
1
60
0
100
AcDbLine
10
9.24227
20
16.385879
30
0
11
9.247634
21
16.385339
31
0
39
0
210
0
220
0
230
1
0
LINE
5
CB
100
AcDbEntity
8
1
62
256
6
ByLayer
370
18
48
1
60
0
100
AcDbLine
10
7.127723
20
11.568529
30
0
11
8.264981
21
6.512881
31
0
39
0
210
0
220
0
230
1
0
LINE
5
CC
100
AcDbEntity
8
1
62
256
6
ByLayer
370
18
48
1
60
0
100
AcDbLine
10
12.970488
20
14.534845
30
0
11
14.961418
21
14.959217
31
0
39
0
210
0
220
0
230
1
0
LINE
5
CD
100
AcDbEntity
8
1
62
256
6
ByLayer
370
18
48
1
60
0
100
AcDbLine
10
6.554133
20
3.880896
30
0
11
4.717024
21
12.047712
31
0
39
0
210
0
220
0
230
1
0
LINE
5
CE
100
AcDbEntity
8
1
62
256
6
ByLayer
370
18
48
1
60
0
100
AcDbLine
10
6.242983
20
12.938004
30
0
11
4.717024
21
12.047712
31
0
39
0
210
0
220
0
230
1
0
LINE
5
CF
100
AcDbEntity
8
1
62
256
6
ByLayer
370
18
48
1
60
0
100
AcDbLine
10
7.697211
20
15.167974
30
0
11
15.095698
21
16.744982
31
0
39
0
210
0
220
0
230
1
0
LINE
5
D0
100
AcDbEntity
8
1
62
256
6
ByLayer
370
18
48
1
60
0
100
AcDbLine
10
12.970488
20
14.534845
30
0
11
12.56369
21
14.297506
31
0
39
0
210
0
220
0
230
1
0
LINE
5
D1
100
AcDbEntity
8
1
62
256
6
ByLayer
370
18
48
1
60
0
100
AcDbLine
10
29.836425
20
11.191979
30
0
11
29.21156
21
10.340419
31
0
39
0
210
0
220
0
230
1
0
LINE
5
D2
100
AcDbEntity
8
1
62
256
6
ByLayer
370
18
48
1
60
0
100
AcDbLine
10
12.391601
20
2.385623
30
0
11
10.561101
21
1.814895
31
0
39
0
210
0
220
0
230
1
0
LINE
5
D3
100
AcDbEntity
8
1
62
256
6
ByLayer
370
18
48
1
60
0
100
AcDbLine
10
12.391601
20
2.385623
30
0
11
12.396035
21
2.389218
31
0
39
0
210
0
220
0
230
1
0
LINE
5
D4
100
AcDbEntity
8
1
62
256
6
ByLayer
370
18
48
1
60
0
100
AcDbLine
10
30.251461
20
11.757586
30
0
11
30.118737
21
11.576712
31
0
39
0
210
0
220
0
230
1
0
LINE
5
D5
100
AcDbEntity
8
1
62
256
6
ByLayer
370
18
48
1
60
0
100
AcDbLine
10
10.996033
20
2.088154
30
0
11
10.489638
21
1.792707
31
0
39
0
210
0
220
0
230
1
0
LINE
5
D6
100
AcDbEntity
8
1
62
256
6
ByLayer
370
18
48
1
60
0
100
AcDbLine
10
8.997275
20
12.110642
30
0
11
8.603252
21
11.880757
31
0
39
0
210
0
220
0
230
1
0
LINE
5
D7
100
AcDbEntity
8
1
62
256
6
ByLayer
370
18
48
1
60
0
100
AcDbLine
10
8.603252
20
11.880757
30
0
11
7.127723
21
11.568529
31
0
39
0
210
0
220
0
230
1
0
LINE
5
D8
100
AcDbEntity
8
1
62
256
6
ByLayer
370
18
48
1
60
0
100
AcDbLine
10
29.525207
20
14.986125
30
0
11
29.325488
21
15.103077
31
0
39
0
210
0
220
0
230
1
0
LINE
5
D9
100
AcDbEntity
8
1
62
256
6
ByLayer
370
18
48
1
60
0
100
AcDbLine
10
16.776658
20
6.889625
30
0
11
14.785728
21
6.465253
31
0
39
0
210
0
220
0
230
1
0
LINE
5
DA
100
AcDbEntity
8
1
62
256
6
ByLayer
370
18
48
1
60
0
100
AcDbLine
10
9.24227
20
16.385879
30
0
11
7.846702
21
16.08841
31
0
39
0
210
0
220
0
230
1
0
LINE
5
DB
100
AcDbEntity
8
1
62
256
6
ByLayer
370
18
48
1
60
0
100
AcDbLine
10
28.0634
20
13.318257
30
0
11
30.705401
21
13.609692
31
0
39
0
210
0
220
0
230
1
0
LINE
5
DC
100
AcDbEntity
8
1
62
256
6
ByLayer
370
18
48
1
60
0
100
AcDbLine
10
29.095269
20
15.210369
30
0
11
28.900672
21
15.351842
31
0
39
0
210
0
220
0
230
1
0
LINE
5
DD
100
AcDbEntity
8
1
62
256
6
ByLayer
370
18
48
1
60
0
100
AcDbLine
10
29.836425
20
11.191979
30
0
11
29.952478
21
11.399669
31
0
39
0
210
0
220
0
230
1
0
LINE
5
DE
100
AcDbEntity
8
1
62
256
6
ByLayer
370
18
48
1
60
0
100
AcDbLine
10
8.080093
20
4.771188
30
0
11
6.554133
21
3.880896
31
0
39
0
210
0
220
0
230
1
0
LINE
5
DF
100
AcDbEntity
8
1
62
256
6
ByLayer
370
18
48
1
60
0
100
AcDbLine
10
28.900672
20
15.351842
30
0
11
27.960391
21
15.902454
31
0
39
0
210
0
220
0
230
1
0
LINE
5
E0
100
AcDbEntity
8
1
62
256
6
ByLayer
370
18
48
1
60
0
100
AcDbLine
10
15.592991
20
11.761968
30
0
11
15.773382
21
11.93772
31
0
39
0
210
0
220
0
230
1
0
LINE
5
E1
100
AcDbEntity
8
1
62
256
6
ByLayer
370
18
48
1
60
0
100
AcDbLine
10
16.039589
20
11.272532
30
0
11
16.219979
21
11.448284
31
0
39
0
210
0
220
0
230
1
0
LINE
5
E2
100
AcDbEntity
8
1
62
256
6
ByLayer
370
18
48
1
60
0
100
AcDbLine
10
13.494253
20
10.729986
30
0
11
13.674644
21
10.905738
31
0
39
0
210
0
220
0
230
1
0
LINE
5
E3
100
AcDbEntity
8
1
62
256
6
ByLayer
370
18
48
1
60
0
100
AcDbLine
10
14.238191
20
11.855812
30
0
11
14.418581
21
12.031564
31
0
39
0
210
0
220
0
230
1
0
LINE
5
E4
100
AcDbEntity
8
1
62
256
6
ByLayer
370
18
48
1
60
0
100
AcDbLine
10
16.008244
20
9.915973
30
0
11
16.188635
21
10.091725
31
0
39
0
210
0
220
0
230
1
0
MTEXT
5
159
100
AcDbEntity
8
SK6
62
256
6
ByLayer
370
18
48
1
60
0
100
AcDbMText
10
-50.400202
20
-23.320968
30
0
210
0
220
0
230
1
1
\W0.7498;DDJNR 2525M 15
40
3.5
41
0
44
1.084337
50
0
71
7
72
5
7
iso_b_vert
0
DIMENSION
5
16A
100
AcDbEntity
8
2
62
256
6
ByLayer
370
13
48
1
60
0
100
AcDbDimension
2
DimnDraft3D1
10
37.565877
20
19.859076
30
0
11
20.956663
21
37.457069
31
0
70
34
71
5
72
1
41
1
210
0
220
0
230
1
3
Standard
100
AcDb2LineAngularDimension
13
39.399798
23
19.9125
33
0
14
39.399798
24
18.325
34
0
15
38.564506
25
19.911412
35
0
16
24.220848
26
34.359474
36
0
40
0
0
DIMENSION
5
180
100
AcDbEntity
8
SK2
62
256
6
ByLayer
370
13
48
1
60
0
100
AcDbDimension
2
DimnDraft3D2
10
-119.700202
20
12.4375
30
0
11
-119.700202
21
-5.281579
31
0
70
32
71
5
72
1
41
1
210
0
220
0
230
1
3
Standard
100
AcDbAlignedDimension
13
-113.950202
23
-12.4375
33
0
14
-113.950202
24
12.4375
34
0
50
90
100
AcDbRotatedDimension
1001
ACAD
1000
DSTYLE
1002
{
1070
    74
1070
     0
1070
   279
1070
     0
1070
   172
1070
     1
1070
   173
1070
     1
1070
   340
1005
15A
1070
    77
1070
     1
1070
    73
1070
     0
1070
   171
1070
     3
1070
   274
1070
     4
1070
   177
1070
     2
1070
   176
1070
     2
1070
   178
1070
     7
1070
    78
1070
     8
1070
    41
1041
3.175
1070
   147
1041
2.25
1070
    42
1041
2.0
1070
    44
1041
2.0
1070
   140
1041
4.5
1070
   343
1005
16B
1070
   344
1005
16B
1002
}
0
DIMENSION
5
18E
100
AcDbEntity
8
2
62
256
6
ByLayer
370
13
48
1
60
0
100
AcDbDimension
2
DimnDraft3D3
10
61.649798
20
19.9125
30
0
11
61.649798
21
-1.544079
31
0
70
32
71
5
72
1
41
1
210
0
220
0
230
1
3
Standard
100
AcDbAlignedDimension
13
2
23
-12.4375
33
0
14
41.399798
24
19.9125
34
0
50
90
100
AcDbRotatedDimension
1001
ACAD
1000
DSTYLE
1002
{
1070
    74
1070
     0
1070
   279
1070
     0
1070
   172
1070
     1
1070
   173
1070
     1
1070
   340
1005
15A
1070
    77
1070
     1
1070
    73
1070
     0
1070
   171
1070
     3
1070
   274
1070
     4
1070
   177
1070
     2
1070
   176
1070
     2
1070
   178
1070
     7
1070
    78
1070
     8
1070
    41
1041
3.175
1070
   147
1041
2.25
1070
    42
1041
2.0
1070
    44
1041
2.0
1070
   140
1041
4.5
1070
   343
1005
16B
1070
   344
1005
16B
1002
}
0
DIMENSION
5
19C
100
AcDbEntity
8
2
62
256
6
ByLayer
370
13
48
1
60
0
100
AcDbDimension
2
DimnDraft3D4
10
39.399798
20
49.6625
30
0
11
14.181478
21
49.6625
31
0
70
32
71
5
72
1
41
1
210
0
220
0
230
1
3
Standard
100
AcDbAlignedDimension
13
0
23
14.4375
33
0
14
39.399798
24
21.9125
34
0
50
0
100
AcDbRotatedDimension
1001
ACAD
1000
DSTYLE
1002
{
1070
   279
1070
     0
1070
   172
1070
     1
1070
   173
1070
     1
1070
   340
1005
15A
1070
    77
1070
     1
1070
    73
1070
     0
1070
   171
1070
     3
1070
   274
1070
     4
1070
   177
1070
     2
1070
   176
1070
     2
1070
   178
1070
     7
1070
    78
1070
     8
1070
    41
1041
3.175
1070
   147
1041
2.25
1070
    42
1041
2.0
1070
    44
1041
2.0
1070
   140
1041
4.5
1070
   343
1005
16B
1070
   344
1005
16B
1002
}
0
DIMENSION
5
1AA
100
AcDbEntity
8
SK2
62
256
6
ByLayer
370
13
48
1
60
0
100
AcDbDimension
2
DimnDraft3D5
10
-111.950202
20
59.6625
30
0
11
-42.67586
21
59.6625
31
0
70
32
71
5
72
1
41
1
210
0
220
0
230
1
3
Standard
100
AcDbAlignedDimension
13
39.399798
23
21.9125
33
0
14
-111.950202
24
14.4375
34
0
50
0
100
AcDbRotatedDimension
1001
ACAD
1000
DSTYLE
1002
{
1070
   279
1070
     0
1070
   172
1070
     1
1070
   173
1070
     1
1070
   340
1005
15A
1070
    77
1070
     1
1070
    73
1070
     0
1070
   171
1070
     3
1070
   274
1070
     4
1070
   177
1070
     2
1070
   176
1070
     2
1070
   178
1070
     7
1070
    78
1070
     8
1070
    41
1041
3.175
1070
   147
1041
2.25
1070
    42
1041
2.0
1070
    44
1041
2.0
1070
   140
1041
4.5
1070
   343
1005
16B
1070
   344
1005
16B
1002
}
0
ENDSEC
0
SECTION
2
OBJECTS
0
DICTIONARY
5
214
330
0
100
AcDbDictionary
280
0
281
1
3
ACAD_GROUP
350
215
3
ACAD_MLINESTYLE
350
216
0
DICTIONARY
5
215
330
0
100
AcDbDictionary
280
0
281
1
0
DICTIONARY
5
216
330
0
100
AcDbDictionary
280
0
281
1
3
Standard
350
18
0
MLINESTYLE
5
18
330
216
100
AcDbMlineStyle
2
Standard
70
0
3

62
256
51
90
52
90
71
2
49
-0.5
62
256
6
ByLayer
49
0.5
62
256
6
ByLayer
0
RASTERVARIABLES
5
203
330

100
AcDbRasterVariables
90
0
70
1
71
1
72
1
0
ENDSEC
0
EOF
