0
SECTION
2
HEADER
9
$ACADVER
1
AC1015
9
$DWGCODEPAGE
3
ANSI_1252
9
$HANDSEED
5
21e
9
$ANGBASE
50
0
9
$ANGDIR
70
0
9
$ATTMODE
70
1
9
$AUNITS
70
0
9
$AUPREC
70
0
9
$CECOLOR
62
256
9
$CELTSCALE
40
1
9
$CELTYPE
6
ByLayer
9
$CELWEIGHT
370
18
9
$CLAYER
8
0
9
$CMLJUST
70
0
9
$CMLSCALE
40
1
9
$CMLSTYLE
2
Standard
9
$DIMSTYLE
2
Standard
9
$TEXTSIZE
40
0.2
9
$TEXTSTYLE
7
Standard
9
$LUNITS
70
2
9
$LUPREC
70
4
9
$EXTNAMES
290
1
9
$INSUNITS
70
4
9
$LTSCALE
40
1
9
$LWDISPLAY
290
1
9
$PDMODE
70
0
9
$PDSIZE
40
0
9
$PLINEGEN
70
0
0
ENDSEC
0
SECTION
2
CLASSES
0
CLASS
1
RASTERVARIABLES
2
AcDbRasterVariables
3
ISM
90
0
280
0
281
0
0
ENDSEC
0
SECTION
2
TABLES
0
TABLE
2
VPORT
5
214
100
AcDbSymbolTable
0
VPORT
5
1
100
AcDbSymbolTableRecord
100
AcDbViewportTableRecord
2
*Active
70
0
10
0
20
0
11
1
21
1
12
-1
22
1
13
0
23
0
14
0.5
24
0.5
15
10
25
10
16
0
26
0
36
1
17
0
27
0
37
0
0
ENDTAB
0
TABLE
2
LTYPE
5
215
100
AcDbSymbolTable
0
LTYPE
5
14
100
AcDbSymbolTableRecord
100
AcDbLinetypeTableRecord
70
0
2
ByBlock
3

72
65
73
0
40
0
0
LTYPE
5
15
100
AcDbSymbolTableRecord
100
AcDbLinetypeTableRecord
70
0
2
ByLayer
3

72
65
73
0
40
0
0
LTYPE
5
16
100
AcDbSymbolTableRecord
100
AcDbLinetypeTableRecord
70
0
2
CONTINUOUS
3
Solid line
72
65
73
0
40
0
0
LTYPE
5
6A
100
AcDbSymbolTableRecord
100
AcDbLinetypeTableRecord
70
0
2
CENTER
3
____ _ ____ _ ____ _ ____
72
65
73
4
40
47.5
49
22
74
0
49
-8.5
74
0
49
8.5
74
0
49
-8.5
74
0
0
LTYPE
5
6B
100
AcDbSymbolTableRecord
100
AcDbLinetypeTableRecord
70
0
2
DASHED
3
__ __ __ __ __ __ __ __ __
72
65
73
2
40
25.72
49
12.86
74
0
49
-12.86
74
0
0
ENDTAB
0
TABLE
2
LAYER
5
216
100
AcDbSymbolTable
0
LAYER
5
10
100
AcDbSymbolTableRecord
100
AcDbLayerTableRecord
2
0
70
0
62
7
6
CONTINUOUS
290
1
370
-3
390
0
0
LAYER
5
6D
100
AcDbSymbolTableRecord
100
AcDbLayerTableRecord
2
2
70
0
62
7
6
CONTINUOUS
290
1
370
-3
390
0
0
LAYER
5
6F
100
AcDbSymbolTableRecord
100
AcDbLayerTableRecord
2
80
70
0
62
-6
6
CONTINUOUS
290
1
370
-3
390
0
0
LAYER
5
71
100
AcDbSymbolTableRecord
100
AcDbLayerTableRecord
2
81
70
0
62
-3
6
CONTINUOUS
290
1
370
-3
390
0
0
LAYER
5
73
100
AcDbSymbolTableRecord
100
AcDbLayerTableRecord
2
1
70
0
62
4
6
CONTINUOUS
290
1
370
-3
390
0
0
LAYER
5
201
100
AcDbSymbolTableRecord
100
AcDbLayerTableRecord
2
SK1
70
0
62
4
6
CONTINUOUS
290
1
370
-3
390
0
0
LAYER
5
202
100
AcDbSymbolTableRecord
100
AcDbLayerTableRecord
2
SK6
70
0
62
5
6
CONTINUOUS
290
1
370
-3
390
0
0
LAYER
5
203
100
AcDbSymbolTableRecord
100
AcDbLayerTableRecord
2
SK2
70
0
62
7
6
CONTINUOUS
290
1
370
-3
390
0
0
ENDTAB
0
TABLE
2
STYLE
5
217
100
AcDbSymbolTable
0
STYLE
5
11
100
AcDbSymbolTableRecord
100
AcDbTextStyleTableRecord
2
Standard
3
txt
70
0
71
0
40
0
41
1
42
0
50
0
0
STYLE
5
157
100
AcDbSymbolTableRecord
100
AcDbTextStyleTableRecord
2
iso_b_vert
3
simplex.shx
70
0
71
0
40
0
41
1
42
0
50
0
0
STYLE
5
158
100
AcDbSymbolTableRecord
100
AcDbTextStyleTableRecord
2
DWGDirectTextStyle
3
simplex
70
0
71
0
40
0
41
1
42
0
50
0
0
ENDTAB
0
TABLE
2
DIMSTYLE
5
218
100
AcDbSymbolTable
100
AcDbDimStyleTable
0
DIMSTYLE
105
27
100
AcDbSymbolTableRecord
100
AcDbDimStyleTableRecord
2
Standard
70
0
3
<>
41
0.18
42
0.0625
44
0.18
140
0.18
147
0.09
73
0
74
0
77
1
271
2
275
0
278
52
280
0
340
11
0
ENDTAB
0
TABLE
2
VIEW
5
219
100
AcDbSymbolTable
0
ENDTAB
0
TABLE
2
UCS
5
21a
100
AcDbSymbolTable
0
ENDTAB
0
TABLE
2
APPID
5
21b
100
AcDbSymbolTable
0
APPID
5
12
100
AcDbSymbolTableRecord
100
AcDbRegAppTableRecord
2
ACAD
70
0
0
ENDTAB
0
TABLE
2
BLOCK_RECORD
5
21c
100
AcDbSymbolTable
0
BLOCK_RECORD
5
1F
100
AcDbSymbolTableRecord
100
AcDbBlockTableRecord
2
*Model_Space
340
0
70
0
0
BLOCK_RECORD
5
1B
100
AcDbSymbolTableRecord
100
AcDbBlockTableRecord
2
*Paper_Space
340
0
70
0
0
BLOCK_RECORD
5
23
100
AcDbSymbolTableRecord
100
AcDbBlockTableRecord
2
*Paper_Space0
340
0
70
0
0
BLOCK_RECORD
5
15A
100
AcDbSymbolTableRecord
100
AcDbBlockTableRecord
2
DimnDraft3D11
340
0
70
0
0
BLOCK_RECORD
5
169
100
AcDbSymbolTableRecord
100
AcDbBlockTableRecord
2
DimnDraft3D2
340
0
70
0
0
BLOCK_RECORD
5
177
100
AcDbSymbolTableRecord
100
AcDbBlockTableRecord
2
_CLOSED
340
0
70
0
0
BLOCK_RECORD
5
17E
100
AcDbSymbolTableRecord
100
AcDbBlockTableRecord
2
DimnDraft3D3
340
0
70
0
0
BLOCK_RECORD
5
18C
100
AcDbSymbolTableRecord
100
AcDbBlockTableRecord
2
DimnDraft3D4
340
0
70
0
0
BLOCK_RECORD
5
19A
100
AcDbSymbolTableRecord
100
AcDbBlockTableRecord
2
DimnDraft3D5
340
0
70
0
0
ENDTAB
0
ENDSEC
0
SECTION
2
BLOCKS
0
BLOCK
5
20
100
AcDbEntity
8
0
100
AcDbBlockBegin
2
*Model_Space
70
0
10
0
20
0
30
0
3
*Model_Space
0
ENDBLK
5
21
100
AcDbEntity
8
0
100
AcDbBlockEnd
0
BLOCK
5
1C
100
AcDbEntity
8
0
100
AcDbBlockBegin
2
*Paper_Space
70
0
10
0
20
0
30
0
3
*Paper_Space
0
ENDBLK
5
1D
100
AcDbEntity
8
0
100
AcDbBlockEnd
0
BLOCK
5
24
100
AcDbEntity
8
0
100
AcDbBlockBegin
2
*Paper_Space0
70
0
10
0
20
0
30
0
3
*Paper_Space0
0
ENDBLK
5
25
100
AcDbEntity
8
0
100
AcDbBlockEnd
0
BLOCK
5
15B
100
AcDbEntity
8
0
100
AcDbBlockBegin
2
DimnDraft3D11
70
0
10
0
20
0
30
0
3
DimnDraft3D11
0
LINE
5
15D
100
AcDbEntity
8
SK2
62
256
6
ByLayer
370
25
48
1
60
0
100
AcDbLine
10
39.424798
20
-26.425
30
0
11
39.424798
21
-64.675
31
0
39
0
210
0
220
0
230
1
0
LINE
5
15F
100
AcDbEntity
8
SK2
62
256
6
ByLayer
370
25
48
1
60
0
100
AcDbLine
10
-131.925202
20
-17.925
30
0
11
-131.925202
21
-64.675
31
0
39
0
210
0
220
0
230
1
0
LINE
5
160
100
AcDbEntity
8
SK2
62
256
6
ByLayer
370
25
48
1
60
0
100
AcDbLine
10
39.424798
20
-62.675
30
0
11
-131.925202
21
-62.675
31
0
39
0
210
0
220
0
230
1
0
LINE
5
161
100
AcDbEntity
8
SK2
62
256
6
ByLayer
370
25
48
1
60
0
100
AcDbLine
10
39.424798
20
-62.675
30
0
11
36.249799
21
-63.092997
31
0
39
0
210
0
220
0
230
1
0
LINE
5
162
100
AcDbEntity
8
SK2
62
256
6
ByLayer
370
25
48
1
60
0
100
AcDbLine
10
39.424798
20
-62.675
30
0
11
36.249796
21
-62.257003
31
0
39
0
210
0
220
0
230
1
0
LINE
5
163
100
AcDbEntity
8
SK2
62
256
6
ByLayer
370
25
48
1
60
0
100
AcDbLine
10
36.249799
20
-63.092997
30
0
11
36.249796
21
-62.257003
31
0
39
0
210
0
220
0
230
1
0
LINE
5
164
100
AcDbEntity
8
SK2
62
256
6
ByLayer
370
25
48
1
60
0
100
AcDbLine
10
-131.925202
20
-62.675
30
0
11
-128.750204
21
-62.257003
31
0
39
0
210
0
220
0
230
1
0
LINE
5
165
100
AcDbEntity
8
SK2
62
256
6
ByLayer
370
25
48
1
60
0
100
AcDbLine
10
-131.925202
20
-62.675
30
0
11
-128.750201
21
-63.092997
31
0
39
0
210
0
220
0
230
1
0
LINE
5
166
100
AcDbEntity
8
SK2
62
256
6
ByLayer
370
25
48
1
60
0
100
AcDbLine
10
-128.750204
20
-62.257003
30
0
11
-128.750201
21
-63.092997
31
0
39
0
210
0
220
0
230
1
0
MTEXT
5
167
100
AcDbEntity
8
SK2
62
256
6
ByLayer
370
18
48
1
60
0
100
AcDbMText
10
-51.52586
20
-61.55
30
0
210
0
220
0
230
1
1
\W0.6864;170.0
40
4.5
41
0
44
1.084337
50
0
71
7
72
5
7
iso_b_vert
0
ENDBLK
5
15C
100
AcDbEntity
8
0
100
AcDbBlockEnd
0
BLOCK
5
174
100
AcDbEntity
8
0
100
AcDbBlockBegin
2
DimnDraft3D2
70
0
10
0
20
0
30
0
3
DimnDraft3D2
0
MTEXT
5
16A
100
AcDbEntity
8
2
62
256
6
ByLayer
370
18
48
1
60
0
100
AcDbMText
10
22.679163
20
-36.334465
30
0
210
0
220
0
230
1
1
\W0.7399;93%%d
40
4.5
41
0
44
1.084337
50
313.5
71
7
72
5
7
iso_b_vert
0
LINE
5
16B
100
AcDbEntity
8
2
62
256
6
ByLayer
370
13
48
1
60
0
100
AcDbLine
10
39.424798
20
-26.425
30
0
11
39.424798
21
-47.908093
31
0
39
0
210
0
220
0
230
1
0
LINE
5
16C
100
AcDbEntity
8
2
62
256
6
ByLayer
370
13
48
1
60
0
100
AcDbLine
10
35.593618
20
-24.266904
30
0
11
16.016518
21
-23.240912
31
0
39
0
210
0
220
0
230
1
0
ARC
5
16D
100
AcDbEntity
8
2
62
256
6
ByLayer
370
13
48
1
60
0
100
AcDbCircle
39
0
10
39.424798
20
-24.467688
30
0
40
21.4404046852669
210
0
220
0
230
1
100
AcDbArc
50
177
51
270
0
LINE
5
16E
100
AcDbEntity
8
2
62
256
6
ByLayer
370
13
48
1
60
0
100
AcDbLine
10
39.424798
20
-45.908093
30
0
11
36.236524
21
-46.208502
31
0
39
0
210
0
220
0
230
1
0
LINE
5
16F
100
AcDbEntity
8
2
62
256
6
ByLayer
370
13
48
1
60
0
100
AcDbLine
10
39.424798
20
-45.908093
30
0
11
36.267407
21
-45.37308
31
0
39
0
210
0
220
0
230
1
0
LINE
5
170
100
AcDbEntity
8
2
62
256
6
ByLayer
370
13
48
1
60
0
100
AcDbLine
10
36.236524
20
-46.208502
30
0
11
36.267407
21
-45.37308
31
0
39
0
210
0
220
0
230
1
0
LINE
5
171
100
AcDbEntity
8
2
62
256
6
ByLayer
370
13
48
1
60
0
100
AcDbLine
10
18.013777
20
-23.345584
30
0
11
18.382811
21
-26.526645
31
0
39
0
210
0
220
0
230
1
0
LINE
5
172
100
AcDbEntity
8
2
62
256
6
ByLayer
370
13
48
1
60
0
100
AcDbLine
10
18.013777
20
-23.345584
30
0
11
17.546917
21
-26.513769
31
0
39
0
210
0
220
0
230
1
0
LINE
5
173
100
AcDbEntity
8
2
62
256
6
ByLayer
370
13
48
1
60
0
100
AcDbLine
10
18.382811
20
-26.526645
30
0
11
17.546917
21
-26.513769
31
0
39
0
210
0
220
0
230
1
0
ENDBLK
5
175
100
AcDbEntity
8
0
100
AcDbBlockEnd
0
BLOCK
5
178
100
AcDbEntity
8
0
100
AcDbBlockBegin
2
_CLOSED
70
0
10
0
20
0
30
0
3
_CLOSED
0
LINE
5
17A
100
AcDbEntity
8
0
62
256
6
ByLayer
370
-2
48
1
60
0
100
AcDbLine
10
-1
20
0.166667
30
0
11
0
21
0
31
0
39
0
210
0
220
0
230
1
0
LINE
5
17B
100
AcDbEntity
8
0
62
256
6
ByLayer
370
-2
48
1
60
0
100
AcDbLine
10
0
20
0
30
0
11
-1
21
-0.166667
31
0
39
0
210
0
220
0
230
1
0
LINE
5
17C
100
AcDbEntity
8
0
62
256
6
ByLayer
370
-2
48
1
60
0
100
AcDbLine
10
-1
20
0.166667
30
0
11
-1
21
-0.166667
31
0
39
0
210
0
220
0
230
1
0
LINE
5
17D
100
AcDbEntity
8
0
62
256
6
ByLayer
370
-2
48
1
60
0
100
AcDbLine
10
0
20
0
30
0
11
-1
21
0
31
0
39
0
210
0
220
0
230
1
0
ENDBLK
5
179
100
AcDbEntity
8
0
100
AcDbBlockEnd
0
BLOCK
5
189
100
AcDbEntity
8
0
100
AcDbBlockBegin
2
DimnDraft3D3
70
0
10
0
20
0
30
0
3
DimnDraft3D3
0
MTEXT
5
17F
100
AcDbEntity
8
2
62
256
6
ByLayer
370
18
48
1
60
0
100
AcDbMText
10
15.318978
20
-51.55
30
0
210
0
220
0
230
1
1
\W0.7528;39.4
40
4.5
41
0
44
1.084337
50
0
71
7
72
5
7
iso_b_vert
0
LINE
5
180
100
AcDbEntity
8
2
62
256
6
ByLayer
370
13
48
1
60
0
100
AcDbLine
10
0
20
-17.925
30
0
11
0
21
-54.675
31
0
39
0
210
0
220
0
230
1
0
LINE
5
181
100
AcDbEntity
8
2
62
256
6
ByLayer
370
13
48
1
60
0
100
AcDbLine
10
39.424798
20
-26.425
30
0
11
39.424798
21
-54.675
31
0
39
0
210
0
220
0
230
1
0
LINE
5
182
100
AcDbEntity
8
2
62
256
6
ByLayer
370
13
48
1
60
0
100
AcDbLine
10
0
20
-52.675
30
0
11
39.424798
21
-52.675
31
0
39
0
210
0
220
0
230
1
0
LINE
5
183
100
AcDbEntity
8
2
62
256
6
ByLayer
370
13
48
1
60
0
100
AcDbLine
10
0
20
-52.675
30
0
11
3.174998
21
-52.257003
31
0
39
0
210
0
220
0
230
1
0
LINE
5
184
100
AcDbEntity
8
2
62
256
6
ByLayer
370
13
48
1
60
0
100
AcDbLine
10
0
20
-52.675
30
0
11
3.175002
21
-53.092997
31
0
39
0
210
0
220
0
230
1
0
LINE
5
185
100
AcDbEntity
8
2
62
256
6
ByLayer
370
13
48
1
60
0
100
AcDbLine
10
3.174998
20
-52.257003
30
0
11
3.175002
21
-53.092997
31
0
39
0
210
0
220
0
230
1
0
LINE
5
186
100
AcDbEntity
8
2
62
256
6
ByLayer
370
13
48
1
60
0
100
AcDbLine
10
39.424798
20
-52.675
30
0
11
36.249799
21
-53.092997
31
0
39
0
210
0
220
0
230
1
0
LINE
5
187
100
AcDbEntity
8
2
62
256
6
ByLayer
370
13
48
1
60
0
100
AcDbLine
10
39.424798
20
-52.675
30
0
11
36.249796
21
-52.257003
31
0
39
0
210
0
220
0
230
1
0
LINE
5
188
100
AcDbEntity
8
2
62
256
6
ByLayer
370
13
48
1
60
0
100
AcDbLine
10
36.249799
20
-53.092997
30
0
11
36.249796
21
-52.257003
31
0
39
0
210
0
220
0
230
1
0
ENDBLK
5
18A
100
AcDbEntity
8
0
100
AcDbBlockEnd
0
BLOCK
5
197
100
AcDbEntity
8
0
100
AcDbBlockBegin
2
DimnDraft3D4
70
0
10
0
20
0
30
0
3
DimnDraft3D4
0
MTEXT
5
18D
100
AcDbEntity
8
2
62
256
6
ByLayer
370
18
48
1
60
0
100
AcDbMText
10
60.549798
20
-8.643421
30
0
210
0
220
0
230
1
1
\W0.7640;40.0
40
4.5
41
0
44
1.084337
50
90
71
7
72
5
7
iso_b_vert
0
LINE
5
18E
100
AcDbEntity
8
2
62
256
6
ByLayer
370
13
48
1
60
0
100
AcDbLine
10
2
20
15.925
30
0
11
63.674798
21
15.925
31
0
39
0
210
0
220
0
230
1
0
LINE
5
18F
100
AcDbEntity
8
2
62
256
6
ByLayer
370
13
48
1
60
0
100
AcDbLine
10
41.424798
20
-24.425
30
0
11
63.674798
21
-24.425
31
0
39
0
210
0
220
0
230
1
0
LINE
5
190
100
AcDbEntity
8
2
62
256
6
ByLayer
370
13
48
1
60
0
100
AcDbLine
10
61.674798
20
15.925
30
0
11
61.674798
21
-24.425
31
0
39
0
210
0
220
0
230
1
0
LINE
5
191
100
AcDbEntity
8
2
62
256
6
ByLayer
370
13
48
1
60
0
100
AcDbLine
10
61.674798
20
15.925
30
0
11
62.092795
21
12.750002
31
0
39
0
210
0
220
0
230
1
0
LINE
5
192
100
AcDbEntity
8
2
62
256
6
ByLayer
370
13
48
1
60
0
100
AcDbLine
10
61.674798
20
15.925
30
0
11
61.256801
21
12.749998
31
0
39
0
210
0
220
0
230
1
0
LINE
5
193
100
AcDbEntity
8
2
62
256
6
ByLayer
370
13
48
1
60
0
100
AcDbLine
10
62.092795
20
12.750002
30
0
11
61.256801
21
12.749998
31
0
39
0
210
0
220
0
230
1
0
LINE
5
194
100
AcDbEntity
8
2
62
256
6
ByLayer
370
13
48
1
60
0
100
AcDbLine
10
61.674798
20
-24.425
30
0
11
61.256801
21
-21.250002
31
0
39
0
210
0
220
0
230
1
0
LINE
5
195
100
AcDbEntity
8
2
62
256
6
ByLayer
370
13
48
1
60
0
100
AcDbLine
10
61.674798
20
-24.425
30
0
11
62.092795
21
-21.249998
31
0
39
0
210
0
220
0
230
1
0
LINE
5
196
100
AcDbEntity
8
2
62
256
6
ByLayer
370
13
48
1
60
0
100
AcDbLine
10
61.256801
20
-21.250002
30
0
11
62.092795
21
-21.249998
31
0
39
0
210
0
220
0
230
1
0
ENDBLK
5
198
100
AcDbEntity
8
0
100
AcDbBlockEnd
0
BLOCK
5
1A5
100
AcDbEntity
8
0
100
AcDbBlockBegin
2
DimnDraft3D5
70
0
10
0
20
0
30
0
3
DimnDraft3D5
0
MTEXT
5
19B
100
AcDbEntity
8
SK2
62
256
6
ByLayer
370
18
48
1
60
0
100
AcDbMText
10
-140.800202
20
-4.156579
30
0
210
0
220
0
230
1
1
\W0.7346;32.0
40
4.5
41
0
44
1.084337
50
90
71
7
72
5
7
iso_b_vert
0
LINE
5
19C
100
AcDbEntity
8
SK2
62
256
6
ByLayer
370
13
48
1
60
0
100
AcDbLine
10
-133.925202
20
15.925
30
0
11
-141.675202
21
15.925
31
0
39
0
210
0
220
0
230
1
0
LINE
5
19D
100
AcDbEntity
8
SK2
62
256
6
ByLayer
370
13
48
1
60
0
100
AcDbLine
10
-133.925202
20
-15.925
30
0
11
-141.675202
21
-15.925
31
0
39
0
210
0
220
0
230
1
0
LINE
5
19E
100
AcDbEntity
8
SK2
62
256
6
ByLayer
370
13
48
1
60
0
100
AcDbLine
10
-139.675202
20
15.925
30
0
11
-139.675202
21
-15.925
31
0
39
0
210
0
220
0
230
1
0
LINE
5
19F
100
AcDbEntity
8
SK2
62
256
6
ByLayer
370
13
48
1
60
0
100
AcDbLine
10
-139.675202
20
15.925
30
0
11
-139.257205
21
12.750002
31
0
39
0
210
0
220
0
230
1
0
LINE
5
1A0
100
AcDbEntity
8
SK2
62
256
6
ByLayer
370
13
48
1
60
0
100
AcDbLine
10
-139.675202
20
15.925
30
0
11
-140.093199
21
12.749998
31
0
39
0
210
0
220
0
230
1
0
LINE
5
1A1
100
AcDbEntity
8
SK2
62
256
6
ByLayer
370
13
48
1
60
0
100
AcDbLine
10
-139.257205
20
12.750002
30
0
11
-140.093199
21
12.749998
31
0
39
0
210
0
220
0
230
1
0
LINE
5
1A2
100
AcDbEntity
8
SK2
62
256
6
ByLayer
370
13
48
1
60
0
100
AcDbLine
10
-139.675202
20
-15.925
30
0
11
-140.093199
21
-12.750002
31
0
39
0
210
0
220
0
230
1
0
LINE
5
1A3
100
AcDbEntity
8
SK2
62
256
6
ByLayer
370
13
48
1
60
0
100
AcDbLine
10
-139.675202
20
-15.925
30
0
11
-139.257205
21
-12.749998
31
0
39
0
210
0
220
0
230
1
0
LINE
5
1A4
100
AcDbEntity
8
SK2
62
256
6
ByLayer
370
13
48
1
60
0
100
AcDbLine
10
-140.093199
20
-12.750002
30
0
11
-139.257205
21
-12.749998
31
0
39
0
210
0
220
0
230
1
0
ENDBLK
5
1A6
100
AcDbEntity
8
0
100
AcDbBlockEnd
0
ENDSEC
0
SECTION
2
ENTITIES
0
ELLIPSE
5
E2
100
AcDbEntity
8
1
62
256
6
ByLayer
370
18
48
1
60
0
100
AcDbEllipse
10
28.410738
20
-17.566341
30
0
11
1.80042269365874
21
1.847938885396
31
0
210
0
220
0
230
1
40
0.987534
41
-2.33842919789536
42
0
0
ELLIPSE
5
E3
100
AcDbEntity
8
1
62
256
6
ByLayer
370
18
48
1
60
0
100
AcDbEllipse
10
28.410738
20
-17.566341
30
0
11
1.80042269365874
21
1.847938885396
31
0
210
0
220
0
230
1
40
0.987534
41
0
42
0.330451779101577
0
ELLIPSE
5
E4
100
AcDbEntity
8
1
62
256
6
ByLayer
370
18
48
1
60
0
100
AcDbEllipse
10
14.817681
20
-15.093719
30
0
11
0.802513991359516
21
0.823693689226899
31
0
210
0
220
0
230
1
40
0.987534
41
-3.10694123397071
42
-0.0345619915316885
0
ELLIPSE
5
E5
100
AcDbEntity
8
1
62
256
6
ByLayer
370
18
48
1
60
0
100
AcDbEllipse
10
14.874053
20
-15.148642
30
0
11
0.802513991359516
21
0.823693689226899
31
0
210
0
220
0
230
1
40
0.987534
41
0.778645720303551
42
1.29806188987334
0
ELLIPSE
5
E6
100
AcDbEntity
8
1
62
256
6
ByLayer
370
18
48
1
60
0
100
AcDbEllipse
10
14.874053
20
-15.148642
30
0
11
0.802513991359516
21
0.823693689226899
31
0
210
0
220
0
230
1
40
0.987534
41
1.9216681320461
42
2.58847133294151
0
ELLIPSE
5
E7
100
AcDbEntity
8
1
62
256
6
ByLayer
370
18
48
1
60
0
100
AcDbEllipse
10
14.874053
20
-15.148642
30
0
11
0.802513991359516
21
0.823693689226899
31
0
210
0
220
0
230
1
40
0.987534
41
3.0000200745046
42
0
0
ELLIPSE
5
E8
100
AcDbEntity
8
1
62
256
6
ByLayer
370
18
48
1
60
0
100
AcDbEllipse
10
14.874053
20
-15.148642
30
0
11
0.802513991359516
21
0.823693689226899
31
0
210
0
220
0
230
1
40
0.987534
41
0
42
0.189865462697476
0
ELLIPSE
5
E9
100
AcDbEntity
8
1
62
256
6
ByLayer
370
18
48
1
60
0
100
AcDbEllipse
10
14.874053
20
-15.148642
30
0
11
0.802513991359516
21
0.823693689226899
31
0
210
0
220
0
230
1
40
0.987534
41
0.634989872114793
42
0.778645720303551
0
ELLIPSE
5
EA
100
AcDbEntity
8
1
62
256
6
ByLayer
370
18
48
1
60
0
100
AcDbEllipse
10
31.4242
20
-13.087213
30
0
11
0.831125359747116
21
0.853060159886293
31
0
210
0
220
0
230
1
40
0.987534
41
-4.44879703623829E-06
42
0.233835969021911
0
ELLIPSE
5
EB
100
AcDbEntity
8
1
62
256
6
ByLayer
370
18
48
1
60
0
100
AcDbEllipse
10
7.972142
20
-19.309977
30
0
11
1.97548026366514
21
2.25775944862811
31
0
210
0
220
0
230
1
40
0.985051
41
0.187906387138326
42
0.5038929371685
0
ELLIPSE
5
EC
100
AcDbEntity
8
1
62
256
6
ByLayer
370
18
48
1
60
0
100
AcDbEllipse
10
13.49631
20
-14.77521
30
0
11
2.7327476980701
21
3.12323390393556
31
0
210
0
220
0
230
1
40
0.985051
41
-2.92501275660842
42
-2.6376997164213
0
ELLIPSE
5
ED
100
AcDbEntity
8
1
62
256
6
ByLayer
370
18
48
1
60
0
100
AcDbEllipse
10
15.478949
20
-15.194745
30
0
11
-2.7327476980701
21
-3.12323390393556
31
0
210
0
220
0
230
1
40
0.985051
41
0.503892937168486
42
-2.986023797023
0
ELLIPSE
5
EE
100
AcDbEntity
8
1
62
256
6
ByLayer
370
18
48
1
60
0
100
AcDbEllipse
10
13.418938
20
-14.758838
30
0
11
-1.71208289517645
21
-1.9567248554777
31
0
210
0
220
0
230
1
40
0.985051
41
-1.1673853428627
42
-0.976435586115004
0
ELLIPSE
5
EF
100
AcDbEntity
8
1
62
256
6
ByLayer
370
18
48
1
60
0
100
AcDbEllipse
10
27.383235
20
-16.646133
30
0
11
1.90160924039537
21
1.95179591577678
31
0
210
0
220
0
230
1
40
0.987534
41
-0.529362666345055
42
-0.323882768359777
0
ELLIPSE
5
F0
100
AcDbEntity
8
1
62
256
6
ByLayer
370
18
48
1
60
0
100
AcDbEllipse
10
18.744649
20
-9.285033
30
0
11
1.65314319602558
21
1.69677243339754
31
0
210
0
220
0
230
1
40
0.987534
41
1.32466675151839
42
1.68413813115886
0
ELLIPSE
5
F1
100
AcDbEntity
8
1
62
256
6
ByLayer
370
18
48
1
60
0
100
AcDbEllipse
10
29.954927
20
-11.797825
30
0
11
1.11654120536976
21
1.14600861109829
31
0
210
0
220
0
230
1
40
0.987534
41
2.69989444825928E-06
42
0.713801513320331
0
ELLIPSE
5
F2
100
AcDbEntity
8
1
62
256
6
ByLayer
370
18
48
1
60
0
100
AcDbEllipse
10
24.439733
20
-20.970441
30
0
11
1.11654120536977
21
1.1460086110983
31
0
210
0
220
0
230
1
40
0.987534
41
2.89546307831331
42
-3.1415898316396
0
ELLIPSE
5
F3
100
AcDbEntity
8
1
62
256
6
ByLayer
370
18
48
1
60
0
100
AcDbEllipse
10
13.657637
20
-14.889359
30
0
11
-0.265178536275318
21
-0.272177045135845
31
0
210
0
220
0
230
1
40
0.987534
41
0.342180053776488
42
0.403396498438495
0
ELLIPSE
5
F4
100
AcDbEntity
8
1
62
256
6
ByLayer
370
18
48
1
60
0
100
AcDbEllipse
10
15.222035
20
-13.601699
30
0
11
0.296581257676343
21
0.304408537322985
31
0
210
0
220
0
230
1
40
0.987534
41
2.80444236523645
42
-3.14158584376971
0
ELLIPSE
5
F5
100
AcDbEntity
8
1
62
256
6
ByLayer
370
18
48
1
60
0
100
AcDbEllipse
10
13.364482
20
-15.637431
30
0
11
0.296581257676343
21
0.304408537322985
31
0
210
0
220
0
230
1
40
0.987534
41
-1.88105428639253E-05
42
0.403396498438491
0
ELLIPSE
5
F6
100
AcDbEntity
8
1
62
256
6
ByLayer
370
18
48
1
60
0
100
AcDbEllipse
10
15.719962
20
-14.221593
30
0
11
-0.265178536275318
21
-0.272177045135845
31
0
210
0
220
0
230
1
40
0.987534
41
1.75724481404003
42
2.79939683891882
0
ELLIPSE
5
F7
100
AcDbEntity
8
1
62
256
6
ByLayer
370
18
48
1
60
0
100
AcDbEllipse
10
14.028145
20
-16.075691
30
0
11
-0.265178536275318
21
-0.272177045135845
31
0
210
0
220
0
230
1
40
0.987534
41
0.342174994296192
42
1.45059404963496
0
ELLIPSE
5
F8
100
AcDbEntity
8
1
62
256
6
ByLayer
370
18
48
1
60
0
100
AcDbEllipse
10
16.383625
20
-14.659853
30
0
11
0.296581257676343
21
0.304408537322985
31
0
210
0
220
0
230
1
40
0.987534
41
1.75724481403986
42
3.1415724499331
0
ELLIPSE
5
F9
100
AcDbEntity
8
1
62
256
6
ByLayer
370
18
48
1
60
0
100
AcDbEllipse
10
14.526071
20
-16.695585
30
0
11
0.296581257676343
21
0.304408537322985
31
0
210
0
220
0
230
1
40
0.987534
41
6.81496151173516E-06
42
1.45059404963511
0
ELLIPSE
5
FA
100
AcDbEntity
8
1
62
256
6
ByLayer
370
18
48
1
60
0
100
AcDbEllipse
10
14.783858
20
-15.060766
30
0
11
2.7913530134244
21
2.86502152774574
31
0
210
0
220
0
230
1
40
0.987534
41
0.778645851564993
42
3.1415882062199
0
ELLIPSE
5
FB
100
AcDbEntity
8
1
62
256
6
ByLayer
370
18
48
1
60
0
100
AcDbEllipse
10
14.783858
20
-15.060766
30
0
11
2.7913530134244
21
2.86502152774574
31
0
210
0
220
0
230
1
40
0.987534
41
9.36334057305058E-05
42
0.778645851564993
0
ELLIPSE
5
FC
100
AcDbEntity
8
1
62
256
6
ByLayer
370
18
48
1
60
0
100
AcDbEllipse
10
16.09047
20
-15.407924
30
0
11
-0.265178536275318
21
-0.272177045135845
31
0
210
0
220
0
230
1
40
0.987534
41
0.710047262843337
42
2.79935548313889
0
ELLIPSE
5
FD
100
AcDbEntity
8
1
62
256
6
ByLayer
370
18
48
1
60
0
100
AcDbEllipse
10
15.244561
20
-16.334974
30
0
11
-0.265178536275318
21
-0.272177045135845
31
0
210
0
220
0
230
1
40
0.987534
41
0.342171625757575
42
2.49779160083157
0
ELLIPSE
5
FE
100
AcDbEntity
8
1
62
256
6
ByLayer
370
18
48
1
60
0
100
AcDbEllipse
10
27.694813
20
-16.868824
30
0
11
1.80042269365874
21
1.847938885396
31
0
210
0
220
0
230
1
40
0.987534
41
-0.498437688434818
42
-0.197433992985073
0
ELLIPSE
5
FF
100
AcDbEntity
8
1
62
256
6
ByLayer
370
18
48
1
60
0
100
AcDbEllipse
10
24.681352
20
-21.347952
30
0
11
-0.831125359747117
21
-0.853060159886292
31
0
210
0
220
0
230
1
40
0.987534
41
-0.246129575276538
42
0.233835969021887
0
ELLIPSE
5
100
100
AcDbEntity
8
1
62
256
6
ByLayer
370
18
48
1
60
0
100
AcDbEllipse
10
26.826857
20
-22.62151
30
0
11
-0.831125359747117
21
-0.853060159886292
31
0
210
0
220
0
230
1
40
0.987534
41
0.233835969021912
42
0.713801513320377
0
ELLIPSE
5
101
100
AcDbEntity
8
1
62
256
6
ByLayer
370
18
48
1
60
0
100
AcDbEllipse
10
29.994619
20
-12.511171
30
0
11
-0.831125359747117
21
-0.853060159886292
31
0
210
0
220
0
230
1
40
0.987534
41
-2.9077566845679
42
-2.42779114026941
0
ELLIPSE
5
102
100
AcDbEntity
8
1
62
256
6
ByLayer
370
18
48
1
60
0
100
AcDbEllipse
10
32.140124
20
-13.784729
30
0
11
-0.831125359747117
21
-0.853060159886292
31
0
210
0
220
0
230
1
40
0.987534
41
2.89546307831325
42
-2.9077566845679
0
ELLIPSE
5
103
100
AcDbEntity
8
1
62
256
6
ByLayer
370
18
48
1
60
0
100
AcDbEllipse
10
38.635649
20
-23.63578
30
0
11
-0.554083573164744
21
-0.568706773257528
31
0
210
0
220
0
230
1
40
0.987534
41
0.713801513320335
42
2.89546307831325
0
ELLIPSE
5
104
100
AcDbEntity
8
1
62
256
6
ByLayer
370
18
48
1
60
0
100
AcDbEllipse
10
24.937216
20
-21.455133
30
0
11
-1.11654120536976
21
-1.14600861109829
31
0
210
0
220
0
230
1
40
0.987534
41
-0.246129575276522
42
0.713801513320368
0
ELLIPSE
5
105
100
AcDbEntity
8
1
62
256
6
ByLayer
370
18
48
1
60
0
100
AcDbEllipse
10
30.45241
20
-12.282516
30
0
11
-1.11654120536976
21
-1.14600861109829
31
0
210
0
220
0
230
1
40
0.987534
41
2.89546307831327
42
-2.42779114026943
0
ELLIPSE
5
106
100
AcDbEntity
8
1
62
256
6
ByLayer
370
18
48
1
60
0
100
AcDbEllipse
10
9.508739
20
-9.017849
30
0
11
-2.66344707795932
21
-1.40123612197731
31
0
210
0
220
0
230
1
40
0.988643
41
-1.75162898674482
42
-0.699939923679072
0
ELLIPSE
5
107
100
AcDbEntity
8
1
62
256
6
ByLayer
370
18
48
1
60
0
100
AcDbEllipse
10
7.671629
20
-17.184666
30
0
11
-2.66344707797933
21
-1.40123612192708
31
0
210
0
220
0
230
1
40
0.988643
41
-0.6999399236629
42
0.351749139403141
0
ELLIPSE
5
108
100
AcDbEntity
8
1
62
256
6
ByLayer
370
18
48
1
60
0
100
AcDbEllipse
10
10.368793
20
-18.758275
30
0
11
-3.82773442483756
21
-0.907594688949999
31
0
210
0
220
0
230
1
40
0.449589
41
0.399114564341337
42
0.758730297693543
0
ELLIPSE
5
109
100
AcDbEntity
8
1
62
256
6
ByLayer
370
18
48
1
60
0
100
AcDbEllipse
10
10.454333
20
-20.729194
30
0
11
-3.4565439031689
21
0.579964293011185
31
0
210
0
220
0
230
1
40
0.288972
41
-0.612366121442509
42
0.1108519849629
0
ELLIPSE
5
10A
100
AcDbEntity
8
1
62
256
6
ByLayer
370
18
48
1
60
0
100
AcDbEllipse
10
5.725496
20
-5.661168
30
0
11
6.82934418825403
21
-1.53624801329764
31
0
210
0
220
0
230
1
40
0.083175
41
0.797732830958251
42
0.812513867698235
0
ELLIPSE
5
10B
100
AcDbEntity
8
1
62
256
6
ByLayer
370
18
48
1
60
0
100
AcDbEllipse
10
10.783866
20
-18.832498
30
0
11
-5.40555273769124
21
1.03051148135297
31
0
210
0
220
0
230
1
40
0.153994
41
-0.601516454938573
42
-0.548524146495693
0
ELLIPSE
5
10C
100
AcDbEntity
8
1
62
256
6
ByLayer
370
18
48
1
60
0
100
AcDbEllipse
10
9.891708
20
-9.60427
30
0
11
1.49832280026797
21
1.3247749945546
31
0
210
0
220
0
230
1
40
0.754402
41
0.707667574872041
42
2.12034306913166
0
ELLIPSE
5
10D
100
AcDbEntity
8
1
62
256
6
ByLayer
370
18
48
1
60
0
100
AcDbEllipse
10
12.881513
20
-9.507473
30
0
11
-5.32236434139172
21
1.39900142593384
31
0
210
0
220
0
230
1
40
0.320139
41
0.554915089615139
42
0.607907396048962
0
ELLIPSE
5
10E
100
AcDbEntity
8
1
62
256
6
ByLayer
370
18
48
1
60
0
100
AcDbEllipse
10
12.205903
20
-10.591459
30
0
11
-2.40333798667701
21
3.82847615077626
31
0
210
0
220
0
230
1
40
0.535969
41
-0.479772778884984
42
-0.120157045510614
0
ELLIPSE
5
10F
100
AcDbEntity
8
1
62
256
6
ByLayer
370
18
48
1
60
0
100
AcDbEllipse
10
12.401319
20
-11.642161
30
0
11
5.36591329077102
21
-1.20705201044815
31
0
210
0
220
0
230
1
40
0.083175
41
-2.42477914533364
42
-1.9830114060476
0
ELLIPSE
5
110
100
AcDbEntity
8
1
62
256
6
ByLayer
370
18
48
1
60
0
100
AcDbEllipse
10
28.851864
20
-17.914973
30
0
11
-0.244919138434669
21
-2.36066737614936
31
0
210
0
220
0
230
1
40
0.796311
41
1.565632825287
42
2.42084415876559
0
ELLIPSE
5
111
100
AcDbEntity
8
1
62
256
6
ByLayer
370
18
48
1
60
0
100
AcDbEllipse
10
13.370377
20
-7.766011
30
0
11
-3.36435260982439
21
0.985138713420572
31
0
210
0
220
0
230
1
40
0.454664
41
-0.0978252986104451
42
0.625392807787334
0
ELLIPSE
5
112
100
AcDbEntity
8
1
62
256
6
ByLayer
370
18
48
1
60
0
100
AcDbEllipse
10
11.26406
20
-16.697809
30
0
11
5.36591329077102
21
-1.20705201044815
31
0
210
0
220
0
230
1
40
0.083175
41
-2.42477914533364
42
-1.98301140604761
0
ELLIPSE
5
113
100
AcDbEntity
8
1
62
256
6
ByLayer
370
18
48
1
60
0
100
AcDbEllipse
10
8.051744
20
-17.783778
30
0
11
-0.44433754174247
21
1.95001644839172
31
0
210
0
220
0
230
1
40
0.807679
41
1.25118760271147
42
2.66386309697105
0
ELLIPSE
5
114
100
AcDbEntity
8
1
62
256
6
ByLayer
370
18
48
1
60
0
100
AcDbEllipse
10
28.851864
20
-17.914973
30
0
11
-1.67589864627001
21
-1.43101267968438
31
0
210
0
220
0
230
1
40
0.772193
41
1.34318189256582
42
2.19839322604752
0
ELLIPSE
5
115
100
AcDbEntity
8
1
62
256
6
ByLayer
370
18
48
1
60
0
100
AcDbEllipse
10
16.035643
20
-16.206796
30
0
11
0.296581257676343
21
0.304408537322985
31
0
210
0
220
0
230
1
40
0.987534
41
0.71004726284337
42
2.49779160083164
0
ELLIPSE
5
116
100
AcDbEntity
8
1
62
256
6
ByLayer
370
18
48
1
60
0
100
AcDbEllipse
10
15.054444
20
-15.324394
30
0
11
-1.60502798271903
21
-1.6473873784538
31
0
210
0
220
0
230
1
40
0.987534
41
0
42
6.28318530717959
0
ELLIPSE
5
117
100
AcDbEntity
8
1
62
256
6
ByLayer
370
18
48
1
60
0
100
AcDbEllipse
10
15.900353
20
-14.397345
30
0
11
-0.265178536275318
21
-0.272177045135845
31
0
210
0
220
0
230
1
40
0.987534
41
1.75724481403983
42
-1.69099860395479
0
ELLIPSE
5
118
100
AcDbEntity
8
1
62
256
6
ByLayer
370
18
48
1
60
0
100
AcDbEllipse
10
13.892854
20
-14.26624
30
0
11
0.296581257676343
21
0.304408537322985
31
0
210
0
220
0
230
1
40
0.987534
41
-2.43154539074657
42
-0.643801052758158
0
ELLIPSE
5
119
100
AcDbEntity
8
1
62
256
6
ByLayer
370
18
48
1
60
0
100
AcDbEllipse
10
13.544872
20
-15.813183
30
0
11
0.296581257676343
21
0.304408537322985
31
0
210
0
220
0
230
1
40
0.987534
41
-1.38434783954994
42
0.403396498438459
0
ELLIPSE
5
11A
100
AcDbEntity
8
1
62
256
6
ByLayer
370
18
48
1
60
0
100
AcDbEllipse
10
15.402426
20
-13.777451
30
0
11
0.296581257676343
21
0.304408537322985
31
0
210
0
220
0
230
1
40
0.987534
41
2.80444236523653
42
-1.69099860395468
0
ELLIPSE
5
11B
100
AcDbEntity
8
1
62
256
6
ByLayer
370
18
48
1
60
0
100
AcDbEllipse
10
16.564015
20
-14.835605
30
0
11
0.296581257676343
21
0.304408537322985
31
0
210
0
220
0
230
1
40
0.987534
41
1.75724481403989
42
-2.73819615515132
0
ELLIPSE
5
11C
100
AcDbEntity
8
1
62
256
6
ByLayer
370
18
48
1
60
0
100
AcDbEllipse
10
14.683936
20
-14.138062
30
0
11
-0.265178536275318
21
-0.272177045135845
31
0
210
0
220
0
230
1
40
0.987534
41
2.80444236523648
42
-0.643801052758212
0
ELLIPSE
5
11D
100
AcDbEntity
8
1
62
256
6
ByLayer
370
18
48
1
60
0
100
AcDbEllipse
10
14.208535
20
-16.251443
30
0
11
-0.265178536275318
21
-0.272177045135845
31
0
210
0
220
0
230
1
40
0.987534
41
-1.38434783954992
42
1.45059404963499
0
ELLIPSE
5
11E
100
AcDbEntity
8
1
62
256
6
ByLayer
370
18
48
1
60
0
100
AcDbEllipse
10
13.838027
20
-15.065111
30
0
11
-0.265178536275318
21
-0.272177045135845
31
0
210
0
220
0
230
1
40
0.987534
41
-2.43154539074651
42
0.403396498438459
0
ELLIPSE
5
11F
100
AcDbEntity
8
1
62
256
6
ByLayer
370
18
48
1
60
0
100
AcDbEllipse
10
14.706462
20
-16.871337
30
0
11
0.296581257676343
21
0.304408537322985
31
0
210
0
220
0
230
1
40
0.987534
41
-0.337150288353213
42
1.45059404963508
0
ELLIPSE
5
120
100
AcDbEntity
8
1
62
256
6
ByLayer
370
18
48
1
60
0
100
AcDbEllipse
10
15.424952
20
-16.510726
30
0
11
-0.265178536275318
21
-0.272177045135845
31
0
210
0
220
0
230
1
40
0.987534
41
-0.337150288353352
42
2.49779160083164
0
ELLIPSE
5
121
100
AcDbEntity
8
1
62
256
6
ByLayer
370
18
48
1
60
0
100
AcDbEllipse
10
16.216034
20
-16.382548
30
0
11
0.296581257676343
21
0.304408537322985
31
0
210
0
220
0
230
1
40
0.987534
41
0.710047262843268
42
2.49779160083176
0
ELLIPSE
5
122
100
AcDbEntity
8
1
62
256
6
ByLayer
370
18
48
1
60
0
100
AcDbEllipse
10
16.27086
20
-15.583677
30
0
11
-0.265178536275318
21
-0.272177045135845
31
0
210
0
220
0
230
1
40
0.987534
41
0.710047262843227
42
-2.73819615515137
0
ELLIPSE
5
123
100
AcDbEntity
8
1
62
256
6
ByLayer
370
18
48
1
60
0
100
AcDbEllipse
10
14.971685
20
-15.243763
30
0
11
-2.7913530134244
21
-2.86502152774573
31
0
210
0
220
0
230
1
40
0.987534
41
0
42
6.28318530717959
0
ELLIPSE
5
124
100
AcDbEntity
8
1
62
256
6
ByLayer
370
18
48
1
60
0
100
AcDbEllipse
10
18.999394
20
-9.127005
30
0
11
1.65314319602558
21
1.69677243339754
31
0
210
0
220
0
230
1
40
0.987534
41
-0.246129575276508
42
1.32466675151838
0
POINT
5
6C
100
AcDbEntity
8
2
62
256
6
ByLayer
370
18
48
1
60
0
100
AcDbPoint
10
39.424798
20
56.275
30
0
39
0
210
0
220
0
230
1
50
360
0
POINT
5
6E
100
AcDbEntity
8
80
62
256
6
ByLayer
370
18
48
1
60
0
100
AcDbPoint
10
0
20
0
30
0
39
0
210
0
220
0
230
1
50
360
0
POINT
5
70
100
AcDbEntity
8
81
62
256
6
ByLayer
370
18
48
1
60
0
100
AcDbPoint
10
39.424798
20
-24.425
30
0
39
0
210
0
220
0
230
1
50
360
0
SPLINE
5
125
100
AcDbEntity
8
1
62
256
6
ByLayer
370
18
48
1
60
0
100
AcDbSpline
70
4
71
3
72
8
73
4
40
0
40
0
40
0
40
0
40
1
40
1
40
1
40
1
41
1
10
6.23706121328382
20
-19.8209517219169
30
0
41
1
10
6.03723341192364
20
-19.7045370513023
30
0
41
1
10
5.83724306924557
20
-19.5671170753795
30
0
41
1
10
5.64856028696732
20
-19.4073493692088
30
0
0
SPLINE
5
126
100
AcDbEntity
8
1
62
256
6
ByLayer
370
18
48
1
60
0
100
AcDbSpline
70
4
71
3
72
8
73
4
40
0
40
0
40
0
40
0
40
1
40
1
40
1
40
1
41
1
10
9.7200624521887
20
-16.8749837958484
30
0
41
1
10
9.48850917537573
20
-16.7659912407121
30
0
41
1
10
9.25509129305033
20
-16.6844829325501
30
0
41
1
10
9.02227459515905
20
-16.6231419194765
30
0
0
SPLINE
5
127
100
AcDbEntity
8
1
62
256
6
ByLayer
370
18
48
1
60
0
100
AcDbSpline
70
4
71
3
72
15
73
11
40
0
40
0
40
0
40
0
40
0.322163720426462
40
0.322163720426462
40
0.644833452600231
40
0.644833452600231
40
0.912233455904558
40
0.912233455904558
40
0.912233455904558
40
1
40
1
40
1
40
1
41
1
10
15.8392281152825
20
-19.5696890037006
30
0
41
1
10
16.3236178203965
20
-19.5791443417324
30
0
41
1
10
16.8162760477526
20
-19.5049154844211
30
0
41
1
10
17.7382788061835
20
-19.2151451183118
30
0
41
1
10
18.1808390470542
20
-18.9951811385715
30
0
41
1
10
18.8895785352473
20
-18.4721359626424
30
0
41
1
10
19.1808862663224
20
-18.1824391416601
30
0
41
1
10
19.4141334411518
20
-17.8543948220323
30
0
41
1
10
19.4916470346595
20
-17.7453778786856
30
0
41
1
10
19.5632710736237
20
-17.6316360931359
30
0
41
1
10
19.6279806479965
20
-17.51434005365
30
0
0
SPLINE
5
128
100
AcDbEntity
8
1
62
256
6
ByLayer
370
18
48
1
60
0
100
AcDbSpline
70
4
71
3
72
8
73
4
40
0
40
0
40
0
40
0
40
1
40
1
40
1
40
1
41
1
10
10.7950743028049
20
-17.701968676566
30
0
41
1
10
10.7521870815346
20
-17.6465416781514
30
0
41
1
10
10.7063662655188
20
-17.5922700925337
30
0
41
1
10
10.6575462075497
20
-17.5392903544843
30
0
0
SPLINE
5
129
100
AcDbEntity
8
1
62
256
6
ByLayer
370
18
48
1
60
0
100
AcDbSpline
70
4
71
3
72
12
73
8
40
0
40
0
40
0
40
0
40
0.466938972358621
40
0.466938972358621
40
0.928803236876553
40
0.928803236876553
40
1
40
1
40
1
40
1
41
1
10
10.6575462075497
20
-17.5392903544843
30
0
41
1
10
10.542586380134
20
-17.4145354525841
30
0
41
1
10
10.4035444074827
20
-17.2931361174761
30
0
41
1
10
10.1098527337369
20
-17.0822546054484
30
0
41
1
10
9.95168853495602
20
-16.9892039398781
30
0
41
1
10
9.76932142350773
20
-16.8984897314579
30
0
41
1
10
9.74469996856089
20
-16.8865807203169
30
0
41
1
10
9.7200624521887
20
-16.8749837958484
30
0
0
SPLINE
5
12A
100
AcDbEntity
8
1
62
256
6
ByLayer
370
18
48
1
60
0
100
AcDbSpline
70
4
71
3
72
11
73
7
40
0
40
0
40
0
40
0
40
0.423407924946021
40
0.740963868655537
40
0.899741840510295
40
1
40
1
40
1
40
1
41
1.02805999725224
10
15.1206975515332
20
-21.2574817888045
30
0
41
1.02767136955277
10
15.980568958846
20
-21.3384855805525
30
0
41
1.02349884684923
10
19.1957187682302
20
-20.8254171389511
30
0
41
1.01876555595691
10
23.2769202164601
20
-19.7462809962704
30
0
41
1.01635405201144
10
24.8188987817619
20
-19.3268789921052
30
0
41
1.01722454828215
10
25.3088845259025
20
-19.3678930208115
30
0
41
1.0177432798788
10
25.5106058757084
20
-19.3926022794869
30
0
0
SPLINE
5
12B
100
AcDbEntity
8
1
62
256
6
ByLayer
370
18
48
1
60
0
100
AcDbSpline
70
4
71
3
72
12
73
8
40
0
40
0
40
0
40
0
40
0.471343086678518
40
0.471343086678518
40
0.892619726108233
40
0.892619726108233
40
1
40
1
40
1
40
1
41
1
10
10.8884090785953
20
-11.681134121935
30
0
41
1
10
11.0648334640121
20
-11.6894117493891
30
0
41
1
10
11.2493040734863
20
-11.6821345040424
30
0
41
1
10
11.5926275600801
20
-11.6297017883041
30
0
41
1
10
11.7556629004185
20
-11.587730916113
30
0
41
1
10
11.9447420769308
20
-11.5150033225279
30
0
41
1
10
11.982889663597
20
-11.4989969795211
30
0
41
1
10
12.0201159201215
20
-11.4820278113968
30
0
0
SPLINE
5
12C
100
AcDbEntity
8
1
62
256
6
ByLayer
370
18
48
1
60
0
100
AcDbSpline
70
4
71
3
72
8
73
4
40
0
40
0
40
0
40
0
40
1
40
1
40
1
40
1
41
1
10
10.8884090785954
20
-11.681134121935
30
0
41
1
10
10.6350125572704
20
-11.6692450511769
30
0
41
1
10
10.3923497373637
20
-11.6288348340749
30
0
41
1
10
10.1595330394725
20
-11.5674938210013
30
0
0
SPLINE
5
12D
100
AcDbEntity
8
1
62
256
6
ByLayer
370
18
48
1
60
0
100
AcDbSpline
70
4
71
3
72
8
73
4
40
0
40
0
40
0
40
0
40
1
40
1
40
1
40
1
41
1
10
10.7950743028049
20
-17.7019686765659
30
0
41
1
10
11.3196451342562
20
-18.379918559585
30
0
41
1
10
12.0910884204099
20
-18.8545696507413
30
0
41
1
10
12.9954880967273
20
-19.0473449302858
30
0
0
SPLINE
5
12E
100
AcDbEntity
8
1
62
256
6
ByLayer
370
18
48
1
60
0
100
AcDbSpline
70
4
71
3
72
8
73
4
40
0
40
0
40
0
40
0
40
1
40
1
40
1
40
1
41
1
10
14.810727536689
20
-10.9777527731042
30
0
41
1
10
13.9090881207865
20
-10.7855658506622
30
0
41
1
10
12.9899682958084
20
-10.9433415279563
30
0
41
1
10
12.2168002977399
20
-11.3817286653468
30
0
0
SPLINE
5
12F
100
AcDbEntity
8
1
62
256
6
ByLayer
370
18
48
1
60
0
100
AcDbSpline
70
4
71
3
72
8
73
4
40
0
40
0
40
0
40
0
40
1
40
1
40
1
40
1
41
1
10
8.10509325743476
20
-9.28368818863837
30
0
41
1
10
8.11023735356207
20
-9.26082026452264
30
0
41
1
10
8.11582036824075
20
-9.23830740174671
30
0
41
1
10
8.12182218582734
20
-9.21613253196628
30
0
0
SPLINE
5
130
100
AcDbEntity
8
1
62
256
6
ByLayer
370
18
48
1
60
0
100
AcDbSpline
70
4
71
3
72
8
73
4
40
0
40
0
40
0
40
0
40
1
40
1
40
1
40
1
41
1
10
27.0856488222645
20
-12.4553634558522
30
0
41
1
10
26.9874185771051
20
-12.4195614217648
30
0
41
1
10
26.8883866872756
20
-12.3859566329824
30
0
41
1
10
26.788583765228
20
-12.3547916644778
30
0
0
SPLINE
5
131
100
AcDbEntity
8
1
62
256
6
ByLayer
370
18
48
1
60
0
100
AcDbSpline
70
4
71
3
72
8
73
4
40
0
40
0
40
0
40
0
40
1
40
1
40
1
40
1
41
1
10
7.72221080298755
20
-19.680473980747
30
0
41
1
10
8.42224410023584
20
-19.3980607687371
30
0
41
1
10
9.51542353594272
20
-18.5596913599604
30
0
41
1
10
10.6575462075431
20
-17.5392903544786
30
0
0
SPLINE
5
132
100
AcDbEntity
8
1
62
256
6
ByLayer
370
18
48
1
60
0
100
AcDbSpline
70
4
71
3
72
8
73
4
40
0
40
0
40
0
40
0
40
1
40
1
40
1
40
1
41
1
10
26.8973168417543
20
-20.9815136540573
30
0
41
1
10
27.2592871481961
20
-20.7959639092583
30
0
41
1
10
27.622611412928
20
-20.6067944139176
30
0
41
1
10
27.9853905128007
20
-20.4149542484269
30
0
0
SPLINE
5
133
100
AcDbEntity
8
1
62
256
6
ByLayer
370
18
48
1
60
0
100
AcDbSpline
70
4
71
3
72
8
73
4
40
0
40
0
40
0
40
0
40
1
40
1
40
1
40
1
41
1
10
12.0201159201215
20
-11.4820278113968
30
0
41
1
10
12.0873566517055
20
-11.4513768841861
30
0
41
1
10
12.153067909803
20
-11.4178650020506
30
0
41
1
10
12.2168002977399
20
-11.3817286653468
30
0
0
SPLINE
5
134
100
AcDbEntity
8
1
62
256
6
ByLayer
370
18
48
1
60
0
100
AcDbSpline
70
4
71
3
72
8
73
4
40
0
40
0
40
0
40
0
40
1
40
1
40
1
40
1
41
1
10
17.6164254072268
20
-11.6692120583174
30
0
41
1
10
17.7514887372281
20
-10.7172987337898
30
0
41
1
10
17.8095209227158
20
-9.92178834992177
30
0
41
1
10
17.7790590058251
20
-9.43981615734415
30
0
0
SPLINE
5
135
100
AcDbEntity
8
1
62
256
6
ByLayer
370
18
48
1
60
0
100
AcDbSpline
70
4
71
3
72
8
73
4
40
0
40
0
40
0
40
0
40
1
40
1
40
1
40
1
41
1
10
29.9774783896314
20
-15.9121685246037
30
0
41
1
10
30.0341547914071
20
-15.9661111742773
30
0
41
1
10
30.0899390663862
20
-16.0254251522605
30
0
41
1
10
30.143737110406
20
-16.0892115588407
30
0
0
SPLINE
5
136
100
AcDbEntity
8
1
62
256
6
ByLayer
370
18
48
1
60
0
100
AcDbSpline
70
4
71
1
72
4
73
2
40
0
40
0
40
1
40
1
41
1
10
17.7790590058251
20
-9.43981615734415
30
0
41
1
10
17.6896219111661
20
-8.02473145452626
30
0
0
SPLINE
5
137
100
AcDbEntity
8
1
62
256
6
ByLayer
370
18
48
1
60
0
100
AcDbSpline
70
4
71
3
72
8
73
4
40
0
40
0
40
0
40
0
40
1
40
1
40
1
40
1
41
1
10
17.6164253958872
20
-11.6692120801116
30
0
41
1
10
17.3571284982417
20
-11.5534136903398
30
0
41
1
10
17.0820389305494
20
-11.461889046424
30
0
41
1
10
16.8016579287935
20
-11.4021250644061
30
0
0
SPLINE
5
138
100
AcDbEntity
8
1
62
256
6
ByLayer
370
18
48
1
60
0
100
AcDbSpline
70
4
71
3
72
10
73
6
40
0
40
0
40
0
40
0
40
0.5
40
0.5
40
1
40
1
40
1
40
1
41
1
10
24.8148658703544
20
-11.3376385249307
30
0
41
1
10
23.7393331644427
20
-10.5844557899948
30
0
41
1
10
22.6096767322325
20
-9.92029775052978
30
0
41
1
10
20.2213661766498
20
-8.80416181804435
30
0
41
1
10
18.9874890688027
20
-8.31420478241756
30
0
41
1
10
17.6896219111661
20
-8.02473145452626
30
0
0
SPLINE
5
139
100
AcDbEntity
8
1
62
256
6
ByLayer
370
18
48
1
60
0
100
AcDbSpline
70
4
71
3
72
8
73
4
40
0
40
0
40
0
40
0
40
1
40
1
40
1
40
1
41
1
10
24.6887018449255
20
-21.6897533791916
30
0
41
1
10
24.7951776871314
20
-21.691254082473
30
0
41
1
10
24.9019954488911
20
-21.6902470125125
30
0
41
1
10
25.00902124398
20
-21.6869486947775
30
0
0
SPLINE
5
13A
100
AcDbEntity
8
1
62
256
6
ByLayer
370
18
48
1
60
0
100
AcDbSpline
70
4
71
2
72
6
73
3
40
0
40
0
40
0
40
1
40
1
40
1
41
1.02805999725224
10
15.1206975515332
20
-21.2574817888045
30
0
41
1.02805999725224
10
14.8309592787779
20
-21.639167233533
30
0
41
1.02805999725224
10
14.5412210060225
20
-22.0208526782615
30
0
0
SPLINE
5
13B
100
AcDbEntity
8
1
62
256
6
ByLayer
370
18
48
1
60
0
100
AcDbSpline
70
4
71
3
72
20
73
16
40
0
40
0
40
0
40
0
40
0.332873226652384
40
0.332873226652384
40
0.501657261698203
40
0.501657261698203
40
0.631212321676511
40
0.631212321676511
40
0.722542323637673
40
0.722542323637673
40
0.8147653474042
40
0.8147653474042
40
0.896421359038813
40
0.896421359038813
40
1
40
1
40
1
40
1
41
1
10
27.1575318046614
20
-17.0528524531087
30
0
41
1
10
27.0049088557369
20
-16.9170266592683
30
0
41
1
10
26.8527063376578
20
-16.7679640708419
30
0
41
1
10
26.6374073451432
20
-16.5087661574259
30
0
41
1
10
26.5666318730995
20
-16.4143731111026
30
0
41
1
10
26.4544410032206
20
-16.2333274369042
30
0
41
1
10
26.4092387445548
20
-16.148383697737
30
0
41
1
10
26.3488590725283
20
-15.9987583178911
30
0
41
1
10
26.3284241820057
20
-15.9341667589717
30
0
41
1
10
26.3028693910457
20
-15.8089267100061
30
0
41
1
10
26.2977489169501
20
-15.7466794767378
30
0
41
1
10
26.3039425689452
20
-15.6423802222074
30
0
41
1
10
26.3133854035976
20
-15.5975640012626
30
0
41
1
10
26.3454055940331
20
-15.5098522213007
30
0
41
1
10
26.371003556508
20
-15.4693282752656
30
0
41
1
10
26.4005511442221
20
-15.4363774419981
30
0
0
SPLINE
5
13C
100
AcDbEntity
8
1
62
256
6
ByLayer
370
18
48
1
60
0
100
AcDbSpline
70
4
71
3
72
10
73
6
40
0
40
0
40
0
40
0
40
0.5
40
0.5
40
1
40
1
40
1
40
1
41
1
10
6.25408134313273
20
-17.5191180908154
30
0
41
1
10
6.124762737938
20
-18.2350255210464
30
0
41
1
10
6.18684668613162
20
-18.8894489369731
30
0
41
1
10
6.47464884710104
20
-19.7683196461303
30
0
41
1
10
6.65572686824891
20
-20.0351878273663
30
0
41
1
10
7.00046510173956
20
-20.2632861421513
30
0
0
SPLINE
5
13D
100
AcDbEntity
8
1
62
256
6
ByLayer
370
18
48
1
60
0
100
AcDbSpline
70
4
71
3
72
11
73
7
40
0
40
0
40
0
40
0
40
0.423407924939449
40
0.740963868644036
40
0.899741840496329
40
1
40
1
40
1
40
1
41
1.02805999725224
10
17.7790590058252
20
-9.43981615734415
30
0
41
1.02767136955277
10
18.5916732791545
20
-9.73090011241177
30
0
41
1.02349884684923
10
21.2659340449014
20
-11.6223375936568
30
0
41
1.01876555595691
10
24.5055271916743
20
-14.2845457601277
30
0
41
1.01635405201137
10
25.7333499711292
20
-15.2617138226647
30
0
41
1.01722454828226
10
26.2032858127559
20
-15.3918590880909
30
0
41
1.01774327987904
10
26.4005511442227
20
-15.4363774419982
30
0
0
SPLINE
5
13E
100
AcDbEntity
8
1
62
256
6
ByLayer
370
18
48
1
60
0
100
AcDbSpline
70
4
71
3
72
10
73
6
40
0
40
0
40
0
40
0
40
0.5
40
0.5
40
1
40
1
40
1
40
1
41
1
10
26.4005511442221
20
-15.4363774419981
30
0
41
1
10
26.7540308606606
20
-15.0421245571855
30
0
41
1
10
27.1366896207772
20
-14.7054834361964
30
0
41
1
10
28.0780443958049
20
-14.3797731317781
30
0
41
1
10
28.6489806236004
20
-14.4193013936668
30
0
41
1
10
29.2365598951619
20
-14.8529185137635
30
0
0
SPLINE
5
13F
100
AcDbEntity
8
1
62
256
6
ByLayer
370
18
48
1
60
0
100
AcDbSpline
70
4
71
3
72
8
73
4
40
0
40
0
40
0
40
0
40
1
40
1
40
1
40
1
41
1
10
9.7200624521887
20
-16.8749837958484
30
0
41
1
10
8.41718864600546
20
-17.2308956425923
30
0
41
1
10
7.21469513863769
20
-17.48600054305
30
0
41
1
10
6.41690721176263
20
-17.5118002623629
30
0
0
SPLINE
5
140
100
AcDbEntity
8
1
62
256
6
ByLayer
370
18
48
1
60
0
100
AcDbSpline
70
4
71
2
72
6
73
3
40
0
40
0
40
0
40
1
40
1
40
1
41
1
10
27.0855643154984
20
-12.4555348646381
30
0
41
1
10
27.8331193514086
20
-13.1307038093662
30
0
41
1
10
28.4982349981667
20
-13.8643001758891
30
0
0
SPLINE
5
141
100
AcDbEntity
8
1
62
256
6
ByLayer
370
18
48
1
60
0
100
AcDbSpline
70
4
71
3
72
8
73
4
40
0
40
0
40
0
40
0
40
1
40
1
40
1
40
1
41
1
10
15.8392281000366
20
-19.5696890033734
30
0
41
1
10
15.549548183108
20
-19.5634718571009
30
0
41
1
10
15.2651396258585
20
-19.5311273988714
30
0
41
1
10
14.9864184888315
20
-19.4717172215877
30
0
0
SPLINE
5
142
100
AcDbEntity
8
1
62
256
6
ByLayer
370
18
48
1
60
0
100
AcDbSpline
70
4
71
3
72
8
73
4
40
0
40
0
40
0
40
0
40
1
40
1
40
1
40
1
41
1
10
12.0201159201215
20
-11.4820278113968
30
0
41
1
10
11.4372628480111
20
-10.0125026189614
30
0
41
1
10
10.8427532887126
20
-8.64167323185154
30
0
41
1
10
10.3805722572795
20
-7.86280834928669
30
0
0
SPLINE
5
143
100
AcDbEntity
8
1
62
256
6
ByLayer
370
18
48
1
60
0
100
AcDbSpline
70
4
71
3
72
10
73
6
40
0
40
0
40
0
40
0
40
0.5
40
0.5
40
1
40
1
40
1
40
1
41
1
10
27.9853905127773
20
-20.4149542484341
30
0
41
1
10
27.2617422520261
20
-20.6382101813172
30
0
41
1
10
26.6919653297834
20
-20.5608753518617
30
0
41
1
10
25.9265956863825
20
-20.1229006712631
30
0
41
1
10
25.6896909701209
20
-19.7750063386197
30
0
41
1
10
25.5106058757906
20
-19.392602279497
30
0
0
SPLINE
5
144
100
AcDbEntity
8
1
62
256
6
ByLayer
370
18
48
1
60
0
100
AcDbSpline
70
4
71
3
72
15
73
11
40
0
40
0
40
0
40
0
40
0.227604479949748
40
0.227604479949748
40
0.479423709218441
40
0.479423709218441
40
0.785574270382838
40
0.785574270382838
40
0.785574270382838
40
1
40
1
40
1
40
1
41
1
10
20.1556700328616
20
-15.168512815771
30
0
41
1
10
20.1335876466887
20
-14.8301447657076
30
0
41
1
10
20.0602051512716
20
-14.487774852261
30
0
41
1
10
19.8173876240954
20
-13.8068581257915
30
0
41
1
10
19.6365799559594
20
-13.4643432996329
30
0
41
1
10
19.1518053048134
20
-12.7778437473873
30
0
41
1
10
18.8230474138066
20
-12.4393317311487
30
0
41
1
10
18.454847582464
20
-12.1628572831833
30
0
41
1
10
18.19537453278
20
-11.9680237659823
30
0
41
1
10
17.9126139394681
20
-11.8013323184865
30
0
41
1
10
17.6164254036431
20
-11.6692120835753
30
0
0
SPLINE
5
145
100
AcDbEntity
8
1
62
256
6
ByLayer
370
18
48
1
60
0
100
AcDbSpline
70
4
71
3
72
10
73
6
40
0
40
0
40
0
40
0
40
0.5
40
0.5
40
1
40
1
40
1
40
1
41
1
10
10.0658561671863
20
-6.6361826560431
30
0
41
1
10
9.63379230755163
20
-6.78853528998542
30
0
41
1
10
9.33214198965186
20
-7.05764862868241
30
0
41
1
10
8.6635398957261
20
-7.88937766296314
30
0
41
1
10
8.30921235198434
20
-8.5237835105647
30
0
41
1
10
8.12182218582734
20
-9.21613253196628
30
0
0
SPLINE
5
146
100
AcDbEntity
8
1
62
256
6
ByLayer
370
18
48
1
60
0
100
AcDbSpline
70
4
71
3
72
10
73
6
40
0
40
0
40
0
40
0
40
0.5
40
0.5
40
1
40
1
40
1
40
1
41
1
10
14.5412210060225
20
-22.0208526782615
30
0
41
1
10
15.8484807143176
20
-22.2866310716751
30
0
41
1
10
17.1637968960714
20
-22.3416539053983
30
0
41
1
10
19.8001591741052
20
-22.3018062790682
30
0
41
1
10
21.1300767168262
20
-22.157560234436
30
0
41
1
10
22.4367105409889
20
-21.909656282991
30
0
0
SPLINE
5
147
100
AcDbEntity
8
1
62
256
6
ByLayer
370
18
48
1
60
0
100
AcDbSpline
70
4
71
3
72
8
73
4
40
0
40
0
40
0
40
0
40
1
40
1
40
1
40
1
41
1
10
28.498297198686
20
-13.864403787962
30
0
41
1
10
28.744525284814
20
-14.1933825908901
30
0
41
1
10
28.9910452238159
20
-14.5234632008502
30
0
41
1
10
29.2365598951618
20
-14.8529185137635
30
0
0
SPLINE
5
148
100
AcDbEntity
8
1
62
256
6
ByLayer
370
18
48
1
60
0
100
AcDbSpline
70
4
71
3
72
11
73
7
40
0
40
0
40
0
40
0
40
0.564783939443781
40
0.564783939443781
40
0.564783939443781
40
1
40
1
40
1
40
1
41
1
10
24.6887018449254
20
-21.6897533791916
30
0
41
1
10
24.321025706653
20
-21.6845712385693
30
0
41
1
10
23.9019125062899
20
-21.6938587126287
30
0
41
1
10
23.4695992793189
20
-21.7454117082217
30
0
41
1
10
23.1337153827009
20
-21.7854655857388
30
0
41
1
10
22.7847741415926
20
-21.8436191574029
30
0
41
1
10
22.4367105409892
20
-21.9096562829909
30
0
0
SPLINE
5
149
100
AcDbEntity
8
1
62
256
6
ByLayer
370
18
48
1
60
0
100
AcDbSpline
70
4
71
3
72
10
73
6
40
0
40
0
40
0
40
0
40
0.967465556419479
40
0.967465556419479
40
1
40
1
40
1
40
1
41
1
10
26.8854045057173
20
-18.2625861493778
30
0
41
1
10
27.2771991467395
20
-18.1114035305189
30
0
41
1
10
27.6664949427435
20
-17.9698940468234
30
0
41
1
10
28.0626225256135
20
-17.8392138697026
30
0
41
1
10
28.0755146958669
20
-17.834976207272
30
0
41
1
10
28.0883997289385
20
-17.8307565842081
30
0
0
SPLINE
5
14A
100
AcDbEntity
8
1
62
256
6
ByLayer
370
18
48
1
60
0
100
AcDbSpline
70
4
71
3
72
10
73
6
40
0
40
0
40
0
40
0
40
0.655488757716267
40
0.655488757716267
40
1
40
1
40
1
40
1
41
1
10
10.514637716051
20
-6.30520668362661
30
0
41
1
10
10.1630451845277
20
-6.19649062045892
30
0
41
1
10
9.75907015392744
20
-6.11547165899447
30
0
41
1
10
9.09991791450949
20
-6.10879672748254
30
0
41
1
10
8.86245588750819
20
-6.12802627882377
30
0
41
1
10
8.62502250312525
20
-6.17557639926875
30
0
0
SPLINE
5
14B
100
AcDbEntity
8
1
62
256
6
ByLayer
370
18
48
1
60
0
100
AcDbSpline
70
4
71
3
72
8
73
4
40
0
40
0
40
0
40
0
40
1
40
1
40
1
40
1
41
1
10
24.8148658703547
20
-11.3376385249309
30
0
41
1
10
25.4796819423
20
-11.8032012963323
30
0
41
1
10
26.1686112938939
20
-12.1611959044898
30
0
41
1
10
26.7885837652282
20
-12.3547916644779
30
0
0
SPLINE
5
14C
100
AcDbEntity
8
1
62
256
6
ByLayer
370
18
48
1
60
0
100
AcDbSpline
70
4
71
3
72
12
73
8
40
0
40
0
40
0
40
0
40
0.108854002841677
40
0.502629245107335
40
0.699516866240163
40
0.896404487372992
40
1
40
1
40
1
40
1
41
1.0244126255267
10
19.627980499153
20
-17.5143400360396
30
0
41
1.02394775696077
10
19.9662262945512
20
-17.5543593979418
30
0
41
1.02173322391444
10
21.5689175434608
20
-17.7346071187939
30
0
41
1.01876555595691
10
23.8342428575115
20
-17.9247032635466
30
0
41
1.01610930227499
10
25.3593209957283
20
-18.0114563762471
30
0
41
1.01814069306376
10
26.0448758161881
20
-18.139694713796
30
0
41
1.0200519600697
10
26.659981974782
20
-18.2316634519342
30
0
41
1.02076673234771
10
26.8854045056992
20
-18.2625861493754
30
0
0
SPLINE
5
14D
100
AcDbEntity
8
1
62
256
6
ByLayer
370
18
48
1
60
0
100
AcDbSpline
70
4
71
3
72
8
73
4
40
0
40
0
40
0
40
0
40
1
40
1
40
1
40
1
41
1
10
15.1206975515332
20
-21.2574817888045
30
0
41
1
10
15.3180649480581
20
-20.9974807133473
30
0
41
1
10
15.5744566122797
20
-20.3952293647392
30
0
41
1
10
15.8392281152825
20
-19.5696890037006
30
0
0
SPLINE
5
14E
100
AcDbEntity
8
1
62
256
6
ByLayer
370
18
48
1
60
0
100
AcDbSpline
70
4
71
3
72
12
73
8
40
0
40
0
40
0
40
0
40
0.108853988607133
40
0.502629237162306
40
0.699516861439893
40
0.89640448571748
40
1
40
1
40
1
40
1
41
1.02441262532206
10
20.1556700328617
20
-15.1685128157711
30
0
41
1.02394775682001
10
20.4818445245042
20
-15.2621945783191
30
0
41
1.02173322384668
10
22.0246525967467
20
-15.7086509244515
30
0
41
1.01876555595691
10
24.1887567220221
20
-16.3487225760055
30
0
41
1.01610930227499
10
25.6349477119278
20
-16.7861661261615
30
0
41
1.01814069306376
10
26.3245994662494
20
-16.8961916678545
30
0
41
1.02005196006971
10
26.9348845585473
20
-17.0095923107565
30
0
41
1.02076673234773
10
27.157531804651
20
-17.0528524531067
30
0
0
SPLINE
5
14F
100
AcDbEntity
8
1
62
256
6
ByLayer
370
18
48
1
60
0
100
AcDbSpline
70
4
71
3
72
8
73
4
40
0
40
0
40
0
40
0
40
1
40
1
40
1
40
1
41
1
10
6.26798346277462
20
-17.4505043477138
30
0
41
1
10
6.26283936664731
20
-17.4733722718295
30
0
41
1
10
6.25821331588378
20
-17.4962435014275
30
0
41
1
10
6.25408134313267
20
-17.5191180908154
30
0
0
SPLINE
5
150
100
AcDbEntity
8
1
62
256
6
ByLayer
370
18
48
1
60
0
100
AcDbSpline
70
4
71
3
72
8
73
4
40
0
40
0
40
0
40
0
40
1
40
1
40
1
40
1
41
1
10
29.3504878171112
20
-19.61557735662
30
0
41
1
10
29.2733742897664
20
-19.6554392276386
30
0
41
1
10
29.1961653073465
20
-19.6913681401109
30
0
41
1
10
29.1202686079655
20
-19.7228687434874
30
0
0
SPLINE
5
151
100
AcDbEntity
8
1
62
256
6
ByLayer
370
18
48
1
60
0
100
AcDbSpline
70
4
71
3
72
10
73
6
40
0
40
0
40
0
40
0
40
0.264715639145579
40
0.264715639145579
40
1
40
1
40
1
40
1
41
1
10
28.0883997289227
20
-17.8307565842133
30
0
41
1
10
28.0057401376604
20
-17.766777904284
30
0
41
1
10
27.9232031123858
20
-17.7013258783718
30
0
41
1
10
27.6119784020665
20
-17.4493831005999
30
0
41
1
10
27.3841160085877
20
-17.2545913767415
30
0
41
1
10
27.1575318046614
20
-17.0528524531087
30
0
0
SPLINE
5
152
100
AcDbEntity
8
1
62
256
6
ByLayer
370
18
48
1
60
0
100
AcDbSpline
70
4
71
3
72
12
73
8
40
0
40
0
40
0
40
0
40
0.286978363858298
40
0.286978363858298
40
0.56999899518562
40
0.56999899518562
40
1
40
1
40
1
40
1
41
1
10
19.6279806479957
20
-17.5143400536501
30
0
41
1
10
19.7410818260539
20
-17.3093009422158
30
0
41
1
10
19.8377765446776
20
-17.0942914814515
30
0
41
1
10
19.9933854112544
20
-16.6565645288131
30
0
41
1
10
20.0533371850677
20
-16.4324917979691
30
0
41
1
10
20.1574099485288
20
-15.8642385352518
30
0
41
1
10
20.1781273138246
20
-15.5128626854529
30
0
41
1
10
20.1556700328616
20
-15.168512815771
30
0
0
SPLINE
5
153
100
AcDbEntity
8
1
62
256
6
ByLayer
370
18
48
1
60
0
100
AcDbSpline
70
4
71
3
72
20
73
16
40
0
40
0
40
0
40
0
40
0.110576036200128
40
0.110576036200128
40
0.197179369122804
40
0.197179369122804
40
0.28429111738737
40
0.28429111738737
40
0.365904217918088
40
0.365904217918088
40
0.497270233392088
40
0.497270233392088
40
0.73349636482675
40
0.73349636482675
40
1
40
1
40
1
40
1
41
1
10
25.5106058757919
20
-19.3926022794971
30
0
41
1
10
25.4946618871273
20
-19.3585655780457
30
0
41
1
10
25.4864758056396
20
-19.3185310385163
30
0
41
1
10
25.4942960805076
20
-19.2366100302728
30
0
41
1
10
25.5057947174552
20
-19.196131606261
30
0
41
1
10
25.5467585041824
20
-19.1109587710847
30
0
41
1
10
25.5769482551384
20
-19.0651563103836
30
0
41
1
10
25.6481174386163
20
-18.9784909916949
30
0
41
1
10
25.6889491413075
20
-18.9365276163384
30
0
41
1
10
25.8023924582504
20
-18.8333593378754
30
0
41
1
10
25.8809431636452
20
-18.7740203788507
30
0
41
1
10
26.1023137166155
20
-18.6249872593516
30
0
41
1
10
26.2511056480216
20
-18.5444569488234
30
0
41
1
10
26.5609521541749
20
-18.3935790699118
30
0
41
1
10
26.7245511735453
20
-18.3246234203165
30
0
41
1
10
26.8854045057173
20
-18.2625861493778
30
0
0
SPLINE
5
154
100
AcDbEntity
8
1
62
256
6
ByLayer
370
18
48
1
60
0
100
AcDbSpline
70
4
71
3
72
8
73
4
40
0
40
0
40
0
40
0
40
1
40
1
40
1
40
1
41
1
10
8.25687205695908
20
-9.33229206227668
30
0
41
1
10
8.91900206299806
20
-9.87683474078813
30
0
41
1
10
9.87643108657818
20
-10.7488276633595
30
0
41
1
10
10.8884090785953
20
-11.681134121935
30
0
0
SPLINE
5
155
100
AcDbEntity
8
1
62
256
6
ByLayer
370
18
48
1
60
0
100
AcDbSpline
70
4
71
2
72
6
73
3
40
0
40
0
40
0
40
1
40
1
40
1
41
1
10
26.8972393787377
20
-20.9815665166715
30
0
41
1
10
25.9776453942339
20
-21.3775634146126
30
0
41
1
10
25.0090180458003
20
-21.6867581622559
30
0
0
INSERT
5
168
100
AcDbEntity
8
SK2
62
256
6
ByLayer
370
25
48
1
60
0
100
AcDbBlockReference
2
DimnDraft3D11
10
0
20
0
30
0
41
1
42
1
43
1
50
0
210
0
220
0
230
1
0
LINE
5
72
100
AcDbEntity
8
1
62
256
6
ByLayer
370
18
48
1
60
0
100
AcDbLine
10
32.97125
20
-12.931669
30
0
11
32.255325
21
-12.234153
31
0
39
0
210
0
220
0
230
1
0
LINE
5
74
100
AcDbEntity
8
1
62
256
6
ByLayer
370
18
48
1
60
0
100
AcDbLine
10
6.23476
20
-19.81961
30
0
11
7.08164
21
-20.313706
31
0
39
0
210
0
220
0
230
1
0
LINE
5
75
100
AcDbEntity
8
1
62
256
6
ByLayer
370
18
48
1
60
0
100
AcDbLine
10
31.568952
20
-11.136507
30
0
11
31.071468
21
-10.651816
31
0
39
0
210
0
220
0
230
1
0
LINE
5
76
100
AcDbEntity
8
1
62
256
6
ByLayer
370
18
48
1
60
0
100
AcDbLine
10
13.841454
20
-15.508774
30
0
11
13.661063
21
-15.333022
31
0
39
0
210
0
220
0
230
1
0
LINE
5
77
100
AcDbEntity
8
1
62
256
6
ByLayer
370
18
48
1
60
0
100
AcDbLine
10
15.003043
20
-16.566929
30
0
11
14.822653
21
-16.391177
31
0
39
0
210
0
220
0
230
1
0
LINE
5
78
100
AcDbEntity
8
1
62
256
6
ByLayer
370
18
48
1
60
0
100
AcDbLine
10
11.992505
20
-17.925787
30
0
11
12.180332
21
-18.108785
31
0
39
0
210
0
220
0
230
1
0
LINE
5
79
100
AcDbEntity
8
1
62
256
6
ByLayer
370
18
48
1
60
0
100
AcDbLine
10
17.763038
20
-12.378742
30
0
11
17.575211
21
-12.195744
31
0
39
0
210
0
220
0
230
1
0
LINE
5
7A
100
AcDbEntity
8
1
62
256
6
ByLayer
370
18
48
1
60
0
100
AcDbLine
10
9.998459
20
-17.020786
30
0
11
9.497437
21
-16.728475
31
0
39
0
210
0
220
0
230
1
0
LINE
5
7B
100
AcDbEntity
8
1
62
256
6
ByLayer
370
18
48
1
60
0
100
AcDbLine
10
23.414732
20
-21.776715
30
0
11
23.850227
21
-22.201012
31
0
39
0
210
0
220
0
230
1
0
LINE
5
7C
100
AcDbEntity
8
1
62
256
6
ByLayer
370
18
48
1
60
0
100
AcDbLine
10
14.925454
20
-13.906107
30
0
11
15.105845
21
-14.081859
31
0
39
0
210
0
220
0
230
1
0
LINE
5
7D
100
AcDbEntity
8
1
62
256
6
ByLayer
370
18
48
1
60
0
100
AcDbLine
10
16.087044
20
-14.964261
30
0
11
16.267434
21
-15.140014
31
0
39
0
210
0
220
0
230
1
0
LINE
5
7E
100
AcDbEntity
8
1
62
256
6
ByLayer
370
18
48
1
60
0
100
AcDbLine
10
23.323192
20
-22.11645
30
0
11
23.820675
21
-22.601141
31
0
39
0
210
0
220
0
230
1
0
LINE
5
7F
100
AcDbEntity
8
80
62
256
6
ByLayer
370
18
48
1
60
0
100
AcDbLine
10
0
20
0
30
0
11
-5
21
0
31
0
39
0
210
0
220
0
230
1
0
LINE
5
80
100
AcDbEntity
8
81
62
256
6
ByLayer
370
18
48
1
60
0
100
AcDbLine
10
39.424798
20
-24.425
30
0
11
49.424798
21
-24.425
31
0
39
0
210
0
220
0
230
1
0
LINE
5
81
100
AcDbEntity
8
1
62
256
6
ByLayer
370
18
48
1
60
0
100
AcDbLine
10
23.670016
20
-21.975322
30
0
11
23.526448
21
-21.740795
31
0
39
0
210
0
220
0
230
1
0
LINE
5
82
100
AcDbEntity
8
1
62
256
6
ByLayer
370
18
48
1
60
0
100
AcDbLine
10
24.322211
20
-11.0277
30
0
11
30.071303
21
-11.328997
31
0
39
0
210
0
220
0
230
1
0
LINE
5
83
100
AcDbEntity
8
1
62
256
6
ByLayer
370
18
48
1
60
0
100
AcDbLine
10
30.022709
20
-11.281653
30
0
11
30.071303
21
-11.328997
31
0
39
0
210
0
220
0
230
1
0
LINE
5
84
100
AcDbEntity
8
1
62
256
6
ByLayer
370
18
48
1
60
0
100
AcDbLine
10
23.670016
20
-21.975322
30
0
11
23.469087
21
-21.77956
31
0
39
0
210
0
220
0
230
1
0
LINE
5
85
100
AcDbEntity
8
1
62
256
6
ByLayer
370
18
48
1
60
0
100
AcDbLine
10
30.607926
20
-11.491147
30
0
11
30.419582
21
-11.307646
31
0
39
0
210
0
220
0
230
1
0
LINE
5
86
100
AcDbEntity
8
1
62
256
6
ByLayer
370
18
48
1
60
0
100
AcDbLine
10
32.037506
20
-12.067189
30
0
11
30.656538
21
-11.247456
31
0
39
0
210
0
220
0
230
1
0
LINE
5
87
100
AcDbEntity
8
1
62
256
6
ByLayer
370
18
48
1
60
0
100
AcDbLine
10
12.58869
20
-18.810006
30
0
11
13.940695
21
-19.096096
31
0
39
0
210
0
220
0
230
1
0
LINE
5
88
100
AcDbEntity
8
1
62
256
6
ByLayer
370
18
48
1
60
0
100
AcDbLine
10
12.269568
20
9.439226
30
0
11
8.759928
21
-6.162772
31
0
39
0
210
0
220
0
230
1
0
LINE
5
89
100
AcDbEntity
8
1
62
256
6
ByLayer
370
18
48
1
60
0
100
AcDbLine
10
5.762656
20
-19.487054
30
0
11
5.459279
21
-20.835707
31
0
39
0
210
0
220
0
230
1
0
LINE
5
8A
100
AcDbEntity
8
1
62
256
6
ByLayer
370
18
48
1
60
0
100
AcDbLine
10
12.616268
20
-4.398862
30
0
11
12.077799
21
-6.79261
31
0
39
0
210
0
220
0
230
1
0
LINE
5
8B
100
AcDbEntity
8
1
62
256
6
ByLayer
370
18
48
1
60
0
100
AcDbLine
10
8.92133
20
-20.824597
30
0
11
8.878521
21
-21.014902
31
0
39
0
210
0
220
0
230
1
0
LINE
5
8C
100
AcDbEntity
8
1
62
256
6
ByLayer
370
18
48
1
60
0
100
AcDbLine
10
21.010984
20
-7.879139
30
0
11
22.165478
21
-9.765081
31
0
39
0
210
0
220
0
230
1
0
LINE
5
8D
100
AcDbEntity
8
1
62
256
6
ByLayer
370
18
48
1
60
0
100
AcDbLine
10
10.129544
20
-21.080466
30
0
11
8.878521
21
-21.014902
31
0
39
0
210
0
220
0
230
1
0
LINE
5
8E
100
AcDbEntity
8
1
62
256
6
ByLayer
370
18
48
1
60
0
100
AcDbLine
10
24.01545
20
-10.834615
30
0
11
30.633907
21
-11.210489
31
0
39
0
210
0
220
0
230
1
0
LINE
5
8F
100
AcDbEntity
8
1
62
256
6
ByLayer
370
18
48
1
60
0
100
AcDbLine
10
11.478328
20
10.145156
30
0
11
7.699239
21
-6.654671
31
0
39
0
210
0
220
0
230
1
0
LINE
5
90
100
AcDbEntity
8
1
62
256
6
ByLayer
370
18
48
1
60
0
100
AcDbLine
10
5.01328
20
-18.59502
30
0
11
4.582966
21
-20.507966
31
0
39
0
210
0
220
0
230
1
0
LINE
5
91
100
AcDbEntity
8
1
62
256
6
ByLayer
370
18
48
1
60
0
100
AcDbLine
10
20.472938
20
-7.272513
30
0
11
21.010984
21
-7.879139
31
0
39
0
210
0
220
0
230
1
0
LINE
5
92
100
AcDbEntity
8
1
62
256
6
ByLayer
370
18
48
1
60
0
100
AcDbLine
10
20.156871
20
-7.062401
30
0
11
21.655999
21
-9.511326
31
0
39
0
210
0
220
0
230
1
0
LINE
5
93
100
AcDbEntity
8
1
62
256
6
ByLayer
370
18
48
1
60
0
100
AcDbLine
10
12.246672
20
9.459653
30
0
11
8.731848
21
-6.165391
31
0
39
0
210
0
220
0
230
1
0
LINE
5
94
100
AcDbEntity
8
1
62
256
6
ByLayer
370
18
48
1
60
0
100
AcDbLine
10
5.738871
20
-19.470583
30
0
11
5.432109
21
-20.834283
31
0
39
0
210
0
220
0
230
1
0
LINE
5
95
100
AcDbEntity
8
1
62
256
6
ByLayer
370
18
48
1
60
0
100
AcDbLine
10
24.206437
20
-10.954799
30
0
11
28.782476
21
-11.214681
31
0
39
0
210
0
220
0
230
1
0
LINE
5
96
100
AcDbEntity
8
1
62
256
6
ByLayer
370
18
48
1
60
0
100
AcDbLine
10
30.13823
20
-11.291677
30
0
11
30.70325
21
-11.323765
31
0
39
0
210
0
220
0
230
1
0
LINE
5
97
100
AcDbEntity
8
1
62
256
6
ByLayer
370
18
48
1
60
0
100
AcDbLine
10
19.899525
20
-6.940243
30
0
11
21.39333
21
-9.380474
31
0
39
0
210
0
220
0
230
1
0
LINE
5
98
100
AcDbEntity
8
1
62
256
6
ByLayer
370
18
48
1
60
0
100
AcDbLine
10
32.359613
20
-12.335818
30
0
11
31.811048
21
-11.439701
31
0
39
0
210
0
220
0
230
1
0
LINE
5
99
100
AcDbEntity
8
1
62
256
6
ByLayer
370
18
48
1
60
0
100
AcDbLine
10
24.834199
20
-23.043276
30
0
11
25.241702
21
-23.064632
31
0
39
0
210
0
220
0
230
1
0
LINE
5
9A
100
AcDbEntity
8
1
62
256
6
ByLayer
370
18
48
1
60
0
100
AcDbLine
10
23.260585
20
-21.778484
30
0
11
23.578578
21
-22.297948
31
0
39
0
210
0
220
0
230
1
0
LINE
5
9B
100
AcDbEntity
8
1
62
256
6
ByLayer
370
18
48
1
60
0
100
AcDbLine
10
30.555428
20
-10.694373
30
0
11
30.309992
21
-10.68151
31
0
39
0
210
0
220
0
230
1
0
LINE
5
9C
100
AcDbEntity
8
1
62
256
6
ByLayer
370
18
48
1
60
0
100
AcDbLine
10
30.057944
20
-10.209682
30
0
11
30.020033
21
-10.207695
31
0
39
0
210
0
220
0
230
1
0
LINE
5
9D
100
AcDbEntity
8
1
62
256
6
ByLayer
370
18
48
1
60
0
100
AcDbLine
10
23.046874
20
-21.757354
30
0
11
23.081095
21
-21.813256
31
0
39
0
210
0
220
0
230
1
0
LINE
5
9E
100
AcDbEntity
8
1
62
256
6
ByLayer
370
18
48
1
60
0
100
AcDbLine
10
14.845273
20
-13.794582
30
0
11
15.023099
21
-13.967836
31
0
39
0
210
0
220
0
230
1
0
LINE
5
9F
100
AcDbEntity
8
1
62
256
6
ByLayer
370
18
48
1
60
0
100
AcDbLine
10
32.753431
20
-12.764705
30
0
11
30.607926
21
-11.491147
31
0
39
0
210
0
220
0
230
1
0
LINE
5
A0
100
AcDbEntity
8
1
62
256
6
ByLayer
370
18
48
1
60
0
100
AcDbLine
10
33.151461
20
-13.157359
30
0
11
39.309873
21
-23.217533
31
0
39
0
210
0
220
0
230
1
0
LINE
5
A1
100
AcDbEntity
8
1
62
256
6
ByLayer
370
18
48
1
60
0
100
AcDbLine
10
32.037506
20
-12.067189
30
0
11
32.753431
21
-12.764705
31
0
39
0
210
0
220
0
230
1
0
LINE
5
A2
100
AcDbEntity
8
1
62
256
6
ByLayer
370
18
48
1
60
0
100
AcDbLine
10
24.068045
20
-22.367976
30
0
11
26.213551
21
-23.641534
31
0
39
0
210
0
220
0
230
1
0
LINE
5
A3
100
AcDbEntity
8
1
62
256
6
ByLayer
370
18
48
1
60
0
100
AcDbLine
10
38.584526
20
-24.423896
30
0
11
26.750174
21
-23.803684
31
0
39
0
210
0
220
0
230
1
0
LINE
5
A4
100
AcDbEntity
8
1
62
256
6
ByLayer
370
18
48
1
60
0
100
AcDbLine
10
30.555428
20
-10.694373
30
0
11
30.057944
21
-10.209682
31
0
39
0
210
0
220
0
230
1
0
LINE
5
A5
100
AcDbEntity
8
1
62
256
6
ByLayer
370
18
48
1
60
0
100
AcDbLine
10
23.578578
20
-22.297948
30
0
11
23.081095
21
-21.813256
31
0
39
0
210
0
220
0
230
1
0
LINE
5
A6
100
AcDbEntity
8
1
62
256
6
ByLayer
370
18
48
1
60
0
100
AcDbLine
10
6.267983
20
-17.450504
30
0
11
8.105093
21
-9.283688
31
0
39
0
210
0
220
0
230
1
0
LINE
5
A7
100
AcDbEntity
8
1
62
256
6
ByLayer
370
18
48
1
60
0
100
AcDbLine
10
10.380572
20
-7.862808
30
0
11
17.779059
21
-9.439816
31
0
39
0
210
0
220
0
230
1
0
LINE
5
A8
100
AcDbEntity
8
1
62
256
6
ByLayer
370
18
48
1
60
0
100
AcDbLine
10
8.628252
20
-16.393257
30
0
11
7.152723
21
-16.081029
31
0
39
0
210
0
220
0
230
1
0
LINE
5
A9
100
AcDbEntity
8
1
62
256
6
ByLayer
370
18
48
1
60
0
100
AcDbLine
10
11.021033
20
-6.600654
30
0
11
12.416601
21
-6.898123
31
0
39
0
210
0
220
0
230
1
0
LINE
5
AA
100
AcDbEntity
8
1
62
256
6
ByLayer
370
18
48
1
60
0
100
AcDbLine
10
12.995488
20
-19.047345
30
0
11
12.58869
21
-18.810006
31
0
39
0
210
0
220
0
230
1
0
LINE
5
AB
100
AcDbEntity
8
1
62
256
6
ByLayer
370
18
48
1
60
0
100
AcDbLine
10
14.986418
20
-19.471717
30
0
11
14.571329
21
-19.229541
31
0
39
0
210
0
220
0
230
1
0
LINE
5
AC
100
AcDbEntity
8
1
62
256
6
ByLayer
370
18
48
1
60
0
100
AcDbLine
10
14.541221
20
-22.020853
30
0
11
9.272634
21
-20.897839
31
0
39
0
210
0
220
0
230
1
0
LINE
5
AD
100
AcDbEntity
8
1
62
256
6
ByLayer
370
18
48
1
60
0
100
AcDbLine
10
29.120269
20
-19.722869
30
0
11
28.925672
21
-19.864342
31
0
39
0
210
0
220
0
230
1
0
LINE
5
AE
100
AcDbEntity
8
1
62
256
6
ByLayer
370
18
48
1
60
0
100
AcDbLine
10
6.267983
20
-17.450504
30
0
11
4.742024
21
-16.560212
31
0
39
0
210
0
220
0
230
1
0
LINE
5
AF
100
AcDbEntity
8
1
62
256
6
ByLayer
370
18
48
1
60
0
100
AcDbLine
10
29.861425
20
-15.704479
30
0
11
29.977478
21
-15.912169
31
0
39
0
210
0
220
0
230
1
0
LINE
5
B0
100
AcDbEntity
8
1
62
256
6
ByLayer
370
18
48
1
60
0
100
AcDbLine
10
29.861425
20
-15.704479
30
0
11
29.23656
21
-14.852919
31
0
39
0
210
0
220
0
230
1
0
LINE
5
B1
100
AcDbEntity
8
1
62
256
6
ByLayer
370
18
48
1
60
0
100
AcDbLine
10
12.416601
20
-6.898123
30
0
11
10.586101
21
-6.327395
31
0
39
0
210
0
220
0
230
1
0
LINE
5
B2
100
AcDbEntity
8
1
62
256
6
ByLayer
370
18
48
1
60
0
100
AcDbLine
10
12.416601
20
-6.898123
30
0
11
12.421035
21
-6.901718
31
0
39
0
210
0
220
0
230
1
0
LINE
5
B3
100
AcDbEntity
8
1
62
256
6
ByLayer
370
18
48
1
60
0
100
AcDbLine
10
9.022275
20
-16.623142
30
0
11
8.628252
21
-16.393257
31
0
39
0
210
0
220
0
230
1
0
LINE
5
B4
100
AcDbEntity
8
1
62
256
6
ByLayer
370
18
48
1
60
0
100
AcDbLine
10
11.021033
20
-6.600654
30
0
11
10.514638
21
-6.305207
31
0
39
0
210
0
220
0
230
1
0
LINE
5
B5
100
AcDbEntity
8
1
62
256
6
ByLayer
370
18
48
1
60
0
100
AcDbLine
10
8.105093
20
-9.283688
30
0
11
6.579133
21
-8.393396
31
0
39
0
210
0
220
0
230
1
0
LINE
5
B6
100
AcDbEntity
8
1
62
256
6
ByLayer
370
18
48
1
60
0
100
AcDbLine
10
12.995488
20
-19.047345
30
0
11
14.986418
21
-19.471717
31
0
39
0
210
0
220
0
230
1
0
LINE
5
B7
100
AcDbEntity
8
1
62
256
6
ByLayer
370
18
48
1
60
0
100
AcDbLine
10
7.722211
20
-19.680474
30
0
11
15.120698
21
-21.257482
31
0
39
0
210
0
220
0
230
1
0
LINE
5
B8
100
AcDbEntity
8
1
62
256
6
ByLayer
370
18
48
1
60
0
100
AcDbLine
10
6.579133
20
-8.393396
30
0
11
4.742024
21
-16.560212
31
0
39
0
210
0
220
0
230
1
0
LINE
5
B9
100
AcDbEntity
8
1
62
256
6
ByLayer
370
18
48
1
60
0
100
AcDbLine
10
9.26727
20
-20.898379
30
0
11
9.272634
21
-20.897839
31
0
39
0
210
0
220
0
230
1
0
LINE
5
BA
100
AcDbEntity
8
1
62
256
6
ByLayer
370
18
48
1
60
0
100
AcDbLine
10
29.550207
20
-19.498625
30
0
11
29.350488
21
-19.615577
31
0
39
0
210
0
220
0
230
1
0
LINE
5
BB
100
AcDbEntity
8
1
62
256
6
ByLayer
370
18
48
1
60
0
100
AcDbLine
10
16.801658
20
-11.402125
30
0
11
14.810728
21
-10.977753
31
0
39
0
210
0
220
0
230
1
0
LINE
5
BC
100
AcDbEntity
8
1
62
256
6
ByLayer
370
18
48
1
60
0
100
AcDbLine
10
7.152723
20
-16.081029
30
0
11
8.289981
21
-11.025381
31
0
39
0
210
0
220
0
230
1
0
LINE
5
BD
100
AcDbEntity
8
1
62
256
6
ByLayer
370
18
48
1
60
0
100
AcDbLine
10
28.925672
20
-19.864342
30
0
11
27.985391
21
-20.414954
31
0
39
0
210
0
220
0
230
1
0
LINE
5
BE
100
AcDbEntity
8
1
62
256
6
ByLayer
370
18
48
1
60
0
100
AcDbLine
10
17.689622
20
-8.024731
30
0
11
12.421035
21
-6.901718
31
0
39
0
210
0
220
0
230
1
0
LINE
5
BF
100
AcDbEntity
8
1
62
256
6
ByLayer
370
18
48
1
60
0
100
AcDbLine
10
28.0884
20
-17.830757
30
0
11
30.730401
21
-18.122192
31
0
39
0
210
0
220
0
230
1
0
LINE
5
C0
100
AcDbEntity
8
1
62
256
6
ByLayer
370
18
48
1
60
0
100
AcDbLine
10
9.26727
20
-20.898379
30
0
11
7.871702
21
-20.60091
31
0
39
0
210
0
220
0
230
1
0
LINE
5
C1
100
AcDbEntity
8
1
62
256
6
ByLayer
370
18
48
1
60
0
100
AcDbLine
10
30.276461
20
-16.270086
30
0
11
30.143737
21
-16.089212
31
0
39
0
210
0
220
0
230
1
0
LINE
5
C2
100
AcDbEntity
8
1
62
256
6
ByLayer
370
18
48
1
60
0
100
AcDbLine
10
14.263191
20
-16.368312
30
0
11
14.443581
21
-16.544064
31
0
39
0
210
0
220
0
230
1
0
LINE
5
C3
100
AcDbEntity
8
1
62
256
6
ByLayer
370
18
48
1
60
0
100
AcDbLine
10
16.033244
20
-14.428473
30
0
11
16.213635
21
-14.604225
31
0
39
0
210
0
220
0
230
1
0
LINE
5
C4
100
AcDbEntity
8
1
62
256
6
ByLayer
370
18
48
1
60
0
100
AcDbLine
10
16.064589
20
-15.785032
30
0
11
16.244979
21
-15.960784
31
0
39
0
210
0
220
0
230
1
0
LINE
5
C5
100
AcDbEntity
8
1
62
256
6
ByLayer
370
18
48
1
60
0
100
AcDbLine
10
13.519253
20
-15.242486
30
0
11
13.699644
21
-15.418238
31
0
39
0
210
0
220
0
230
1
0
LINE
5
C6
100
AcDbEntity
8
1
62
256
6
ByLayer
370
18
48
1
60
0
100
AcDbLine
10
15.617991
20
-16.274468
30
0
11
15.798382
21
-16.45022
31
0
39
0
210
0
220
0
230
1
0
LINE
5
C7
100
AcDbEntity
8
1
62
256
6
ByLayer
370
18
48
1
60
0
100
AcDbLine
10
1.385583
20
-17.310583
30
0
11
0
21
-15.925
31
0
39
0
210
0
220
0
230
1
0
LINE
5
C8
100
AcDbEntity
8
1
62
256
6
ByLayer
370
18
48
1
60
0
100
AcDbLine
10
5.459279
20
-20.835707
30
0
11
8.878521
21
-21.014902
31
0
39
0
210
0
220
0
230
1
0
LINE
5
C9
100
AcDbEntity
8
1
62
256
6
ByLayer
370
18
48
1
60
0
100
AcDbLine
10
12.269568
20
9.439226
30
0
11
14.004602
21
7.89126
31
0
39
0
210
0
220
0
230
1
0
LINE
5
CA
100
AcDbEntity
8
1
62
256
6
ByLayer
370
18
48
1
60
0
100
AcDbLine
10
24.880631
20
-1.812132
30
0
11
30.633907
21
-11.210489
31
0
39
0
210
0
220
0
230
1
0
LINE
5
CB
100
AcDbEntity
8
1
62
256
6
ByLayer
370
18
48
1
60
0
100
AcDbLine
10
5.432109
20
-20.834283
30
0
11
5.459279
21
-20.835707
31
0
39
0
210
0
220
0
230
1
0
LINE
5
CC
100
AcDbEntity
8
1
62
256
6
ByLayer
370
18
48
1
60
0
100
AcDbLine
10
19.667742
20
2.838712
30
0
11
12.616268
21
-4.398862
31
0
39
0
210
0
220
0
230
1
0
LINE
5
CD
100
AcDbEntity
8
1
62
256
6
ByLayer
370
18
48
1
60
0
100
AcDbLine
10
4.977138
20
15.945397
30
0
11
4.705673
21
15.945533
31
0
39
0
210
0
220
0
230
1
0
LINE
5
CE
100
AcDbEntity
8
1
62
256
6
ByLayer
370
18
48
1
60
0
100
AcDbLine
10
4.582966
20
-20.507966
30
0
11
4.880368
21
-20.805368
31
0
39
0
210
0
220
0
230
1
0
LINE
5
CF
100
AcDbEntity
8
1
62
256
6
ByLayer
370
18
48
1
60
0
100
AcDbLine
10
23.351665
20
-21.773408
30
0
11
23.531713
21
-21.782844
31
0
39
0
210
0
220
0
230
1
0
LINE
5
D0
100
AcDbEntity
8
1
62
256
6
ByLayer
370
18
48
1
60
0
100
AcDbLine
10
0
20
15.925
30
0
11
4.705673
21
15.945533
31
0
39
0
210
0
220
0
230
1
0
LINE
5
D1
100
AcDbEntity
8
1
62
256
6
ByLayer
370
18
48
1
60
0
100
AcDbLine
10
4.880368
20
-20.805368
30
0
11
5.432109
21
-20.834283
31
0
39
0
210
0
220
0
230
1
0
LINE
5
D2
100
AcDbEntity
8
1
62
256
6
ByLayer
370
18
48
1
60
0
100
AcDbLine
10
24.880631
20
-1.812132
30
0
11
19.667742
21
2.838712
31
0
39
0
210
0
220
0
230
1
0
LINE
5
D3
100
AcDbEntity
8
1
62
256
6
ByLayer
370
18
48
1
60
0
100
AcDbLine
10
11.478328
20
10.145156
30
0
11
12.246672
21
9.459653
31
0
39
0
210
0
220
0
230
1
0
LINE
5
D4
100
AcDbEntity
8
1
62
256
6
ByLayer
370
18
48
1
60
0
100
AcDbLine
10
1.385583
20
-17.310583
30
0
11
4.582966
21
-20.507966
31
0
39
0
210
0
220
0
230
1
0
LINE
5
D5
100
AcDbEntity
8
1
62
256
6
ByLayer
370
18
48
1
60
0
100
AcDbLine
10
12.246672
20
9.459653
30
0
11
12.269568
21
9.439226
31
0
39
0
210
0
220
0
230
1
0
LINE
5
D6
100
AcDbEntity
8
1
62
256
6
ByLayer
370
18
48
1
60
0
100
AcDbLine
10
4.977138
20
15.945397
30
0
11
11.478328
21
10.145156
31
0
39
0
210
0
220
0
230
1
0
LINE
5
D7
100
AcDbEntity
8
1
62
256
6
ByLayer
370
18
48
1
60
0
100
AcDbLine
10
0
20
-15.925
30
0
11
0
21
15.925
31
0
39
0
210
0
220
0
230
1
0
LINE
5
D8
100
AcDbEntity
8
1
62
256
6
ByLayer
370
18
48
1
60
0
100
AcDbLine
10
17.777064
20
-7.130248
30
0
11
17.52232
21
-7.288276
31
0
39
0
210
0
220
0
230
1
0
LINE
5
D9
100
AcDbEntity
8
1
62
256
6
ByLayer
370
18
48
1
60
0
100
AcDbLine
10
4.705673
20
15.945533
30
0
11
1.385583
21
-17.310583
31
0
39
0
210
0
220
0
230
1
0
LINE
5
DA
100
AcDbEntity
8
1
62
256
6
ByLayer
370
18
48
1
60
0
100
AcDbLine
10
12.616268
20
-4.398862
30
0
11
14.004602
21
7.89126
31
0
39
0
210
0
220
0
230
1
0
LINE
5
DB
100
AcDbEntity
8
1
62
256
6
ByLayer
370
18
48
1
60
0
100
AcDbLine
10
19.667742
20
2.838712
30
0
11
14.004602
21
7.89126
31
0
39
0
210
0
220
0
230
1
0
LINE
5
DC
100
AcDbEntity
8
1
62
256
6
ByLayer
370
18
48
1
60
0
100
AcDbLine
10
30.633907
20
-11.210489
30
0
11
30.70325
21
-11.323765
31
0
39
0
210
0
220
0
230
1
0
LINE
5
DD
100
AcDbEntity
8
SK1
62
256
6
ByLayer
370
18
48
1
60
0
100
AcDbLine
10
-131.925202
20
-15.925
30
0
11
-131.925202
21
15.925
31
0
39
0
210
0
220
0
230
1
0
LINE
5
DF
100
AcDbEntity
8
SK1
62
256
6
ByLayer
370
18
48
1
60
0
100
AcDbLine
10
0
20
-15.925
30
0
11
0
21
15.925
31
0
39
0
210
0
220
0
230
1
0
LINE
5
E0
100
AcDbEntity
8
SK1
62
256
6
ByLayer
370
18
48
1
60
0
100
AcDbLine
10
0
20
-15.925
30
0
11
-131.925202
21
-15.925
31
0
39
0
210
0
220
0
230
1
0
LINE
5
E1
100
AcDbEntity
8
SK1
62
256
6
ByLayer
370
18
48
1
60
0
100
AcDbLine
10
-131.925202
20
15.925
30
0
11
0
21
15.925
31
0
39
0
210
0
220
0
230
1
0
MTEXT
5
156
100
AcDbEntity
8
SK6
62
256
6
ByLayer
370
18
48
1
60
0
100
AcDbMText
10
-60.375202
20
25.060266
30
0
210
0
220
0
230
1
1
\W0.7522;DDJNL 3232P 15
40
3.5
41
0
44
1.084337
50
0
71
7
72
5
7
iso_b_vert
0
DIMENSION
5
176
100
AcDbEntity
8
2
62
256
6
ByLayer
370
13
48
1
60
0
100
AcDbDimension
2
DimnDraft3D2
10
37.590877
20
-24.371576
30
0
11
27.136663
21
-36.128693
31
0
70
34
71
5
72
1
41
1
210
0
220
0
230
1
3
Standard
100
AcDb2LineAngularDimension
13
39.424798
23
-24.425
33
0
14
39.424798
24
-22.8375
34
0
15
38.589506
25
-24.423912
35
0
16
23.872478
26
-39.226289
36
0
40
0
0
DIMENSION
5
18B
100
AcDbEntity
8
2
62
256
6
ByLayer
370
13
48
1
60
0
100
AcDbDimension
2
DimnDraft3D3
10
39.424798
20
-52.675
30
0
11
14.193978
21
-52.675
31
0
70
32
71
5
72
1
41
1
210
0
220
0
230
1
3
Standard
100
AcDbAlignedDimension
13
0
23
-17.925
33
0
14
39.424798
24
-26.425
34
0
50
0
100
AcDbRotatedDimension
1001
ACAD
1000
DSTYLE
1002
{
1070
   279
1070
     0
1070
   172
1070
     1
1070
   173
1070
     1
1070
   340
1005
157
1070
    77
1070
     1
1070
    73
1070
     0
1070
   171
1070
     3
1070
   274
1070
     4
1070
   177
1070
     2
1070
   176
1070
     2
1070
   178
1070
     7
1070
    78
1070
     8
1070
    41
1041
3.175
1070
   147
1041
2.25
1070
    42
1041
2.0
1070
    44
1041
2.0
1070
   140
1041
4.5
1070
   343
1005
177
1070
   344
1005
177
1002
}
0
DIMENSION
5
199
100
AcDbEntity
8
2
62
256
6
ByLayer
370
13
48
1
60
0
100
AcDbDimension
2
DimnDraft3D4
10
61.674798
20
-24.425
30
0
11
61.674798
21
-9.768421
31
0
70
32
71
5
72
1
41
1
210
0
220
0
230
1
3
Standard
100
AcDbAlignedDimension
13
2
23
15.925
33
0
14
41.424798
24
-24.425
34
0
50
90
100
AcDbRotatedDimension
1001
ACAD
1000
DSTYLE
1002
{
1070
    74
1070
     0
1070
   279
1070
     0
1070
   172
1070
     1
1070
   173
1070
     1
1070
   340
1005
157
1070
    77
1070
     1
1070
    73
1070
     0
1070
   171
1070
     3
1070
   274
1070
     4
1070
   177
1070
     2
1070
   176
1070
     2
1070
   178
1070
     7
1070
    78
1070
     8
1070
    41
1041
3.175
1070
   147
1041
2.25
1070
    42
1041
2.0
1070
    44
1041
2.0
1070
   140
1041
4.5
1070
   343
1005
177
1070
   344
1005
177
1002
}
0
DIMENSION
5
1A7
100
AcDbEntity
8
SK2
62
256
6
ByLayer
370
13
48
1
60
0
100
AcDbDimension
2
DimnDraft3D5
10
-139.675202
20
-15.925
30
0
11
-139.675202
21
-5.281579
31
0
70
32
71
5
72
1
41
1
210
0
220
0
230
1
3
Standard
100
AcDbAlignedDimension
13
-133.925202
23
15.925
33
0
14
-133.925202
24
-15.925
34
0
50
90
100
AcDbRotatedDimension
1001
ACAD
1000
DSTYLE
1002
{
1070
    74
1070
     0
1070
   279
1070
     0
1070
   172
1070
     1
1070
   173
1070
     1
1070
   340
1005
157
1070
    77
1070
     1
1070
    73
1070
     0
1070
   171
1070
     3
1070
   274
1070
     4
1070
   177
1070
     2
1070
   176
1070
     2
1070
   178
1070
     7
1070
    78
1070
     8
1070
    41
1041
3.175
1070
   147
1041
2.25
1070
    42
1041
2.0
1070
    44
1041
2.0
1070
   140
1041
4.5
1070
   343
1005
177
1070
   344
1005
177
1002
}
0
ENDSEC
0
SECTION
2
OBJECTS
0
DICTIONARY
5
211
330
0
100
AcDbDictionary
280
0
281
1
3
ACAD_GROUP
350
212
3
ACAD_MLINESTYLE
350
213
0
DICTIONARY
5
212
330
0
100
AcDbDictionary
280
0
281
1
0
DICTIONARY
5
213
330
0
100
AcDbDictionary
280
0
281
1
3
Standard
350
18
0
MLINESTYLE
5
18
330
213
100
AcDbMlineStyle
2
Standard
70
0
3

62
256
51
90
52
90
71
2
49
-0.5
62
256
6
ByLayer
49
0.5
62
256
6
ByLayer
0
RASTERVARIABLES
5
200
330

100
AcDbRasterVariables
90
0
70
1
71
1
72
1
0
ENDSEC
0
EOF
