0
SECTION
2
HEADER
9
$ACADVER
1
AC1015
9
$DWGCODEPAGE
3
ANSI_1252
9
$HANDSEED
5
21f
9
$ANGBASE
50
0
9
$ANGDIR
70
0
9
$ATTMODE
70
1
9
$AUNITS
70
0
9
$AUPREC
70
0
9
$CECOLOR
62
256
9
$CELTSCALE
40
1
9
$CELTYPE
6
ByLayer
9
$CELWEIGHT
370
18
9
$CLAYER
8
0
9
$CMLJUST
70
0
9
$CMLSCALE
40
1
9
$CMLSTYLE
2
Standard
9
$DIMSTYLE
2
Standard
9
$TEXTSIZE
40
0.2
9
$TEXTSTYLE
7
Standard
9
$LUNITS
70
2
9
$LUPREC
70
4
9
$EXTNAMES
290
1
9
$INSUNITS
70
4
9
$LTSCALE
40
1
9
$LWDISPLAY
290
1
9
$PDMODE
70
0
9
$PDSIZE
40
0
9
$PLINEGEN
70
0
0
ENDSEC
0
SECTION
2
CLASSES
0
CLASS
1
RASTERVARIABLES
2
AcDbRasterVariables
3
ISM
90
0
280
0
281
0
0
ENDSEC
0
SECTION
2
TABLES
0
TABLE
2
VPORT
5
215
100
AcDbSymbolTable
0
VPORT
5
1
100
AcDbSymbolTableRecord
100
AcDbViewportTableRecord
2
*Active
70
0
10
0
20
0
11
1
21
1
12
-1
22
1
13
0
23
0
14
0.5
24
0.5
15
10
25
10
16
0
26
0
36
1
17
0
27
0
37
0
0
ENDTAB
0
TABLE
2
LTYPE
5
216
100
AcDbSymbolTable
0
LTYPE
5
14
100
AcDbSymbolTableRecord
100
AcDbLinetypeTableRecord
70
0
2
ByBlock
3

72
65
73
0
40
0
0
LTYPE
5
15
100
AcDbSymbolTableRecord
100
AcDbLinetypeTableRecord
70
0
2
ByLayer
3

72
65
73
0
40
0
0
LTYPE
5
16
100
AcDbSymbolTableRecord
100
AcDbLinetypeTableRecord
70
0
2
CONTINUOUS
3
Solid line
72
65
73
0
40
0
0
LTYPE
5
6A
100
AcDbSymbolTableRecord
100
AcDbLinetypeTableRecord
70
0
2
CENTER
3
____ _ ____ _ ____ _ ____
72
65
73
4
40
47.5
49
22
74
0
49
-8.5
74
0
49
8.5
74
0
49
-8.5
74
0
0
LTYPE
5
6B
100
AcDbSymbolTableRecord
100
AcDbLinetypeTableRecord
70
0
2
DASHED
3
__ __ __ __ __ __ __ __ __
72
65
73
2
40
25.72
49
12.86
74
0
49
-12.86
74
0
0
ENDTAB
0
TABLE
2
LAYER
5
217
100
AcDbSymbolTable
0
LAYER
5
10
100
AcDbSymbolTableRecord
100
AcDbLayerTableRecord
2
0
70
0
62
7
6
CONTINUOUS
290
1
370
-3
390
0
0
LAYER
5
6D
100
AcDbSymbolTableRecord
100
AcDbLayerTableRecord
2
2
70
0
62
7
6
CONTINUOUS
290
1
370
-3
390
0
0
LAYER
5
6F
100
AcDbSymbolTableRecord
100
AcDbLayerTableRecord
2
80
70
0
62
-6
6
CONTINUOUS
290
1
370
-3
390
0
0
LAYER
5
71
100
AcDbSymbolTableRecord
100
AcDbLayerTableRecord
2
81
70
0
62
-3
6
CONTINUOUS
290
1
370
-3
390
0
0
LAYER
5
73
100
AcDbSymbolTableRecord
100
AcDbLayerTableRecord
2
1
70
0
62
4
6
CONTINUOUS
290
1
370
-3
390
0
0
LAYER
5
202
100
AcDbSymbolTableRecord
100
AcDbLayerTableRecord
2
SK1
70
0
62
4
6
CONTINUOUS
290
1
370
-3
390
0
0
LAYER
5
203
100
AcDbSymbolTableRecord
100
AcDbLayerTableRecord
2
SK6
70
0
62
5
6
CONTINUOUS
290
1
370
-3
390
0
0
LAYER
5
204
100
AcDbSymbolTableRecord
100
AcDbLayerTableRecord
2
SK2
70
0
62
7
6
CONTINUOUS
290
1
370
-3
390
0
0
ENDTAB
0
TABLE
2
STYLE
5
218
100
AcDbSymbolTable
0
STYLE
5
11
100
AcDbSymbolTableRecord
100
AcDbTextStyleTableRecord
2
Standard
3
txt
70
0
71
0
40
0
41
1
42
0
50
0
0
STYLE
5
158
100
AcDbSymbolTableRecord
100
AcDbTextStyleTableRecord
2
iso_b_vert
3
simplex.shx
70
0
71
0
40
0
41
1
42
0
50
0
0
STYLE
5
159
100
AcDbSymbolTableRecord
100
AcDbTextStyleTableRecord
2
DWGDirectTextStyle
3
simplex
70
0
71
0
40
0
41
1
42
0
50
0
0
ENDTAB
0
TABLE
2
DIMSTYLE
5
219
100
AcDbSymbolTable
100
AcDbDimStyleTable
0
DIMSTYLE
105
27
100
AcDbSymbolTableRecord
100
AcDbDimStyleTableRecord
2
Standard
70
0
3
<>
41
0.18
42
0.0625
44
0.18
140
0.18
147
0.09
73
0
74
0
77
1
271
2
275
0
278
52
280
0
340
11
0
ENDTAB
0
TABLE
2
VIEW
5
21a
100
AcDbSymbolTable
0
ENDTAB
0
TABLE
2
UCS
5
21b
100
AcDbSymbolTable
0
ENDTAB
0
TABLE
2
APPID
5
21c
100
AcDbSymbolTable
0
APPID
5
12
100
AcDbSymbolTableRecord
100
AcDbRegAppTableRecord
2
ACAD
70
0
0
ENDTAB
0
TABLE
2
BLOCK_RECORD
5
21d
100
AcDbSymbolTable
0
BLOCK_RECORD
5
1F
100
AcDbSymbolTableRecord
100
AcDbBlockTableRecord
2
*Model_Space
340
0
70
0
0
BLOCK_RECORD
5
1B
100
AcDbSymbolTableRecord
100
AcDbBlockTableRecord
2
*Paper_Space
340
0
70
0
0
BLOCK_RECORD
5
23
100
AcDbSymbolTableRecord
100
AcDbBlockTableRecord
2
*Paper_Space0
340
0
70
0
0
BLOCK_RECORD
5
15B
100
AcDbSymbolTableRecord
100
AcDbBlockTableRecord
2
DimnDraft3D11
340
0
70
0
0
BLOCK_RECORD
5
16A
100
AcDbSymbolTableRecord
100
AcDbBlockTableRecord
2
DimnDraft3D2
340
0
70
0
0
BLOCK_RECORD
5
178
100
AcDbSymbolTableRecord
100
AcDbBlockTableRecord
2
_CLOSED
340
0
70
0
0
BLOCK_RECORD
5
17F
100
AcDbSymbolTableRecord
100
AcDbBlockTableRecord
2
DimnDraft3D3
340
0
70
0
0
BLOCK_RECORD
5
18D
100
AcDbSymbolTableRecord
100
AcDbBlockTableRecord
2
DimnDraft3D4
340
0
70
0
0
BLOCK_RECORD
5
19B
100
AcDbSymbolTableRecord
100
AcDbBlockTableRecord
2
DimnDraft3D5
340
0
70
0
0
ENDTAB
0
ENDSEC
0
SECTION
2
BLOCKS
0
BLOCK
5
20
100
AcDbEntity
8
0
100
AcDbBlockBegin
2
*Model_Space
70
0
10
0
20
0
30
0
3
*Model_Space
0
ENDBLK
5
21
100
AcDbEntity
8
0
100
AcDbBlockEnd
0
BLOCK
5
1C
100
AcDbEntity
8
0
100
AcDbBlockBegin
2
*Paper_Space
70
0
10
0
20
0
30
0
3
*Paper_Space
0
ENDBLK
5
1D
100
AcDbEntity
8
0
100
AcDbBlockEnd
0
BLOCK
5
24
100
AcDbEntity
8
0
100
AcDbBlockBegin
2
*Paper_Space0
70
0
10
0
20
0
30
0
3
*Paper_Space0
0
ENDBLK
5
25
100
AcDbEntity
8
0
100
AcDbBlockEnd
0
BLOCK
5
15C
100
AcDbEntity
8
0
100
AcDbBlockBegin
2
DimnDraft3D11
70
0
10
0
20
0
30
0
3
DimnDraft3D11
0
LINE
5
15E
100
AcDbEntity
8
SK2
62
256
6
ByLayer
370
25
48
1
60
0
100
AcDbLine
10
39.399798
20
-17.4125
30
0
11
39.399798
21
-55.6625
31
0
39
0
210
0
220
0
230
1
0
LINE
5
160
100
AcDbEntity
8
SK2
62
256
6
ByLayer
370
25
48
1
60
0
100
AcDbLine
10
-86.950202
20
-11.9375
30
0
11
-86.950202
21
-55.6625
31
0
39
0
210
0
220
0
230
1
0
LINE
5
161
100
AcDbEntity
8
SK2
62
256
6
ByLayer
370
25
48
1
60
0
100
AcDbLine
10
39.399798
20
-53.6625
30
0
11
-86.950202
21
-53.6625
31
0
39
0
210
0
220
0
230
1
0
LINE
5
162
100
AcDbEntity
8
SK2
62
256
6
ByLayer
370
25
48
1
60
0
100
AcDbLine
10
39.399798
20
-53.6625
30
0
11
36.224799
21
-54.080497
31
0
39
0
210
0
220
0
230
1
0
LINE
5
163
100
AcDbEntity
8
SK2
62
256
6
ByLayer
370
25
48
1
60
0
100
AcDbLine
10
39.399798
20
-53.6625
30
0
11
36.224796
21
-53.244503
31
0
39
0
210
0
220
0
230
1
0
LINE
5
164
100
AcDbEntity
8
SK2
62
256
6
ByLayer
370
25
48
1
60
0
100
AcDbLine
10
36.224799
20
-54.080497
30
0
11
36.224796
21
-53.244503
31
0
39
0
210
0
220
0
230
1
0
LINE
5
165
100
AcDbEntity
8
SK2
62
256
6
ByLayer
370
25
48
1
60
0
100
AcDbLine
10
-86.950202
20
-53.6625
30
0
11
-83.775204
21
-53.244503
31
0
39
0
210
0
220
0
230
1
0
LINE
5
166
100
AcDbEntity
8
SK2
62
256
6
ByLayer
370
25
48
1
60
0
100
AcDbLine
10
-86.950202
20
-53.6625
30
0
11
-83.775201
21
-54.080497
31
0
39
0
210
0
220
0
230
1
0
LINE
5
167
100
AcDbEntity
8
SK2
62
256
6
ByLayer
370
25
48
1
60
0
100
AcDbLine
10
-83.775204
20
-53.244503
30
0
11
-83.775201
21
-54.080497
31
0
39
0
210
0
220
0
230
1
0
MTEXT
5
168
100
AcDbEntity
8
SK2
62
256
6
ByLayer
370
18
48
1
60
0
100
AcDbMText
10
-29.05086
20
-52.5375
30
0
210
0
220
0
230
1
1
\W0.6864;125.0
40
4.5
41
0
44
1.084337
50
0
71
7
72
5
7
iso_b_vert
0
ENDBLK
5
15D
100
AcDbEntity
8
0
100
AcDbBlockEnd
0
BLOCK
5
175
100
AcDbEntity
8
0
100
AcDbBlockBegin
2
DimnDraft3D2
70
0
10
0
20
0
30
0
3
DimnDraft3D2
0
MTEXT
5
16B
100
AcDbEntity
8
2
62
256
6
ByLayer
370
18
48
1
60
0
100
AcDbMText
10
22.654163
20
-27.321965
30
0
210
0
220
0
230
1
1
\W0.7399;93%%d
40
4.5
41
0
44
1.084337
50
313.5
71
7
72
5
7
iso_b_vert
0
LINE
5
16C
100
AcDbEntity
8
2
62
256
6
ByLayer
370
13
48
1
60
0
100
AcDbLine
10
39.399798
20
-17.4125
30
0
11
39.399798
21
-38.895593
31
0
39
0
210
0
220
0
230
1
0
LINE
5
16D
100
AcDbEntity
8
2
62
256
6
ByLayer
370
13
48
1
60
0
100
AcDbLine
10
35.568618
20
-15.254404
30
0
11
15.991518
21
-14.228412
31
0
39
0
210
0
220
0
230
1
0
ARC
5
16E
100
AcDbEntity
8
2
62
256
6
ByLayer
370
13
48
1
60
0
100
AcDbCircle
39
0
10
39.399798
20
-15.455188
30
0
40
21.440404685267
210
0
220
0
230
1
100
AcDbArc
50
177
51
270
0
LINE
5
16F
100
AcDbEntity
8
2
62
256
6
ByLayer
370
13
48
1
60
0
100
AcDbLine
10
39.399798
20
-36.895593
30
0
11
36.211524
21
-37.196002
31
0
39
0
210
0
220
0
230
1
0
LINE
5
170
100
AcDbEntity
8
2
62
256
6
ByLayer
370
13
48
1
60
0
100
AcDbLine
10
39.399798
20
-36.895593
30
0
11
36.242407
21
-36.36058
31
0
39
0
210
0
220
0
230
1
0
LINE
5
171
100
AcDbEntity
8
2
62
256
6
ByLayer
370
13
48
1
60
0
100
AcDbLine
10
36.211524
20
-37.196002
30
0
11
36.242407
21
-36.36058
31
0
39
0
210
0
220
0
230
1
0
LINE
5
172
100
AcDbEntity
8
2
62
256
6
ByLayer
370
13
48
1
60
0
100
AcDbLine
10
17.988777
20
-14.333084
30
0
11
18.357811
21
-17.514145
31
0
39
0
210
0
220
0
230
1
0
LINE
5
173
100
AcDbEntity
8
2
62
256
6
ByLayer
370
13
48
1
60
0
100
AcDbLine
10
17.988777
20
-14.333084
30
0
11
17.521917
21
-17.501269
31
0
39
0
210
0
220
0
230
1
0
LINE
5
174
100
AcDbEntity
8
2
62
256
6
ByLayer
370
13
48
1
60
0
100
AcDbLine
10
18.357811
20
-17.514145
30
0
11
17.521917
21
-17.501269
31
0
39
0
210
0
220
0
230
1
0
ENDBLK
5
176
100
AcDbEntity
8
0
100
AcDbBlockEnd
0
BLOCK
5
179
100
AcDbEntity
8
0
100
AcDbBlockBegin
2
_CLOSED
70
0
10
0
20
0
30
0
3
_CLOSED
0
LINE
5
17B
100
AcDbEntity
8
0
62
256
6
ByLayer
370
-2
48
1
60
0
100
AcDbLine
10
-1
20
0.166667
30
0
11
0
21
0
31
0
39
0
210
0
220
0
230
1
0
LINE
5
17C
100
AcDbEntity
8
0
62
256
6
ByLayer
370
-2
48
1
60
0
100
AcDbLine
10
0
20
0
30
0
11
-1
21
-0.166667
31
0
39
0
210
0
220
0
230
1
0
LINE
5
17D
100
AcDbEntity
8
0
62
256
6
ByLayer
370
-2
48
1
60
0
100
AcDbLine
10
-1
20
0.166667
30
0
11
-1
21
-0.166667
31
0
39
0
210
0
220
0
230
1
0
LINE
5
17E
100
AcDbEntity
8
0
62
256
6
ByLayer
370
-2
48
1
60
0
100
AcDbLine
10
0
20
0
30
0
11
-1
21
0
31
0
39
0
210
0
220
0
230
1
0
ENDBLK
5
17A
100
AcDbEntity
8
0
100
AcDbBlockEnd
0
BLOCK
5
18A
100
AcDbEntity
8
0
100
AcDbBlockBegin
2
DimnDraft3D3
70
0
10
0
20
0
30
0
3
DimnDraft3D3
0
MTEXT
5
180
100
AcDbEntity
8
2
62
256
6
ByLayer
370
18
48
1
60
0
100
AcDbMText
10
15.306478
20
-42.5375
30
0
210
0
220
0
230
1
1
\W0.7528;39.4
40
4.5
41
0
44
1.084337
50
0
71
7
72
5
7
iso_b_vert
0
LINE
5
181
100
AcDbEntity
8
2
62
256
6
ByLayer
370
13
48
1
60
0
100
AcDbLine
10
0
20
-11.9375
30
0
11
0
21
-45.6625
31
0
39
0
210
0
220
0
230
1
0
LINE
5
182
100
AcDbEntity
8
2
62
256
6
ByLayer
370
13
48
1
60
0
100
AcDbLine
10
39.399798
20
-17.4125
30
0
11
39.399798
21
-45.6625
31
0
39
0
210
0
220
0
230
1
0
LINE
5
183
100
AcDbEntity
8
2
62
256
6
ByLayer
370
13
48
1
60
0
100
AcDbLine
10
0
20
-43.6625
30
0
11
39.399798
21
-43.6625
31
0
39
0
210
0
220
0
230
1
0
LINE
5
184
100
AcDbEntity
8
2
62
256
6
ByLayer
370
13
48
1
60
0
100
AcDbLine
10
0
20
-43.6625
30
0
11
3.174998
21
-43.244503
31
0
39
0
210
0
220
0
230
1
0
LINE
5
185
100
AcDbEntity
8
2
62
256
6
ByLayer
370
13
48
1
60
0
100
AcDbLine
10
0
20
-43.6625
30
0
11
3.175002
21
-44.080497
31
0
39
0
210
0
220
0
230
1
0
LINE
5
186
100
AcDbEntity
8
2
62
256
6
ByLayer
370
13
48
1
60
0
100
AcDbLine
10
3.174998
20
-43.244503
30
0
11
3.175002
21
-44.080497
31
0
39
0
210
0
220
0
230
1
0
LINE
5
187
100
AcDbEntity
8
2
62
256
6
ByLayer
370
13
48
1
60
0
100
AcDbLine
10
39.399798
20
-43.6625
30
0
11
36.224799
21
-44.080497
31
0
39
0
210
0
220
0
230
1
0
LINE
5
188
100
AcDbEntity
8
2
62
256
6
ByLayer
370
13
48
1
60
0
100
AcDbLine
10
39.399798
20
-43.6625
30
0
11
36.224796
21
-43.244503
31
0
39
0
210
0
220
0
230
1
0
LINE
5
189
100
AcDbEntity
8
2
62
256
6
ByLayer
370
13
48
1
60
0
100
AcDbLine
10
36.224799
20
-44.080497
30
0
11
36.224796
21
-43.244503
31
0
39
0
210
0
220
0
230
1
0
ENDBLK
5
18B
100
AcDbEntity
8
0
100
AcDbBlockEnd
0
BLOCK
5
198
100
AcDbEntity
8
0
100
AcDbBlockBegin
2
DimnDraft3D4
70
0
10
0
20
0
30
0
3
DimnDraft3D4
0
MTEXT
5
18E
100
AcDbEntity
8
2
62
256
6
ByLayer
370
18
48
1
60
0
100
AcDbMText
10
60.524798
20
-6.894079
30
0
210
0
220
0
230
1
1
\W0.7346;25.0
40
4.5
41
0
44
1.084337
50
90
71
7
72
5
7
iso_b_vert
0
LINE
5
18F
100
AcDbEntity
8
2
62
256
6
ByLayer
370
13
48
1
60
0
100
AcDbLine
10
2
20
9.9375
30
0
11
63.649798
21
9.9375
31
0
39
0
210
0
220
0
230
1
0
LINE
5
190
100
AcDbEntity
8
2
62
256
6
ByLayer
370
13
48
1
60
0
100
AcDbLine
10
41.399798
20
-15.4125
30
0
11
63.649798
21
-15.4125
31
0
39
0
210
0
220
0
230
1
0
LINE
5
191
100
AcDbEntity
8
2
62
256
6
ByLayer
370
13
48
1
60
0
100
AcDbLine
10
61.649798
20
9.9375
30
0
11
61.649798
21
-15.4125
31
0
39
0
210
0
220
0
230
1
0
LINE
5
192
100
AcDbEntity
8
2
62
256
6
ByLayer
370
13
48
1
60
0
100
AcDbLine
10
61.649798
20
9.9375
30
0
11
62.067795
21
6.762502
31
0
39
0
210
0
220
0
230
1
0
LINE
5
193
100
AcDbEntity
8
2
62
256
6
ByLayer
370
13
48
1
60
0
100
AcDbLine
10
61.649798
20
9.9375
30
0
11
61.231801
21
6.762498
31
0
39
0
210
0
220
0
230
1
0
LINE
5
194
100
AcDbEntity
8
2
62
256
6
ByLayer
370
13
48
1
60
0
100
AcDbLine
10
62.067795
20
6.762502
30
0
11
61.231801
21
6.762498
31
0
39
0
210
0
220
0
230
1
0
LINE
5
195
100
AcDbEntity
8
2
62
256
6
ByLayer
370
13
48
1
60
0
100
AcDbLine
10
61.649798
20
-15.4125
30
0
11
61.231801
21
-12.237502
31
0
39
0
210
0
220
0
230
1
0
LINE
5
196
100
AcDbEntity
8
2
62
256
6
ByLayer
370
13
48
1
60
0
100
AcDbLine
10
61.649798
20
-15.4125
30
0
11
62.067795
21
-12.237498
31
0
39
0
210
0
220
0
230
1
0
LINE
5
197
100
AcDbEntity
8
2
62
256
6
ByLayer
370
13
48
1
60
0
100
AcDbLine
10
61.231801
20
-12.237502
30
0
11
62.067795
21
-12.237498
31
0
39
0
210
0
220
0
230
1
0
ENDBLK
5
199
100
AcDbEntity
8
0
100
AcDbBlockEnd
0
BLOCK
5
1A6
100
AcDbEntity
8
0
100
AcDbBlockBegin
2
DimnDraft3D5
70
0
10
0
20
0
30
0
3
DimnDraft3D5
0
MTEXT
5
19C
100
AcDbEntity
8
SK2
62
256
6
ByLayer
370
18
48
1
60
0
100
AcDbMText
10
-95.825202
20
-4.156579
30
0
210
0
220
0
230
1
1
\W0.7346;20.0
40
4.5
41
0
44
1.084337
50
90
71
7
72
5
7
iso_b_vert
0
LINE
5
19D
100
AcDbEntity
8
SK2
62
256
6
ByLayer
370
13
48
1
60
0
100
AcDbLine
10
-88.950202
20
9.9375
30
0
11
-96.700202
21
9.9375
31
0
39
0
210
0
220
0
230
1
0
LINE
5
19E
100
AcDbEntity
8
SK2
62
256
6
ByLayer
370
13
48
1
60
0
100
AcDbLine
10
-88.950202
20
-9.9375
30
0
11
-96.700202
21
-9.9375
31
0
39
0
210
0
220
0
230
1
0
LINE
5
19F
100
AcDbEntity
8
SK2
62
256
6
ByLayer
370
13
48
1
60
0
100
AcDbLine
10
-94.700202
20
21.1875
30
0
11
-94.700202
21
-21.1875
31
0
39
0
210
0
220
0
230
1
0
LINE
5
1A0
100
AcDbEntity
8
SK2
62
256
6
ByLayer
370
13
48
1
60
0
100
AcDbLine
10
-94.700202
20
9.9375
30
0
11
-95.118199
21
13.112498
31
0
39
0
210
0
220
0
230
1
0
LINE
5
1A1
100
AcDbEntity
8
SK2
62
256
6
ByLayer
370
13
48
1
60
0
100
AcDbLine
10
-94.700202
20
9.9375
30
0
11
-94.282205
21
13.112502
31
0
39
0
210
0
220
0
230
1
0
LINE
5
1A2
100
AcDbEntity
8
SK2
62
256
6
ByLayer
370
13
48
1
60
0
100
AcDbLine
10
-95.118199
20
13.112498
30
0
11
-94.282205
21
13.112502
31
0
39
0
210
0
220
0
230
1
0
LINE
5
1A3
100
AcDbEntity
8
SK2
62
256
6
ByLayer
370
13
48
1
60
0
100
AcDbLine
10
-94.700202
20
-9.9375
30
0
11
-94.282205
21
-13.112498
31
0
39
0
210
0
220
0
230
1
0
LINE
5
1A4
100
AcDbEntity
8
SK2
62
256
6
ByLayer
370
13
48
1
60
0
100
AcDbLine
10
-94.700202
20
-9.9375
30
0
11
-95.118199
21
-13.112502
31
0
39
0
210
0
220
0
230
1
0
LINE
5
1A5
100
AcDbEntity
8
SK2
62
256
6
ByLayer
370
13
48
1
60
0
100
AcDbLine
10
-94.282205
20
-13.112498
30
0
11
-95.118199
21
-13.112502
31
0
39
0
210
0
220
0
230
1
0
ENDBLK
5
1A7
100
AcDbEntity
8
0
100
AcDbBlockEnd
0
ENDSEC
0
SECTION
2
ENTITIES
0
ELLIPSE
5
E1
100
AcDbEntity
8
1
62
256
6
ByLayer
370
18
48
1
60
0
100
AcDbEllipse
10
29.937184
20
-2.773255
30
0
11
1.10781822720279
21
1.13705541882407
31
0
210
0
220
0
230
1
40
0.987534
41
2.45072525133748E-06
42
0.713801513320352
0
ELLIPSE
5
E2
100
AcDbEntity
8
1
62
256
6
ByLayer
370
18
48
1
60
0
100
AcDbEllipse
10
24.407476
20
-11.97001
30
0
11
1.10781822720282
21
1.1370554188241
31
0
210
0
220
0
230
1
40
0.987534
41
2.89546307831326
42
-3.14158978678919
0
ELLIPSE
5
E3
100
AcDbEntity
8
1
62
256
6
ByLayer
370
18
48
1
60
0
100
AcDbEllipse
10
13.632637
20
-5.876859
30
0
11
-0.265178536275318
21
-0.272177045135845
31
0
210
0
220
0
230
1
40
0.987534
41
0.342180053776426
42
0.403396498438425
0
ELLIPSE
5
E4
100
AcDbEntity
8
1
62
256
6
ByLayer
370
18
48
1
60
0
100
AcDbEllipse
10
15.197035
20
-4.589199
30
0
11
0.296581257676343
21
0.304408537322985
31
0
210
0
220
0
230
1
40
0.987534
41
2.80444236523646
42
-3.1415858437697
0
ELLIPSE
5
E5
100
AcDbEntity
8
1
62
256
6
ByLayer
370
18
48
1
60
0
100
AcDbEllipse
10
13.339482
20
-6.624931
30
0
11
0.296581257676343
21
0.304408537322985
31
0
210
0
220
0
230
1
40
0.987534
41
-1.88105428448794E-05
42
0.403396498438517
0
ELLIPSE
5
E6
100
AcDbEntity
8
1
62
256
6
ByLayer
370
18
48
1
60
0
100
AcDbEllipse
10
15.694962
20
-5.209093
30
0
11
-0.265178536275318
21
-0.272177045135845
31
0
210
0
220
0
230
1
40
0.987534
41
1.75724481403988
42
2.79939683891867
0
ELLIPSE
5
E7
100
AcDbEntity
8
1
62
256
6
ByLayer
370
18
48
1
60
0
100
AcDbEllipse
10
14.003145
20
-7.063191
30
0
11
-0.265178536275318
21
-0.272177045135845
31
0
210
0
220
0
230
1
40
0.987534
41
0.342174994296328
42
1.4505940496351
0
ELLIPSE
5
E8
100
AcDbEntity
8
1
62
256
6
ByLayer
370
18
48
1
60
0
100
AcDbEllipse
10
16.358625
20
-5.647353
30
0
11
0.296581257676343
21
0.304408537322985
31
0
210
0
220
0
230
1
40
0.987534
41
1.75724481403988
42
3.14157244993311
0
ELLIPSE
5
E9
100
AcDbEntity
8
1
62
256
6
ByLayer
370
18
48
1
60
0
100
AcDbEllipse
10
14.501071
20
-7.683085
30
0
11
0.296581257676343
21
0.304408537322985
31
0
210
0
220
0
230
1
40
0.987534
41
6.81496149480546E-06
42
1.45059404963509
0
ELLIPSE
5
EA
100
AcDbEntity
8
1
62
256
6
ByLayer
370
18
48
1
60
0
100
AcDbEllipse
10
14.758858
20
-6.048266
30
0
11
2.7913530134244
21
2.86502152774574
31
0
210
0
220
0
230
1
40
0.987534
41
0.778645851564995
42
3.1415882062199
0
ELLIPSE
5
EB
100
AcDbEntity
8
1
62
256
6
ByLayer
370
18
48
1
60
0
100
AcDbEllipse
10
14.758858
20
-6.048266
30
0
11
2.7913530134244
21
2.86502152774574
31
0
210
0
220
0
230
1
40
0.987534
41
9.3633405730281E-05
42
0.778645851564993
0
ELLIPSE
5
EC
100
AcDbEntity
8
1
62
256
6
ByLayer
370
18
48
1
60
0
100
AcDbEllipse
10
16.06547
20
-6.395424
30
0
11
-0.265178536275318
21
-0.272177045135845
31
0
210
0
220
0
230
1
40
0.987534
41
0.710047262843352
42
2.7993554831389
0
ELLIPSE
5
ED
100
AcDbEntity
8
1
62
256
6
ByLayer
370
18
48
1
60
0
100
AcDbEllipse
10
15.219561
20
-7.322474
30
0
11
-0.265178536275318
21
-0.272177045135845
31
0
210
0
220
0
230
1
40
0.987534
41
0.342171625757645
42
2.49779160083163
0
ELLIPSE
5
EE
100
AcDbEntity
8
1
62
256
6
ByLayer
370
18
48
1
60
0
100
AcDbEllipse
10
14.792681
20
-6.081219
30
0
11
0.802513991359515
21
0.823693689226899
31
0
210
0
220
0
230
1
40
0.987534
41
-3.1069412339707
42
-0.0345619915316807
0
ELLIPSE
5
EF
100
AcDbEntity
8
1
62
256
6
ByLayer
370
18
48
1
60
0
100
AcDbEllipse
10
28.385738
20
-8.553841
30
0
11
1.80042269365874
21
1.847938885396
31
0
210
0
220
0
230
1
40
0.987534
41
-2.33842919789536
42
0
0
ELLIPSE
5
F0
100
AcDbEntity
8
1
62
256
6
ByLayer
370
18
48
1
60
0
100
AcDbEllipse
10
28.385738
20
-8.553841
30
0
11
1.80042269365874
21
1.847938885396
31
0
210
0
220
0
230
1
40
0.987534
41
0
42
0.330451779101578
0
ELLIPSE
5
F1
100
AcDbEntity
8
1
62
256
6
ByLayer
370
18
48
1
60
0
100
AcDbEllipse
10
27.849076
20
-8.030978
30
0
11
-1.80042269365874
21
-1.847938885396
31
0
210
0
220
0
230
1
40
0.987534
41
2.99393339579066
42
-0.779610062471621
0
ELLIPSE
5
F2
100
AcDbEntity
8
1
62
256
6
ByLayer
370
18
48
1
60
0
100
AcDbEllipse
10
27.849076
20
-8.030978
30
0
11
-1.80042269365874
21
-1.847938885396
31
0
210
0
220
0
230
1
40
0.987534
41
2.59171144124381
42
2.99393339579066
0
ELLIPSE
5
F3
100
AcDbEntity
8
1
62
256
6
ByLayer
370
18
48
1
60
0
100
AcDbEllipse
10
31.86545
20
-3.958361
30
0
11
0.554083573164744
21
0.568706773257529
31
0
210
0
220
0
230
1
40
0.987534
41
-4.87391192393378E-06
42
0.23383596902191
0
ELLIPSE
5
F4
100
AcDbEntity
8
1
62
256
6
ByLayer
370
18
48
1
60
0
100
AcDbEllipse
10
7.947142
20
-10.297477
30
0
11
1.97548026366513
21
2.25775944862812
31
0
210
0
220
0
230
1
40
0.985051
41
0.187906387138305
42
0.50389293716848
0
ELLIPSE
5
F5
100
AcDbEntity
8
1
62
256
6
ByLayer
370
18
48
1
60
0
100
AcDbEllipse
10
13.47131
20
-5.76271
30
0
11
2.7327476980701
21
3.12323390393557
31
0
210
0
220
0
230
1
40
0.985051
41
-2.92501275660843
42
-2.63769971642131
0
ELLIPSE
5
F6
100
AcDbEntity
8
1
62
256
6
ByLayer
370
18
48
1
60
0
100
AcDbEllipse
10
15.453949
20
-6.182245
30
0
11
-2.73274769807009
21
-3.12323390393558
31
0
210
0
220
0
230
1
40
0.985051
41
0.503892937168485
42
-2.986023797023
0
ELLIPSE
5
F7
100
AcDbEntity
8
1
62
256
6
ByLayer
370
18
48
1
60
0
100
AcDbEllipse
10
13.393938
20
-5.746338
30
0
11
-1.71208289517644
21
-1.95672485547771
31
0
210
0
220
0
230
1
40
0.985051
41
-1.16738534286269
42
-0.97643558611499
0
ELLIPSE
5
F8
100
AcDbEntity
8
1
62
256
6
ByLayer
370
18
48
1
60
0
100
AcDbEllipse
10
27.358235
20
-7.633633
30
0
11
1.90160924039537
21
1.95179591577678
31
0
210
0
220
0
230
1
40
0.987534
41
-0.52936266634506
42
-0.323882768359779
0
ELLIPSE
5
F9
100
AcDbEntity
8
1
62
256
6
ByLayer
370
18
48
1
60
0
100
AcDbEllipse
10
18.719649
20
-0.272533
30
0
11
1.65314319602558
21
1.69677243339754
31
0
210
0
220
0
230
1
40
0.987534
41
1.32466675151838
42
1.68413813115885
0
ELLIPSE
5
FA
100
AcDbEntity
8
1
62
256
6
ByLayer
370
18
48
1
60
0
100
AcDbEllipse
10
14.849053
20
-6.136142
30
0
11
0.802513991359515
21
0.823693689226899
31
0
210
0
220
0
230
1
40
0.987534
41
0.778645720303557
42
1.29806188987335
0
ELLIPSE
5
FB
100
AcDbEntity
8
1
62
256
6
ByLayer
370
18
48
1
60
0
100
AcDbEllipse
10
14.849053
20
-6.136142
30
0
11
0.802513991359515
21
0.823693689226899
31
0
210
0
220
0
230
1
40
0.987534
41
1.92166813204611
42
2.58847133294152
0
ELLIPSE
5
FC
100
AcDbEntity
8
1
62
256
6
ByLayer
370
18
48
1
60
0
100
AcDbEllipse
10
14.849053
20
-6.136142
30
0
11
0.802513991359515
21
0.823693689226899
31
0
210
0
220
0
230
1
40
0.987534
41
3.0000200745046
42
0
0
ELLIPSE
5
FD
100
AcDbEntity
8
1
62
256
6
ByLayer
370
18
48
1
60
0
100
AcDbEllipse
10
14.849053
20
-6.136142
30
0
11
0.802513991359515
21
0.823693689226899
31
0
210
0
220
0
230
1
40
0.987534
41
0
42
0.189865462697476
0
ELLIPSE
5
FE
100
AcDbEntity
8
1
62
256
6
ByLayer
370
18
48
1
60
0
100
AcDbEllipse
10
14.849053
20
-6.136142
30
0
11
0.802513991359515
21
0.823693689226899
31
0
210
0
220
0
230
1
40
0.987534
41
0.634989872114799
42
0.778645720303557
0
ELLIPSE
5
FF
100
AcDbEntity
8
1
62
256
6
ByLayer
370
18
48
1
60
0
100
AcDbEllipse
10
16.010643
20
-7.194296
30
0
11
0.296581257676343
21
0.304408537322985
31
0
210
0
220
0
230
1
40
0.987534
41
0.710047262843282
42
2.49779160083166
0
ELLIPSE
5
100
100
AcDbEntity
8
1
62
256
6
ByLayer
370
18
48
1
60
0
100
AcDbEllipse
10
13.519872
20
-6.800683
30
0
11
0.296581257676343
21
0.304408537322985
31
0
210
0
220
0
230
1
40
0.987534
41
-1.38434783954991
42
0.403396498438517
0
ELLIPSE
5
101
100
AcDbEntity
8
1
62
256
6
ByLayer
370
18
48
1
60
0
100
AcDbEllipse
10
15.399952
20
-7.498226
30
0
11
-0.265178536275318
21
-0.272177045135845
31
0
210
0
220
0
230
1
40
0.987534
41
-0.337150288353305
42
2.49779160083168
0
ELLIPSE
5
102
100
AcDbEntity
8
1
62
256
6
ByLayer
370
18
48
1
60
0
100
AcDbEllipse
10
16.539015
20
-5.823105
30
0
11
0.296581257676343
21
0.304408537322985
31
0
210
0
220
0
230
1
40
0.987534
41
1.75724481403986
42
-2.73819615515127
0
ELLIPSE
5
103
100
AcDbEntity
8
1
62
256
6
ByLayer
370
18
48
1
60
0
100
AcDbEllipse
10
15.875353
20
-5.384845
30
0
11
-0.265178536275318
21
-0.272177045135845
31
0
210
0
220
0
230
1
40
0.987534
41
1.75724481403993
42
-1.69099860395471
0
ELLIPSE
5
104
100
AcDbEntity
8
1
62
256
6
ByLayer
370
18
48
1
60
0
100
AcDbEllipse
10
13.813027
20
-6.052611
30
0
11
-0.265178536275318
21
-0.272177045135845
31
0
210
0
220
0
230
1
40
0.987534
41
-2.43154539074651
42
0.403396498438465
0
ELLIPSE
5
105
100
AcDbEntity
8
1
62
256
6
ByLayer
370
18
48
1
60
0
100
AcDbEllipse
10
14.946685
20
-6.231263
30
0
11
-2.7913530134244
21
-2.86502152774574
31
0
210
0
220
0
230
1
40
0.987534
41
0
42
6.28318530717959
0
ELLIPSE
5
106
100
AcDbEntity
8
1
62
256
6
ByLayer
370
18
48
1
60
0
100
AcDbEllipse
10
13.867854
20
-5.25374
30
0
11
0.296581257676343
21
0.304408537322985
31
0
210
0
220
0
230
1
40
0.987534
41
-2.43154539074651
42
-0.643801052758116
0
ELLIPSE
5
107
100
AcDbEntity
8
1
62
256
6
ByLayer
370
18
48
1
60
0
100
AcDbEllipse
10
16.24586
20
-6.571177
30
0
11
-0.265178536275318
21
-0.272177045135845
31
0
210
0
220
0
230
1
40
0.987534
41
0.710047262843281
42
-2.73819615515135
0
ELLIPSE
5
108
100
AcDbEntity
8
1
62
256
6
ByLayer
370
18
48
1
60
0
100
AcDbEllipse
10
15.029444
20
-6.311894
30
0
11
-1.60502798271903
21
-1.6473873784538
31
0
210
0
220
0
230
1
40
0.987534
41
0
42
6.28318530717959
0
ELLIPSE
5
109
100
AcDbEntity
8
1
62
256
6
ByLayer
370
18
48
1
60
0
100
AcDbEllipse
10
16.191034
20
-7.370048
30
0
11
0.296581257676343
21
0.304408537322985
31
0
210
0
220
0
230
1
40
0.987534
41
0.710047262843265
42
2.49779160083163
0
ELLIPSE
5
10A
100
AcDbEntity
8
1
62
256
6
ByLayer
370
18
48
1
60
0
100
AcDbEllipse
10
15.377426
20
-4.764951
30
0
11
0.296581257676343
21
0.304408537322985
31
0
210
0
220
0
230
1
40
0.987534
41
2.80444236523649
42
-1.69099860395474
0
ELLIPSE
5
10B
100
AcDbEntity
8
1
62
256
6
ByLayer
370
18
48
1
60
0
100
AcDbEllipse
10
14.183535
20
-7.238943
30
0
11
-0.265178536275318
21
-0.272177045135845
31
0
210
0
220
0
230
1
40
0.987534
41
-1.38434783954988
42
1.45059404963504
0
ELLIPSE
5
10C
100
AcDbEntity
8
1
62
256
6
ByLayer
370
18
48
1
60
0
100
AcDbEllipse
10
14.681462
20
-7.858837
30
0
11
0.296581257676343
21
0.304408537322985
31
0
210
0
220
0
230
1
40
0.987534
41
-0.337150288353303
42
1.45059404963508
0
ELLIPSE
5
10D
100
AcDbEntity
8
1
62
256
6
ByLayer
370
18
48
1
60
0
100
AcDbEllipse
10
14.658936
20
-5.125562
30
0
11
-0.265178536275318
21
-0.272177045135845
31
0
210
0
220
0
230
1
40
0.987534
41
2.80444236523646
42
-0.643801052758104
0
ELLIPSE
5
10E
100
AcDbEntity
8
1
62
256
6
ByLayer
370
18
48
1
60
0
100
AcDbEllipse
10
9.492446
20
9.951778
30
0
11
-0.820006014233634
21
-6.8932153181129E-05
31
0
210
0
220
0
230
1
40
0.004273
41
1.43532698302484
42
3.00612330982012
0
ELLIPSE
5
10F
100
AcDbEntity
8
1
62
256
6
ByLayer
370
18
48
1
60
0
100
AcDbEllipse
10
18.974394
20
-0.114505
30
0
11
1.65314319602558
21
1.69677243339754
31
0
210
0
220
0
230
1
40
0.987534
41
-0.246129575276504
42
1.32466675151838
0
ELLIPSE
5
110
100
AcDbEntity
8
1
62
256
6
ByLayer
370
18
48
1
60
0
100
AcDbEllipse
10
24.369365
20
-12.626458
30
0
11
-0.554083573164744
21
-0.568706773257529
31
0
210
0
220
0
230
1
40
0.987534
41
-0.24612957527652
42
0.233835969021934
0
ELLIPSE
5
111
100
AcDbEntity
8
1
62
256
6
ByLayer
370
18
48
1
60
0
100
AcDbEllipse
10
38.610649
20
-14.62328
30
0
11
-0.554083573164744
21
-0.568706773257529
31
0
210
0
220
0
230
1
40
0.987534
41
0.713801513320362
42
2.89546307831329
0
ELLIPSE
5
112
100
AcDbEntity
8
1
62
256
6
ByLayer
370
18
48
1
60
0
100
AcDbEllipse
10
32.402111
20
-4.481223
30
0
11
-0.554083573164744
21
-0.568706773257529
31
0
210
0
220
0
230
1
40
0.987534
41
2.89546307831327
42
-2.9077566845679
0
ELLIPSE
5
113
100
AcDbEntity
8
1
62
256
6
ByLayer
370
18
48
1
60
0
100
AcDbEllipse
10
30.091503
20
-3.109661
30
0
11
-0.554083573164744
21
-0.568706773257529
31
0
210
0
220
0
230
1
40
0.987534
41
-2.90775668456786
42
-2.42779114026944
0
ELLIPSE
5
114
100
AcDbEntity
8
1
62
256
6
ByLayer
370
18
48
1
60
0
100
AcDbEllipse
10
26.679973
20
-13.99802
30
0
11
-0.554083573164744
21
-0.568706773257529
31
0
210
0
220
0
230
1
40
0.987534
41
0.23383596902195
42
0.713801513320357
0
ELLIPSE
5
115
100
AcDbEntity
8
1
62
256
6
ByLayer
370
18
48
1
60
0
100
AcDbEllipse
10
25.083941
20
-12.629081
30
0
11
-1.10781822720281
21
-1.13705541882409
31
0
210
0
220
0
230
1
40
0.987534
41
-0.246129575276524
42
0.713801513320359
0
ELLIPSE
5
116
100
AcDbEntity
8
1
62
256
6
ByLayer
370
18
48
1
60
0
100
AcDbEllipse
10
30.613648
20
-3.432326
30
0
11
-1.10781822720281
21
-1.13705541882409
31
0
210
0
220
0
230
1
40
0.987534
41
2.89546307831327
42
-2.42779114026942
0
ELLIPSE
5
117
100
AcDbEntity
8
1
62
256
6
ByLayer
370
18
48
1
60
0
100
AcDbEllipse
10
5.700496
20
3.351332
30
0
11
6.82934418825403
21
-1.53624801329764
31
0
210
0
220
0
230
1
40
0.083175
41
0.797732830958249
42
0.812513867698239
0
ELLIPSE
5
118
100
AcDbEntity
8
1
62
256
6
ByLayer
370
18
48
1
60
0
100
AcDbEllipse
10
10.343793
20
-9.745775
30
0
11
-3.82773442490552
21
-0.907594688987298
31
0
210
0
220
0
230
1
40
0.449589
41
0.399114564335362
42
0.758730297683725
0
ELLIPSE
5
119
100
AcDbEntity
8
1
62
256
6
ByLayer
370
18
48
1
60
0
100
AcDbEllipse
10
9.483739
20
-0.005349
30
0
11
-2.66344707801017
21
-1.40123612188848
31
0
210
0
220
0
230
1
40
0.988643
41
-1.75162898671025
42
-0.699939923645759
0
ELLIPSE
5
11A
100
AcDbEntity
8
1
62
256
6
ByLayer
370
18
48
1
60
0
100
AcDbEllipse
10
28.826864
20
-8.902473
30
0
11
-1.67589864628228
21
-1.43101267968511
31
0
210
0
220
0
230
1
40
0.772193
41
1.3431818925712
42
2.198393226049
0
ELLIPSE
5
11B
100
AcDbEntity
8
1
62
256
6
ByLayer
370
18
48
1
60
0
100
AcDbEllipse
10
10.758866
20
-9.819998
30
0
11
-5.40555315848829
21
1.03051159957541
31
0
210
0
220
0
230
1
40
0.153994
41
-0.60151643161787
42
-0.548524125648961
0
ELLIPSE
5
11C
100
AcDbEntity
8
1
62
256
6
ByLayer
370
18
48
1
60
0
100
AcDbEllipse
10
11.23906
20
-7.685309
30
0
11
5.36591329077102
21
-1.20705201044815
31
0
210
0
220
0
230
1
40
0.083175
41
-2.42477914533364
42
-1.9830114060476
0
ELLIPSE
5
11D
100
AcDbEntity
8
1
62
256
6
ByLayer
370
18
48
1
60
0
100
AcDbEllipse
10
12.856514
20
-0.494973
30
0
11
-5.32236543047882
21
1.399001498544
31
0
210
0
220
0
230
1
40
0.320139
41
0.554915027987036
42
0.607907328343993
0
ELLIPSE
5
11E
100
AcDbEntity
8
1
62
256
6
ByLayer
370
18
48
1
60
0
100
AcDbEllipse
10
28.826864
20
-8.902473
30
0
11
-0.244919138432927
21
-2.36066737614861
31
0
210
0
220
0
230
1
40
0.796311
41
1.56563282528606
42
2.42084415876488
0
ELLIPSE
5
11F
100
AcDbEntity
8
1
62
256
6
ByLayer
370
18
48
1
60
0
100
AcDbEllipse
10
9.866708
20
-0.59177
30
0
11
1.49832280026797
21
1.3247749945546
31
0
210
0
220
0
230
1
40
0.754402
41
0.707667574872059
42
2.12034306913165
0
ELLIPSE
5
120
100
AcDbEntity
8
1
62
256
6
ByLayer
370
18
48
1
60
0
100
AcDbEllipse
10
7.646629
20
-8.172166
30
0
11
-2.66344707798453
21
-1.40123612192348
31
0
210
0
220
0
230
1
40
0.988643
41
-0.699939923660722
42
0.35174913940482
0
ELLIPSE
5
121
100
AcDbEntity
8
1
62
256
6
ByLayer
370
18
48
1
60
0
100
AcDbEllipse
10
8.026744
20
-8.771278
30
0
11
-0.44433754174247
21
1.95001644839172
31
0
210
0
220
0
230
1
40
0.807679
41
1.25118760271146
42
2.66386309697107
0
ELLIPSE
5
122
100
AcDbEntity
8
1
62
256
6
ByLayer
370
18
48
1
60
0
100
AcDbEllipse
10
12.376319
20
-2.629661
30
0
11
5.36591329077102
21
-1.20705201044815
31
0
210
0
220
0
230
1
40
0.083175
41
-2.42477914533363
42
-1.9830114060476
0
ELLIPSE
5
123
100
AcDbEntity
8
1
62
256
6
ByLayer
370
18
48
1
60
0
100
AcDbEllipse
10
13.345377
20
1.246489
30
0
11
-3.3643526097852
21
0.985138713416173
31
0
210
0
220
0
230
1
40
0.454664
41
-0.0978252986102297
42
0.625392807791818
0
ELLIPSE
5
124
100
AcDbEntity
8
1
62
256
6
ByLayer
370
18
48
1
60
0
100
AcDbEllipse
10
10.429333
20
-11.716694
30
0
11
-3.45654390321431
21
0.57996429302315
31
0
210
0
220
0
230
1
40
0.288972
41
-0.612366121437933
42
0.110851984962442
0
ELLIPSE
5
125
100
AcDbEntity
8
1
62
256
6
ByLayer
370
18
48
1
60
0
100
AcDbEllipse
10
12.180903
20
-1.578959
30
0
11
-2.4033379868359
21
3.8284761512229
31
0
210
0
220
0
230
1
40
0.535969
41
-0.479772778847881
42
-0.120157045492772
0
POINT
5
6C
100
AcDbEntity
8
2
62
256
6
ByLayer
370
18
48
1
60
0
100
AcDbPoint
10
39.399798
20
35.2875
30
0
39
0
210
0
220
0
230
1
50
360
0
POINT
5
6E
100
AcDbEntity
8
80
62
256
6
ByLayer
370
18
48
1
60
0
100
AcDbPoint
10
0
20
0
30
0
39
0
210
0
220
0
230
1
50
360
0
POINT
5
70
100
AcDbEntity
8
81
62
256
6
ByLayer
370
18
48
1
60
0
100
AcDbPoint
10
39.399798
20
-15.4125
30
0
39
0
210
0
220
0
230
1
50
360
0
SPLINE
5
126
100
AcDbEntity
8
1
62
256
6
ByLayer
370
18
48
1
60
0
100
AcDbSpline
70
4
71
3
72
8
73
4
40
0
40
0
40
0
40
0
40
1
40
1
40
1
40
1
41
1
10
6.21206121328402
20
-10.8084517219168
30
0
41
1
10
6.01223341192383
20
-10.6920370513024
30
0
41
1
10
5.81224306924577
20
-10.5546170753795
30
0
41
1
10
5.62356028696755
20
-10.3948493692088
30
0
0
SPLINE
5
127
100
AcDbEntity
8
1
62
256
6
ByLayer
370
18
48
1
60
0
100
AcDbSpline
70
4
71
2
72
6
73
3
40
0
40
0
40
0
40
1
40
1
40
1
41
1
10
27.0605643154986
20
-3.44303486463812
30
0
41
1
10
27.8081193514089
20
-4.11820380936624
30
0
41
1
10
28.4732349981669
20
-4.85180017588911
30
0
0
SPLINE
5
128
100
AcDbEntity
8
1
62
256
6
ByLayer
370
18
48
1
60
0
100
AcDbSpline
70
4
71
3
72
8
73
4
40
0
40
0
40
0
40
0
40
1
40
1
40
1
40
1
41
1
10
6.24298346277482
20
-8.43800434771379
30
0
41
1
10
6.23783936664748
20
-8.46087227182949
30
0
41
1
10
6.23321331588403
20
-8.48374350142751
30
0
41
1
10
6.22908134313289
20
-8.50661809081544
30
0
0
SPLINE
5
129
100
AcDbEntity
8
1
62
256
6
ByLayer
370
18
48
1
60
0
100
AcDbSpline
70
4
71
3
72
8
73
4
40
0
40
0
40
0
40
0
40
1
40
1
40
1
40
1
41
1
10
8.08009325743492
20
-0.271188188638377
30
0
41
1
10
8.08523735356226
20
-0.248320264522647
30
0
41
1
10
8.09082036824097
20
-0.225807401746692
30
0
41
1
10
8.09682218582751
20
-0.203632531966292
30
0
0
SPLINE
5
12A
100
AcDbEntity
8
1
62
256
6
ByLayer
370
18
48
1
60
0
100
AcDbSpline
70
4
71
3
72
8
73
4
40
0
40
0
40
0
40
0
40
1
40
1
40
1
40
1
41
1
10
11.9951159201217
20
-2.46952781139683
30
0
41
1
10
11.4122628480113
20
-1.00000261896145
30
0
41
1
10
10.8177532887128
20
0.370826768148447
30
0
41
1
10
10.3555722572797
20
1.14969165071329
30
0
0
SPLINE
5
12B
100
AcDbEntity
8
1
62
256
6
ByLayer
370
18
48
1
60
0
100
AcDbSpline
70
4
71
3
72
8
73
4
40
0
40
0
40
0
40
0
40
1
40
1
40
1
40
1
41
1
10
10.7700743028051
20
-8.68946867656595
30
0
41
1
10
11.2946451342564
20
-9.36741855958496
30
0
41
1
10
12.06608842041
20
-9.84206965074128
30
0
41
1
10
12.9704880967275
20
-10.0348449302858
30
0
0
SPLINE
5
12C
100
AcDbEntity
8
1
62
256
6
ByLayer
370
18
48
1
60
0
100
AcDbSpline
70
4
71
3
72
11
73
7
40
0
40
0
40
0
40
0
40
0.423407924946023
40
0.74096386865554
40
0.899741840510298
40
1
40
1
40
1
40
1
41
1.02805999725224
10
15.0956975515334
20
-12.2449817888045
30
0
41
1.02767136955277
10
15.9555689588462
20
-12.3259855805525
30
0
41
1.02349884684923
10
19.1707187682304
20
-11.8129171389511
30
0
41
1.01876555595691
10
23.2519202164603
20
-10.7337809962704
30
0
41
1.01635405201144
10
24.7938987817621
20
-10.3143789921052
30
0
41
1.01722454828215
10
25.2838845259027
20
-10.3553930208115
30
0
41
1.0177432798788
10
25.4856058757086
20
-10.3801022794869
30
0
0
SPLINE
5
12D
100
AcDbEntity
8
1
62
256
6
ByLayer
370
18
48
1
60
0
100
AcDbSpline
70
4
71
3
72
8
73
4
40
0
40
0
40
0
40
0
40
1
40
1
40
1
40
1
41
1
10
17.5914253958874
20
-2.65671208011162
30
0
41
1
10
17.3321284982419
20
-2.54091369033978
30
0
41
1
10
17.0570389305496
20
-2.44938904642402
30
0
41
1
10
16.7766579287936
20
-2.38962506440606
30
0
0
SPLINE
5
12E
100
AcDbEntity
8
1
62
256
6
ByLayer
370
18
48
1
60
0
100
AcDbSpline
70
4
71
3
72
10
73
6
40
0
40
0
40
0
40
0
40
0.5
40
0.5
40
1
40
1
40
1
40
1
41
1
10
24.7898658703547
20
-2.32513852493074
30
0
41
1
10
23.7143331644428
20
-1.57195578999477
30
0
41
1
10
22.5846767322327
20
-0.907797750529795
30
0
41
1
10
20.19636617665
20
0.208338181955611
30
0
41
1
10
18.9624890688028
20
0.698295217582455
30
0
41
1
10
17.6646219111663
20
0.987768545473728
30
0
0
SPLINE
5
12F
100
AcDbEntity
8
1
62
256
6
ByLayer
370
18
48
1
60
0
100
AcDbSpline
70
4
71
3
72
11
73
7
40
0
40
0
40
0
40
0
40
0.423407924939447
40
0.740963868644032
40
0.899741840496325
40
1
40
1
40
1
40
1
41
1.02805999725224
10
17.7540590058253
20
-0.427316157344178
30
0
41
1.02767136955277
10
18.5666732791548
20
-0.718400112411771
30
0
41
1.02349884684923
10
21.2409340449017
20
-2.60983759365684
30
0
41
1.01876555595691
10
24.4805271916745
20
-5.27204576012766
30
0
41
1.01635405201137
10
25.7083499711294
20
-6.24921382266477
30
0
41
1.01722454828226
10
26.1782858127561
20
-6.37935908809094
30
0
41
1.01774327987904
10
26.375551144223
20
-6.42387744199821
30
0
0
SPLINE
5
130
100
AcDbEntity
8
1
62
256
6
ByLayer
370
18
48
1
60
0
100
AcDbSpline
70
4
71
3
72
8
73
4
40
0
40
0
40
0
40
0
40
1
40
1
40
1
40
1
41
1
10
8.23187205695933
20
-0.31979206227669
30
0
41
1
10
8.89400206299834
20
-0.864334740788138
30
0
41
1
10
9.85143108657837
20
-1.73632766335948
30
0
41
1
10
10.8634090785955
20
-2.66863412193501
30
0
0
SPLINE
5
131
100
AcDbEntity
8
1
62
256
6
ByLayer
370
18
48
1
60
0
100
AcDbSpline
70
4
71
3
72
8
73
4
40
0
40
0
40
0
40
0
40
1
40
1
40
1
40
1
41
1
10
17.591425407227
20
-2.65671205831742
30
0
41
1
10
17.7264887372284
20
-1.70479873378983
30
0
41
1
10
17.784520922716
20
-0.909288349921781
30
0
41
1
10
17.7540590058253
20
-0.427316157344166
30
0
0
SPLINE
5
132
100
AcDbEntity
8
1
62
256
6
ByLayer
370
18
48
1
60
0
100
AcDbSpline
70
4
71
3
72
8
73
4
40
0
40
0
40
0
40
0
40
1
40
1
40
1
40
1
41
1
10
10.8634090785955
20
-2.66863412193504
30
0
41
1
10
10.6100125572706
20
-2.6567450511769
30
0
41
1
10
10.3673497373639
20
-2.6163348340749
30
0
41
1
10
10.1345330394727
20
-2.55499382100135
30
0
0
SPLINE
5
133
100
AcDbEntity
8
1
62
256
6
ByLayer
370
18
48
1
60
0
100
AcDbSpline
70
4
71
3
72
8
73
4
40
0
40
0
40
0
40
0
40
1
40
1
40
1
40
1
41
1
10
11.9951159201217
20
-2.46952781139683
30
0
41
1
10
12.0623566517058
20
-2.43887688418613
30
0
41
1
10
12.1280679098031
20
-2.40536500205056
30
0
41
1
10
12.1918002977402
20
-2.36922866534681
30
0
0
SPLINE
5
134
100
AcDbEntity
8
1
62
256
6
ByLayer
370
18
48
1
60
0
100
AcDbSpline
70
4
71
3
72
10
73
6
40
0
40
0
40
0
40
0
40
0.5
40
0.5
40
1
40
1
40
1
40
1
41
1
10
26.3755511442223
20
-6.42387744199806
30
0
41
1
10
26.7290308606609
20
-6.02962455718549
30
0
41
1
10
27.1116896207774
20
-5.69298343619656
30
0
41
1
10
28.053044395805
20
-5.36727313177795
30
0
41
1
10
28.6239806236006
20
-5.40680139366685
30
0
41
1
10
29.211559895162
20
-5.84041851376352
30
0
0
SPLINE
5
135
100
AcDbEntity
8
1
62
256
6
ByLayer
370
18
48
1
60
0
100
AcDbSpline
70
4
71
3
72
8
73
4
40
0
40
0
40
0
40
0
40
1
40
1
40
1
40
1
41
1
10
9.69506245218892
20
-7.86248379584845
30
0
41
1
10
9.46350917537595
20
-7.75349124071209
30
0
41
1
10
9.23009129305049
20
-7.67198293255012
30
0
41
1
10
8.99727459515927
20
-7.61064191947656
30
0
0
SPLINE
5
136
100
AcDbEntity
8
1
62
256
6
ByLayer
370
18
48
1
60
0
100
AcDbSpline
70
4
71
3
72
11
73
7
40
0
40
0
40
0
40
0
40
0.564783939443776
40
0.564783939443776
40
0.564783939443776
40
1
40
1
40
1
40
1
41
1
10
24.6637018449257
20
-12.6772533791916
30
0
41
1
10
24.2960257066533
20
-12.6720712385692
30
0
41
1
10
23.8769125062902
20
-12.6813587126287
30
0
41
1
10
23.4445992793191
20
-12.7329117082217
30
0
41
1
10
23.1087153827011
20
-12.7729655857388
30
0
41
1
10
22.7597741415928
20
-12.8311191574029
30
0
41
1
10
22.4117105409894
20
-12.8971562829909
30
0
0
SPLINE
5
137
100
AcDbEntity
8
1
62
256
6
ByLayer
370
18
48
1
60
0
100
AcDbSpline
70
4
71
3
72
8
73
4
40
0
40
0
40
0
40
0
40
1
40
1
40
1
40
1
41
1
10
26.8723168417545
20
-11.9690136540572
30
0
41
1
10
27.2342871481963
20
-11.7834639092583
30
0
41
1
10
27.5976114129282
20
-11.5942944139176
30
0
41
1
10
27.960390512801
20
-11.4024542484269
30
0
0
SPLINE
5
138
100
AcDbEntity
8
1
62
256
6
ByLayer
370
18
48
1
60
0
100
AcDbSpline
70
4
71
3
72
12
73
8
40
0
40
0
40
0
40
0
40
0.108854002841677
40
0.502629245107337
40
0.699516866240167
40
0.896404487372997
40
1
40
1
40
1
40
1
41
1.0244126255267
10
19.6029804991533
20
-8.50184003603968
30
0
41
1.02394775696077
10
19.9412262945514
20
-8.54185939794179
30
0
41
1.02173322391444
10
21.543917543461
20
-8.72210711879392
30
0
41
1.01876555595691
10
23.8092428575116
20
-8.9122032635466
30
0
41
1.01610930227499
10
25.3343209957285
20
-8.9989563762471
30
0
41
1.01814069306376
10
26.0198758161884
20
-9.12719471379603
30
0
41
1.0200519600697
10
26.6349819747822
20
-9.21916345193422
30
0
41
1.02076673234771
10
26.8604045056994
20
-9.25008614937536
30
0
0
SPLINE
5
139
100
AcDbEntity
8
1
62
256
6
ByLayer
370
18
48
1
60
0
100
AcDbSpline
70
4
71
3
72
10
73
6
40
0
40
0
40
0
40
0
40
0.967465556419477
40
0.967465556419477
40
1
40
1
40
1
40
1
41
1
10
26.8604045057174
20
-9.25008614937784
30
0
41
1
10
27.2521991467397
20
-9.09890353051898
30
0
41
1
10
27.6414949427437
20
-8.9573940468234
30
0
41
1
10
28.0376225256137
20
-8.82671386970264
30
0
41
1
10
28.0505146958671
20
-8.82247620727196
30
0
41
1
10
28.0633997289386
20
-8.81825658420809
30
0
0
SPLINE
5
13A
100
AcDbEntity
8
1
62
256
6
ByLayer
370
18
48
1
60
0
100
AcDbSpline
70
4
71
2
72
6
73
3
40
0
40
0
40
0
40
1
40
1
40
1
41
1.02805999725224
10
15.0956975515334
20
-12.2449817888045
30
0
41
1.02805999725224
10
14.8059592787781
20
-12.626667233533
30
0
41
1.02805999725224
10
14.5162210060228
20
-13.0083526782615
30
0
0
SPLINE
5
13B
100
AcDbEntity
8
1
62
256
6
ByLayer
370
18
48
1
60
0
100
AcDbSpline
70
4
71
3
72
8
73
4
40
0
40
0
40
0
40
0
40
1
40
1
40
1
40
1
41
1
10
15.0956975515334
20
-12.2449817888045
30
0
41
1
10
15.2930649480583
20
-11.9849807133473
30
0
41
1
10
15.54945661228
20
-11.3827293647392
30
0
41
1
10
15.8142281152827
20
-10.5571890037006
30
0
0
SPLINE
5
13C
100
AcDbEntity
8
1
62
256
6
ByLayer
370
18
48
1
60
0
100
AcDbSpline
70
4
71
3
72
12
73
8
40
0
40
0
40
0
40
0
40
0.47134308667852
40
0.47134308667852
40
0.892619726108215
40
0.892619726108215
40
1
40
1
40
1
40
1
41
1
10
10.8634090785955
20
-2.66863412193504
30
0
41
1
10
11.0398334640123
20
-2.67691174938909
30
0
41
1
10
11.2243040734865
20
-2.66963450404239
30
0
41
1
10
11.5676275600804
20
-2.6172017883041
30
0
41
1
10
11.7306629004187
20
-2.57523091611299
30
0
41
1
10
11.9197420769309
20
-2.5025033225279
30
0
41
1
10
11.9578896635972
20
-2.48649697952112
30
0
41
1
10
11.9951159201217
20
-2.46952781139683
30
0
0
SPLINE
5
13D
100
AcDbEntity
8
1
62
256
6
ByLayer
370
18
48
1
60
0
100
AcDbSpline
70
4
71
3
72
10
73
6
40
0
40
0
40
0
40
0
40
0.5
40
0.5
40
1
40
1
40
1
40
1
41
1
10
14.5162210060227
20
-13.0083526782615
30
0
41
1
10
15.8234807143177
20
-13.2741310716752
30
0
41
1
10
17.1387968960716
20
-13.3291539053983
30
0
41
1
10
19.7751591741054
20
-13.2893062790683
30
0
41
1
10
21.1050767168264
20
-13.145060234436
30
0
41
1
10
22.411710540989
20
-12.897156282991
30
0
0
SPLINE
5
13E
100
AcDbEntity
8
1
62
256
6
ByLayer
370
18
48
1
60
0
100
AcDbSpline
70
4
71
3
72
8
73
4
40
0
40
0
40
0
40
0
40
1
40
1
40
1
40
1
41
1
10
14.7857275366893
20
-1.9652527731042
30
0
41
1
10
13.8840881207867
20
-1.77306585066222
30
0
41
1
10
12.9649682958086
20
-1.93084152795629
30
0
41
1
10
12.1918002977402
20
-2.36922866534681
30
0
0
SPLINE
5
13F
100
AcDbEntity
8
1
62
256
6
ByLayer
370
18
48
1
60
0
100
AcDbSpline
70
4
71
3
72
12
73
8
40
0
40
0
40
0
40
0
40
0.466938972358618
40
0.466938972358618
40
0.92880323687655
40
0.92880323687655
40
1
40
1
40
1
40
1
41
1
10
10.6325462075499
20
-8.52679035448426
30
0
41
1
10
10.5175863801342
20
-8.40203545258413
30
0
41
1
10
10.3785444074829
20
-8.28063611747609
30
0
41
1
10
10.0848527337372
20
-8.0697546054484
30
0
41
1
10
9.92668853495618
20
-7.97670393987815
30
0
41
1
10
9.74432142350796
20
-7.88598973145795
30
0
41
1
10
9.71969996856112
20
-7.8740807203169
30
0
41
1
10
9.69506245218892
20
-7.86248379584845
30
0
0
SPLINE
5
140
100
AcDbEntity
8
1
62
256
6
ByLayer
370
18
48
1
60
0
100
AcDbSpline
70
4
71
3
72
8
73
4
40
0
40
0
40
0
40
0
40
1
40
1
40
1
40
1
41
1
10
10.7700743028051
20
-8.68946867656604
30
0
41
1
10
10.7271870815348
20
-8.63404167815139
30
0
41
1
10
10.681366265519
20
-8.57977009253366
30
0
41
1
10
10.6325462075499
20
-8.52679035448426
30
0
0
SPLINE
5
141
100
AcDbEntity
8
1
62
256
6
ByLayer
370
18
48
1
60
0
100
AcDbSpline
70
4
71
3
72
8
73
4
40
0
40
0
40
0
40
0
40
1
40
1
40
1
40
1
41
1
10
9.69506245218892
20
-7.86248379584845
30
0
41
1
10
8.39218864600568
20
-8.21839564259227
30
0
41
1
10
7.18969513863792
20
-8.47350054305005
30
0
41
1
10
6.39190721176286
20
-8.49930026236294
30
0
0
SPLINE
5
142
100
AcDbEntity
8
1
62
256
6
ByLayer
370
18
48
1
60
0
100
AcDbSpline
70
4
71
3
72
10
73
6
40
0
40
0
40
0
40
0
40
0.5
40
0.5
40
1
40
1
40
1
40
1
41
1
10
6.22908134313289
20
-8.50661809081544
30
0
41
1
10
6.09976273793822
20
-9.22252552104638
30
0
41
1
10
6.16184668613184
20
-9.87694893697309
30
0
41
1
10
6.44964884710126
20
-10.7558196461304
30
0
41
1
10
6.63072686824916
20
-11.0226878273664
30
0
41
1
10
6.97546510173976
20
-11.2507861421513
30
0
0
SPLINE
5
143
100
AcDbEntity
8
1
62
256
6
ByLayer
370
18
48
1
60
0
100
AcDbSpline
70
4
71
3
72
15
73
11
40
0
40
0
40
0
40
0
40
0.227604479949749
40
0.227604479949749
40
0.479423709218442
40
0.479423709218442
40
0.785574270382838
40
0.785574270382838
40
0.785574270382838
40
1
40
1
40
1
40
1
41
1
10
20.1306700328619
20
-6.15601281577102
30
0
41
1
10
20.108587646689
20
-5.81764476570766
30
0
41
1
10
20.0352051512718
20
-5.47527485226098
30
0
41
1
10
19.7923876240955
20
-4.79435812579149
30
0
41
1
10
19.6115799559596
20
-4.45184329963288
30
0
41
1
10
19.1268053048136
20
-3.76534374738733
30
0
41
1
10
18.7980474138069
20
-3.42683173114869
30
0
41
1
10
18.4298475824643
20
-3.15035728318332
30
0
41
1
10
18.1703745327802
20
-2.95552376598232
30
0
41
1
10
17.8876139394684
20
-2.78883231848644
30
0
41
1
10
17.5914254036433
20
-2.65671208357531
30
0
0
SPLINE
5
144
100
AcDbEntity
8
1
62
256
6
ByLayer
370
18
48
1
60
0
100
AcDbSpline
70
4
71
3
72
10
73
6
40
0
40
0
40
0
40
0
40
0.264715639145583
40
0.264715639145583
40
1
40
1
40
1
40
1
41
1
10
28.063399728923
20
-8.81825658421326
30
0
41
1
10
27.9807401376606
20
-8.75427790428398
30
0
41
1
10
27.898203112386
20
-8.6888258783718
30
0
41
1
10
27.5869784020666
20
-8.43688310059994
30
0
41
1
10
27.3591160085879
20
-8.24209137674148
30
0
41
1
10
27.1325318046616
20
-8.04035245310871
30
0
0
SPLINE
5
145
100
AcDbEntity
8
1
62
256
6
ByLayer
370
18
48
1
60
0
100
AcDbSpline
70
4
71
3
72
8
73
4
40
0
40
0
40
0
40
0
40
1
40
1
40
1
40
1
41
1
10
29.3254878171114
20
-10.60307735662
30
0
41
1
10
29.2483742897665
20
-10.6429392276386
30
0
41
1
10
29.1711653073467
20
-10.678868140111
30
0
41
1
10
29.0952686079657
20
-10.7103687434874
30
0
0
SPLINE
5
146
100
AcDbEntity
8
1
62
256
6
ByLayer
370
18
48
1
60
0
100
AcDbSpline
70
4
71
3
72
8
73
4
40
0
40
0
40
0
40
0
40
1
40
1
40
1
40
1
41
1
10
15.8142281000368
20
-10.5571890033734
30
0
41
1
10
15.5245481831082
20
-10.5509718571009
30
0
41
1
10
15.2401396258588
20
-10.5186273988714
30
0
41
1
10
14.9614184888318
20
-10.4592172215878
30
0
0
SPLINE
5
147
100
AcDbEntity
8
1
62
256
6
ByLayer
370
18
48
1
60
0
100
AcDbSpline
70
4
71
3
72
20
73
16
40
0
40
0
40
0
40
0
40
0.332873226652388
40
0.332873226652388
40
0.501657261698204
40
0.501657261698204
40
0.631212321676509
40
0.631212321676509
40
0.722542323637671
40
0.722542323637671
40
0.814765347404198
40
0.814765347404198
40
0.896421359038812
40
0.896421359038812
40
1
40
1
40
1
40
1
41
1
10
27.1325318046616
20
-8.04035245310871
30
0
41
1
10
26.9799088557371
20
-7.90452665926833
30
0
41
1
10
26.8277063376579
20
-7.75546407084192
30
0
41
1
10
26.6124073451434
20
-7.49626615742596
30
0
41
1
10
26.5416318730997
20
-7.40187311110259
30
0
41
1
10
26.4294410032208
20
-7.22082743690419
30
0
41
1
10
26.3842387445551
20
-7.13588369773706
30
0
41
1
10
26.3238590725285
20
-6.9862583178911
30
0
41
1
10
26.303424182006
20
-6.92166675897172
30
0
41
1
10
26.2778693910459
20
-6.79642671000607
30
0
41
1
10
26.2727489169503
20
-6.73417947673781
30
0
41
1
10
26.2789425689454
20
-6.62988022220736
30
0
41
1
10
26.2883854035979
20
-6.58506400126262
30
0
41
1
10
26.3204055940333
20
-6.49735222130073
30
0
41
1
10
26.3460035565082
20
-6.45682827526559
30
0
41
1
10
26.3755511442223
20
-6.42387744199806
30
0
0
SPLINE
5
148
100
AcDbEntity
8
1
62
256
6
ByLayer
370
18
48
1
60
0
100
AcDbSpline
70
4
71
3
72
10
73
6
40
0
40
0
40
0
40
0
40
0.5
40
0.5
40
1
40
1
40
1
40
1
41
1
10
10.0408561671866
20
2.37631734395689
30
0
41
1
10
9.60879230755185
20
2.2239647100146
30
0
41
1
10
9.30714198965205
20
1.95485137131757
30
0
41
1
10
8.63853989572638
20
1.12312233703685
30
0
41
1
10
8.28421235198462
20
0.488716489435291
30
0
41
1
10
8.09682218582751
20
-0.203632531966264
30
0
0
SPLINE
5
149
100
AcDbEntity
8
1
62
256
6
ByLayer
370
18
48
1
60
0
100
AcDbSpline
70
4
71
3
72
8
73
4
40
0
40
0
40
0
40
0
40
1
40
1
40
1
40
1
41
1
10
7.6972108029878
20
-10.667973980747
30
0
41
1
10
8.39724410023607
20
-10.3855607687372
30
0
41
1
10
9.49042353594294
20
-9.54719135996044
30
0
41
1
10
10.6325462075433
20
-8.52679035447861
30
0
0
SPLINE
5
14A
100
AcDbEntity
8
1
62
256
6
ByLayer
370
18
48
1
60
0
100
AcDbSpline
70
4
71
3
72
8
73
4
40
0
40
0
40
0
40
0
40
1
40
1
40
1
40
1
41
1
10
24.7898658703548
20
-2.32513852493088
30
0
41
1
10
25.4546819423002
20
-2.79070129633234
30
0
41
1
10
26.1436112938941
20
-3.1486959044899
30
0
41
1
10
26.7635837652283
20
-3.34229166447787
30
0
0
SPLINE
5
14B
100
AcDbEntity
8
1
62
256
6
ByLayer
370
18
48
1
60
0
100
AcDbSpline
70
4
71
3
72
12
73
8
40
0
40
0
40
0
40
0
40
0.108853988607132
40
0.502629237162305
40
0.699516861439891
40
0.896404485717477
40
1
40
1
40
1
40
1
41
1.02441262532206
10
20.130670032862
20
-6.15601281577105
30
0
41
1.02394775682001
10
20.4568445245045
20
-6.24969457831913
30
0
41
1.02173322384668
10
21.9996525967469
20
-6.69615092445156
30
0
41
1.01876555595691
10
24.1637567220222
20
-7.33622257600554
30
0
41
1.01610930227499
10
25.609947711928
20
-7.77366612616156
30
0
41
1.01814069306376
10
26.2995994662496
20
-7.88369166785454
30
0
41
1.02005196006971
10
26.9098845585475
20
-7.99709231075646
30
0
41
1.02076673234773
10
27.1325318046512
20
-8.04035245310669
30
0
0
SPLINE
5
14C
100
AcDbEntity
8
1
62
256
6
ByLayer
370
18
48
1
60
0
100
AcDbSpline
70
4
71
2
72
6
73
3
40
0
40
0
40
0
40
1
40
1
40
1
41
1
10
26.872239378738
20
-11.9690665166715
30
0
41
1
10
25.9526453942342
20
-12.3650634146126
30
0
41
1
10
24.9840180458006
20
-12.6742581622559
30
0
0
SPLINE
5
14D
100
AcDbEntity
8
1
62
256
6
ByLayer
370
18
48
1
60
0
100
AcDbSpline
70
4
71
3
72
10
73
6
40
0
40
0
40
0
40
0
40
0.655488757716275
40
0.655488757716275
40
1
40
1
40
1
40
1
41
1
10
10.4896377160512
20
2.70729331637338
30
0
41
1
10
10.138045184528
20
2.81600937954107
30
0
41
1
10
9.73407015392766
20
2.89702834100555
30
0
41
1
10
9.07491791450971
20
2.90370327251745
30
0
41
1
10
8.83745588750836
20
2.88447372117622
30
0
41
1
10
8.60002250312547
20
2.83692360073124
30
0
0
SPLINE
5
14E
100
AcDbEntity
8
1
62
256
6
ByLayer
370
18
48
1
60
0
100
AcDbSpline
70
4
71
3
72
20
73
16
40
0
40
0
40
0
40
0
40
0.110576036200127
40
0.110576036200127
40
0.197179369122807
40
0.197179369122807
40
0.28429111738737
40
0.28429111738737
40
0.365904217918082
40
0.365904217918082
40
0.497270233392083
40
0.497270233392083
40
0.733496364826726
40
0.733496364826726
40
1
40
1
40
1
40
1
41
1
10
25.4856058757921
20
-10.3801022794971
30
0
41
1
10
25.4696618871275
20
-10.3460655780457
30
0
41
1
10
25.4614758056398
20
-10.3060310385163
30
0
41
1
10
25.4692960805078
20
-10.2241100302729
30
0
41
1
10
25.4807947174553
20
-10.183631606261
30
0
41
1
10
25.5217585041826
20
-10.0984587710847
30
0
41
1
10
25.5519482551386
20
-10.0526563103836
30
0
41
1
10
25.6231174386166
20
-9.96599099169489
30
0
41
1
10
25.6639491413077
20
-9.92402761633838
30
0
41
1
10
25.7773924582506
20
-9.82085933787542
30
0
41
1
10
25.8559431636453
20
-9.76152037885069
30
0
41
1
10
26.0773137166157
20
-9.61248725935164
30
0
41
1
10
26.2261056480218
20
-9.53195694882342
30
0
41
1
10
26.535952154175
20
-9.38107906991183
30
0
41
1
10
26.6995511735455
20
-9.31212342031654
30
0
41
1
10
26.8604045057174
20
-9.25008614937784
30
0
0
SPLINE
5
14F
100
AcDbEntity
8
1
62
256
6
ByLayer
370
18
48
1
60
0
100
AcDbSpline
70
4
71
3
72
8
73
4
40
0
40
0
40
0
40
0
40
1
40
1
40
1
40
1
41
1
10
24.6637018449257
20
-12.6772533791916
30
0
41
1
10
24.7701776871316
20
-12.678754082473
30
0
41
1
10
24.8769954488912
20
-12.6777470125125
30
0
41
1
10
24.9840212439802
20
-12.6744486947775
30
0
0
SPLINE
5
150
100
AcDbEntity
8
1
62
256
6
ByLayer
370
18
48
1
60
0
100
AcDbSpline
70
4
71
3
72
12
73
8
40
0
40
0
40
0
40
0
40
0.286978363858296
40
0.286978363858296
40
0.569998995185617
40
0.569998995185617
40
1
40
1
40
1
40
1
41
1
10
19.6029806479959
20
-8.50184005365014
30
0
41
1
10
19.7160818260541
20
-8.29680094221584
30
0
41
1
10
19.8127765446778
20
-8.08179148145155
30
0
41
1
10
19.9683854112546
20
-7.64406452881309
30
0
41
1
10
20.028337185068
20
-7.41999179796909
30
0
41
1
10
20.132409948529
20
-6.85173853525186
30
0
41
1
10
20.1531273138249
20
-6.50036268545287
30
0
41
1
10
20.1306700328619
20
-6.15601281577102
30
0
0
SPLINE
5
151
100
AcDbEntity
8
1
62
256
6
ByLayer
370
18
48
1
60
0
100
AcDbSpline
70
4
71
3
72
8
73
4
40
0
40
0
40
0
40
0
40
1
40
1
40
1
40
1
41
1
10
29.9524783896316
20
-6.89966852460367
30
0
41
1
10
30.0091547914073
20
-6.95361117427734
30
0
41
1
10
30.0649390663864
20
-7.01292515226052
30
0
41
1
10
30.1187371104062
20
-7.07671155884069
30
0
0
SPLINE
5
152
100
AcDbEntity
8
1
62
256
6
ByLayer
370
18
48
1
60
0
100
AcDbSpline
70
4
71
3
72
8
73
4
40
0
40
0
40
0
40
0
40
1
40
1
40
1
40
1
41
1
10
27.0606488222647
20
-3.44286345585215
30
0
41
1
10
26.9624185771053
20
-3.40706142176481
30
0
41
1
10
26.8633866872759
20
-3.3734566329824
30
0
41
1
10
26.7635837652283
20
-3.34229166447784
30
0
0
SPLINE
5
153
100
AcDbEntity
8
1
62
256
6
ByLayer
370
18
48
1
60
0
100
AcDbSpline
70
4
71
3
72
10
73
6
40
0
40
0
40
0
40
0
40
0.5
40
0.5
40
1
40
1
40
1
40
1
41
1
10
27.9603905127775
20
-11.4024542484341
30
0
41
1
10
27.2367422520263
20
-11.6257101813173
30
0
41
1
10
26.6669653297839
20
-11.5483753518616
30
0
41
1
10
25.9015956863828
20
-11.1104006712632
30
0
41
1
10
25.6646909701211
20
-10.7625063386197
30
0
41
1
10
25.4856058757908
20
-10.380102279497
30
0
0
SPLINE
5
154
100
AcDbEntity
8
1
62
256
6
ByLayer
370
18
48
1
60
0
100
AcDbSpline
70
4
71
3
72
15
73
11
40
0
40
0
40
0
40
0
40
0.322163720426458
40
0.322163720426458
40
0.644833452600233
40
0.644833452600233
40
0.912233455904557
40
0.912233455904557
40
0.912233455904557
40
1
40
1
40
1
40
1
41
1
10
15.8142281152827
20
-10.5571890037006
30
0
41
1
10
16.2986178203967
20
-10.5666443417324
30
0
41
1
10
16.7912760477527
20
-10.4924154844211
30
0
41
1
10
17.7132788061837
20
-10.2026451183118
30
0
41
1
10
18.1558390470545
20
-9.98268113857151
30
0
41
1
10
18.8645785352475
20
-9.45963596264244
30
0
41
1
10
19.1558862663227
20
-9.16993914166014
30
0
41
1
10
19.389133441152
20
-8.84189482203232
30
0
41
1
10
19.4666470346598
20
-8.7328778786856
30
0
41
1
10
19.538271073624
20
-8.61913609313589
30
0
41
1
10
19.6029806479968
20
-8.50184005364997
30
0
0
SPLINE
5
155
100
AcDbEntity
8
1
62
256
6
ByLayer
370
18
48
1
60
0
100
AcDbSpline
70
4
71
1
72
4
73
2
40
0
40
0
40
1
40
1
41
1
10
17.7540590058253
20
-0.427316157344166
30
0
41
1
10
17.6646219111664
20
0.987768545473728
30
0
0
SPLINE
5
156
100
AcDbEntity
8
1
62
256
6
ByLayer
370
18
48
1
60
0
100
AcDbSpline
70
4
71
3
72
8
73
4
40
0
40
0
40
0
40
0
40
1
40
1
40
1
40
1
41
1
10
28.4732971986862
20
-4.85190378796202
30
0
41
1
10
28.7195252848142
20
-5.18088259089012
30
0
41
1
10
28.9660452238162
20
-5.5109632008502
30
0
41
1
10
29.2115598951621
20
-5.8404185137635
30
0
0
INSERT
5
169
100
AcDbEntity
8
SK2
62
256
6
ByLayer
370
25
48
1
60
0
100
AcDbBlockReference
2
DimnDraft3D11
10
0
20
0
30
0
41
1
42
1
43
1
50
0
210
0
220
0
230
1
0
LINE
5
72
100
AcDbEntity
8
1
62
256
6
ByLayer
370
18
48
1
60
0
100
AcDbLine
10
31.721467
20
-2.29527
30
0
11
31.045002
21
-1.6362
31
0
39
0
210
0
220
0
230
1
0
LINE
5
74
100
AcDbEntity
8
1
62
256
6
ByLayer
370
18
48
1
60
0
100
AcDbLine
10
14.900454
20
-4.893607
30
0
11
15.080845
21
-5.069359
31
0
39
0
210
0
220
0
230
1
0
LINE
5
75
100
AcDbEntity
8
1
62
256
6
ByLayer
370
18
48
1
60
0
100
AcDbLine
10
32.956195
20
-3.912516
30
0
11
32.419533
21
-3.389654
31
0
39
0
210
0
220
0
230
1
0
LINE
5
76
100
AcDbEntity
8
1
62
256
6
ByLayer
370
18
48
1
60
0
100
AcDbLine
10
6.20976
20
-10.80711
30
0
11
7.05664
21
-11.301206
31
0
39
0
210
0
220
0
230
1
0
LINE
5
77
100
AcDbEntity
8
1
62
256
6
ByLayer
370
18
48
1
60
0
100
AcDbLine
10
13.816454
20
-6.496274
30
0
11
13.636063
21
-6.320522
31
0
39
0
210
0
220
0
230
1
0
LINE
5
78
100
AcDbEntity
8
1
62
256
6
ByLayer
370
18
48
1
60
0
100
AcDbLine
10
16.062044
20
-5.951761
30
0
11
16.242434
21
-6.127514
31
0
39
0
210
0
220
0
230
1
0
LINE
5
79
100
AcDbEntity
8
1
62
256
6
ByLayer
370
18
48
1
60
0
100
AcDbLine
10
14.978043
20
-7.554429
30
0
11
14.797653
21
-7.378677
31
0
39
0
210
0
220
0
230
1
0
LINE
5
7A
100
AcDbEntity
8
1
62
256
6
ByLayer
370
18
48
1
60
0
100
AcDbLine
10
11.967505
20
-8.913287
30
0
11
12.155332
21
-9.096285
31
0
39
0
210
0
220
0
230
1
0
LINE
5
7B
100
AcDbEntity
8
1
62
256
6
ByLayer
370
18
48
1
60
0
100
AcDbLine
10
17.738038
20
-3.366242
30
0
11
17.550211
21
-3.183244
31
0
39
0
210
0
220
0
230
1
0
LINE
5
7C
100
AcDbEntity
8
1
62
256
6
ByLayer
370
18
48
1
60
0
100
AcDbLine
10
23.372007
20
-12.763289
30
0
11
23.815281
21
-13.195165
31
0
39
0
210
0
220
0
230
1
0
LINE
5
7D
100
AcDbEntity
8
1
62
256
6
ByLayer
370
18
48
1
60
0
100
AcDbLine
10
9.973459
20
-8.008286
30
0
11
9.472437
21
-7.715975
31
0
39
0
210
0
220
0
230
1
0
LINE
5
7E
100
AcDbEntity
8
1
62
256
6
ByLayer
370
18
48
1
60
0
100
AcDbLine
10
23.299658
20
-13.107066
30
0
11
23.976123
21
-13.766136
31
0
39
0
210
0
220
0
230
1
0
LINE
5
7F
100
AcDbEntity
8
80
62
256
6
ByLayer
370
18
48
1
60
0
100
AcDbLine
10
0
20
0
30
0
11
-5
21
0
31
0
39
0
210
0
220
0
230
1
0
LINE
5
80
100
AcDbEntity
8
81
62
256
6
ByLayer
370
18
48
1
60
0
100
AcDbLine
10
39.399798
20
-15.4125
30
0
11
49.399798
21
-15.4125
31
0
39
0
210
0
220
0
230
1
0
LINE
5
81
100
AcDbEntity
8
1
62
256
6
ByLayer
370
18
48
1
60
0
100
AcDbLine
10
32.488806
20
-3.457204
30
0
11
31.961672
21
-2.596095
31
0
39
0
210
0
220
0
230
1
0
LINE
5
82
100
AcDbEntity
8
1
62
256
6
ByLayer
370
18
48
1
60
0
100
AcDbLine
10
24.981728
20
-14.204817
30
0
11
25.521631
21
-14.233112
31
0
39
0
210
0
220
0
230
1
0
LINE
5
83
100
AcDbEntity
8
1
62
256
6
ByLayer
370
18
48
1
60
0
100
AcDbLine
10
23.303935
20
-12.75964
30
0
11
23.735917
21
-13.465311
31
0
39
0
210
0
220
0
230
1
0
LINE
5
84
100
AcDbEntity
8
1
62
256
6
ByLayer
370
18
48
1
60
0
100
AcDbLine
10
30.715861
20
-1.85659
30
0
11
30.389433
21
-1.839483
31
0
39
0
210
0
220
0
230
1
0
LINE
5
85
100
AcDbEntity
8
1
62
256
6
ByLayer
370
18
48
1
60
0
100
AcDbLine
10
30.039396
20
-1.19752
30
0
11
29.9949
21
-1.195188
31
0
39
0
210
0
220
0
230
1
0
LINE
5
86
100
AcDbEntity
8
1
62
256
6
ByLayer
370
18
48
1
60
0
100
AcDbLine
10
23.02186
20
-12.744832
30
0
11
23.059453
21
-12.806241
31
0
39
0
210
0
220
0
230
1
0
LINE
5
87
100
AcDbEntity
8
1
62
256
6
ByLayer
370
18
48
1
60
0
100
AcDbLine
10
14.820273
20
-4.782082
30
0
11
14.998099
21
-4.955336
31
0
39
0
210
0
220
0
230
1
0
LINE
5
88
100
AcDbEntity
8
1
62
256
6
ByLayer
370
18
48
1
60
0
100
AcDbLine
10
19.874525
20
2.072257
30
0
11
21.36833
21
-0.367974
31
0
39
0
210
0
220
0
230
1
0
LINE
5
89
100
AcDbEntity
8
1
62
256
6
ByLayer
370
18
48
1
60
0
100
AcDbLine
10
9.3817
20
9.948297
30
0
11
7.674212
21
2.357712
31
0
39
0
210
0
220
0
230
1
0
LINE
5
8A
100
AcDbEntity
8
1
62
256
6
ByLayer
370
18
48
1
60
0
100
AcDbLine
10
4.988225
20
-9.582762
30
0
11
4.495311
21
-11.773998
31
0
39
0
210
0
220
0
230
1
0
LINE
5
8B
100
AcDbEntity
8
1
62
256
6
ByLayer
370
18
48
1
60
0
100
AcDbLine
10
23.695141
20
-13.044705
30
0
11
23.501512
21
-12.7284
31
0
39
0
210
0
220
0
230
1
0
LINE
5
8C
100
AcDbEntity
8
1
62
256
6
ByLayer
370
18
48
1
60
0
100
AcDbLine
10
24.297154
20
-2.015197
30
0
11
30.142626
21
-2.321545
31
0
39
0
210
0
220
0
230
1
0
LINE
5
8D
100
AcDbEntity
8
1
62
256
6
ByLayer
370
18
48
1
60
0
100
AcDbLine
10
30.094192
20
-2.274357
30
0
11
30.142626
21
-2.321545
31
0
39
0
210
0
220
0
230
1
0
LINE
5
8E
100
AcDbEntity
8
1
62
256
6
ByLayer
370
18
48
1
60
0
100
AcDbLine
10
23.695141
20
-13.044705
30
0
11
23.408245
21
-12.765186
31
0
39
0
210
0
220
0
230
1
0
LINE
5
8F
100
AcDbEntity
8
1
62
256
6
ByLayer
370
18
48
1
60
0
100
AcDbLine
10
30.500375
20
-2.429645
30
0
11
30.360331
21
-2.293203
31
0
39
0
210
0
220
0
230
1
0
LINE
5
90
100
AcDbEntity
8
1
62
256
6
ByLayer
370
18
48
1
60
0
100
AcDbLine
10
32.274321
20
-3.278345
30
0
11
30.641624
21
-2.309186
31
0
39
0
210
0
220
0
230
1
0
LINE
5
91
100
AcDbEntity
8
1
62
256
6
ByLayer
370
18
48
1
60
0
100
AcDbLine
10
12.56369
20
-9.797506
30
0
11
13.915695
21
-10.083596
31
0
39
0
210
0
220
0
230
1
0
LINE
5
92
100
AcDbEntity
8
1
62
256
6
ByLayer
370
18
48
1
60
0
100
AcDbLine
10
20.985984
20
1.133361
30
0
11
22.140478
21
-0.752581
31
0
39
0
210
0
220
0
230
1
0
LINE
5
93
100
AcDbEntity
8
1
62
256
6
ByLayer
370
18
48
1
60
0
100
AcDbLine
10
10.104544
20
-12.067966
30
0
11
8.853521
21
-12.002402
31
0
39
0
210
0
220
0
230
1
0
LINE
5
94
100
AcDbEntity
8
1
62
256
6
ByLayer
370
18
48
1
60
0
100
AcDbLine
10
12.591268
20
4.613638
30
0
11
12.052799
21
2.21989
31
0
39
0
210
0
220
0
230
1
0
LINE
5
95
100
AcDbEntity
8
1
62
256
6
ByLayer
370
18
48
1
60
0
100
AcDbLine
10
8.89633
20
-11.812097
30
0
11
8.853521
21
-12.002402
31
0
39
0
210
0
220
0
230
1
0
LINE
5
96
100
AcDbEntity
8
1
62
256
6
ByLayer
370
18
48
1
60
0
100
AcDbLine
10
23.99045
20
-1.822115
30
0
11
30.608907
21
-2.197989
31
0
39
0
210
0
220
0
230
1
0
LINE
5
97
100
AcDbEntity
8
1
62
256
6
ByLayer
370
18
48
1
60
0
100
AcDbLine
10
10.332625
20
9.952243
30
0
11
8.73477
21
2.849023
31
0
39
0
210
0
220
0
230
1
0
LINE
5
98
100
AcDbEntity
8
1
62
256
6
ByLayer
370
18
48
1
60
0
100
AcDbLine
10
5.737594
20
-10.474831
30
0
11
5.434279
21
-11.823207
31
0
39
0
210
0
220
0
230
1
0
LINE
5
99
100
AcDbEntity
8
1
62
256
6
ByLayer
370
18
48
1
60
0
100
AcDbLine
10
20.447938
20
1.739987
30
0
11
20.985984
21
1.133361
31
0
39
0
210
0
220
0
230
1
0
LINE
5
9A
100
AcDbEntity
8
1
62
256
6
ByLayer
370
18
48
1
60
0
100
AcDbLine
10
20.131871
20
1.950099
30
0
11
21.630999
21
-0.498826
31
0
39
0
210
0
220
0
230
1
0
LINE
5
9B
100
AcDbEntity
8
1
62
256
6
ByLayer
370
18
48
1
60
0
100
AcDbLine
10
24.181437
20
-1.942299
30
0
11
28.757476
21
-2.202181
31
0
39
0
210
0
220
0
230
1
0
LINE
5
9C
100
AcDbEntity
8
1
62
256
6
ByLayer
370
18
48
1
60
0
100
AcDbLine
10
30.190518
20
-2.283566
30
0
11
30.67825
21
-2.311265
31
0
39
0
210
0
220
0
230
1
0
LINE
5
9D
100
AcDbEntity
8
1
62
256
6
ByLayer
370
18
48
1
60
0
100
AcDbLine
10
10.304939
20
9.951373
30
0
11
8.706716
21
2.84652
31
0
39
0
210
0
220
0
230
1
0
LINE
5
9E
100
AcDbEntity
8
1
62
256
6
ByLayer
370
18
48
1
60
0
100
AcDbLine
10
5.713912
20
-10.457899
30
0
11
5.407109
21
-11.821783
31
0
39
0
210
0
220
0
230
1
0
LINE
5
9F
100
AcDbEntity
8
1
62
256
6
ByLayer
370
18
48
1
60
0
100
AcDbLine
10
16.039589
20
-6.772532
30
0
11
16.219979
21
-6.948284
31
0
39
0
210
0
220
0
230
1
0
LINE
5
A0
100
AcDbEntity
8
1
62
256
6
ByLayer
370
18
48
1
60
0
100
AcDbLine
10
13.494253
20
-6.229986
30
0
11
13.674644
21
-6.405738
31
0
39
0
210
0
220
0
230
1
0
LINE
5
A1
100
AcDbEntity
8
1
62
256
6
ByLayer
370
18
48
1
60
0
100
AcDbLine
10
16.008244
20
-5.415973
30
0
11
16.188635
21
-5.591725
31
0
39
0
210
0
220
0
230
1
0
LINE
5
A2
100
AcDbEntity
8
1
62
256
6
ByLayer
370
18
48
1
60
0
100
AcDbLine
10
14.238191
20
-7.355812
30
0
11
14.418581
21
-7.531564
31
0
39
0
210
0
220
0
230
1
0
LINE
5
A3
100
AcDbEntity
8
1
62
256
6
ByLayer
370
18
48
1
60
0
100
AcDbLine
10
15.592991
20
-7.261968
30
0
11
15.773382
21
-7.43772
31
0
39
0
210
0
220
0
230
1
0
LINE
5
A4
100
AcDbEntity
8
1
62
256
6
ByLayer
370
18
48
1
60
0
100
AcDbLine
10
13.195413
20
9.961782
30
0
11
10.332625
21
9.952243
31
0
39
0
210
0
220
0
230
1
0
LINE
5
A5
100
AcDbEntity
8
1
62
256
6
ByLayer
370
18
48
1
60
0
100
AcDbLine
10
24.855631
20
7.200368
30
0
11
30.608907
21
-2.197989
31
0
39
0
210
0
220
0
230
1
0
LINE
5
A6
100
AcDbEntity
8
1
62
256
6
ByLayer
370
18
48
1
60
0
100
AcDbLine
10
23.326665
20
-12.760908
30
0
11
23.506713
21
-12.770344
31
0
39
0
210
0
220
0
230
1
0
LINE
5
A7
100
AcDbEntity
8
1
62
256
6
ByLayer
370
18
48
1
60
0
100
AcDbLine
10
17.28089
20
9.427027
30
0
11
15.461735
21
9.961782
31
0
39
0
210
0
220
0
230
1
0
LINE
5
A8
100
AcDbEntity
8
1
62
256
6
ByLayer
370
18
48
1
60
0
100
AcDbLine
10
1.689449
20
-11.626949
30
0
11
4.495311
21
-11.773998
31
0
39
0
210
0
220
0
230
1
0
LINE
5
A9
100
AcDbEntity
8
1
62
256
6
ByLayer
370
18
48
1
60
0
100
AcDbLine
10
0
20
-9.9375
30
0
11
0
21
9.9375
31
0
39
0
210
0
220
0
230
1
0
LINE
5
AA
100
AcDbEntity
8
1
62
256
6
ByLayer
370
18
48
1
60
0
100
AcDbLine
10
4.495311
20
-11.773998
30
0
11
5.407109
21
-11.821783
31
0
39
0
210
0
220
0
230
1
0
LINE
5
AB
100
AcDbEntity
8
1
62
256
6
ByLayer
370
18
48
1
60
0
100
AcDbLine
10
10.332625
20
9.952243
30
0
11
10.304939
21
9.951373
31
0
39
0
210
0
220
0
230
1
0
LINE
5
AC
100
AcDbEntity
8
1
62
256
6
ByLayer
370
18
48
1
60
0
100
AcDbLine
10
13.195413
20
9.961782
30
0
11
15.461735
21
9.961782
31
0
39
0
210
0
220
0
230
1
0
LINE
5
AD
100
AcDbEntity
8
1
62
256
6
ByLayer
370
18
48
1
60
0
100
AcDbLine
10
24.855631
20
7.200368
30
0
11
17.28089
21
9.427027
31
0
39
0
210
0
220
0
230
1
0
LINE
5
AE
100
AcDbEntity
8
1
62
256
6
ByLayer
370
18
48
1
60
0
100
AcDbLine
10
0
20
9.9375
30
0
11
3.1825
21
9.951386
31
0
39
0
210
0
220
0
230
1
0
LINE
5
AF
100
AcDbEntity
8
1
62
256
6
ByLayer
370
18
48
1
60
0
100
AcDbLine
10
30.608907
20
-2.197989
30
0
11
30.67825
21
-2.311265
31
0
39
0
210
0
220
0
230
1
0
LINE
5
B0
100
AcDbEntity
8
1
62
256
6
ByLayer
370
18
48
1
60
0
100
AcDbLine
10
1.088268
20
-11.025768
30
0
11
1.689449
21
-11.626949
31
0
39
0
210
0
220
0
230
1
0
LINE
5
B1
100
AcDbEntity
8
1
62
256
6
ByLayer
370
18
48
1
60
0
100
AcDbLine
10
12.591268
20
4.613638
30
0
11
13.195413
21
9.961782
31
0
39
0
210
0
220
0
230
1
0
LINE
5
B2
100
AcDbEntity
8
1
62
256
6
ByLayer
370
18
48
1
60
0
100
AcDbLine
10
1.088268
20
-11.025768
30
0
11
0
21
-9.9375
31
0
39
0
210
0
220
0
230
1
0
LINE
5
B3
100
AcDbEntity
8
1
62
256
6
ByLayer
370
18
48
1
60
0
100
AcDbLine
10
5.434279
20
-11.823207
30
0
11
8.853521
21
-12.002402
31
0
39
0
210
0
220
0
230
1
0
LINE
5
B4
100
AcDbEntity
8
1
62
256
6
ByLayer
370
18
48
1
60
0
100
AcDbLine
10
3.1825
20
9.951386
30
0
11
1.088268
21
-11.025768
31
0
39
0
210
0
220
0
230
1
0
LINE
5
B5
100
AcDbEntity
8
1
62
256
6
ByLayer
370
18
48
1
60
0
100
AcDbLine
10
5.407109
20
-11.821783
30
0
11
5.434279
21
-11.823207
31
0
39
0
210
0
220
0
230
1
0
LINE
5
B6
100
AcDbEntity
8
1
62
256
6
ByLayer
370
18
48
1
60
0
100
AcDbLine
10
17.752064
20
1.882252
30
0
11
17.49732
21
1.724224
31
0
39
0
210
0
220
0
230
1
0
LINE
5
B7
100
AcDbEntity
8
1
62
256
6
ByLayer
370
18
48
1
60
0
100
AcDbLine
10
17.28089
20
9.427027
30
0
11
12.591268
21
4.613638
31
0
39
0
210
0
220
0
230
1
0
LINE
5
B8
100
AcDbEntity
8
1
62
256
6
ByLayer
370
18
48
1
60
0
100
AcDbLine
10
9.3817
20
9.948297
30
0
11
3.1825
21
9.951386
31
0
39
0
210
0
220
0
230
1
0
LINE
5
B9
100
AcDbEntity
8
SK1
62
256
6
ByLayer
370
18
48
1
60
0
100
AcDbLine
10
-86.950202
20
-9.9375
30
0
11
-86.950202
21
9.9375
31
0
39
0
210
0
220
0
230
1
0
LINE
5
BB
100
AcDbEntity
8
SK1
62
256
6
ByLayer
370
18
48
1
60
0
100
AcDbLine
10
0
20
-9.9375
30
0
11
0
21
9.9375
31
0
39
0
210
0
220
0
230
1
0
LINE
5
BC
100
AcDbEntity
8
SK1
62
256
6
ByLayer
370
18
48
1
60
0
100
AcDbLine
10
-86.950202
20
9.9375
30
0
11
0
21
9.9375
31
0
39
0
210
0
220
0
230
1
0
LINE
5
BD
100
AcDbEntity
8
SK1
62
256
6
ByLayer
370
18
48
1
60
0
100
AcDbLine
10
0
20
-9.9375
30
0
11
-86.950202
21
-9.9375
31
0
39
0
210
0
220
0
230
1
0
LINE
5
BE
100
AcDbEntity
8
1
62
256
6
ByLayer
370
18
48
1
60
0
100
AcDbLine
10
23.960494
20
-13.306474
30
0
11
26.271102
21
-14.678036
31
0
39
0
210
0
220
0
230
1
0
LINE
5
BF
100
AcDbEntity
8
1
62
256
6
ByLayer
370
18
48
1
60
0
100
AcDbLine
10
32.274321
20
-3.278345
30
0
11
32.810983
21
-3.801207
31
0
39
0
210
0
220
0
230
1
0
LINE
5
C0
100
AcDbEntity
8
1
62
256
6
ByLayer
370
18
48
1
60
0
100
AcDbLine
10
32.810983
20
-3.801207
30
0
11
30.500375
21
-2.429645
31
0
39
0
210
0
220
0
230
1
0
LINE
5
C1
100
AcDbEntity
8
1
62
256
6
ByLayer
370
18
48
1
60
0
100
AcDbLine
10
33.076336
20
-4.062976
30
0
11
39.284873
21
-14.205033
31
0
39
0
210
0
220
0
230
1
0
LINE
5
C2
100
AcDbEntity
8
1
62
256
6
ByLayer
370
18
48
1
60
0
100
AcDbLine
10
38.559526
20
-15.411396
30
0
11
26.628851
21
-14.786136
31
0
39
0
210
0
220
0
230
1
0
LINE
5
C3
100
AcDbEntity
8
1
62
256
6
ByLayer
370
18
48
1
60
0
100
AcDbLine
10
23.735917
20
-13.465311
30
0
11
23.059453
21
-12.806241
31
0
39
0
210
0
220
0
230
1
0
LINE
5
C4
100
AcDbEntity
8
1
62
256
6
ByLayer
370
18
48
1
60
0
100
AcDbLine
10
30.715861
20
-1.85659
30
0
11
30.039396
21
-1.19752
31
0
39
0
210
0
220
0
230
1
0
LINE
5
C5
100
AcDbEntity
8
1
62
256
6
ByLayer
370
18
48
1
60
0
100
AcDbLine
10
29.525207
20
-10.486125
30
0
11
29.325488
21
-10.603077
31
0
39
0
210
0
220
0
230
1
0
LINE
5
C6
100
AcDbEntity
8
1
62
256
6
ByLayer
370
18
48
1
60
0
100
AcDbLine
10
17.664622
20
0.987769
30
0
11
12.396035
21
2.110782
31
0
39
0
210
0
220
0
230
1
0
LINE
5
C7
100
AcDbEntity
8
1
62
256
6
ByLayer
370
18
48
1
60
0
100
AcDbLine
10
12.970488
20
-10.034845
30
0
11
14.961418
21
-10.459217
31
0
39
0
210
0
220
0
230
1
0
LINE
5
C8
100
AcDbEntity
8
1
62
256
6
ByLayer
370
18
48
1
60
0
100
AcDbLine
10
12.391601
20
2.114377
30
0
11
12.396035
21
2.110782
31
0
39
0
210
0
220
0
230
1
0
LINE
5
C9
100
AcDbEntity
8
1
62
256
6
ByLayer
370
18
48
1
60
0
100
AcDbLine
10
9.24227
20
-11.885879
30
0
11
7.846702
21
-11.58841
31
0
39
0
210
0
220
0
230
1
0
LINE
5
CA
100
AcDbEntity
8
1
62
256
6
ByLayer
370
18
48
1
60
0
100
AcDbLine
10
7.697211
20
-10.667974
30
0
11
15.095698
21
-12.244982
31
0
39
0
210
0
220
0
230
1
0
LINE
5
CB
100
AcDbEntity
8
1
62
256
6
ByLayer
370
18
48
1
60
0
100
AcDbLine
10
12.970488
20
-10.034845
30
0
11
12.56369
21
-9.797506
31
0
39
0
210
0
220
0
230
1
0
LINE
5
CC
100
AcDbEntity
8
1
62
256
6
ByLayer
370
18
48
1
60
0
100
AcDbLine
10
8.080093
20
-0.271188
30
0
11
6.554133
21
0.619104
31
0
39
0
210
0
220
0
230
1
0
LINE
5
CD
100
AcDbEntity
8
1
62
256
6
ByLayer
370
18
48
1
60
0
100
AcDbLine
10
29.095269
20
-10.710369
30
0
11
28.900672
21
-10.851842
31
0
39
0
210
0
220
0
230
1
0
LINE
5
CE
100
AcDbEntity
8
1
62
256
6
ByLayer
370
18
48
1
60
0
100
AcDbLine
10
8.997275
20
-7.610642
30
0
11
8.603252
21
-7.380757
31
0
39
0
210
0
220
0
230
1
0
LINE
5
CF
100
AcDbEntity
8
1
62
256
6
ByLayer
370
18
48
1
60
0
100
AcDbLine
10
29.836425
20
-6.691979
30
0
11
29.952478
21
-6.899669
31
0
39
0
210
0
220
0
230
1
0
LINE
5
D0
100
AcDbEntity
8
1
62
256
6
ByLayer
370
18
48
1
60
0
100
AcDbLine
10
6.554133
20
0.619104
30
0
11
4.717024
21
-7.547712
31
0
39
0
210
0
220
0
230
1
0
LINE
5
D1
100
AcDbEntity
8
1
62
256
6
ByLayer
370
18
48
1
60
0
100
AcDbLine
10
6.242983
20
-8.438004
30
0
11
8.080093
21
-0.271188
31
0
39
0
210
0
220
0
230
1
0
LINE
5
D2
100
AcDbEntity
8
1
62
256
6
ByLayer
370
18
48
1
60
0
100
AcDbLine
10
16.776658
20
-2.389625
30
0
11
14.785728
21
-1.965253
31
0
39
0
210
0
220
0
230
1
0
LINE
5
D3
100
AcDbEntity
8
1
62
256
6
ByLayer
370
18
48
1
60
0
100
AcDbLine
10
7.127723
20
-7.068529
30
0
11
8.264981
21
-2.012881
31
0
39
0
210
0
220
0
230
1
0
LINE
5
D4
100
AcDbEntity
8
1
62
256
6
ByLayer
370
18
48
1
60
0
100
AcDbLine
10
28.0634
20
-8.818257
30
0
11
30.705401
21
-9.109692
31
0
39
0
210
0
220
0
230
1
0
LINE
5
D5
100
AcDbEntity
8
1
62
256
6
ByLayer
370
18
48
1
60
0
100
AcDbLine
10
10.996033
20
2.411846
30
0
11
12.391601
21
2.114377
31
0
39
0
210
0
220
0
230
1
0
LINE
5
D6
100
AcDbEntity
8
1
62
256
6
ByLayer
370
18
48
1
60
0
100
AcDbLine
10
28.900672
20
-10.851842
30
0
11
27.960391
21
-11.402454
31
0
39
0
210
0
220
0
230
1
0
LINE
5
D7
100
AcDbEntity
8
1
62
256
6
ByLayer
370
18
48
1
60
0
100
AcDbLine
10
10.996033
20
2.411846
30
0
11
10.489638
21
2.707293
31
0
39
0
210
0
220
0
230
1
0
LINE
5
D8
100
AcDbEntity
8
1
62
256
6
ByLayer
370
18
48
1
60
0
100
AcDbLine
10
30.251461
20
-7.257586
30
0
11
30.118737
21
-7.076712
31
0
39
0
210
0
220
0
230
1
0
LINE
5
D9
100
AcDbEntity
8
1
62
256
6
ByLayer
370
18
48
1
60
0
100
AcDbLine
10
6.242983
20
-8.438004
30
0
11
4.717024
21
-7.547712
31
0
39
0
210
0
220
0
230
1
0
LINE
5
DA
100
AcDbEntity
8
1
62
256
6
ByLayer
370
18
48
1
60
0
100
AcDbLine
10
10.355572
20
1.149692
30
0
11
17.754059
21
-0.427316
31
0
39
0
210
0
220
0
230
1
0
LINE
5
DB
100
AcDbEntity
8
1
62
256
6
ByLayer
370
18
48
1
60
0
100
AcDbLine
10
14.961418
20
-10.459217
30
0
11
14.546329
21
-10.217041
31
0
39
0
210
0
220
0
230
1
0
LINE
5
DC
100
AcDbEntity
8
1
62
256
6
ByLayer
370
18
48
1
60
0
100
AcDbLine
10
9.24227
20
-11.885879
30
0
11
9.247634
21
-11.885339
31
0
39
0
210
0
220
0
230
1
0
LINE
5
DD
100
AcDbEntity
8
1
62
256
6
ByLayer
370
18
48
1
60
0
100
AcDbLine
10
12.391601
20
2.114377
30
0
11
10.561101
21
2.685105
31
0
39
0
210
0
220
0
230
1
0
LINE
5
DE
100
AcDbEntity
8
1
62
256
6
ByLayer
370
18
48
1
60
0
100
AcDbLine
10
29.836425
20
-6.691979
30
0
11
29.21156
21
-5.840419
31
0
39
0
210
0
220
0
230
1
0
LINE
5
DF
100
AcDbEntity
8
1
62
256
6
ByLayer
370
18
48
1
60
0
100
AcDbLine
10
8.603252
20
-7.380757
30
0
11
7.127723
21
-7.068529
31
0
39
0
210
0
220
0
230
1
0
LINE
5
E0
100
AcDbEntity
8
1
62
256
6
ByLayer
370
18
48
1
60
0
100
AcDbLine
10
14.516221
20
-13.008353
30
0
11
9.247634
21
-11.885339
31
0
39
0
210
0
220
0
230
1
0
MTEXT
5
157
100
AcDbEntity
8
SK6
62
256
6
ByLayer
370
18
48
1
60
0
100
AcDbMText
10
-37.900202
20
19.074641
30
0
210
0
220
0
230
1
1
\W0.7605;DDJNL 2020K 1504
40
3.5
41
0
44
1.084337
50
0
71
7
72
5
7
iso_b_vert
0
DIMENSION
5
177
100
AcDbEntity
8
2
62
256
6
ByLayer
370
13
48
1
60
0
100
AcDbDimension
2
DimnDraft3D2
10
37.565877
20
-15.359076
30
0
11
27.111663
21
-27.116193
31
0
70
34
71
5
72
1
41
1
210
0
220
0
230
1
3
Standard
100
AcDb2LineAngularDimension
13
39.399798
23
-15.4125
33
0
14
39.399798
24
-13.825
34
0
15
38.564506
25
-15.411412
35
0
16
23.847478
26
-30.213789
36
0
40
0
0
DIMENSION
5
18C
100
AcDbEntity
8
2
62
256
6
ByLayer
370
13
48
1
60
0
100
AcDbDimension
2
DimnDraft3D3
10
39.399798
20
-43.6625
30
0
11
14.181478
21
-43.6625
31
0
70
32
71
5
72
1
41
1
210
0
220
0
230
1
3
Standard
100
AcDbAlignedDimension
13
0
23
-11.9375
33
0
14
39.399798
24
-17.4125
34
0
50
0
100
AcDbRotatedDimension
1001
ACAD
1000
DSTYLE
1002
{
1070
   279
1070
     0
1070
   172
1070
     1
1070
   173
1070
     1
1070
   340
1005
158
1070
    77
1070
     1
1070
    73
1070
     0
1070
   171
1070
     3
1070
   274
1070
     4
1070
   177
1070
     2
1070
   176
1070
     2
1070
   178
1070
     7
1070
    78
1070
     8
1070
    41
1041
3.175
1070
   147
1041
2.25
1070
    42
1041
2.0
1070
    44
1041
2.0
1070
   140
1041
4.5
1070
   343
1005
178
1070
   344
1005
178
1002
}
0
DIMENSION
5
19A
100
AcDbEntity
8
2
62
256
6
ByLayer
370
13
48
1
60
0
100
AcDbDimension
2
DimnDraft3D4
10
61.649798
20
-15.4125
30
0
11
61.649798
21
-8.019079
31
0
70
32
71
5
72
1
41
1
210
0
220
0
230
1
3
Standard
100
AcDbAlignedDimension
13
2
23
9.9375
33
0
14
41.399798
24
-15.4125
34
0
50
90
100
AcDbRotatedDimension
1001
ACAD
1000
DSTYLE
1002
{
1070
    74
1070
     0
1070
   279
1070
     0
1070
   172
1070
     1
1070
   173
1070
     1
1070
   340
1005
158
1070
    77
1070
     1
1070
    73
1070
     0
1070
   171
1070
     3
1070
   274
1070
     4
1070
   177
1070
     2
1070
   176
1070
     2
1070
   178
1070
     7
1070
    78
1070
     8
1070
    41
1041
3.175
1070
   147
1041
2.25
1070
    42
1041
2.0
1070
    44
1041
2.0
1070
   140
1041
4.5
1070
   343
1005
178
1070
   344
1005
178
1002
}
0
DIMENSION
5
1A8
100
AcDbEntity
8
SK2
62
256
6
ByLayer
370
13
48
1
60
0
100
AcDbDimension
2
DimnDraft3D5
10
-94.700202
20
-9.9375
30
0
11
-94.700202
21
-5.281579
31
0
70
32
71
5
72
1
41
1
210
0
220
0
230
1
3
Standard
100
AcDbAlignedDimension
13
-88.950202
23
9.9375
33
0
14
-88.950202
24
-9.9375
34
0
50
90
100
AcDbRotatedDimension
1001
ACAD
1000
DSTYLE
1002
{
1070
    74
1070
     0
1070
   279
1070
     0
1070
   172
1070
     1
1070
   173
1070
     1
1070
   340
1005
158
1070
    77
1070
     1
1070
    73
1070
     0
1070
   171
1070
     3
1070
   274
1070
     4
1070
   177
1070
     2
1070
   176
1070
     2
1070
   178
1070
     7
1070
    78
1070
     8
1070
    41
1041
3.175
1070
   147
1041
2.25
1070
    42
1041
2.0
1070
    44
1041
2.0
1070
   140
1041
4.5
1070
   343
1005
178
1070
   344
1005
178
1002
}
0
ENDSEC
0
SECTION
2
OBJECTS
0
DICTIONARY
5
212
330
0
100
AcDbDictionary
280
0
281
1
3
ACAD_GROUP
350
213
3
ACAD_MLINESTYLE
350
214
0
DICTIONARY
5
213
330
0
100
AcDbDictionary
280
0
281
1
0
DICTIONARY
5
214
330
0
100
AcDbDictionary
280
0
281
1
3
Standard
350
18
0
MLINESTYLE
5
18
330
214
100
AcDbMlineStyle
2
Standard
70
0
3

62
256
51
90
52
90
71
2
49
-0.5
62
256
6
ByLayer
49
0.5
62
256
6
ByLayer
0
RASTERVARIABLES
5
201
330

100
AcDbRasterVariables
90
0
70
1
71
1
72
1
0
ENDSEC
0
EOF
