0
SECTION
2
HEADER
9
$ACADVER
1
AC1015
9
$DWGCODEPAGE
3
ANSI_1252
9
$HANDSEED
5
221
9
$ANGBASE
50
0
9
$ANGDIR
70
0
9
$ATTMODE
70
1
9
$AUNITS
70
0
9
$AUPREC
70
0
9
$CECOLOR
62
256
9
$CELTSCALE
40
1
9
$CELTYPE
6
ByLayer
9
$CELWEIGHT
370
18
9
$CLAYER
8
0
9
$CMLJUST
70
0
9
$CMLSCALE
40
1
9
$CMLSTYLE
2
Standard
9
$DIMSTYLE
2
Standard
9
$TEXTSIZE
40
0.2
9
$TEXTSTYLE
7
Standard
9
$LUNITS
70
2
9
$LUPREC
70
4
9
$EXTNAMES
290
1
9
$INSUNITS
70
4
9
$LTSCALE
40
1
9
$LWDISPLAY
290
1
9
$PDMODE
70
0
9
$PDSIZE
40
0
9
$PLINEGEN
70
0
0
ENDSEC
0
SECTION
2
CLASSES
0
CLASS
1
RASTERVARIABLES
2
AcDbRasterVariables
3
ISM
90
0
280
0
281
0
0
ENDSEC
0
SECTION
2
TABLES
0
TABLE
2
VPORT
5
217
100
AcDbSymbolTable
0
VPORT
5
1
100
AcDbSymbolTableRecord
100
AcDbViewportTableRecord
2
*Active
70
0
10
0
20
0
11
1
21
1
12
-1
22
1
13
0
23
0
14
0.5
24
0.5
15
10
25
10
16
0
26
0
36
1
17
0
27
0
37
0
0
ENDTAB
0
TABLE
2
LTYPE
5
218
100
AcDbSymbolTable
0
LTYPE
5
14
100
AcDbSymbolTableRecord
100
AcDbLinetypeTableRecord
70
0
2
ByBlock
3

72
65
73
0
40
0
0
LTYPE
5
15
100
AcDbSymbolTableRecord
100
AcDbLinetypeTableRecord
70
0
2
ByLayer
3

72
65
73
0
40
0
0
LTYPE
5
16
100
AcDbSymbolTableRecord
100
AcDbLinetypeTableRecord
70
0
2
CONTINUOUS
3
Solid line
72
65
73
0
40
0
0
LTYPE
5
6A
100
AcDbSymbolTableRecord
100
AcDbLinetypeTableRecord
70
0
2
CENTER
3
____ _ ____ _ ____ _ ____
72
65
73
4
40
47.5
49
22
74
0
49
-8.5
74
0
49
8.5
74
0
49
-8.5
74
0
0
LTYPE
5
6B
100
AcDbSymbolTableRecord
100
AcDbLinetypeTableRecord
70
0
2
DASHED
3
__ __ __ __ __ __ __ __ __
72
65
73
2
40
25.72
49
12.86
74
0
49
-12.86
74
0
0
ENDTAB
0
TABLE
2
LAYER
5
219
100
AcDbSymbolTable
0
LAYER
5
10
100
AcDbSymbolTableRecord
100
AcDbLayerTableRecord
2
0
70
0
62
7
6
CONTINUOUS
290
1
370
-3
390
0
0
LAYER
5
6D
100
AcDbSymbolTableRecord
100
AcDbLayerTableRecord
2
2
70
0
62
7
6
CONTINUOUS
290
1
370
-3
390
0
0
LAYER
5
6F
100
AcDbSymbolTableRecord
100
AcDbLayerTableRecord
2
80
70
0
62
-6
6
CONTINUOUS
290
1
370
-3
390
0
0
LAYER
5
71
100
AcDbSymbolTableRecord
100
AcDbLayerTableRecord
2
81
70
0
62
-3
6
CONTINUOUS
290
1
370
-3
390
0
0
LAYER
5
73
100
AcDbSymbolTableRecord
100
AcDbLayerTableRecord
2
1
70
0
62
4
6
CONTINUOUS
290
1
370
-3
390
0
0
LAYER
5
204
100
AcDbSymbolTableRecord
100
AcDbLayerTableRecord
2
SK1
70
0
62
4
6
CONTINUOUS
290
1
370
-3
390
0
0
LAYER
5
205
100
AcDbSymbolTableRecord
100
AcDbLayerTableRecord
2
SK6
70
0
62
5
6
CONTINUOUS
290
1
370
-3
390
0
0
LAYER
5
206
100
AcDbSymbolTableRecord
100
AcDbLayerTableRecord
2
SK2
70
0
62
7
6
CONTINUOUS
290
1
370
-3
390
0
0
ENDTAB
0
TABLE
2
STYLE
5
21a
100
AcDbSymbolTable
0
STYLE
5
11
100
AcDbSymbolTableRecord
100
AcDbTextStyleTableRecord
2
Standard
3
txt
70
0
71
0
40
0
41
1
42
0
50
0
0
STYLE
5
15A
100
AcDbSymbolTableRecord
100
AcDbTextStyleTableRecord
2
iso_b_vert
3
simplex.shx
70
0
71
0
40
0
41
1
42
0
50
0
0
STYLE
5
15B
100
AcDbSymbolTableRecord
100
AcDbTextStyleTableRecord
2
DWGDirectTextStyle
3
simplex
70
0
71
0
40
0
41
1
42
0
50
0
0
ENDTAB
0
TABLE
2
DIMSTYLE
5
21b
100
AcDbSymbolTable
100
AcDbDimStyleTable
0
DIMSTYLE
105
27
100
AcDbSymbolTableRecord
100
AcDbDimStyleTableRecord
2
Standard
70
0
3
<>
41
0.18
42
0.0625
44
0.18
140
0.18
147
0.09
73
0
74
0
77
1
271
2
275
0
278
52
280
0
340
11
0
ENDTAB
0
TABLE
2
VIEW
5
21c
100
AcDbSymbolTable
0
ENDTAB
0
TABLE
2
UCS
5
21d
100
AcDbSymbolTable
0
ENDTAB
0
TABLE
2
APPID
5
21e
100
AcDbSymbolTable
0
APPID
5
12
100
AcDbSymbolTableRecord
100
AcDbRegAppTableRecord
2
ACAD
70
0
0
ENDTAB
0
TABLE
2
BLOCK_RECORD
5
21f
100
AcDbSymbolTable
0
BLOCK_RECORD
5
1F
100
AcDbSymbolTableRecord
100
AcDbBlockTableRecord
2
*Model_Space
340
0
70
0
0
BLOCK_RECORD
5
1B
100
AcDbSymbolTableRecord
100
AcDbBlockTableRecord
2
*Paper_Space
340
0
70
0
0
BLOCK_RECORD
5
23
100
AcDbSymbolTableRecord
100
AcDbBlockTableRecord
2
*Paper_Space0
340
0
70
0
0
BLOCK_RECORD
5
15D
100
AcDbSymbolTableRecord
100
AcDbBlockTableRecord
2
DimnDraft3D11
340
0
70
0
0
BLOCK_RECORD
5
16C
100
AcDbSymbolTableRecord
100
AcDbBlockTableRecord
2
DimnDraft3D2
340
0
70
0
0
BLOCK_RECORD
5
17A
100
AcDbSymbolTableRecord
100
AcDbBlockTableRecord
2
_CLOSED
340
0
70
0
0
BLOCK_RECORD
5
181
100
AcDbSymbolTableRecord
100
AcDbBlockTableRecord
2
DimnDraft3D3
340
0
70
0
0
BLOCK_RECORD
5
18F
100
AcDbSymbolTableRecord
100
AcDbBlockTableRecord
2
DimnDraft3D4
340
0
70
0
0
BLOCK_RECORD
5
19D
100
AcDbSymbolTableRecord
100
AcDbBlockTableRecord
2
DimnDraft3D5
340
0
70
0
0
ENDTAB
0
ENDSEC
0
SECTION
2
BLOCKS
0
BLOCK
5
20
100
AcDbEntity
8
0
100
AcDbBlockBegin
2
*Model_Space
70
0
10
0
20
0
30
0
3
*Model_Space
0
ENDBLK
5
21
100
AcDbEntity
8
0
100
AcDbBlockEnd
0
BLOCK
5
1C
100
AcDbEntity
8
0
100
AcDbBlockBegin
2
*Paper_Space
70
0
10
0
20
0
30
0
3
*Paper_Space
0
ENDBLK
5
1D
100
AcDbEntity
8
0
100
AcDbBlockEnd
0
BLOCK
5
24
100
AcDbEntity
8
0
100
AcDbBlockBegin
2
*Paper_Space0
70
0
10
0
20
0
30
0
3
*Paper_Space0
0
ENDBLK
5
25
100
AcDbEntity
8
0
100
AcDbBlockEnd
0
BLOCK
5
15E
100
AcDbEntity
8
0
100
AcDbBlockBegin
2
DimnDraft3D11
70
0
10
0
20
0
30
0
3
DimnDraft3D11
0
LINE
5
160
100
AcDbEntity
8
SK2
62
256
6
ByLayer
370
25
48
1
60
0
100
AcDbLine
10
36.09038
20
-26.425
30
0
11
36.09038
21
-64.675
31
0
39
0
210
0
220
0
230
1
0
LINE
5
162
100
AcDbEntity
8
SK2
62
256
6
ByLayer
370
25
48
1
60
0
100
AcDbLine
10
-135.25962
20
-17.925
30
0
11
-135.25962
21
-64.675
31
0
39
0
210
0
220
0
230
1
0
LINE
5
163
100
AcDbEntity
8
SK2
62
256
6
ByLayer
370
25
48
1
60
0
100
AcDbLine
10
36.09038
20
-62.675
30
0
11
-135.25962
21
-62.675
31
0
39
0
210
0
220
0
230
1
0
LINE
5
164
100
AcDbEntity
8
SK2
62
256
6
ByLayer
370
25
48
1
60
0
100
AcDbLine
10
36.09038
20
-62.675
30
0
11
32.915381
21
-63.092997
31
0
39
0
210
0
220
0
230
1
0
LINE
5
165
100
AcDbEntity
8
SK2
62
256
6
ByLayer
370
25
48
1
60
0
100
AcDbLine
10
36.09038
20
-62.675
30
0
11
32.915378
21
-62.257003
31
0
39
0
210
0
220
0
230
1
0
LINE
5
166
100
AcDbEntity
8
SK2
62
256
6
ByLayer
370
25
48
1
60
0
100
AcDbLine
10
32.915381
20
-63.092997
30
0
11
32.915378
21
-62.257003
31
0
39
0
210
0
220
0
230
1
0
LINE
5
167
100
AcDbEntity
8
SK2
62
256
6
ByLayer
370
25
48
1
60
0
100
AcDbLine
10
-135.25962
20
-62.675
30
0
11
-132.084622
21
-62.257003
31
0
39
0
210
0
220
0
230
1
0
LINE
5
168
100
AcDbEntity
8
SK2
62
256
6
ByLayer
370
25
48
1
60
0
100
AcDbLine
10
-135.25962
20
-62.675
30
0
11
-132.084619
21
-63.092997
31
0
39
0
210
0
220
0
230
1
0
LINE
5
169
100
AcDbEntity
8
SK2
62
256
6
ByLayer
370
25
48
1
60
0
100
AcDbLine
10
-132.084622
20
-62.257003
30
0
11
-132.084619
21
-63.092997
31
0
39
0
210
0
220
0
230
1
0
MTEXT
5
16A
100
AcDbEntity
8
SK2
62
256
6
ByLayer
370
18
48
1
60
0
100
AcDbMText
10
-54.860278
20
-61.55
30
0
210
0
220
0
230
1
1
\W0.6864;170.0
40
4.5
41
0
44
1.084337
50
0
71
7
72
5
7
iso_b_vert
0
ENDBLK
5
15F
100
AcDbEntity
8
0
100
AcDbBlockEnd
0
BLOCK
5
177
100
AcDbEntity
8
0
100
AcDbBlockBegin
2
DimnDraft3D2
70
0
10
0
20
0
30
0
3
DimnDraft3D2
0
MTEXT
5
16D
100
AcDbEntity
8
2
62
256
6
ByLayer
370
18
48
1
60
0
100
AcDbMText
10
15.00086
20
-30.015702
30
0
210
0
220
0
230
1
1
\W0.7246;107%%d30'
40
4.5
41
0
44
1.084337
50
306.25
71
7
72
5
7
iso_b_vert
0
LINE
5
16E
100
AcDbEntity
8
2
62
256
6
ByLayer
370
13
48
1
60
0
100
AcDbLine
10
36.09038
20
-26.425
30
0
11
36.09038
21
-47.98139
31
0
39
0
210
0
220
0
230
1
0
LINE
5
16F
100
AcDbEntity
8
2
62
256
6
ByLayer
370
13
48
1
60
0
100
AcDbLine
10
32.196794
20
-23.486145
30
0
11
13.899673
21
-17.717086
31
0
39
0
210
0
220
0
230
1
0
ARC
5
170
100
AcDbEntity
8
2
62
256
6
ByLayer
370
13
48
1
60
0
100
AcDbCircle
39
0
10
36.09038
20
-24.713788
30
0
40
21.2676020052244
210
0
220
0
230
1
100
AcDbArc
50
162.5
51
270
0
LINE
5
171
100
AcDbEntity
8
2
62
256
6
ByLayer
370
13
48
1
60
0
100
AcDbLine
10
36.09038
20
-45.98139
30
0
11
32.902016
21
-46.280846
31
0
39
0
210
0
220
0
230
1
0
LINE
5
172
100
AcDbEntity
8
2
62
256
6
ByLayer
370
13
48
1
60
0
100
AcDbLine
10
36.09038
20
-45.98139
30
0
11
32.933149
21
-45.445433
31
0
39
0
210
0
220
0
230
1
0
LINE
5
173
100
AcDbEntity
8
2
62
256
6
ByLayer
370
13
48
1
60
0
100
AcDbLine
10
32.902016
20
-46.280846
30
0
11
32.933149
21
-45.445433
31
0
39
0
210
0
220
0
230
1
0
LINE
5
174
100
AcDbEntity
8
2
62
256
6
ByLayer
370
13
48
1
60
0
100
AcDbLine
10
15.807107
20
-18.318497
30
0
11
15.368862
21
-21.490764
31
0
39
0
210
0
220
0
230
1
0
LINE
5
175
100
AcDbEntity
8
2
62
256
6
ByLayer
370
13
48
1
60
0
100
AcDbLine
10
15.807107
20
-18.318497
30
0
11
14.562751
21
-21.269248
31
0
39
0
210
0
220
0
230
1
0
LINE
5
176
100
AcDbEntity
8
2
62
256
6
ByLayer
370
13
48
1
60
0
100
AcDbLine
10
15.368862
20
-21.490764
30
0
11
14.562751
21
-21.269248
31
0
39
0
210
0
220
0
230
1
0
ENDBLK
5
178
100
AcDbEntity
8
0
100
AcDbBlockEnd
0
BLOCK
5
17B
100
AcDbEntity
8
0
100
AcDbBlockBegin
2
_CLOSED
70
0
10
0
20
0
30
0
3
_CLOSED
0
LINE
5
17D
100
AcDbEntity
8
0
62
256
6
ByLayer
370
-2
48
1
60
0
100
AcDbLine
10
-1
20
0.166667
30
0
11
0
21
0
31
0
39
0
210
0
220
0
230
1
0
LINE
5
17E
100
AcDbEntity
8
0
62
256
6
ByLayer
370
-2
48
1
60
0
100
AcDbLine
10
0
20
0
30
0
11
-1
21
-0.166667
31
0
39
0
210
0
220
0
230
1
0
LINE
5
17F
100
AcDbEntity
8
0
62
256
6
ByLayer
370
-2
48
1
60
0
100
AcDbLine
10
-1
20
0.166667
30
0
11
-1
21
-0.166667
31
0
39
0
210
0
220
0
230
1
0
LINE
5
180
100
AcDbEntity
8
0
62
256
6
ByLayer
370
-2
48
1
60
0
100
AcDbLine
10
0
20
0
30
0
11
-1
21
0
31
0
39
0
210
0
220
0
230
1
0
ENDBLK
5
17C
100
AcDbEntity
8
0
100
AcDbBlockEnd
0
BLOCK
5
18C
100
AcDbEntity
8
0
100
AcDbBlockBegin
2
DimnDraft3D3
70
0
10
0
20
0
30
0
3
DimnDraft3D3
0
MTEXT
5
182
100
AcDbEntity
8
2
62
256
6
ByLayer
370
18
48
1
60
0
100
AcDbMText
10
14.451111
20
-51.55
30
0
210
0
220
0
230
1
1
\W0.7208;36.1
40
4.5
41
0
44
1.084337
50
0
71
7
72
5
7
iso_b_vert
0
LINE
5
183
100
AcDbEntity
8
2
62
256
6
ByLayer
370
13
48
1
60
0
100
AcDbLine
10
0
20
-17.925
30
0
11
0
21
-54.675
31
0
39
0
210
0
220
0
230
1
0
LINE
5
184
100
AcDbEntity
8
2
62
256
6
ByLayer
370
13
48
1
60
0
100
AcDbLine
10
36.09038
20
-26.425
30
0
11
36.09038
21
-54.675
31
0
39
0
210
0
220
0
230
1
0
LINE
5
185
100
AcDbEntity
8
2
62
256
6
ByLayer
370
13
48
1
60
0
100
AcDbLine
10
0
20
-52.675
30
0
11
36.09038
21
-52.675
31
0
39
0
210
0
220
0
230
1
0
LINE
5
186
100
AcDbEntity
8
2
62
256
6
ByLayer
370
13
48
1
60
0
100
AcDbLine
10
0
20
-52.675
30
0
11
3.174998
21
-52.257003
31
0
39
0
210
0
220
0
230
1
0
LINE
5
187
100
AcDbEntity
8
2
62
256
6
ByLayer
370
13
48
1
60
0
100
AcDbLine
10
0
20
-52.675
30
0
11
3.175002
21
-53.092997
31
0
39
0
210
0
220
0
230
1
0
LINE
5
188
100
AcDbEntity
8
2
62
256
6
ByLayer
370
13
48
1
60
0
100
AcDbLine
10
3.174998
20
-52.257003
30
0
11
3.175002
21
-53.092997
31
0
39
0
210
0
220
0
230
1
0
LINE
5
189
100
AcDbEntity
8
2
62
256
6
ByLayer
370
13
48
1
60
0
100
AcDbLine
10
36.09038
20
-52.675
30
0
11
32.915381
21
-53.092997
31
0
39
0
210
0
220
0
230
1
0
LINE
5
18A
100
AcDbEntity
8
2
62
256
6
ByLayer
370
13
48
1
60
0
100
AcDbLine
10
36.09038
20
-52.675
30
0
11
32.915378
21
-52.257003
31
0
39
0
210
0
220
0
230
1
0
LINE
5
18B
100
AcDbEntity
8
2
62
256
6
ByLayer
370
13
48
1
60
0
100
AcDbLine
10
32.915381
20
-53.092997
30
0
11
32.915378
21
-52.257003
31
0
39
0
210
0
220
0
230
1
0
ENDBLK
5
18D
100
AcDbEntity
8
0
100
AcDbBlockEnd
0
BLOCK
5
19A
100
AcDbEntity
8
0
100
AcDbBlockBegin
2
DimnDraft3D4
70
0
10
0
20
0
30
0
3
DimnDraft3D4
0
MTEXT
5
190
100
AcDbEntity
8
2
62
256
6
ByLayer
370
18
48
1
60
0
100
AcDbMText
10
57.21538
20
-8.643421
30
0
210
0
220
0
230
1
1
\W0.7640;40.0
40
4.5
41
0
44
1.084337
50
90
71
7
72
5
7
iso_b_vert
0
LINE
5
191
100
AcDbEntity
8
2
62
256
6
ByLayer
370
13
48
1
60
0
100
AcDbLine
10
2
20
15.925
30
0
11
60.34038
21
15.925
31
0
39
0
210
0
220
0
230
1
0
LINE
5
192
100
AcDbEntity
8
2
62
256
6
ByLayer
370
13
48
1
60
0
100
AcDbLine
10
38.09038
20
-24.425
30
0
11
60.34038
21
-24.425
31
0
39
0
210
0
220
0
230
1
0
LINE
5
193
100
AcDbEntity
8
2
62
256
6
ByLayer
370
13
48
1
60
0
100
AcDbLine
10
58.34038
20
15.925
30
0
11
58.34038
21
-24.425
31
0
39
0
210
0
220
0
230
1
0
LINE
5
194
100
AcDbEntity
8
2
62
256
6
ByLayer
370
13
48
1
60
0
100
AcDbLine
10
58.34038
20
15.925
30
0
11
58.758376
21
12.750002
31
0
39
0
210
0
220
0
230
1
0
LINE
5
195
100
AcDbEntity
8
2
62
256
6
ByLayer
370
13
48
1
60
0
100
AcDbLine
10
58.34038
20
15.925
30
0
11
57.922383
21
12.749998
31
0
39
0
210
0
220
0
230
1
0
LINE
5
196
100
AcDbEntity
8
2
62
256
6
ByLayer
370
13
48
1
60
0
100
AcDbLine
10
58.758376
20
12.750002
30
0
11
57.922383
21
12.749998
31
0
39
0
210
0
220
0
230
1
0
LINE
5
197
100
AcDbEntity
8
2
62
256
6
ByLayer
370
13
48
1
60
0
100
AcDbLine
10
58.34038
20
-24.425
30
0
11
57.922383
21
-21.250002
31
0
39
0
210
0
220
0
230
1
0
LINE
5
198
100
AcDbEntity
8
2
62
256
6
ByLayer
370
13
48
1
60
0
100
AcDbLine
10
58.34038
20
-24.425
30
0
11
58.758376
21
-21.249998
31
0
39
0
210
0
220
0
230
1
0
LINE
5
199
100
AcDbEntity
8
2
62
256
6
ByLayer
370
13
48
1
60
0
100
AcDbLine
10
57.922383
20
-21.250002
30
0
11
58.758376
21
-21.249998
31
0
39
0
210
0
220
0
230
1
0
ENDBLK
5
19B
100
AcDbEntity
8
0
100
AcDbBlockEnd
0
BLOCK
5
1A8
100
AcDbEntity
8
0
100
AcDbBlockBegin
2
DimnDraft3D5
70
0
10
0
20
0
30
0
3
DimnDraft3D5
0
MTEXT
5
19E
100
AcDbEntity
8
SK2
62
256
6
ByLayer
370
18
48
1
60
0
100
AcDbMText
10
-144.13462
20
-4.156579
30
0
210
0
220
0
230
1
1
\W0.7346;32.0
40
4.5
41
0
44
1.084337
50
90
71
7
72
5
7
iso_b_vert
0
LINE
5
19F
100
AcDbEntity
8
SK2
62
256
6
ByLayer
370
13
48
1
60
0
100
AcDbLine
10
-137.25962
20
15.925
30
0
11
-145.00962
21
15.925
31
0
39
0
210
0
220
0
230
1
0
LINE
5
1A0
100
AcDbEntity
8
SK2
62
256
6
ByLayer
370
13
48
1
60
0
100
AcDbLine
10
-137.25962
20
-15.925
30
0
11
-145.00962
21
-15.925
31
0
39
0
210
0
220
0
230
1
0
LINE
5
1A1
100
AcDbEntity
8
SK2
62
256
6
ByLayer
370
13
48
1
60
0
100
AcDbLine
10
-143.00962
20
15.925
30
0
11
-143.00962
21
-15.925
31
0
39
0
210
0
220
0
230
1
0
LINE
5
1A2
100
AcDbEntity
8
SK2
62
256
6
ByLayer
370
13
48
1
60
0
100
AcDbLine
10
-143.00962
20
15.925
30
0
11
-142.591624
21
12.750002
31
0
39
0
210
0
220
0
230
1
0
LINE
5
1A3
100
AcDbEntity
8
SK2
62
256
6
ByLayer
370
13
48
1
60
0
100
AcDbLine
10
-143.00962
20
15.925
30
0
11
-143.427617
21
12.749998
31
0
39
0
210
0
220
0
230
1
0
LINE
5
1A4
100
AcDbEntity
8
SK2
62
256
6
ByLayer
370
13
48
1
60
0
100
AcDbLine
10
-142.591624
20
12.750002
30
0
11
-143.427617
21
12.749998
31
0
39
0
210
0
220
0
230
1
0
LINE
5
1A5
100
AcDbEntity
8
SK2
62
256
6
ByLayer
370
13
48
1
60
0
100
AcDbLine
10
-143.00962
20
-15.925
30
0
11
-143.427617
21
-12.750002
31
0
39
0
210
0
220
0
230
1
0
LINE
5
1A6
100
AcDbEntity
8
SK2
62
256
6
ByLayer
370
13
48
1
60
0
100
AcDbLine
10
-143.00962
20
-15.925
30
0
11
-142.591624
21
-12.749998
31
0
39
0
210
0
220
0
230
1
0
LINE
5
1A7
100
AcDbEntity
8
SK2
62
256
6
ByLayer
370
13
48
1
60
0
100
AcDbLine
10
-143.427617
20
-12.750002
30
0
11
-142.591624
21
-12.749998
31
0
39
0
210
0
220
0
230
1
0
ENDBLK
5
1A9
100
AcDbEntity
8
0
100
AcDbBlockEnd
0
ENDSEC
0
SECTION
2
ENTITIES
0
ELLIPSE
5
E2
100
AcDbEntity
8
1
62
256
6
ByLayer
370
18
48
1
60
0
100
AcDbEllipse
10
19.920817
20
-4.674929
30
0
11
2.02532457319283
21
1.22881222752899
31
0
210
0
220
0
230
1
40
0.987534
41
-0.246129575276522
42
1.32466675151839
0
ELLIPSE
5
E3
100
AcDbEntity
8
1
62
256
6
ByLayer
370
18
48
1
60
0
100
AcDbEllipse
10
18.530666
20
-31.919139
30
0
11
8.57224449081102E-16
21
14.0000000229533
31
0
210
0
220
0
230
1
40
1
41
-0.177911307695531
42
-0.0762554260314759
0
ELLIPSE
5
E4
100
AcDbEntity
8
1
62
256
6
ByLayer
370
18
48
1
60
0
100
AcDbEllipse
10
19.634619
20
-4.76414
30
0
11
2.02532457319283
21
1.22881222752899
31
0
210
0
220
0
230
1
40
0.987534
41
1.32466675151839
42
1.68413813115886
0
ELLIPSE
5
E5
100
AcDbEntity
8
1
62
256
6
ByLayer
370
18
48
1
60
0
100
AcDbEllipse
10
18.530647
20
-31.919243
30
0
11
-2.56959351580066
21
-13.7622730356591
31
0
210
0
220
0
230
1
40
0.999996
41
3.13629866876473
42
-3.13491654091486
0
ELLIPSE
5
E6
100
AcDbEntity
8
1
62
256
6
ByLayer
370
18
48
1
60
0
100
AcDbEllipse
10
24.120203
20
-19.699442
30
0
11
-1.01824126218859
21
-0.617791009951244
31
0
210
0
220
0
230
1
40
0.987534
41
0.233835969021913
42
0.713801513320374
0
ELLIPSE
5
E7
100
AcDbEntity
8
1
62
256
6
ByLayer
370
18
48
1
60
0
100
AcDbEllipse
10
29.71849
20
-10.704286
30
0
11
-1.01824126218859
21
-0.617791009951244
31
0
210
0
220
0
230
1
40
0.987534
41
-2.90775668456785
42
-2.42779114026944
0
ELLIPSE
5
E8
100
AcDbEntity
8
1
62
256
6
ByLayer
370
18
48
1
60
0
100
AcDbEllipse
10
26.400869
20
-14.347312
30
0
11
-2.20576192816673
21
-1.33828783012109
31
0
210
0
220
0
230
1
40
0.987534
41
2.94406086221519
42
-0.528675148092927
0
ELLIPSE
5
E9
100
AcDbEntity
8
1
62
256
6
ByLayer
370
18
48
1
60
0
100
AcDbEllipse
10
26.400869
20
-14.347312
30
0
11
-2.20576192816673
21
-1.33828783012109
31
0
210
0
220
0
230
1
40
0.987534
41
2.653267226551
42
2.94406086221519
0
ELLIPSE
5
EA
100
AcDbEntity
8
1
62
256
6
ByLayer
370
18
48
1
60
0
100
AcDbEllipse
10
35.298903
20
-23.638091
30
0
11
-0.67882750812573
21
-0.41186067330083
31
0
210
0
220
0
230
1
40
0.987534
41
0.713801513320348
42
2.89546307831329
0
ELLIPSE
5
EB
100
AcDbEntity
8
1
62
256
6
ByLayer
370
18
48
1
60
0
100
AcDbEllipse
10
22.36191
20
-17.929259
30
0
11
-1.01824126218859
21
-0.617791009951244
31
0
210
0
220
0
230
1
40
0.987534
41
-0.246129575276514
42
0.233835969021941
0
ELLIPSE
5
EC
100
AcDbEntity
8
1
62
256
6
ByLayer
370
18
48
1
60
0
100
AcDbEllipse
10
30.958306
20
-11.619918
30
0
11
1.01824126218859
21
0.617791009951252
31
0
210
0
220
0
230
1
40
0.987534
41
-4.44879704681047E-06
42
0.233835969021901
0
ELLIPSE
5
ED
100
AcDbEntity
8
1
62
256
6
ByLayer
370
18
48
1
60
0
100
AcDbEllipse
10
26.919346
20
-15.201864
30
0
11
2.20576192816672
21
1.3382878301211
31
0
210
0
220
0
230
1
40
0.987534
41
-2.33842919789536
42
0
0
ELLIPSE
5
EE
100
AcDbEntity
8
1
62
256
6
ByLayer
370
18
48
1
60
0
100
AcDbEllipse
10
26.919346
20
-15.201864
30
0
11
2.20576192816672
21
1.3382878301211
31
0
210
0
220
0
230
1
40
0.987534
41
0
42
0.330452171067494
0
ELLIPSE
5
EF
100
AcDbEntity
8
1
62
256
6
ByLayer
370
18
48
1
60
0
100
AcDbEllipse
10
31.476783
20
-12.47447
30
0
11
-1.01824126218859
21
-0.617791009951244
31
0
210
0
220
0
230
1
40
0.987534
41
2.89546307831326
42
-2.90775668456786
0
ELLIPSE
5
F0
100
AcDbEntity
8
1
62
256
6
ByLayer
370
18
48
1
60
0
100
AcDbEllipse
10
29.85867
20
-10.003723
30
0
11
1.36791437405684
21
0.829945941160349
31
0
210
0
220
0
230
1
40
0.987534
41
2.69989446062597E-06
42
0.713801513320362
0
ELLIPSE
5
F1
100
AcDbEntity
8
1
62
256
6
ByLayer
370
18
48
1
60
0
100
AcDbEllipse
10
30.21895
20
-10.597536
30
0
11
-1.36791437405688
21
-0.829945941160363
31
0
210
0
220
0
230
1
40
0.987534
41
2.89546307831328
42
-2.42779114026942
0
ELLIPSE
5
F2
100
AcDbEntity
8
1
62
256
6
ByLayer
370
18
48
1
60
0
100
AcDbEllipse
10
22.582788
20
-18.097089
30
0
11
-1.36791437405688
21
-0.829945941160363
31
0
210
0
220
0
230
1
40
0.987534
41
-0.246129575276541
42
0.713801513320317
0
ELLIPSE
5
F3
100
AcDbEntity
8
1
62
256
6
ByLayer
370
18
48
1
60
0
100
AcDbEllipse
10
22.222508
20
-17.503276
30
0
11
1.36791437405686
21
0.82994594116036
31
0
210
0
220
0
230
1
40
0.987534
41
2.97243732768852
42
-3.14158995369538
0
ELLIPSE
5
F4
100
AcDbEntity
8
1
62
256
6
ByLayer
370
18
48
1
60
0
100
AcDbEllipse
10
10.536293
20
-10.067812
30
0
11
4.89277460366356
21
-2.51212194722806
31
0
210
0
220
0
230
1
40
0.083175
41
-2.42477914533361
42
-1.9830114060476
0
ELLIPSE
5
F5
100
AcDbEntity
8
1
62
256
6
ByLayer
370
18
48
1
60
0
100
AcDbEllipse
10
10.983735
20
-2.856609
30
0
11
1.78229485211196
21
0.907427716204003
31
0
210
0
220
0
230
1
40
0.754402
41
0.707667574872075
42
2.12034306913166
0
ELLIPSE
5
F6
100
AcDbEntity
8
1
62
256
6
ByLayer
370
18
48
1
60
0
100
AcDbEllipse
10
13.108013
20
-8.73014
30
0
11
-2.14747379234473
21
-1.46572722946412
31
0
210
0
220
0
230
1
40
0.985051
41
-1.1673853428627
42
-0.976435586114998
0
ELLIPSE
5
F7
100
AcDbEntity
8
1
62
256
6
ByLayer
370
18
48
1
60
0
100
AcDbEllipse
10
8.74298
20
-13.768048
30
0
11
-3.20123336172568
21
1.42694053829673
31
0
210
0
220
0
230
1
40
0.288972
41
-0.612366121437545
42
0.110851984962381
0
ELLIPSE
5
F8
100
AcDbEntity
8
1
62
256
6
ByLayer
370
18
48
1
60
0
100
AcDbEllipse
10
6.695196
20
-11.772546
30
0
11
2.47785437578237
21
1.69122372630477
31
0
210
0
220
0
230
1
40
0.985051
41
0.187906387138305
42
0.503892937168479
0
ELLIPSE
5
F9
100
AcDbEntity
8
1
62
256
6
ByLayer
370
18
48
1
60
0
100
AcDbEllipse
10
27.259131
20
-15.649841
30
0
11
-1.98081428046015
21
-0.965820039335611
31
0
210
0
220
0
230
1
40
0.772193
41
1.34318189257468
42
2.19839322605006
0
ELLIPSE
5
FA
100
AcDbEntity
8
1
62
256
6
ByLayer
370
18
48
1
60
0
100
AcDbEllipse
10
7.9375
20
2.004032
30
0
11
6.22716767738999
21
-3.19724611465389
31
0
210
0
220
0
230
1
40
0.083175
41
0.797732830958271
42
0.812513867698242
0
ELLIPSE
5
FB
100
AcDbEntity
8
1
62
256
6
ByLayer
370
18
48
1
60
0
100
AcDbEllipse
10
12.977044
20
-4.391782
30
0
11
-1.36821212671715
21
4.30827792689427
31
0
210
0
220
0
230
1
40
0.535969
41
-0.479772778851382
42
-0.120157045494463
0
ELLIPSE
5
FC
100
AcDbEntity
8
1
62
256
6
ByLayer
370
18
48
1
60
0
100
AcDbEllipse
10
27.259131
20
-15.649841
30
0
11
-0.828181793172459
21
-2.22415169506292
31
0
210
0
220
0
230
1
40
0.796311
41
1.56563282528789
42
2.42084415876601
0
ELLIPSE
5
FD
100
AcDbEntity
8
1
62
256
6
ByLayer
370
18
48
1
60
0
100
AcDbEllipse
10
6.93639
20
-9.639688
30
0
11
-2.92945150970589
21
-0.689729554876143
31
0
210
0
220
0
230
1
40
0.988643
41
-0.699939923664036
42
0.351749139402066
0
ELLIPSE
5
FE
100
AcDbEntity
8
1
62
256
6
ByLayer
370
18
48
1
60
0
100
AcDbEllipse
10
14.811862
20
-1.947893
30
0
11
-3.0105310055173
21
1.79612634092177
31
0
210
0
220
0
230
1
40
0.454664
41
-0.0978252986103538
42
0.625392807790163
0
ELLIPSE
5
FF
100
AcDbEntity
8
1
62
256
6
ByLayer
370
18
48
1
60
0
100
AcDbEllipse
10
10.759791
20
-2.19298
30
0
11
-2.92945150970145
21
-0.689729554921733
31
0
210
0
220
0
230
1
40
0.988643
41
-1.75162898674312
42
-0.699939923677416
0
ELLIPSE
5
100
100
AcDbEntity
8
1
62
256
6
ByLayer
370
18
48
1
60
0
100
AcDbEllipse
10
9.153643
20
-11.83849
30
0
11
-3.93305561333155
21
0.079702504275585
31
0
210
0
220
0
230
1
40
0.449589
41
0.399114564338762
42
0.758730297689356
0
ELLIPSE
5
101
100
AcDbEntity
8
1
62
256
6
ByLayer
370
18
48
1
60
0
100
AcDbEllipse
10
13.90254
20
-3.511482
30
0
11
-4.80255052859544
21
2.68705288342048
31
0
210
0
220
0
230
1
40
0.320139
41
0.5549152066288
42
0.607907524596605
0
ELLIPSE
5
102
100
AcDbEntity
8
1
62
256
6
ByLayer
370
18
48
1
60
0
100
AcDbEllipse
10
7.154392
20
-10.314891
30
0
11
0.0580607836851641
21
1.99915705871196
31
0
210
0
220
0
230
1
40
0.807679
41
1.25118760271146
42
2.66386309697107
0
ELLIPSE
5
103
100
AcDbEntity
8
1
62
256
6
ByLayer
370
18
48
1
60
0
100
AcDbEllipse
10
14.993265
20
-9.667948
30
0
11
-3.42769855316562
21
-2.33952615472157
31
0
210
0
220
0
230
1
40
0.985051
41
0.503892937168486
42
-2.986023797023
0
ELLIPSE
5
104
100
AcDbEntity
8
1
62
256
6
ByLayer
370
18
48
1
60
0
100
AcDbEllipse
10
9.53691
20
-12.014274
30
0
11
-4.97535310228235
21
2.35112925226419
31
0
210
0
220
0
230
1
40
0.153994
41
-0.601516489461169
42
-0.54852417739043
0
ELLIPSE
5
105
100
AcDbEntity
8
1
62
256
6
ByLayer
370
18
48
1
60
0
100
AcDbEllipse
10
12.903161
20
-5.457945
30
0
11
4.89277460366356
21
-2.51212194722806
31
0
210
0
220
0
230
1
40
0.083175
41
-2.42477914533366
42
-1.98301140604761
0
ELLIPSE
5
106
100
AcDbEntity
8
1
62
256
6
ByLayer
370
18
48
1
60
0
100
AcDbEllipse
10
13.178821
20
-8.765363
30
0
11
3.42769855316561
21
2.3395261547216
31
0
210
0
220
0
230
1
40
0.985051
41
-2.92501275660842
42
-2.6376997164213
0
ELLIPSE
5
107
100
AcDbEntity
8
1
62
256
6
ByLayer
370
18
48
1
60
0
100
AcDbEllipse
10
14.378355
20
-9.404572
30
0
11
0.983188456353382
21
0.596523645209017
31
0
210
0
220
0
230
1
40
0.987534
41
-3.1069412339707
42
-0.0345619915316776
0
ELLIPSE
5
108
100
AcDbEntity
8
1
62
256
6
ByLayer
370
18
48
1
60
0
100
AcDbEllipse
10
15.600899
20
-9.001458
30
0
11
-0.32487966383851
21
-0.197112161025586
31
0
210
0
220
0
230
1
40
0.987534
41
1.75724481403987
42
-1.69099860395478
0
ELLIPSE
5
109
100
AcDbEntity
8
1
62
256
6
ByLayer
370
18
48
1
60
0
100
AcDbEllipse
10
14.480853
20
-10.713172
30
0
11
-0.32487966383851
21
-0.197112161025586
31
0
210
0
220
0
230
1
40
0.987534
41
0.342171625757639
42
2.49779160083164
0
ELLIPSE
5
10A
100
AcDbEntity
8
1
62
256
6
ByLayer
370
18
48
1
60
0
100
AcDbEllipse
10
15.27883
20
-10.787148
30
0
11
0.363352255608859
21
0.220454390620724
31
0
210
0
220
0
230
1
40
0.987534
41
0.710047262843316
42
2.49779160083164
0
ELLIPSE
5
10B
100
AcDbEntity
8
1
62
256
6
ByLayer
370
18
48
1
60
0
100
AcDbEllipse
10
13.498741
20
-10.372902
30
0
11
-0.32487966383851
21
-0.197112161025586
31
0
210
0
220
0
230
1
40
0.987534
41
-1.38434783954993
42
1.45059404963504
0
ELLIPSE
5
10C
100
AcDbEntity
8
1
62
256
6
ByLayer
370
18
48
1
60
0
100
AcDbEllipse
10
15.470259
20
-8.786138
30
0
11
-0.32487966383851
21
-0.197112161025586
31
0
210
0
220
0
230
1
40
0.987534
41
1.75724481403997
42
2.79939683891876
0
ELLIPSE
5
10D
100
AcDbEntity
8
1
62
256
6
ByLayer
370
18
48
1
60
0
100
AcDbEllipse
10
14.611492
20
-10.928492
30
0
11
-0.32487966383851
21
-0.197112161025586
31
0
210
0
220
0
230
1
40
0.987534
41
-0.337150288353343
42
2.49779160083161
0
ELLIPSE
5
10E
100
AcDbEntity
8
1
62
256
6
ByLayer
370
18
48
1
60
0
100
AcDbEllipse
10
14.41918
20
-9.47186
30
0
11
0.983188456353382
21
0.596523645209017
31
0
210
0
220
0
230
1
40
0.987534
41
1.03099459893183
42
1.29806276022126
0
ELLIPSE
5
10F
100
AcDbEntity
8
1
62
256
6
ByLayer
370
18
48
1
60
0
100
AcDbEllipse
10
14.41918
20
-9.47186
30
0
11
0.983188456353382
21
0.596523645209017
31
0
210
0
220
0
230
1
40
0.987534
41
1.92166900288682
42
2.5885704872537
0
ELLIPSE
5
110
100
AcDbEntity
8
1
62
256
6
ByLayer
370
18
48
1
60
0
100
AcDbEllipse
10
14.41918
20
-9.47186
30
0
11
0.983188456353382
21
0.596523645209017
31
0
210
0
220
0
230
1
40
0.987534
41
3.0000200745046
42
0
0
ELLIPSE
5
111
100
AcDbEntity
8
1
62
256
6
ByLayer
370
18
48
1
60
0
100
AcDbEllipse
10
14.41918
20
-9.47186
30
0
11
0.983188456353382
21
0.596523645209017
31
0
210
0
220
0
230
1
40
0.987534
41
0
42
0.189865462697476
0
ELLIPSE
5
112
100
AcDbEntity
8
1
62
256
6
ByLayer
370
18
48
1
60
0
100
AcDbEllipse
10
14.41918
20
-9.47186
30
0
11
0.983188456353382
21
0.596523645209017
31
0
210
0
220
0
230
1
40
0.987534
41
0.634989872114795
42
1.03099459893183
0
ELLIPSE
5
113
100
AcDbEntity
8
1
62
256
6
ByLayer
370
18
48
1
60
0
100
AcDbEllipse
10
12.835309
20
-9.567113
30
0
11
0.363352255608859
21
0.220454390620724
31
0
210
0
220
0
230
1
40
0.987534
41
-1.88105428935523E-05
42
0.403396498438464
0
ELLIPSE
5
114
100
AcDbEntity
8
1
62
256
6
ByLayer
370
18
48
1
60
0
100
AcDbEllipse
10
13.825598
20
-11.097722
30
0
11
0.363352255608859
21
0.220454390620724
31
0
210
0
220
0
230
1
40
0.987534
41
-0.337150288353335
42
1.45059404963511
0
ELLIPSE
5
115
100
AcDbEntity
8
1
62
256
6
ByLayer
370
18
48
1
60
0
100
AcDbEllipse
10
15.531932
20
-10.02745
30
0
11
-0.32487966383851
21
-0.197112161025586
31
0
210
0
220
0
230
1
40
0.987534
41
0.710047262843204
42
2.79935548313875
0
ELLIPSE
5
116
100
AcDbEntity
8
1
62
256
6
ByLayer
370
18
48
1
60
0
100
AcDbEllipse
10
16.133691
20
-9.591926
30
0
11
0.363352255608859
21
0.220454390620724
31
0
210
0
220
0
230
1
40
0.987534
41
1.75724481403995
42
-2.73819615515133
0
ELLIPSE
5
117
100
AcDbEntity
8
1
62
256
6
ByLayer
370
18
48
1
60
0
100
AcDbEllipse
10
15.40947
20
-11.002468
30
0
11
0.363352255608859
21
0.220454390620724
31
0
210
0
220
0
230
1
40
0.987534
41
0.710047262843298
42
2.49779160083167
0
ELLIPSE
5
118
100
AcDbEntity
8
1
62
256
6
ByLayer
370
18
48
1
60
0
100
AcDbEllipse
10
15.143402
20
-8.061318
30
0
11
0.363352255608859
21
0.220454390620724
31
0
210
0
220
0
230
1
40
0.987534
41
2.80444236523647
42
-3.14158584376969
0
ELLIPSE
5
119
100
AcDbEntity
8
1
62
256
6
ByLayer
370
18
48
1
60
0
100
AcDbEllipse
10
14.489886
20
-9.588396
30
0
11
-3.41978593514221
21
-2.07486485290091
31
0
210
0
220
0
230
1
40
0.987534
41
0
42
6.28318530717959
0
ELLIPSE
5
11A
100
AcDbEntity
8
1
62
256
6
ByLayer
370
18
48
1
60
0
100
AcDbEllipse
10
12.965949
20
-9.782433
30
0
11
0.363352255608859
21
0.220454390620724
31
0
210
0
220
0
230
1
40
0.987534
41
-1.3843478395499
42
0.403396498438519
0
ELLIPSE
5
11B
100
AcDbEntity
8
1
62
256
6
ByLayer
370
18
48
1
60
0
100
AcDbEllipse
10
13.694959
20
-10.882401
30
0
11
0.363352255608859
21
0.220454390620724
31
0
210
0
220
0
230
1
40
0.987534
41
6.81496151173516E-06
42
1.45059404963511
0
ELLIPSE
5
11C
100
AcDbEntity
8
1
62
256
6
ByLayer
370
18
48
1
60
0
100
AcDbEllipse
10
13.437068
20
-9.13159
30
0
11
-0.32487966383851
21
-0.197112161025586
31
0
210
0
220
0
230
1
40
0.987534
41
-2.43154539074657
42
0.403396498438495
0
ELLIPSE
5
11D
100
AcDbEntity
8
1
62
256
6
ByLayer
370
18
48
1
60
0
100
AcDbEllipse
10
15.662572
20
-10.24277
30
0
11
-0.32487966383851
21
-0.197112161025586
31
0
210
0
220
0
230
1
40
0.987534
41
0.710047262843097
42
-2.7381961551513
0
ELLIPSE
5
11E
100
AcDbEntity
8
1
62
256
6
ByLayer
370
18
48
1
60
0
100
AcDbEllipse
10
13.368101
20
-10.157582
30
0
11
-0.32487966383851
21
-0.197112161025586
31
0
210
0
220
0
230
1
40
0.987534
41
0.342174994296142
42
1.45059404963492
0
ELLIPSE
5
11F
100
AcDbEntity
8
1
62
256
6
ByLayer
370
18
48
1
60
0
100
AcDbEllipse
10
16.003051
20
-9.376606
30
0
11
0.363352255608859
21
0.220454390620724
31
0
210
0
220
0
230
1
40
0.987534
41
1.75724481403986
42
3.14157244993309
0
ELLIPSE
5
120
100
AcDbEntity
8
1
62
256
6
ByLayer
370
18
48
1
60
0
100
AcDbEllipse
10
13.306429
20
-8.91627
30
0
11
-0.32487966383851
21
-0.197112161025586
31
0
210
0
220
0
230
1
40
0.987534
41
0.342180053776458
42
0.403396498438459
0
ELLIPSE
5
121
100
AcDbEntity
8
1
62
256
6
ByLayer
370
18
48
1
60
0
100
AcDbEllipse
10
14.54982
20
-9.68718
30
0
11
-1.96637691270677
21
-1.19304729041802
31
0
210
0
220
0
230
1
40
0.987534
41
0
42
6.28318530717959
0
ELLIPSE
5
122
100
AcDbEntity
8
1
62
256
6
ByLayer
370
18
48
1
60
0
100
AcDbEllipse
10
14.488148
20
-8.445868
30
0
11
-0.32487966383851
21
-0.197112161025586
31
0
210
0
220
0
230
1
40
0.987534
41
2.80444236523643
42
-0.643801052758141
0
ELLIPSE
5
123
100
AcDbEntity
8
1
62
256
6
ByLayer
370
18
48
1
60
0
100
AcDbEllipse
10
13.69017
20
-8.371891
30
0
11
0.363352255608859
21
0.220454390620724
31
0
210
0
220
0
230
1
40
0.987534
41
-2.43154539074643
42
-0.643801052758131
0
ELLIPSE
5
124
100
AcDbEntity
8
1
62
256
6
ByLayer
370
18
48
1
60
0
100
AcDbEllipse
10
14.35386
20
-9.3642
30
0
11
3.4197859351422
21
2.07486485290093
31
0
210
0
220
0
230
1
40
0.987534
41
1.03099478432214
42
3.14158845937582
0
ELLIPSE
5
125
100
AcDbEntity
8
1
62
256
6
ByLayer
370
18
48
1
60
0
100
AcDbEllipse
10
14.35386
20
-9.3642
30
0
11
3.4197859351422
21
2.07486485290093
31
0
210
0
220
0
230
1
40
0.987534
41
9.38865616476882E-05
42
1.03099453349996
0
ELLIPSE
5
126
100
AcDbEntity
8
1
62
256
6
ByLayer
370
18
48
1
60
0
100
AcDbEllipse
10
15.274042
20
-8.276638
30
0
11
0.363352255608859
21
0.220454390620724
31
0
210
0
220
0
230
1
40
0.987534
41
2.80444236523651
42
-1.69099860395478
0
ELLIPSE
5
127
100
AcDbEntity
8
1
62
256
6
ByLayer
370
18
48
1
60
0
100
AcDbEllipse
10
26.154973
20
-14.053701
30
0
11
2.32972916831562
21
1.41350168103876
31
0
210
0
220
0
230
1
40
0.987534
41
-0.569025223437119
42
-0.323882768359771
0
POINT
5
6C
100
AcDbEntity
8
2
62
256
6
ByLayer
370
18
48
1
60
0
100
AcDbPoint
10
36.09038
20
56.275
30
0
39
0
210
0
220
0
230
1
50
360
0
POINT
5
6E
100
AcDbEntity
8
80
62
256
6
ByLayer
370
18
48
1
60
0
100
AcDbPoint
10
0
20
0
30
0
39
0
210
0
220
0
230
1
50
360
0
POINT
5
70
100
AcDbEntity
8
81
62
256
6
ByLayer
370
18
48
1
60
0
100
AcDbPoint
10
36.09038
20
-24.425
30
0
39
0
210
0
220
0
230
1
50
360
0
SPLINE
5
128
100
AcDbEntity
8
1
62
256
6
ByLayer
370
18
48
1
60
0
100
AcDbSpline
70
4
71
3
72
8
73
4
40
0
40
0
40
0
40
0
40
1
40
1
40
1
40
1
41
1
10
14.2466700274995
20
-13.9937464288779
30
0
41
1
10
13.967773748569
20
-13.9151972546092
30
0
41
1
10
13.7005226805472
20
-13.8126728279778
30
0
41
1
10
13.4455545898403
20
-13.6853688056073
30
0
0
SPLINE
5
129
100
AcDbEntity
8
1
62
256
6
ByLayer
370
18
48
1
60
0
100
AcDbSpline
70
4
71
3
72
8
73
4
40
0
40
0
40
0
40
0
40
1
40
1
40
1
40
1
41
1
10
9.83082425400386
20
-10.9225621533909
30
0
41
1
10
10.1689411722256
20
-11.710259779836
30
0
41
1
10
10.7969690272727
20
-12.3629460868568
30
0
41
1
10
11.6242943645842
20
-12.7760246134943
30
0
0
SPLINE
5
12A
100
AcDbEntity
8
1
62
256
6
ByLayer
370
18
48
1
60
0
100
AcDbSpline
70
4
71
3
72
8
73
4
40
0
40
0
40
0
40
0
40
1
40
1
40
1
40
1
41
1
10
9.83082425400391
20
-10.922562153391
30
0
41
1
10
9.80318090401641
20
-10.8581625330271
30
0
41
1
10
9.7724081089375
20
-10.7941470093719
30
0
41
1
10
9.73840815203926
20
-10.7306312346792
30
0
0
SPLINE
5
12B
100
AcDbEntity
8
1
62
256
6
ByLayer
370
18
48
1
60
0
100
AcDbSpline
70
4
71
3
72
8
73
4
40
0
40
0
40
0
40
0
40
1
40
1
40
1
40
1
41
1
10
13.128436807967
20
-15.4478733498927
30
0
41
1
10
13.3846166575273
20
-15.2455707717351
30
0
41
1
10
13.7836333373624
20
-14.726697895593
30
0
41
1
10
14.2466700421777
20
-13.9937464330119
30
0
0
SPLINE
5
12C
100
AcDbEntity
8
1
62
256
6
ByLayer
370
18
48
1
60
0
100
AcDbSpline
70
4
71
3
72
10
73
6
40
0
40
0
40
0
40
0
40
0.5
40
0.5
40
1
40
1
40
1
40
1
41
1
10
11.8954849853679
20
-0.0266658889399309
30
0
41
1
10
11.4390373260658
20
-0.065985581069441
30
0
41
1
10
11.0796146837378
20
-0.250999817104429
30
0
41
1
10
10.2240608251763
20
-0.888831724089357
30
0
41
1
10
9.72217691108716
20
-1.41431371664822
30
0
41
1
10
9.36740521310645
20
-2.03769103747408
30
0
0
SPLINE
5
12D
100
AcDbEntity
8
1
62
256
6
ByLayer
370
18
48
1
60
0
100
AcDbSpline
70
4
71
3
72
10
73
6
40
0
40
0
40
0
40
0
40
0.655488757716276
40
0.655488757716276
40
1
40
1
40
1
40
1
41
1
10
12.4128415482621
20
0.181401791752677
30
0
41
1
10
12.09966839683
20
0.374686731247948
30
0
41
1
10
11.7288464520826
20
0.554272317415268
30
0
41
1
10
11.0923610362191
20
0.725773176986166
30
0
41
1
10
10.8576480399556
20
0.766611875513007
30
0
41
1
10
10.6158718697685
20
0.780024910348942
30
0
0
SPLINE
5
12E
100
AcDbEntity
8
1
62
256
6
ByLayer
370
18
48
1
60
0
100
AcDbSpline
70
4
71
3
72
8
73
4
40
0
40
0
40
0
40
0
40
1
40
1
40
1
40
1
41
1
10
22.2834454251886
20
-18.2620130239009
30
0
41
1
10
22.3861540144838
20
-18.2901253480449
30
0
41
1
10
22.4898215286627
20
-18.3158953872614
30
0
41
1
10
22.5942641324455
20
-18.3394992477374
30
0
0
SPLINE
5
12F
100
AcDbEntity
8
1
62
256
6
ByLayer
370
18
48
1
60
0
100
AcDbSpline
70
4
71
3
72
10
73
6
40
0
40
0
40
0
40
0
40
0.5
40
0.5
40
1
40
1
40
1
40
1
41
1
10
25.506488577494
20
-12.6364347004082
30
0
41
1
10
25.9474221697833
20
-12.3432439530997
30
0
41
1
10
26.4021805506984
20
-12.1131357480693
30
0
41
1
10
27.3951023022409
20
-12.033496497788
30
0
41
1
10
27.9379557776155
20
-12.2147167062941
30
0
41
1
10
28.3982502066249
20
-12.7816401983392
30
0
0
SPLINE
5
130
100
AcDbEntity
8
1
62
256
6
ByLayer
370
18
48
1
60
0
100
AcDbSpline
70
4
71
3
72
11
73
7
40
0
40
0
40
0
40
0
40
0.423407924939444
40
0.740963868644027
40
0.899741840496319
40
1
40
1
40
1
40
1
41
1.02805999725224
10
18.6610303459309
20
-4.67222880572067
30
0
41
1.02767136955277
10
19.3748793353423
20
-5.1575034150222
30
0
41
1.02349884684923
10
21.4903804612331
20
-7.65827557078267
30
0
41
1.01876555595691
10
23.9602212305516
20
-11.0468154705705
30
0
41
1.01635405201137
10
24.9042716138235
20
-12.3002806970667
30
0
41
1.01722454828226
10
25.3266531179384
20
-12.5439430666272
30
0
41
1.01774327987904
10
25.5064885774945
20
-12.6364347004085
30
0
0
SPLINE
5
131
100
AcDbEntity
8
1
62
256
6
ByLayer
370
18
48
1
60
0
100
AcDbSpline
70
4
71
3
72
8
73
4
40
0
40
0
40
0
40
0
40
1
40
1
40
1
40
1
41
1
10
6.36046054136921
20
-12.0686638195664
30
0
41
1
10
7.10890674745428
20
-11.9705204745507
30
0
41
1
10
8.37717677461234
20
-11.4325653812228
30
0
41
1
10
9.73840815203425
20
-10.7306312346721
30
0
0
SPLINE
5
132
100
AcDbEntity
8
1
62
256
6
ByLayer
370
18
48
1
60
0
100
AcDbSpline
70
4
71
3
72
8
73
4
40
0
40
0
40
0
40
0
40
1
40
1
40
1
40
1
41
1
10
27.316074715049
20
-17.4211223925362
30
0
41
1
10
27.2314368200816
20
-17.4404068836146
30
0
41
1
10
27.1476912446855
20
-17.4558597901147
30
0
41
1
10
27.0663249130661
20
-17.4673540090454
30
0
0
SPLINE
5
133
100
AcDbEntity
8
1
62
256
6
ByLayer
370
18
48
1
60
0
100
AcDbSpline
70
4
71
3
72
12
73
8
40
0
40
0
40
0
40
0
40
0.466938972358616
40
0.466938972358616
40
0.928803236876552
40
0.928803236876552
40
1
40
1
40
1
40
1
41
1
10
9.73840815203926
20
-10.7306312346792
30
0
41
1
10
9.65834619923203
20
-10.5810664287246
30
0
41
1
10
9.55412900751276
20
-10.4287206192201
30
0
41
1
10
9.32259262041362
20
-10.1510216584879
30
0
41
1
10
9.1927643505943
20
-10.0213337234484
30
0
41
1
10
9.03891908583512
20
-9.88784789851383
30
0
41
1
10
9.01806366058349
20
-9.87015349748896
30
0
41
1
10
8.99711454523833
20
-9.85275722098004
30
0
0
SPLINE
5
134
100
AcDbEntity
8
1
62
256
6
ByLayer
370
18
48
1
60
0
100
AcDbSpline
70
4
71
2
72
6
73
3
40
0
40
0
40
0
40
1
40
1
40
1
41
1.02805999725224
10
13.128436807967
20
-15.4478733498927
30
0
41
1.02805999725224
10
12.752360979673
20
-15.744856542666
30
0
41
1.02805999725224
10
12.3762851513791
20
-16.0418397354394
30
0
0
SPLINE
5
135
100
AcDbEntity
8
1
62
256
6
ByLayer
370
18
48
1
60
0
100
AcDbSpline
70
4
71
3
72
12
73
8
40
0
40
0
40
0
40
0
40
0.286978363858294
40
0.286978363858294
40
0.569998995185616
40
0.569998995185616
40
1
40
1
40
1
40
1
41
1
10
18.4293601451476
20
-12.952493071369
30
0
41
1
10
18.5901964773608
20
-12.7823032128694
30
0
41
1
10
18.7376453106913
20
-12.5983527348125
30
0
41
1
10
18.9978957438659
20
-12.2135297671301
30
0
41
1
10
19.112041243477
20
-12.0116050068609
30
0
41
1
10
19.3550782980725
20
-11.4875096903613
30
0
41
1
10
19.4631132530959
20
-11.1525132044994
30
0
41
1
10
19.5275896112893
20
-10.8135088366038
30
0
0
SPLINE
5
136
100
AcDbEntity
8
1
62
256
6
ByLayer
370
18
48
1
60
0
100
AcDbSpline
70
4
71
3
72
8
73
4
40
0
40
0
40
0
40
0
40
1
40
1
40
1
40
1
41
1
10
9.46906940350601
20
-2.18396439993308
30
0
41
1
10
9.9737664084227
20
-2.87694622281572
30
0
41
1
10
10.6823694669424
20
-3.96088519603538
30
0
41
1
10
11.4286826771503
20
-5.11687454775884
30
0
0
SPLINE
5
137
100
AcDbEntity
8
1
62
256
6
ByLayer
370
18
48
1
60
0
100
AcDbSpline
70
4
71
3
72
15
73
11
40
0
40
0
40
0
40
0
40
0.322163720426462
40
0.322163720426462
40
0.644833452600232
40
0.644833452600232
40
0.91223345590456
40
0.91223345590456
40
0.91223345590456
40
1
40
1
40
1
40
1
41
1
10
14.2466700421777
20
-13.9937464330119
30
0
41
1
10
14.7132633646327
20
-14.1241820925468
30
0
41
1
10
15.2088146865548
20
-14.1756693684557
30
0
41
1
10
16.1740021869932
20
-14.1259799266497
30
0
41
1
10
16.6575404220565
20
-14.0238305535994
30
0
41
1
10
17.4746649384632
20
-13.6948997966399
30
0
41
1
10
17.8292281221396
20
-13.4873681338685
30
0
41
1
10
18.137181562154
20
-13.2281732284609
30
0
41
1
10
18.2395218275228
20
-13.1420365858552
30
0
41
1
10
18.3373431405675
20
-13.0498509717292
30
0
41
1
10
18.4293601451485
20
-12.952493071369
30
0
0
SPLINE
5
138
100
AcDbEntity
8
1
62
256
6
ByLayer
370
18
48
1
60
0
100
AcDbSpline
70
4
71
3
72
10
73
6
40
0
40
0
40
0
40
0
40
0.5
40
0.5
40
1
40
1
40
1
40
1
41
1
10
25.7943109915583
20
-17.853244175525
30
0
41
1
10
25.0378138140677
20
-17.8882018256853
30
0
41
1
10
24.5055487261694
20
-17.6706695449276
30
0
41
1
10
23.8742180141976
20
-17.0550121369429
30
0
41
1
10
23.7319650565722
20
-16.6588828558751
30
0
41
1
10
23.6543305749431
20
-16.2438199417199
30
0
0
SPLINE
5
139
100
AcDbEntity
8
1
62
256
6
ByLayer
370
18
48
1
60
0
100
AcDbSpline
70
4
71
3
72
8
73
4
40
0
40
0
40
0
40
0
40
1
40
1
40
1
40
1
41
1
10
27.9310072401067
20
-11.6397657821385
30
0
41
1
10
28.0870226666755
20
-12.0199164231308
30
0
41
1
10
28.2430447794662
20
-12.4012068501251
30
0
41
1
10
28.3982502066249
20
-12.7816401983391
30
0
0
SPLINE
5
13A
100
AcDbEntity
8
1
62
256
6
ByLayer
370
18
48
1
60
0
100
AcDbSpline
70
4
71
2
72
6
73
3
40
0
40
0
40
0
40
1
40
1
40
1
41
1
10
26.9160258394981
20
-9.92205259340011
30
0
41
1
10
27.4707206804489
20
-10.7628886470173
30
0
41
1
10
27.9309729632119
20
-11.6396498965883
30
0
0
SPLINE
5
13B
100
AcDbEntity
8
1
62
256
6
ByLayer
370
18
48
1
60
0
100
AcDbSpline
70
4
71
3
72
8
73
4
40
0
40
0
40
0
40
0
40
1
40
1
40
1
40
1
41
1
10
9.33429455496565
20
-2.09890629791661
30
0
41
1
10
9.34500047042604
20
-2.07805474995286
30
0
41
1
10
9.35604242358659
20
-2.05765685021601
30
0
41
1
10
9.36740521310645
20
-2.03769103747405
30
0
0
SPLINE
5
13C
100
AcDbEntity
8
1
62
256
6
ByLayer
370
18
48
1
60
0
100
AcDbSpline
70
4
71
3
72
8
73
4
40
0
40
0
40
0
40
0
40
1
40
1
40
1
40
1
41
1
10
17.9453808564771
20
-6.78989298564014
30
0
41
1
10
18.3144821627742
20
-5.90211750376758
30
0
41
1
10
18.5698457793583
20
-5.14647610156715
30
0
41
1
10
18.6610303459308
20
-4.67222880572066
30
0
0
SPLINE
5
13D
100
AcDbEntity
8
1
62
256
6
ByLayer
370
18
48
1
60
0
100
AcDbSpline
70
4
71
3
72
8
73
4
40
0
40
0
40
0
40
0
40
1
40
1
40
1
40
1
41
1
10
17.9453808400419
20
-6.78989300390091
30
0
41
1
10
17.7233367617296
20
-6.61286030779993
30
0
41
1
10
17.4799253865904
20
-6.45537401268229
30
0
41
1
10
17.2234388873934
20
-6.32731185815558
30
0
0
SPLINE
5
13E
100
AcDbEntity
8
1
62
256
6
ByLayer
370
18
48
1
60
0
100
AcDbSpline
70
4
71
3
72
10
73
6
40
0
40
0
40
0
40
0
40
0.5
40
0.5
40
1
40
1
40
1
40
1
41
1
10
5.48025476552527
20
-9.60856195460087
30
0
41
1
10
5.17580635776517
20
-10.2692872510152
30
0
41
1
10
5.07205824818118
20
-10.9184103161532
30
0
41
1
10
5.13064157949731
20
-11.8413468256517
30
0
41
1
10
5.23913338209604
20
-12.1450529412765
30
0
41
1
10
5.51577963241743
20
-12.4522013468088
30
0
0
SPLINE
5
13F
100
AcDbEntity
8
1
62
256
6
ByLayer
370
18
48
1
60
0
100
AcDbSpline
70
4
71
2
72
6
73
3
40
0
40
0
40
0
40
1
40
1
40
1
41
1
10
24.5989516567445
20
-18.1293572206756
30
0
41
1
10
23.6094992056292
20
-18.2824927374458
30
0
41
1
10
22.594308741669
20
-18.339313983366
30
0
0
SPLINE
5
140
100
AcDbEntity
8
1
62
256
6
ByLayer
370
18
48
1
60
0
100
AcDbSpline
70
4
71
3
72
8
73
4
40
0
40
0
40
0
40
0
40
1
40
1
40
1
40
1
41
1
10
5.51089357912878
20
-9.54561453389181
30
0
41
1
10
5.50018766366844
20
-9.56646608185554
30
0
41
1
10
5.48998246497803
20
-9.58745053821454
30
0
41
1
10
5.48025476552522
20
-9.60856195460087
30
0
0
SPLINE
5
141
100
AcDbEntity
8
1
62
256
6
ByLayer
370
18
48
1
60
0
100
AcDbSpline
70
4
71
3
72
12
73
8
40
0
40
0
40
0
40
0
40
0.108853988607133
40
0.502629237162308
40
0.699516861439896
40
0.896404485717484
40
1
40
1
40
1
40
1
41
1.02441262532206
10
19.5275896112894
20
-10.8135088366038
30
0
41
1.02394775682001
10
19.819918635638
20
-10.9858741845011
30
0
41
1.02173322384668
10
21.2018008885811
20
-11.8043981339244
30
0
41
1.01876555595691
10
23.1367120482877
20
-12.9659303927099
30
0
41
1.01610930227499
10
24.4273113248395
20
-13.7515376395082
30
0
41
1.01814069306376
10
25.0674478478932
20
-14.0307336171228
30
0
41
1.02005196006971
10
25.6299006665298
20
-14.2933253658496
30
0
41
1.02076673234773
10
25.8346245978648
20
-14.3909539889705
30
0
0
SPLINE
5
142
100
AcDbEntity
8
1
62
256
6
ByLayer
370
18
48
1
60
0
100
AcDbSpline
70
4
71
3
72
8
73
4
40
0
40
0
40
0
40
0
40
1
40
1
40
1
40
1
41
1
10
24.9975533878902
20
-8.27122640402371
30
0
41
1
10
25.5246258906385
20
-8.88841655339309
30
0
41
1
10
26.1019765253295
20
-9.40750232239407
30
0
41
1
10
26.6537289033803
20
-9.75016031050006
30
0
0
SPLINE
5
143
100
AcDbEntity
8
1
62
256
6
ByLayer
370
18
48
1
60
0
100
AcDbSpline
70
4
71
3
72
20
73
16
40
0
40
0
40
0
40
0
40
0.110576036200126
40
0.110576036200126
40
0.197179369122808
40
0.197179369122808
40
0.284291117387367
40
0.284291117387367
40
0.365904217918075
40
0.365904217918075
40
0.497270233392072
40
0.497270233392072
40
0.733496364826725
40
0.733496364826725
40
1
40
1
40
1
40
1
41
1
10
23.6543305749443
20
-16.2438199417204
30
0
41
1
10
23.6474165493879
20
-16.2068753335774
30
0
41
1
10
23.6495150620814
20
-16.1660663574824
30
0
41
1
10
23.677597625118
20
-16.0887127671072
30
0
41
1
10
23.6988649913146
20
-16.0524027051795
30
0
41
1
10
23.7598495595923
20
-15.9801993388661
30
0
41
1
10
23.8005457160399
20
-15.9434147045816
30
0
41
1
10
23.8911472559364
20
-15.8773292212383
30
0
41
1
10
23.9411851626414
20
-15.8469259202899
30
0
41
1
10
24.0768463162362
20
-15.7754477330902
30
0
41
1
10
24.1677522851153
20
-15.7376663858632
30
0
41
1
10
24.4193865766872
20
-15.6488070828322
30
0
41
1
10
24.5836023134619
20
-15.6080963771041
30
0
41
1
10
24.9213562812071
20
-15.5396036841175
30
0
41
1
10
25.0970094016041
20
-15.5138063578044
30
0
41
1
10
25.2682720677425
20
-15.494019578291
30
0
0
SPLINE
5
144
100
AcDbEntity
8
1
62
256
6
ByLayer
370
18
48
1
60
0
100
AcDbSpline
70
4
71
3
72
11
73
7
40
0
40
0
40
0
40
0
40
0.564783939443776
40
0.564783939443776
40
0.564783939443776
40
1
40
1
40
1
40
1
41
1
10
22.2834454251885
20
-18.2620130239009
30
0
41
1
10
21.9287781438868
20
-18.1649371936939
30
0
41
1
10
21.5206892901114
20
-18.0689912749834
30
0
41
1
10
21.0892384202694
20
-18.0106595984994
30
0
41
1
10
20.7540245283026
20
-17.9653390541086
30
0
41
1
10
20.401637397584
20
-17.9342723879313
30
0
41
1
10
20.0481260681857
20
-17.9110579095163
30
0
0
SPLINE
5
145
100
AcDbEntity
8
1
62
256
6
ByLayer
370
18
48
1
60
0
100
AcDbSpline
70
4
71
3
72
8
73
4
40
0
40
0
40
0
40
0
40
1
40
1
40
1
40
1
41
1
10
15.4021786621372
20
-5.41796766604261
30
0
41
1
10
14.5773783515796
20
-5.00614986995956
30
0
41
1
10
13.6480307870817
20
-4.92877079413634
30
0
41
1
10
12.7897266408986
20
-5.15960846028193
30
0
0
SPLINE
5
146
100
AcDbEntity
8
1
62
256
6
ByLayer
370
18
48
1
60
0
100
AcDbSpline
70
4
71
3
72
8
73
4
40
0
40
0
40
0
40
0
40
1
40
1
40
1
40
1
41
1
10
8.99711454523833
20
-9.85275722098004
30
0
41
1
10
8.80022634306704
20
-9.68926002551873
30
0
41
1
10
8.59465142159962
20
-9.55190477897747
30
0
41
1
10
8.38460904799763
20
-9.43422497614998
30
0
0
SPLINE
5
147
100
AcDbEntity
8
1
62
256
6
ByLayer
370
18
48
1
60
0
100
AcDbSpline
70
4
71
3
72
20
73
16
40
0
40
0
40
0
40
0
40
0.332873226652394
40
0.332873226652394
40
0.501657261698209
40
0.501657261698209
40
0.63121232167651
40
0.63121232167651
40
0.722542323637664
40
0.722542323637664
40
0.814765347404177
40
0.814765347404177
40
0.896421359038784
40
0.896421359038784
40
1
40
1
40
1
40
1
41
1
10
25.8346245978743
20
-14.3909539889751
30
0
41
1
10
25.7208711128179
20
-14.2212408325955
30
0
41
1
10
25.6108388955746
20
-14.0388177722481
30
0
41
1
10
25.4672956586079
20
-13.7339693613648
30
0
41
1
10
25.4224086836733
20
-13.6248621933215
30
0
41
1
10
25.3591215743679
20
-13.4214929005905
30
0
41
1
10
25.3366273280579
20
-13.3279370782429
30
0
41
1
10
25.3156340942711
20
-13.1679597572776
30
0
41
1
10
25.3120225380145
20
-13.1003091039495
30
0
41
1
10
25.318639331414
20
-12.9726598373984
30
0
41
1
10
25.3292674190188
20
-12.9111132610649
30
0
41
1
10
25.3613782363553
20
-12.8116869505096
30
0
41
1
10
25.3817413800244
20
-12.7706625289299
30
0
41
1
10
25.4347029276614
20
-12.6937617915374
30
0
41
1
10
25.4696319204027
20
-12.660937846753
30
0
41
1
10
25.506488577494
20
-12.6364347004082
30
0
0
SPLINE
5
148
100
AcDbEntity
8
1
62
256
6
ByLayer
370
18
48
1
60
0
100
AcDbSpline
70
4
71
3
72
8
73
4
40
0
40
0
40
0
40
0
40
1
40
1
40
1
40
1
41
1
10
28.8503536767494
20
-13.9926617725538
30
0
41
1
10
28.8917186405496
20
-14.0590768592575
30
0
41
1
10
28.9308750206928
20
-14.1304688140788
30
0
41
1
10
28.9669886293293
20
-14.2056934275774
30
0
0
SPLINE
5
149
100
AcDbEntity
8
1
62
256
6
ByLayer
370
18
48
1
60
0
100
AcDbSpline
70
4
71
3
72
12
73
8
40
0
40
0
40
0
40
0
40
0.108854002841677
40
0.502629245107336
40
0.699516866240166
40
0.896404487372996
40
1
40
1
40
1
40
1
41
1.0244126255267
10
18.4293600054552
20
-12.9524930170522
30
0
41
1.02394775696077
10
18.7468118261424
20
-13.0759276514704
30
0
41
1.02173322391444
10
20.2533231519512
20
-13.6517158984969
30
0
41
1.01876555595691
10
22.3988962359442
20
-14.4029491938007
30
0
41
1.01610930227499
10
23.8536757921414
20
-14.8687880855873
30
0
41
1.01814069306376
10
24.485285758444
20
-15.1645909482176
30
0
41
1.0200519600697
10
25.0577722014407
20
-15.4076405475173
30
0
41
1.02076673234771
10
25.2682720677257
20
-15.4940195782841
30
0
0
SPLINE
5
14A
100
AcDbEntity
8
1
62
256
6
ByLayer
370
18
48
1
60
0
100
AcDbSpline
70
4
71
3
72
10
73
6
40
0
40
0
40
0
40
0
40
0.5
40
0.5
40
1
40
1
40
1
40
1
41
1
10
12.3762851513791
20
-16.0418397354394
30
0
41
1
10
13.5753599581058
20
-16.6264641509494
30
0
41
1
10
14.8350035984912
20
-17.0090632485058
30
0
41
1
10
17.3973685659935
20
-17.6305772609628
30
0
41
1
10
18.7210414221163
20
-17.8239105529567
30
0
41
1
10
20.0481260681854
20
-17.9110579095164
30
0
0
SPLINE
5
14B
100
AcDbEntity
8
1
62
256
6
ByLayer
370
18
48
1
60
0
100
AcDbSpline
70
4
71
3
72
15
73
11
40
0
40
0
40
0
40
0
40
0.227604479949748
40
0.227604479949748
40
0.479423709218441
40
0.479423709218441
40
0.785574270382839
40
0.785574270382839
40
0.785574270382839
40
1
40
1
40
1
40
1
41
1
10
19.5275896112893
20
-10.8135088366038
30
0
41
1
10
19.5909311949689
20
-10.4803896194161
30
0
41
1
10
19.6056086855025
20
-10.1305514860762
30
0
41
1
10
19.5410134022586
20
-9.41052691061188
30
0
41
1
10
19.4517237485528
20
-9.03365136519096
30
0
41
1
10
19.1542760746054
20
-8.24764056444437
30
0
41
1
10
18.9207465381698
20
-7.8375965526001
30
0
41
1
10
18.6334984136703
20
-7.47773859291317
30
0
41
1
10
18.4310726097037
20
-7.22414411973656
30
0
41
1
10
18.1990548137968
20
-6.99196458967236
30
0
41
1
10
17.9453808466835
20
-6.78989300919619
30
0
0
SPLINE
5
14C
100
AcDbEntity
8
1
62
256
6
ByLayer
370
18
48
1
60
0
100
AcDbSpline
70
4
71
3
72
10
73
6
40
0
40
0
40
0
40
0
40
0.264715639145585
40
0.264715639145585
40
1
40
1
40
1
40
1
41
1
10
26.5410705427516
20
-15.3771507525951
30
0
41
1
10
26.4770628366565
20
-15.2945136357916
30
0
41
1
10
26.4135426889064
20
-15.2104807906239
30
0
41
1
10
26.1753126537034
20
-14.8886385405821
30
0
41
1
10
26.0034801677355
20
-14.6429992057603
30
0
41
1
10
25.8346245978743
20
-14.3909539889751
30
0
0
SPLINE
5
14D
100
AcDbEntity
8
1
62
256
6
ByLayer
370
18
48
1
60
0
100
AcDbSpline
70
4
71
3
72
12
73
8
40
0
40
0
40
0
40
0
40
0.471343086678524
40
0.471343086678524
40
0.892619726108243
40
0.892619726108243
40
1
40
1
40
1
40
1
41
1
10
11.4286826771503
20
-5.11687454775884
30
0
41
1
10
11.5974149772011
20
-5.16906165158235
30
0
41
1
10
11.7778318392021
20
-5.20820395561958
30
0
41
1
10
12.1233477662134
20
-5.24340268156428
30
0
41
1
10
12.2916987134097
20
-5.2435894698628
30
0
41
1
10
12.4929648071714
20
-5.22052006672476
30
0
41
1
10
12.5339049714153
20
-5.21457495641582
30
0
41
1
10
12.5741942242133
20
-5.20746700659663
30
0
0
SPLINE
5
14E
100
AcDbEntity
8
1
62
256
6
ByLayer
370
18
48
1
60
0
100
AcDbSpline
70
4
71
3
72
10
73
6
40
0
40
0
40
0
40
0
40
0.967465556419479
40
0.967465556419479
40
1
40
1
40
1
40
1
41
1
10
25.2682720677425
20
-15.494019578291
30
0
41
1
10
25.6854402296838
20
-15.4457500263842
30
0
41
1
10
26.0977671810957
20
-15.4062198366351
30
0
41
1
10
26.5139968690172
20
-15.3788845573165
30
0
41
1
10
26.527539419164
20
-15.3780098160739
30
0
41
1
10
26.5410705427682
20
-15.377150752594
30
0
0
SPLINE
5
14F
100
AcDbEntity
8
1
62
256
6
ByLayer
370
18
48
1
60
0
100
AcDbSpline
70
4
71
3
72
8
73
4
40
0
40
0
40
0
40
0
40
1
40
1
40
1
40
1
41
1
10
24.5990398881228
20
-18.1293254370507
30
0
41
1
10
24.9959385320464
20
-18.0403160162454
30
0
41
1
10
25.395054320649
20
-17.9481411465764
30
0
41
1
10
25.7943109915827
20
-17.8532441755238
30
0
0
SPLINE
5
150
100
AcDbEntity
8
1
62
256
6
ByLayer
370
18
48
1
60
0
100
AcDbSpline
70
4
71
3
72
8
73
4
40
0
40
0
40
0
40
0
40
1
40
1
40
1
40
1
41
1
10
8.99711454523833
20
-9.85275722098004
30
0
41
1
10
7.64662713444091
20
-9.87111888671308
30
0
41
1
10
6.41856271670179
20
-9.81701776489001
30
0
41
1
10
5.6397264839494
20
-9.64224555789963
30
0
0
SPLINE
5
151
100
AcDbEntity
8
1
62
256
6
ByLayer
370
18
48
1
60
0
100
AcDbSpline
70
4
71
3
72
10
73
6
40
0
40
0
40
0
40
0
40
0.5
40
0.5
40
1
40
1
40
1
40
1
41
1
10
24.9975533878901
20
-8.27122640402354
30
0
41
1
10
24.144860832739
20
-7.2727424331548
30
0
41
1
10
23.2174785160709
20
-6.34689601233174
30
0
41
1
10
21.1846994064944
20
-4.66832643636477
30
0
41
1
10
20.1127996405824
20
-3.88503753317053
30
0
41
1
10
18.9287509474034
20
-3.27982462962902
30
0
0
SPLINE
5
152
100
AcDbEntity
8
1
62
256
6
ByLayer
370
18
48
1
60
0
100
AcDbSpline
70
4
71
3
72
8
73
4
40
0
40
0
40
0
40
0
40
1
40
1
40
1
40
1
41
1
10
26.9161505718568
20
-9.92190780319285
30
0
41
1
10
26.8300133052319
20
-9.86265125918919
30
0
41
1
10
26.742549781923
20
-9.80532125724713
30
0
41
1
10
26.6537289033803
20
-9.75016031050006
30
0
0
SPLINE
5
153
100
AcDbEntity
8
1
62
256
6
ByLayer
370
18
48
1
60
0
100
AcDbSpline
70
4
71
3
72
8
73
4
40
0
40
0
40
0
40
0
40
1
40
1
40
1
40
1
41
1
10
12.5741942242133
20
-5.20746700659663
30
0
41
1
10
12.3778461214026
20
-3.63881490450598
30
0
41
1
10
12.1455013618881
20
-2.16279636214705
30
0
41
1
10
11.8930540793331
20
-1.29301927539439
30
0
0
SPLINE
5
154
100
AcDbEntity
8
1
62
256
6
ByLayer
370
18
48
1
60
0
100
AcDbSpline
70
4
71
3
72
11
73
7
40
0
40
0
40
0
40
0
40
0.42340792494602
40
0.740963868655536
40
0.899741840510293
40
1
40
1
40
1
40
1
41
1.02805999725224
10
13.128436807967
20
-15.4478733498927
30
0
41
1.02767136955277
10
13.9406375522792
20
-15.7415915861845
30
0
41
1.02349884684923
10
17.181839332185
20
-16.0498748074048
30
0
41
1.01876555595691
10
21.4032389959761
20
-16.0269629323766
30
0
41
1.01635405201144
10
23.0011117809901
20
-16.0070004711063
30
0
41
1.01722454828215
10
23.4652212303249
20
-16.1693907388252
30
0
41
1.0177432798788
10
23.654330574866
20
-16.2438199416896
30
0
0
SPLINE
5
155
100
AcDbEntity
8
1
62
256
6
ByLayer
370
18
48
1
60
0
100
AcDbSpline
70
4
71
1
72
4
73
2
40
0
40
0
40
1
40
1
41
1
10
18.6610303459308
20
-4.67222880572066
30
0
41
1
10
18.9287509474034
20
-3.27982462962902
30
0
0
SPLINE
5
156
100
AcDbEntity
8
1
62
256
6
ByLayer
370
18
48
1
60
0
100
AcDbSpline
70
4
71
3
72
8
73
4
40
0
40
0
40
0
40
0
40
1
40
1
40
1
40
1
41
1
10
12.5741942242133
20
-5.20746700659663
30
0
41
1
10
12.646967559113
20
-5.19462811838884
30
0
41
1
10
12.7189764637713
20
-5.17863645384352
30
0
41
1
10
12.7897266408986
20
-5.15960846028193
30
0
0
SPLINE
5
157
100
AcDbEntity
8
1
62
256
6
ByLayer
370
18
48
1
60
0
100
AcDbSpline
70
4
71
3
72
8
73
4
40
0
40
0
40
0
40
0
40
1
40
1
40
1
40
1
41
1
10
11.4286826771503
20
-5.11687454775884
30
0
41
1
10
11.1863342185341
20
-5.04191874992134
30
0
41
1
10
10.9615186923557
20
-4.94203777575478
30
0
41
1
10
10.7514763187538
20
-4.82435797292726
30
0
0
SPLINE
5
158
100
AcDbEntity
8
1
62
256
6
ByLayer
370
18
48
1
60
0
100
AcDbSpline
70
4
71
3
72
8
73
4
40
0
40
0
40
0
40
0
40
1
40
1
40
1
40
1
41
1
10
4.88744365308526
20
-11.8328152529141
30
0
41
1
10
4.72312874441695
20
-11.6700757785385
30
0
41
1
10
4.56391578018344
20
-11.4869593702975
30
0
41
1
10
4.42124562865956
20
-11.2850382467678
30
0
0
INSERT
5
16B
100
AcDbEntity
8
SK2
62
256
6
ByLayer
370
25
48
1
60
0
100
AcDbBlockReference
2
DimnDraft3D11
10
0
20
0
30
0
41
1
42
1
43
1
50
0
210
0
220
0
230
1
0
LINE
5
72
100
AcDbEntity
8
1
62
256
6
ByLayer
370
18
48
1
60
0
100
AcDbLine
10
14.780049
20
-8.281772
30
0
11
14.910689
21
-8.497092
31
0
39
0
210
0
220
0
230
1
0
LINE
5
74
100
AcDbEntity
8
1
62
256
6
ByLayer
370
18
48
1
60
0
100
AcDbLine
10
10.934074
20
-11.439064
30
0
11
11.0701
21
-11.663261
31
0
39
0
210
0
220
0
230
1
0
LINE
5
75
100
AcDbEntity
8
1
62
256
6
ByLayer
370
18
48
1
60
0
100
AcDbLine
10
17.909671
20
-7.513531
30
0
11
17.773646
21
-7.289335
31
0
39
0
210
0
220
0
230
1
0
LINE
5
76
100
AcDbEntity
8
1
62
256
6
ByLayer
370
18
48
1
60
0
100
AcDbLine
10
21.107859
20
-18.158389
30
0
11
21.343669
21
-18.54705
31
0
39
0
210
0
220
0
230
1
0
LINE
5
77
100
AcDbEntity
8
1
62
256
6
ByLayer
370
18
48
1
60
0
100
AcDbLine
10
32.495024
20
-11.856679
30
0
11
31.976547
21
-11.002127
31
0
39
0
210
0
220
0
230
1
0
LINE
5
78
100
AcDbEntity
8
1
62
256
6
ByLayer
370
18
48
1
60
0
100
AcDbLine
10
4.885552
20
-11.83094
30
0
11
5.581744
21
-12.52134
31
0
39
0
210
0
220
0
230
1
0
LINE
5
79
100
AcDbEntity
8
1
62
256
6
ByLayer
370
18
48
1
60
0
100
AcDbLine
10
15.639699
20
-9.597061
30
0
11
15.770339
21
-9.812381
31
0
39
0
210
0
220
0
230
1
0
LINE
5
7A
100
AcDbEntity
8
1
62
256
6
ByLayer
370
18
48
1
60
0
100
AcDbLine
10
31.586865
20
-9.76759
30
0
11
31.226584
21
-9.173777
31
0
39
0
210
0
220
0
230
1
0
LINE
5
7B
100
AcDbEntity
8
1
62
256
6
ByLayer
370
18
48
1
60
0
100
AcDbLine
10
13.329301
20
-9.561979
30
0
11
13.198661
21
-9.346659
31
0
39
0
210
0
220
0
230
1
0
LINE
5
7C
100
AcDbEntity
8
1
62
256
6
ByLayer
370
18
48
1
60
0
100
AcDbLine
10
14.188951
20
-10.877267
30
0
11
14.058311
21
-10.661947
31
0
39
0
210
0
220
0
230
1
0
LINE
5
7D
100
AcDbEntity
8
1
62
256
6
ByLayer
370
18
48
1
60
0
100
AcDbLine
10
9.230138
20
-10.063621
30
0
11
8.818264
21
-9.655174
31
0
39
0
210
0
220
0
230
1
0
LINE
5
7E
100
AcDbEntity
8
1
62
256
6
ByLayer
370
18
48
1
60
0
100
AcDbLine
10
20.854594
20
-18.333222
30
0
11
21.214874
21
-18.927035
31
0
39
0
210
0
220
0
230
1
0
LINE
5
7F
100
AcDbEntity
8
80
62
256
6
ByLayer
370
18
48
1
60
0
100
AcDbLine
10
0
20
0
30
0
11
-5
21
0
31
0
39
0
210
0
220
0
230
1
0
LINE
5
80
100
AcDbEntity
8
81
62
256
6
ByLayer
370
18
48
1
60
0
100
AcDbLine
10
36.09038
20
-24.425
30
0
11
46.09038
21
-24.425
31
0
39
0
210
0
220
0
230
1
0
LINE
5
81
100
AcDbEntity
8
SK1
62
256
6
ByLayer
370
18
48
1
60
0
100
AcDbLine
10
-135.25962
20
15.925
30
0
11
0
21
15.925
31
0
39
0
210
0
220
0
230
1
0
LINE
5
83
100
AcDbEntity
8
SK1
62
256
6
ByLayer
370
18
48
1
60
0
100
AcDbLine
10
-135.25962
20
-15.925
30
0
11
-135.25962
21
15.925
31
0
39
0
210
0
220
0
230
1
0
LINE
5
84
100
AcDbEntity
8
SK1
62
256
6
ByLayer
370
18
48
1
60
0
100
AcDbLine
10
0
20
-15.925
30
0
11
-135.25962
21
-15.925
31
0
39
0
210
0
220
0
230
1
0
LINE
5
85
100
AcDbEntity
8
SK1
62
256
6
ByLayer
370
18
48
1
60
0
100
AcDbLine
10
0
20
-15.925
30
0
11
0
21
15.925
31
0
39
0
210
0
220
0
230
1
0
LINE
5
86
100
AcDbEntity
8
1
62
256
6
ByLayer
370
18
48
1
60
0
100
AcDbLine
10
0.322984
20
-16.247984
30
0
11
0
21
-15.925
31
0
39
0
210
0
220
0
230
1
0
LINE
5
87
100
AcDbEntity
8
1
62
256
6
ByLayer
370
18
48
1
60
0
100
AcDbLine
10
21.339797
20
-2.783195
30
0
11
22.175037
21
-5.519718
31
0
39
0
210
0
220
0
230
1
0
LINE
5
88
100
AcDbEntity
8
1
62
256
6
ByLayer
370
18
48
1
60
0
100
AcDbLine
10
24.349547
20
-7.584067
30
0
11
30.66308
21
-9.605099
31
0
39
0
210
0
220
0
230
1
0
LINE
5
89
100
AcDbEntity
8
1
62
256
6
ByLayer
370
18
48
1
60
0
100
AcDbLine
10
0.322984
20
-16.247984
30
0
11
0.581993
21
-16.506993
31
0
39
0
210
0
220
0
230
1
0
LINE
5
8A
100
AcDbEntity
8
1
62
256
6
ByLayer
370
18
48
1
60
0
100
AcDbLine
10
1.835722
20
-16.602782
30
0
11
1.806711
21
-16.600566
31
0
39
0
210
0
220
0
230
1
0
LINE
5
8B
100
AcDbEntity
8
1
62
256
6
ByLayer
370
18
48
1
60
0
100
AcDbLine
10
21.041362
20
5.211857
30
0
11
14.924841
21
1.500819
31
0
39
0
210
0
220
0
230
1
0
LINE
5
8C
100
AcDbEntity
8
1
62
256
6
ByLayer
370
18
48
1
60
0
100
AcDbLine
10
1.806711
20
-16.600566
30
0
11
0.833143
21
-16.526182
31
0
39
0
210
0
220
0
230
1
0
LINE
5
8D
100
AcDbEntity
8
1
62
256
6
ByLayer
370
18
48
1
60
0
100
AcDbLine
10
21.173061
20
-18.170766
30
0
11
21.126174
21
-18.017148
31
0
39
0
210
0
220
0
230
1
0
LINE
5
8E
100
AcDbEntity
8
1
62
256
6
ByLayer
370
18
48
1
60
0
100
AcDbLine
10
27.446221
20
0.934404
30
0
11
21.041362
21
5.211857
31
0
39
0
210
0
220
0
230
1
0
LINE
5
8F
100
AcDbEntity
8
1
62
256
6
ByLayer
370
18
48
1
60
0
100
AcDbLine
10
15.05773
20
9.207995
30
0
11
10.721541
21
0.762547
31
0
39
0
210
0
220
0
230
1
0
LINE
5
90
100
AcDbEntity
8
1
62
256
6
ByLayer
370
18
48
1
60
0
100
AcDbLine
10
4.492941
20
-11.368686
30
0
11
1.806711
21
-16.600566
31
0
39
0
210
0
220
0
230
1
0
LINE
5
91
100
AcDbEntity
8
1
62
256
6
ByLayer
370
18
48
1
60
0
100
AcDbLine
10
22.180774
20
-3.970472
30
0
11
22.826292
21
-6.085405
31
0
39
0
210
0
220
0
230
1
0
LINE
5
92
100
AcDbEntity
8
1
62
256
6
ByLayer
370
18
48
1
60
0
100
AcDbLine
10
30.66308
20
-9.605099
30
0
11
30.701852
21
-9.732129
31
0
39
0
210
0
220
0
230
1
0
LINE
5
93
100
AcDbEntity
8
1
62
256
6
ByLayer
370
18
48
1
60
0
100
AcDbLine
10
15.080181
20
9.193001
30
0
11
10.74945
21
0.758183
31
0
39
0
210
0
220
0
230
1
0
LINE
5
94
100
AcDbEntity
8
1
62
256
6
ByLayer
370
18
48
1
60
0
100
AcDbLine
10
4.511723
20
-11.390825
30
0
11
1.835722
21
-16.602782
31
0
39
0
210
0
220
0
230
1
0
LINE
5
95
100
AcDbEntity
8
1
62
256
6
ByLayer
370
18
48
1
60
0
100
AcDbLine
10
15.080181
20
9.193001
30
0
11
17.301338
21
7.709613
31
0
39
0
210
0
220
0
230
1
0
LINE
5
96
100
AcDbEntity
8
1
62
256
6
ByLayer
370
18
48
1
60
0
100
AcDbLine
10
4.374909
20
15.944089
30
0
11
0.322984
21
-16.247984
31
0
39
0
210
0
220
0
230
1
0
LINE
5
97
100
AcDbEntity
8
1
62
256
6
ByLayer
370
18
48
1
60
0
100
AcDbLine
10
21.558361
20
-2.965896
30
0
11
22.396576
21
-5.712169
31
0
39
0
210
0
220
0
230
1
0
LINE
5
98
100
AcDbEntity
8
1
62
256
6
ByLayer
370
18
48
1
60
0
100
AcDbLine
10
14.924841
20
1.500819
30
0
11
17.301338
21
7.709613
31
0
39
0
210
0
220
0
230
1
0
LINE
5
99
100
AcDbEntity
8
1
62
256
6
ByLayer
370
18
48
1
60
0
100
AcDbLine
10
0
20
-15.925
30
0
11
0
21
15.925
31
0
39
0
210
0
220
0
230
1
0
LINE
5
9A
100
AcDbEntity
8
1
62
256
6
ByLayer
370
18
48
1
60
0
100
AcDbLine
10
0
20
15.925
30
0
11
4.374909
21
15.944089
31
0
39
0
210
0
220
0
230
1
0
LINE
5
9B
100
AcDbEntity
8
1
62
256
6
ByLayer
370
18
48
1
60
0
100
AcDbLine
10
27.446221
20
0.934404
30
0
11
30.66308
21
-9.605099
31
0
39
0
210
0
220
0
230
1
0
LINE
5
9C
100
AcDbEntity
8
1
62
256
6
ByLayer
370
18
48
1
60
0
100
AcDbLine
10
24.50436
20
-7.748243
30
0
11
28.869572
21
-9.145595
31
0
39
0
210
0
220
0
230
1
0
LINE
5
9D
100
AcDbEntity
8
1
62
256
6
ByLayer
370
18
48
1
60
0
100
AcDbLine
10
30.162863
20
-9.559592
30
0
11
30.701852
21
-9.732129
31
0
39
0
210
0
220
0
230
1
0
LINE
5
9E
100
AcDbEntity
8
1
62
256
6
ByLayer
370
18
48
1
60
0
100
AcDbLine
10
21.811753
20
-3.248452
30
0
11
22.180774
21
-3.970472
31
0
39
0
210
0
220
0
230
1
0
LINE
5
9F
100
AcDbEntity
8
1
62
256
6
ByLayer
370
18
48
1
60
0
100
AcDbLine
10
15.05773
20
9.207995
30
0
11
15.080181
21
9.193001
31
0
39
0
210
0
220
0
230
1
0
LINE
5
A0
100
AcDbEntity
8
1
62
256
6
ByLayer
370
18
48
1
60
0
100
AcDbLine
10
0.833143
20
-16.526182
30
0
11
0.581993
21
-16.506993
31
0
39
0
210
0
220
0
230
1
0
LINE
5
A1
100
AcDbEntity
8
1
62
256
6
ByLayer
370
18
48
1
60
0
100
AcDbLine
10
5.4866
20
-16.881722
30
0
11
1.835722
21
-16.602782
31
0
39
0
210
0
220
0
230
1
0
LINE
5
A2
100
AcDbEntity
8
1
62
256
6
ByLayer
370
18
48
1
60
0
100
AcDbLine
10
21.041362
20
5.211857
30
0
11
17.301338
21
7.709613
31
0
39
0
210
0
220
0
230
1
0
LINE
5
A3
100
AcDbEntity
8
1
62
256
6
ByLayer
370
18
48
1
60
0
100
AcDbLine
10
19.237369
20
-2.435727
30
0
11
18.951171
21
-2.524938
31
0
39
0
210
0
220
0
230
1
0
LINE
5
A4
100
AcDbEntity
8
1
62
256
6
ByLayer
370
18
48
1
60
0
100
AcDbLine
10
14.304314
20
9.71116
30
0
11
9.599508
21
0.547769
31
0
39
0
210
0
220
0
230
1
0
LINE
5
A5
100
AcDbEntity
8
1
62
256
6
ByLayer
370
18
48
1
60
0
100
AcDbLine
10
4.009603
20
-10.339498
30
0
11
0.833143
21
-16.526182
31
0
39
0
210
0
220
0
230
1
0
LINE
5
A6
100
AcDbEntity
8
1
62
256
6
ByLayer
370
18
48
1
60
0
100
AcDbLine
10
5.4866
20
-16.881722
30
0
11
19.597208
21
-17.959823
31
0
39
0
210
0
220
0
230
1
0
LINE
5
A7
100
AcDbEntity
8
1
62
256
6
ByLayer
370
18
48
1
60
0
100
AcDbLine
10
14.304314
20
9.71116
30
0
11
15.05773
21
9.207995
31
0
39
0
210
0
220
0
230
1
0
LINE
5
A8
100
AcDbEntity
8
1
62
256
6
ByLayer
370
18
48
1
60
0
100
AcDbLine
10
4.971739
20
15.943874
30
0
11
14.304314
21
9.71116
31
0
39
0
210
0
220
0
230
1
0
LINE
5
A9
100
AcDbEntity
8
1
62
256
6
ByLayer
370
18
48
1
60
0
100
AcDbLine
10
14.924841
20
1.500819
30
0
11
13.804197
21
-0.681821
31
0
39
0
210
0
220
0
230
1
0
LINE
5
AA
100
AcDbEntity
8
1
62
256
6
ByLayer
370
18
48
1
60
0
100
AcDbLine
10
7.235034
20
-13.476357
30
0
11
5.4866
21
-16.881722
31
0
39
0
210
0
220
0
230
1
0
LINE
5
AB
100
AcDbEntity
8
1
62
256
6
ByLayer
370
18
48
1
60
0
100
AcDbLine
10
4.971739
20
15.943874
30
0
11
4.374909
21
15.944089
31
0
39
0
210
0
220
0
230
1
0
LINE
5
AC
100
AcDbEntity
8
1
62
256
6
ByLayer
370
18
48
1
60
0
100
AcDbLine
10
20.965144
20
-17.99871
30
0
11
21.008306
21
-18.140122
31
0
39
0
210
0
220
0
230
1
0
LINE
5
AD
100
AcDbEntity
8
1
62
256
6
ByLayer
370
18
48
1
60
0
100
AcDbLine
10
21.225706
20
-18.283427
30
0
11
21.155282
21
-18.167355
31
0
39
0
210
0
220
0
230
1
0
LINE
5
AE
100
AcDbEntity
8
1
62
256
6
ByLayer
370
18
48
1
60
0
100
AcDbLine
10
32.325948
20
-11.640496
30
0
11
30.567655
21
-9.870312
31
0
39
0
210
0
220
0
230
1
0
LINE
5
AF
100
AcDbEntity
8
1
62
256
6
ByLayer
370
18
48
1
60
0
100
AcDbLine
10
31.807471
20
-10.785944
30
0
11
30.675735
21
-9.646554
31
0
39
0
210
0
220
0
230
1
0
LINE
5
B0
100
AcDbEntity
8
1
62
256
6
ByLayer
370
18
48
1
60
0
100
AcDbLine
10
30.053532
20
-9.520964
30
0
11
30.088724
21
-9.578967
31
0
39
0
210
0
220
0
230
1
0
LINE
5
B1
100
AcDbEntity
8
1
62
256
6
ByLayer
370
18
48
1
60
0
100
AcDbLine
10
32.612986
20
-12.120301
30
0
11
36.056372
21
-23.401978
31
0
39
0
210
0
220
0
230
1
0
LINE
5
B2
100
AcDbEntity
8
1
62
256
6
ByLayer
370
18
48
1
60
0
100
AcDbLine
10
31.807471
20
-10.785944
30
0
11
32.325948
21
-11.640496
31
0
39
0
210
0
220
0
230
1
0
LINE
5
B3
100
AcDbEntity
8
1
62
256
6
ByLayer
370
18
48
1
60
0
100
AcDbLine
10
21.225706
20
-18.283427
30
0
11
21.145432
21
-18.020423
31
0
39
0
210
0
220
0
230
1
0
LINE
5
B4
100
AcDbEntity
8
1
62
256
6
ByLayer
370
18
48
1
60
0
100
AcDbLine
10
35.052081
20
-24.388303
30
0
11
23.749969
21
-20.824761
31
0
39
0
210
0
220
0
230
1
0
LINE
5
B5
100
AcDbEntity
8
1
62
256
6
ByLayer
370
18
48
1
60
0
100
AcDbLine
10
24.598193
20
-7.847809
30
0
11
30.088724
21
-9.578967
31
0
39
0
210
0
220
0
230
1
0
LINE
5
B6
100
AcDbEntity
8
1
62
256
6
ByLayer
370
18
48
1
60
0
100
AcDbLine
10
30.567655
20
-9.870312
30
0
11
30.431255
21
-9.645498
31
0
39
0
210
0
220
0
230
1
0
LINE
5
B7
100
AcDbEntity
8
1
62
256
6
ByLayer
370
18
48
1
60
0
100
AcDbLine
10
21.512745
20
-18.763233
30
0
11
23.271037
21
-20.533416
31
0
39
0
210
0
220
0
230
1
0
LINE
5
B8
100
AcDbEntity
8
1
62
256
6
ByLayer
370
18
48
1
60
0
100
AcDbLine
10
32.052058
20
-11.126665
30
0
11
31.745337
21
-10.121742
31
0
39
0
210
0
220
0
230
1
0
LINE
5
B9
100
AcDbEntity
8
1
62
256
6
ByLayer
370
18
48
1
60
0
100
AcDbLine
10
30.716326
20
-9.085772
30
0
11
30.356045
21
-8.49196
31
0
39
0
210
0
220
0
230
1
0
LINE
5
BA
100
AcDbEntity
8
1
62
256
6
ByLayer
370
18
48
1
60
0
100
AcDbLine
10
20.919483
20
-18.124289
30
0
11
21.056402
21
-18.572882
31
0
39
0
210
0
220
0
230
1
0
LINE
5
BB
100
AcDbEntity
8
1
62
256
6
ByLayer
370
18
48
1
60
0
100
AcDbLine
10
22.085413
20
-19.608852
30
0
11
22.474589
21
-19.731559
31
0
39
0
210
0
220
0
230
1
0
LINE
5
BC
100
AcDbEntity
8
1
62
256
6
ByLayer
370
18
48
1
60
0
100
AcDbLine
10
21.056402
20
-18.572882
30
0
11
20.769034
21
-18.099242
31
0
39
0
210
0
220
0
230
1
0
LINE
5
BD
100
AcDbEntity
8
1
62
256
6
ByLayer
370
18
48
1
60
0
100
AcDbLine
10
30.356045
20
-8.49196
30
0
11
30.319839
21
-8.480544
31
0
39
0
210
0
220
0
230
1
0
LINE
5
BE
100
AcDbEntity
8
1
62
256
6
ByLayer
370
18
48
1
60
0
100
AcDbLine
10
30.716326
20
-9.085772
30
0
11
30.481928
21
-9.011867
31
0
39
0
210
0
220
0
230
1
0
LINE
5
BF
100
AcDbEntity
8
1
62
256
6
ByLayer
370
18
48
1
60
0
100
AcDbLine
10
11.624294
20
-12.776025
30
0
11
13.445555
21
-13.685369
31
0
39
0
210
0
220
0
230
1
0
LINE
5
C0
100
AcDbEntity
8
1
62
256
6
ByLayer
370
18
48
1
60
0
100
AcDbLine
10
5.510894
20
-9.545615
30
0
11
4.256451
21
-8.30161
31
0
39
0
210
0
220
0
230
1
0
LINE
5
C1
100
AcDbEntity
8
1
62
256
6
ByLayer
370
18
48
1
60
0
100
AcDbLine
10
11.289879
20
-12.444392
30
0
11
12.527188
21
-13.059884
31
0
39
0
210
0
220
0
230
1
0
LINE
5
C2
100
AcDbEntity
8
1
62
256
6
ByLayer
370
18
48
1
60
0
100
AcDbLine
10
28.789998
20
-13.76253
30
0
11
28.39825
21
-12.78164
31
0
39
0
210
0
220
0
230
1
0
LINE
5
C3
100
AcDbEntity
8
1
62
256
6
ByLayer
370
18
48
1
60
0
100
AcDbLine
10
5.510894
20
-9.545615
30
0
11
9.334295
21
-2.098906
31
0
39
0
210
0
220
0
230
1
0
LINE
5
C4
100
AcDbEntity
8
1
62
256
6
ByLayer
370
18
48
1
60
0
100
AcDbLine
10
12.829133
20
-0.231426
30
0
11
12.412842
21
0.181402
31
0
39
0
210
0
220
0
230
1
0
LINE
5
C5
100
AcDbEntity
8
1
62
256
6
ByLayer
370
18
48
1
60
0
100
AcDbLine
10
8.060696
20
-9.113007
30
0
11
6.710341
21
-8.441281
31
0
39
0
210
0
220
0
230
1
0
LINE
5
C6
100
AcDbEntity
8
1
62
256
6
ByLayer
370
18
48
1
60
0
100
AcDbLine
10
6.710341
20
-8.441281
30
0
11
9.077208
21
-3.831414
31
0
39
0
210
0
220
0
230
1
0
LINE
5
C7
100
AcDbEntity
8
1
62
256
6
ByLayer
370
18
48
1
60
0
100
AcDbLine
10
14.105769
20
-0.868842
30
0
11
12.476473
21
0.142027
31
0
39
0
210
0
220
0
230
1
0
LINE
5
C8
100
AcDbEntity
8
1
62
256
6
ByLayer
370
18
48
1
60
0
100
AcDbLine
10
28.789998
20
-13.76253
30
0
11
28.850354
21
-13.992662
31
0
39
0
210
0
220
0
230
1
0
LINE
5
C9
100
AcDbEntity
8
1
62
256
6
ByLayer
370
18
48
1
60
0
100
AcDbLine
10
8.079851
20
-0.854902
30
0
11
4.256451
21
-8.30161
31
0
39
0
210
0
220
0
230
1
0
LINE
5
CA
100
AcDbEntity
8
1
62
256
6
ByLayer
370
18
48
1
60
0
100
AcDbLine
10
29.050197
20
-14.414038
30
0
11
28.966989
21
-14.205693
31
0
39
0
210
0
220
0
230
1
0
LINE
5
CB
100
AcDbEntity
8
1
62
256
6
ByLayer
370
18
48
1
60
0
100
AcDbLine
10
8.384609
20
-9.434225
30
0
11
8.060696
21
-9.113007
31
0
39
0
210
0
220
0
230
1
0
LINE
5
CC
100
AcDbEntity
8
1
62
256
6
ByLayer
370
18
48
1
60
0
100
AcDbLine
10
17.223439
20
-6.327312
30
0
11
15.402179
21
-5.417968
31
0
39
0
210
0
220
0
230
1
0
LINE
5
CD
100
AcDbEntity
8
1
62
256
6
ByLayer
370
18
48
1
60
0
100
AcDbLine
10
14.105769
20
-0.868842
30
0
11
14.109161
21
-0.873433
31
0
39
0
210
0
220
0
230
1
0
LINE
5
CE
100
AcDbEntity
8
1
62
256
6
ByLayer
370
18
48
1
60
0
100
AcDbLine
10
12.829133
20
-0.231426
30
0
11
14.105769
21
-0.868842
31
0
39
0
210
0
220
0
230
1
0
LINE
5
CF
100
AcDbEntity
8
1
62
256
6
ByLayer
370
18
48
1
60
0
100
AcDbLine
10
6.360461
20
-12.068664
30
0
11
13.128437
21
-15.447873
31
0
39
0
210
0
220
0
230
1
0
LINE
5
D0
100
AcDbEntity
8
1
62
256
6
ByLayer
370
18
48
1
60
0
100
AcDbLine
10
26.842504
20
-17.555598
30
0
11
25.794311
21
-17.853244
31
0
39
0
210
0
220
0
230
1
0
LINE
5
D1
100
AcDbEntity
8
1
62
256
6
ByLayer
370
18
48
1
60
0
100
AcDbLine
10
11.893054
20
-1.293019
30
0
11
18.66103
21
-4.672229
31
0
39
0
210
0
220
0
230
1
0
LINE
5
D2
100
AcDbEntity
8
1
62
256
6
ByLayer
370
18
48
1
60
0
100
AcDbLine
10
27.538715
20
-17.357901
30
0
11
27.316075
21
-17.421122
31
0
39
0
210
0
220
0
230
1
0
LINE
5
D3
100
AcDbEntity
8
1
62
256
6
ByLayer
370
18
48
1
60
0
100
AcDbLine
10
27.066325
20
-17.467354
30
0
11
26.842504
21
-17.555598
31
0
39
0
210
0
220
0
230
1
0
LINE
5
D4
100
AcDbEntity
8
1
62
256
6
ByLayer
370
18
48
1
60
0
100
AcDbLine
10
9.334295
20
-2.098906
30
0
11
8.079851
21
-0.854902
31
0
39
0
210
0
220
0
230
1
0
LINE
5
D5
100
AcDbEntity
8
1
62
256
6
ByLayer
370
18
48
1
60
0
100
AcDbLine
10
11.624294
20
-12.776025
30
0
11
11.289879
21
-12.444392
31
0
39
0
210
0
220
0
230
1
0
LINE
5
D6
100
AcDbEntity
8
1
62
256
6
ByLayer
370
18
48
1
60
0
100
AcDbLine
10
18.928751
20
-3.279825
30
0
11
14.109161
21
-0.873433
31
0
39
0
210
0
220
0
230
1
0
LINE
5
D7
100
AcDbEntity
8
1
62
256
6
ByLayer
370
18
48
1
60
0
100
AcDbLine
10
7.551367
20
-13.634628
30
0
11
7.556696
21
-13.635448
31
0
39
0
210
0
220
0
230
1
0
LINE
5
D8
100
AcDbEntity
8
1
62
256
6
ByLayer
370
18
48
1
60
0
100
AcDbLine
10
7.551367
20
-13.634628
30
0
11
6.274732
21
-12.997211
31
0
39
0
210
0
220
0
230
1
0
LINE
5
D9
100
AcDbEntity
8
1
62
256
6
ByLayer
370
18
48
1
60
0
100
AcDbLine
10
13.445555
20
-13.685369
30
0
11
13.104323
21
-13.346976
31
0
39
0
210
0
220
0
230
1
0
LINE
5
DA
100
AcDbEntity
8
1
62
256
6
ByLayer
370
18
48
1
60
0
100
AcDbLine
10
26.541071
20
-15.377151
30
0
11
29.025948
21
-16.320807
31
0
39
0
210
0
220
0
230
1
0
LINE
5
DB
100
AcDbEntity
8
1
62
256
6
ByLayer
370
18
48
1
60
0
100
AcDbLine
10
12.376285
20
-16.04184
30
0
11
7.556696
21
-13.635448
31
0
39
0
210
0
220
0
230
1
0
LINE
5
DC
100
AcDbEntity
8
1
62
256
6
ByLayer
370
18
48
1
60
0
100
AcDbLine
10
15.721764
20
-9.064868
30
0
11
15.852404
21
-9.280188
31
0
39
0
210
0
220
0
230
1
0
LINE
5
DD
100
AcDbEntity
8
1
62
256
6
ByLayer
370
18
48
1
60
0
100
AcDbLine
10
13.522394
20
-10.499733
30
0
11
13.653034
21
-10.715053
31
0
39
0
210
0
220
0
230
1
0
LINE
5
DE
100
AcDbEntity
8
1
62
256
6
ByLayer
370
18
48
1
60
0
100
AcDbLine
10
15.412455
20
-10.386065
30
0
11
15.543095
21
-10.601385
31
0
39
0
210
0
220
0
230
1
0
LINE
5
DF
100
AcDbEntity
8
1
62
256
6
ByLayer
370
18
48
1
60
0
100
AcDbLine
10
13.084037
20
-9.2235
30
0
11
13.214677
21
-9.43882
31
0
39
0
210
0
220
0
230
1
0
LINE
5
E0
100
AcDbEntity
8
1
62
256
6
ByLayer
370
18
48
1
60
0
100
AcDbLine
10
14.857537
20
-10.748092
30
0
11
14.988177
21
-10.963412
31
0
39
0
210
0
220
0
230
1
0
LINE
5
E1
100
AcDbEntity
8
1
62
256
6
ByLayer
370
18
48
1
60
0
100
AcDbLine
10
14.730346
20
-8.153724
30
0
11
14.859129
21
-8.365983
31
0
39
0
210
0
220
0
230
1
0
MTEXT
5
159
100
AcDbEntity
8
SK6
62
256
6
ByLayer
370
18
48
1
60
0
100
AcDbMText
10
-63.70962
20
25.059545
30
0
210
0
220
0
230
1
1
\W0.7525;DDHNL 3232P 15
40
3.5
41
0
44
1.084337
50
0
71
7
72
5
7
iso_b_vert
0
DIMENSION
5
179
100
AcDbEntity
8
2
62
256
6
ByLayer
370
13
48
1
60
0
100
AcDbDimension
2
DimnDraft3D2
10
34.104228
20
-24.087557
30
0
11
22.568238
21
-34.628633
31
0
70
34
71
5
72
1
41
1
210
0
220
0
230
1
3
Standard
100
AcDb2LineAngularDimension
13
36.09038
23
-24.425
33
0
14
36.09038
24
-22.8375
34
0
15
35.057945
25
-24.388263
35
0
16
18.939237
26
-37.289527
36
0
40
0
0
DIMENSION
5
18E
100
AcDbEntity
8
2
62
256
6
ByLayer
370
13
48
1
60
0
100
AcDbDimension
2
DimnDraft3D3
10
36.09038
20
-52.675
30
0
11
13.326111
21
-52.675
31
0
70
32
71
5
72
1
41
1
210
0
220
0
230
1
3
Standard
100
AcDbAlignedDimension
13
0
23
-17.925
33
0
14
36.09038
24
-26.425
34
0
50
0
100
AcDbRotatedDimension
1001
ACAD
1000
DSTYLE
1002
{
1070
   279
1070
     0
1070
   172
1070
     1
1070
   173
1070
     1
1070
   340
1005
15A
1070
    77
1070
     1
1070
    73
1070
     0
1070
   171
1070
     3
1070
   274
1070
     4
1070
   177
1070
     2
1070
   176
1070
     2
1070
   178
1070
     7
1070
    78
1070
     8
1070
    41
1041
3.175
1070
   147
1041
2.25
1070
    42
1041
2.0
1070
    44
1041
2.0
1070
   140
1041
4.5
1070
   343
1005
17A
1070
   344
1005
17A
1002
}
0
DIMENSION
5
19C
100
AcDbEntity
8
2
62
256
6
ByLayer
370
13
48
1
60
0
100
AcDbDimension
2
DimnDraft3D4
10
58.34038
20
-24.425
30
0
11
58.34038
21
-9.768421
31
0
70
32
71
5
72
1
41
1
210
0
220
0
230
1
3
Standard
100
AcDbAlignedDimension
13
2
23
15.925
33
0
14
38.09038
24
-24.425
34
0
50
90
100
AcDbRotatedDimension
1001
ACAD
1000
DSTYLE
1002
{
1070
    74
1070
     0
1070
   279
1070
     0
1070
   172
1070
     1
1070
   173
1070
     1
1070
   340
1005
15A
1070
    77
1070
     1
1070
    73
1070
     0
1070
   171
1070
     3
1070
   274
1070
     4
1070
   177
1070
     2
1070
   176
1070
     2
1070
   178
1070
     7
1070
    78
1070
     8
1070
    41
1041
3.175
1070
   147
1041
2.25
1070
    42
1041
2.0
1070
    44
1041
2.0
1070
   140
1041
4.5
1070
   343
1005
17A
1070
   344
1005
17A
1002
}
0
DIMENSION
5
1AA
100
AcDbEntity
8
SK2
62
256
6
ByLayer
370
13
48
1
60
0
100
AcDbDimension
2
DimnDraft3D5
10
-143.00962
20
-15.925
30
0
11
-143.00962
21
-5.281579
31
0
70
32
71
5
72
1
41
1
210
0
220
0
230
1
3
Standard
100
AcDbAlignedDimension
13
-137.25962
23
15.925
33
0
14
-137.25962
24
-15.925
34
0
50
90
100
AcDbRotatedDimension
1001
ACAD
1000
DSTYLE
1002
{
1070
    74
1070
     0
1070
   279
1070
     0
1070
   172
1070
     1
1070
   173
1070
     1
1070
   340
1005
15A
1070
    77
1070
     1
1070
    73
1070
     0
1070
   171
1070
     3
1070
   274
1070
     4
1070
   177
1070
     2
1070
   176
1070
     2
1070
   178
1070
     7
1070
    78
1070
     8
1070
    41
1041
3.175
1070
   147
1041
2.25
1070
    42
1041
2.0
1070
    44
1041
2.0
1070
   140
1041
4.5
1070
   343
1005
17A
1070
   344
1005
17A
1002
}
0
ENDSEC
0
SECTION
2
OBJECTS
0
DICTIONARY
5
214
330
0
100
AcDbDictionary
280
0
281
1
3
ACAD_GROUP
350
215
3
ACAD_MLINESTYLE
350
216
0
DICTIONARY
5
215
330
0
100
AcDbDictionary
280
0
281
1
0
DICTIONARY
5
216
330
0
100
AcDbDictionary
280
0
281
1
3
Standard
350
18
0
MLINESTYLE
5
18
330
216
100
AcDbMlineStyle
2
Standard
70
0
3

62
256
51
90
52
90
71
2
49
-0.5
62
256
6
ByLayer
49
0.5
62
256
6
ByLayer
0
RASTERVARIABLES
5
203
330

100
AcDbRasterVariables
90
0
70
1
71
1
72
1
0
ENDSEC
0
EOF
