0
SECTION
2
HEADER
9
$ACADVER
1
AC1015
9
$DWGCODEPAGE
3
ANSI_1252
9
$HANDSEED
5
221
9
$ANGBASE
50
0
9
$ANGDIR
70
0
9
$ATTMODE
70
1
9
$AUNITS
70
0
9
$AUPREC
70
0
9
$CECOLOR
62
256
9
$CELTSCALE
40
1
9
$CELTYPE
6
ByLayer
9
$CELWEIGHT
370
18
9
$CLAYER
8
0
9
$CMLJUST
70
0
9
$CMLSCALE
40
1
9
$CMLSTYLE
2
Standard
9
$DIMSTYLE
2
Standard
9
$TEXTSIZE
40
0.2
9
$TEXTSTYLE
7
Standard
9
$LUNITS
70
2
9
$LUPREC
70
4
9
$EXTNAMES
290
1
9
$INSUNITS
70
4
9
$LTSCALE
40
1
9
$LWDISPLAY
290
1
9
$PDMODE
70
0
9
$PDSIZE
40
0
9
$PLINEGEN
70
0
0
ENDSEC
0
SECTION
2
CLASSES
0
CLASS
1
RASTERVARIABLES
2
AcDbRasterVariables
3
ISM
90
0
280
0
281
0
0
ENDSEC
0
SECTION
2
TABLES
0
TABLE
2
VPORT
5
217
100
AcDbSymbolTable
0
VPORT
5
1
100
AcDbSymbolTableRecord
100
AcDbViewportTableRecord
2
*Active
70
0
10
0
20
0
11
1
21
1
12
-1
22
1
13
0
23
0
14
0.5
24
0.5
15
10
25
10
16
0
26
0
36
1
17
0
27
0
37
0
0
ENDTAB
0
TABLE
2
LTYPE
5
218
100
AcDbSymbolTable
0
LTYPE
5
14
100
AcDbSymbolTableRecord
100
AcDbLinetypeTableRecord
70
0
2
ByBlock
3

72
65
73
0
40
0
0
LTYPE
5
15
100
AcDbSymbolTableRecord
100
AcDbLinetypeTableRecord
70
0
2
ByLayer
3

72
65
73
0
40
0
0
LTYPE
5
16
100
AcDbSymbolTableRecord
100
AcDbLinetypeTableRecord
70
0
2
CONTINUOUS
3
Solid line
72
65
73
0
40
0
0
LTYPE
5
6A
100
AcDbSymbolTableRecord
100
AcDbLinetypeTableRecord
70
0
2
CENTER
3
____ _ ____ _ ____ _ ____
72
65
73
4
40
47.5
49
22
74
0
49
-8.5
74
0
49
8.5
74
0
49
-8.5
74
0
0
LTYPE
5
6B
100
AcDbSymbolTableRecord
100
AcDbLinetypeTableRecord
70
0
2
DASHED
3
__ __ __ __ __ __ __ __ __
72
65
73
2
40
25.72
49
12.86
74
0
49
-12.86
74
0
0
ENDTAB
0
TABLE
2
LAYER
5
219
100
AcDbSymbolTable
0
LAYER
5
10
100
AcDbSymbolTableRecord
100
AcDbLayerTableRecord
2
0
70
0
62
7
6
CONTINUOUS
290
1
370
-3
390
0
0
LAYER
5
6D
100
AcDbSymbolTableRecord
100
AcDbLayerTableRecord
2
2
70
0
62
7
6
CONTINUOUS
290
1
370
-3
390
0
0
LAYER
5
6F
100
AcDbSymbolTableRecord
100
AcDbLayerTableRecord
2
80
70
0
62
-6
6
CONTINUOUS
290
1
370
-3
390
0
0
LAYER
5
71
100
AcDbSymbolTableRecord
100
AcDbLayerTableRecord
2
81
70
0
62
-3
6
CONTINUOUS
290
1
370
-3
390
0
0
LAYER
5
73
100
AcDbSymbolTableRecord
100
AcDbLayerTableRecord
2
1
70
0
62
4
6
CONTINUOUS
290
1
370
-3
390
0
0
LAYER
5
204
100
AcDbSymbolTableRecord
100
AcDbLayerTableRecord
2
SK1
70
0
62
4
6
CONTINUOUS
290
1
370
-3
390
0
0
LAYER
5
205
100
AcDbSymbolTableRecord
100
AcDbLayerTableRecord
2
SK6
70
0
62
5
6
CONTINUOUS
290
1
370
-3
390
0
0
LAYER
5
206
100
AcDbSymbolTableRecord
100
AcDbLayerTableRecord
2
SK2
70
0
62
7
6
CONTINUOUS
290
1
370
-3
390
0
0
ENDTAB
0
TABLE
2
STYLE
5
21a
100
AcDbSymbolTable
0
STYLE
5
11
100
AcDbSymbolTableRecord
100
AcDbTextStyleTableRecord
2
Standard
3
txt
70
0
71
0
40
0
41
1
42
0
50
0
0
STYLE
5
15A
100
AcDbSymbolTableRecord
100
AcDbTextStyleTableRecord
2
iso_b_vert
3
simplex.shx
70
0
71
0
40
0
41
1
42
0
50
0
0
STYLE
5
15B
100
AcDbSymbolTableRecord
100
AcDbTextStyleTableRecord
2
DWGDirectTextStyle
3
simplex
70
0
71
0
40
0
41
1
42
0
50
0
0
ENDTAB
0
TABLE
2
DIMSTYLE
5
21b
100
AcDbSymbolTable
100
AcDbDimStyleTable
0
DIMSTYLE
105
27
100
AcDbSymbolTableRecord
100
AcDbDimStyleTableRecord
2
Standard
70
0
3
<>
41
0.18
42
0.0625
44
0.18
140
0.18
147
0.09
73
0
74
0
77
1
271
2
275
0
278
52
280
0
340
11
0
ENDTAB
0
TABLE
2
VIEW
5
21c
100
AcDbSymbolTable
0
ENDTAB
0
TABLE
2
UCS
5
21d
100
AcDbSymbolTable
0
ENDTAB
0
TABLE
2
APPID
5
21e
100
AcDbSymbolTable
0
APPID
5
12
100
AcDbSymbolTableRecord
100
AcDbRegAppTableRecord
2
ACAD
70
0
0
ENDTAB
0
TABLE
2
BLOCK_RECORD
5
21f
100
AcDbSymbolTable
0
BLOCK_RECORD
5
1F
100
AcDbSymbolTableRecord
100
AcDbBlockTableRecord
2
*Model_Space
340
0
70
0
0
BLOCK_RECORD
5
1B
100
AcDbSymbolTableRecord
100
AcDbBlockTableRecord
2
*Paper_Space
340
0
70
0
0
BLOCK_RECORD
5
23
100
AcDbSymbolTableRecord
100
AcDbBlockTableRecord
2
*Paper_Space0
340
0
70
0
0
BLOCK_RECORD
5
15D
100
AcDbSymbolTableRecord
100
AcDbBlockTableRecord
2
DimnDraft3D11
340
0
70
0
0
BLOCK_RECORD
5
16C
100
AcDbSymbolTableRecord
100
AcDbBlockTableRecord
2
DimnDraft3D2
340
0
70
0
0
BLOCK_RECORD
5
17A
100
AcDbSymbolTableRecord
100
AcDbBlockTableRecord
2
_CLOSED
340
0
70
0
0
BLOCK_RECORD
5
181
100
AcDbSymbolTableRecord
100
AcDbBlockTableRecord
2
DimnDraft3D3
340
0
70
0
0
BLOCK_RECORD
5
18F
100
AcDbSymbolTableRecord
100
AcDbBlockTableRecord
2
DimnDraft3D4
340
0
70
0
0
BLOCK_RECORD
5
19D
100
AcDbSymbolTableRecord
100
AcDbBlockTableRecord
2
DimnDraft3D5
340
0
70
0
0
ENDTAB
0
ENDSEC
0
SECTION
2
BLOCKS
0
BLOCK
5
20
100
AcDbEntity
8
0
100
AcDbBlockBegin
2
*Model_Space
70
0
10
0
20
0
30
0
3
*Model_Space
0
ENDBLK
5
21
100
AcDbEntity
8
0
100
AcDbBlockEnd
0
BLOCK
5
1C
100
AcDbEntity
8
0
100
AcDbBlockBegin
2
*Paper_Space
70
0
10
0
20
0
30
0
3
*Paper_Space
0
ENDBLK
5
1D
100
AcDbEntity
8
0
100
AcDbBlockEnd
0
BLOCK
5
24
100
AcDbEntity
8
0
100
AcDbBlockBegin
2
*Paper_Space0
70
0
10
0
20
0
30
0
3
*Paper_Space0
0
ENDBLK
5
25
100
AcDbEntity
8
0
100
AcDbBlockEnd
0
BLOCK
5
15E
100
AcDbEntity
8
0
100
AcDbBlockBegin
2
DimnDraft3D11
70
0
10
0
20
0
30
0
3
DimnDraft3D11
0
LINE
5
160
100
AcDbEntity
8
SK2
62
256
6
ByLayer
370
25
48
1
60
0
100
AcDbLine
10
36.09038
20
-21.9125
30
0
11
36.09038
21
-60.1625
31
0
39
0
210
0
220
0
230
1
0
LINE
5
162
100
AcDbEntity
8
SK2
62
256
6
ByLayer
370
25
48
1
60
0
100
AcDbLine
10
-135.25962
20
-14.4375
30
0
11
-135.25962
21
-60.1625
31
0
39
0
210
0
220
0
230
1
0
LINE
5
163
100
AcDbEntity
8
SK2
62
256
6
ByLayer
370
25
48
1
60
0
100
AcDbLine
10
36.09038
20
-58.1625
30
0
11
-135.25962
21
-58.1625
31
0
39
0
210
0
220
0
230
1
0
LINE
5
164
100
AcDbEntity
8
SK2
62
256
6
ByLayer
370
25
48
1
60
0
100
AcDbLine
10
36.09038
20
-58.1625
30
0
11
32.915381
21
-58.580497
31
0
39
0
210
0
220
0
230
1
0
LINE
5
165
100
AcDbEntity
8
SK2
62
256
6
ByLayer
370
25
48
1
60
0
100
AcDbLine
10
36.09038
20
-58.1625
30
0
11
32.915378
21
-57.744503
31
0
39
0
210
0
220
0
230
1
0
LINE
5
166
100
AcDbEntity
8
SK2
62
256
6
ByLayer
370
25
48
1
60
0
100
AcDbLine
10
32.915381
20
-58.580497
30
0
11
32.915378
21
-57.744503
31
0
39
0
210
0
220
0
230
1
0
LINE
5
167
100
AcDbEntity
8
SK2
62
256
6
ByLayer
370
25
48
1
60
0
100
AcDbLine
10
-135.25962
20
-58.1625
30
0
11
-132.084622
21
-57.744503
31
0
39
0
210
0
220
0
230
1
0
LINE
5
168
100
AcDbEntity
8
SK2
62
256
6
ByLayer
370
25
48
1
60
0
100
AcDbLine
10
-135.25962
20
-58.1625
30
0
11
-132.084619
21
-58.580497
31
0
39
0
210
0
220
0
230
1
0
LINE
5
169
100
AcDbEntity
8
SK2
62
256
6
ByLayer
370
25
48
1
60
0
100
AcDbLine
10
-132.084622
20
-57.744503
30
0
11
-132.084619
21
-58.580497
31
0
39
0
210
0
220
0
230
1
0
MTEXT
5
16A
100
AcDbEntity
8
SK2
62
256
6
ByLayer
370
18
48
1
60
0
100
AcDbMText
10
-54.860278
20
-57.0375
30
0
210
0
220
0
230
1
1
\W0.6864;170.0
40
4.5
41
0
44
1.084337
50
0
71
7
72
5
7
iso_b_vert
0
ENDBLK
5
15F
100
AcDbEntity
8
0
100
AcDbBlockEnd
0
BLOCK
5
177
100
AcDbEntity
8
0
100
AcDbBlockBegin
2
DimnDraft3D2
70
0
10
0
20
0
30
0
3
DimnDraft3D2
0
MTEXT
5
16D
100
AcDbEntity
8
2
62
256
6
ByLayer
370
18
48
1
60
0
100
AcDbMText
10
15.00086
20
-25.503202
30
0
210
0
220
0
230
1
1
\W0.7246;107%%d30'
40
4.5
41
0
44
1.084337
50
306.249999999999
71
7
72
5
7
iso_b_vert
0
LINE
5
16E
100
AcDbEntity
8
2
62
256
6
ByLayer
370
13
48
1
60
0
100
AcDbLine
10
36.09038
20
-21.9125
30
0
11
36.09038
21
-43.46889
31
0
39
0
210
0
220
0
230
1
0
LINE
5
16F
100
AcDbEntity
8
2
62
256
6
ByLayer
370
13
48
1
60
0
100
AcDbLine
10
32.196794
20
-18.973645
30
0
11
13.899673
21
-13.204586
31
0
39
0
210
0
220
0
230
1
0
ARC
5
170
100
AcDbEntity
8
2
62
256
6
ByLayer
370
13
48
1
60
0
100
AcDbCircle
39
0
10
36.09038
20
-20.201288
30
0
40
21.2676020052244
210
0
220
0
230
1
100
AcDbArc
50
162.5
51
270
0
LINE
5
171
100
AcDbEntity
8
2
62
256
6
ByLayer
370
13
48
1
60
0
100
AcDbLine
10
36.09038
20
-41.46889
30
0
11
32.902016
21
-41.768346
31
0
39
0
210
0
220
0
230
1
0
LINE
5
172
100
AcDbEntity
8
2
62
256
6
ByLayer
370
13
48
1
60
0
100
AcDbLine
10
36.09038
20
-41.46889
30
0
11
32.933149
21
-40.932933
31
0
39
0
210
0
220
0
230
1
0
LINE
5
173
100
AcDbEntity
8
2
62
256
6
ByLayer
370
13
48
1
60
0
100
AcDbLine
10
32.902016
20
-41.768346
30
0
11
32.933149
21
-40.932933
31
0
39
0
210
0
220
0
230
1
0
LINE
5
174
100
AcDbEntity
8
2
62
256
6
ByLayer
370
13
48
1
60
0
100
AcDbLine
10
15.807107
20
-13.805997
30
0
11
15.368862
21
-16.978264
31
0
39
0
210
0
220
0
230
1
0
LINE
5
175
100
AcDbEntity
8
2
62
256
6
ByLayer
370
13
48
1
60
0
100
AcDbLine
10
15.807107
20
-13.805997
30
0
11
14.562751
21
-16.756748
31
0
39
0
210
0
220
0
230
1
0
LINE
5
176
100
AcDbEntity
8
2
62
256
6
ByLayer
370
13
48
1
60
0
100
AcDbLine
10
15.368862
20
-16.978264
30
0
11
14.562751
21
-16.756748
31
0
39
0
210
0
220
0
230
1
0
ENDBLK
5
178
100
AcDbEntity
8
0
100
AcDbBlockEnd
0
BLOCK
5
17B
100
AcDbEntity
8
0
100
AcDbBlockBegin
2
_CLOSED
70
0
10
0
20
0
30
0
3
_CLOSED
0
LINE
5
17D
100
AcDbEntity
8
0
62
256
6
ByLayer
370
-2
48
1
60
0
100
AcDbLine
10
-1
20
0.166667
30
0
11
0
21
0
31
0
39
0
210
0
220
0
230
1
0
LINE
5
17E
100
AcDbEntity
8
0
62
256
6
ByLayer
370
-2
48
1
60
0
100
AcDbLine
10
0
20
0
30
0
11
-1
21
-0.166667
31
0
39
0
210
0
220
0
230
1
0
LINE
5
17F
100
AcDbEntity
8
0
62
256
6
ByLayer
370
-2
48
1
60
0
100
AcDbLine
10
-1
20
0.166667
30
0
11
-1
21
-0.166667
31
0
39
0
210
0
220
0
230
1
0
LINE
5
180
100
AcDbEntity
8
0
62
256
6
ByLayer
370
-2
48
1
60
0
100
AcDbLine
10
0
20
0
30
0
11
-1
21
0
31
0
39
0
210
0
220
0
230
1
0
ENDBLK
5
17C
100
AcDbEntity
8
0
100
AcDbBlockEnd
0
BLOCK
5
18C
100
AcDbEntity
8
0
100
AcDbBlockBegin
2
DimnDraft3D3
70
0
10
0
20
0
30
0
3
DimnDraft3D3
0
MTEXT
5
182
100
AcDbEntity
8
2
62
256
6
ByLayer
370
18
48
1
60
0
100
AcDbMText
10
14.451111
20
-47.0375
30
0
210
0
220
0
230
1
1
\W0.7208;36.1
40
4.5
41
0
44
1.084337
50
0
71
7
72
5
7
iso_b_vert
0
LINE
5
183
100
AcDbEntity
8
2
62
256
6
ByLayer
370
13
48
1
60
0
100
AcDbLine
10
0
20
-14.4375
30
0
11
0
21
-50.1625
31
0
39
0
210
0
220
0
230
1
0
LINE
5
184
100
AcDbEntity
8
2
62
256
6
ByLayer
370
13
48
1
60
0
100
AcDbLine
10
36.09038
20
-21.9125
30
0
11
36.09038
21
-50.1625
31
0
39
0
210
0
220
0
230
1
0
LINE
5
185
100
AcDbEntity
8
2
62
256
6
ByLayer
370
13
48
1
60
0
100
AcDbLine
10
0
20
-48.1625
30
0
11
36.09038
21
-48.1625
31
0
39
0
210
0
220
0
230
1
0
LINE
5
186
100
AcDbEntity
8
2
62
256
6
ByLayer
370
13
48
1
60
0
100
AcDbLine
10
0
20
-48.1625
30
0
11
3.174998
21
-47.744503
31
0
39
0
210
0
220
0
230
1
0
LINE
5
187
100
AcDbEntity
8
2
62
256
6
ByLayer
370
13
48
1
60
0
100
AcDbLine
10
0
20
-48.1625
30
0
11
3.175002
21
-48.580497
31
0
39
0
210
0
220
0
230
1
0
LINE
5
188
100
AcDbEntity
8
2
62
256
6
ByLayer
370
13
48
1
60
0
100
AcDbLine
10
3.174998
20
-47.744503
30
0
11
3.175002
21
-48.580497
31
0
39
0
210
0
220
0
230
1
0
LINE
5
189
100
AcDbEntity
8
2
62
256
6
ByLayer
370
13
48
1
60
0
100
AcDbLine
10
36.09038
20
-48.1625
30
0
11
32.915381
21
-48.580497
31
0
39
0
210
0
220
0
230
1
0
LINE
5
18A
100
AcDbEntity
8
2
62
256
6
ByLayer
370
13
48
1
60
0
100
AcDbLine
10
36.09038
20
-48.1625
30
0
11
32.915378
21
-47.744503
31
0
39
0
210
0
220
0
230
1
0
LINE
5
18B
100
AcDbEntity
8
2
62
256
6
ByLayer
370
13
48
1
60
0
100
AcDbLine
10
32.915381
20
-48.580497
30
0
11
32.915378
21
-47.744503
31
0
39
0
210
0
220
0
230
1
0
ENDBLK
5
18D
100
AcDbEntity
8
0
100
AcDbBlockEnd
0
BLOCK
5
19A
100
AcDbEntity
8
0
100
AcDbBlockBegin
2
DimnDraft3D4
70
0
10
0
20
0
30
0
3
DimnDraft3D4
0
MTEXT
5
190
100
AcDbEntity
8
2
62
256
6
ByLayer
370
18
48
1
60
0
100
AcDbMText
10
57.21538
20
-7.894079
30
0
210
0
220
0
230
1
1
\W0.7346;32.0
40
4.5
41
0
44
1.084337
50
90
71
7
72
5
7
iso_b_vert
0
LINE
5
191
100
AcDbEntity
8
2
62
256
6
ByLayer
370
13
48
1
60
0
100
AcDbLine
10
2
20
12.4375
30
0
11
60.34038
21
12.4375
31
0
39
0
210
0
220
0
230
1
0
LINE
5
192
100
AcDbEntity
8
2
62
256
6
ByLayer
370
13
48
1
60
0
100
AcDbLine
10
38.09038
20
-19.9125
30
0
11
60.34038
21
-19.9125
31
0
39
0
210
0
220
0
230
1
0
LINE
5
193
100
AcDbEntity
8
2
62
256
6
ByLayer
370
13
48
1
60
0
100
AcDbLine
10
58.34038
20
12.4375
30
0
11
58.34038
21
-19.9125
31
0
39
0
210
0
220
0
230
1
0
LINE
5
194
100
AcDbEntity
8
2
62
256
6
ByLayer
370
13
48
1
60
0
100
AcDbLine
10
58.34038
20
12.4375
30
0
11
58.758376
21
9.262502
31
0
39
0
210
0
220
0
230
1
0
LINE
5
195
100
AcDbEntity
8
2
62
256
6
ByLayer
370
13
48
1
60
0
100
AcDbLine
10
58.34038
20
12.4375
30
0
11
57.922383
21
9.262498
31
0
39
0
210
0
220
0
230
1
0
LINE
5
196
100
AcDbEntity
8
2
62
256
6
ByLayer
370
13
48
1
60
0
100
AcDbLine
10
58.758376
20
9.262502
30
0
11
57.922383
21
9.262498
31
0
39
0
210
0
220
0
230
1
0
LINE
5
197
100
AcDbEntity
8
2
62
256
6
ByLayer
370
13
48
1
60
0
100
AcDbLine
10
58.34038
20
-19.9125
30
0
11
57.922383
21
-16.737502
31
0
39
0
210
0
220
0
230
1
0
LINE
5
198
100
AcDbEntity
8
2
62
256
6
ByLayer
370
13
48
1
60
0
100
AcDbLine
10
58.34038
20
-19.9125
30
0
11
58.758376
21
-16.737498
31
0
39
0
210
0
220
0
230
1
0
LINE
5
199
100
AcDbEntity
8
2
62
256
6
ByLayer
370
13
48
1
60
0
100
AcDbLine
10
57.922383
20
-16.737502
30
0
11
58.758376
21
-16.737498
31
0
39
0
210
0
220
0
230
1
0
ENDBLK
5
19B
100
AcDbEntity
8
0
100
AcDbBlockEnd
0
BLOCK
5
1A8
100
AcDbEntity
8
0
100
AcDbBlockBegin
2
DimnDraft3D5
70
0
10
0
20
0
30
0
3
DimnDraft3D5
0
MTEXT
5
19E
100
AcDbEntity
8
SK2
62
256
6
ByLayer
370
18
48
1
60
0
100
AcDbMText
10
-144.13462
20
-4.156579
30
0
210
0
220
0
230
1
1
\W0.7346;25.0
40
4.5
41
0
44
1.084337
50
90
71
7
72
5
7
iso_b_vert
0
LINE
5
19F
100
AcDbEntity
8
SK2
62
256
6
ByLayer
370
13
48
1
60
0
100
AcDbLine
10
-137.25962
20
12.4375
30
0
11
-145.00962
21
12.4375
31
0
39
0
210
0
220
0
230
1
0
LINE
5
1A0
100
AcDbEntity
8
SK2
62
256
6
ByLayer
370
13
48
1
60
0
100
AcDbLine
10
-137.25962
20
-12.4375
30
0
11
-145.00962
21
-12.4375
31
0
39
0
210
0
220
0
230
1
0
LINE
5
1A1
100
AcDbEntity
8
SK2
62
256
6
ByLayer
370
13
48
1
60
0
100
AcDbLine
10
-143.00962
20
12.4375
30
0
11
-143.00962
21
-12.4375
31
0
39
0
210
0
220
0
230
1
0
LINE
5
1A2
100
AcDbEntity
8
SK2
62
256
6
ByLayer
370
13
48
1
60
0
100
AcDbLine
10
-143.00962
20
12.4375
30
0
11
-142.591624
21
9.262502
31
0
39
0
210
0
220
0
230
1
0
LINE
5
1A3
100
AcDbEntity
8
SK2
62
256
6
ByLayer
370
13
48
1
60
0
100
AcDbLine
10
-143.00962
20
12.4375
30
0
11
-143.427617
21
9.262498
31
0
39
0
210
0
220
0
230
1
0
LINE
5
1A4
100
AcDbEntity
8
SK2
62
256
6
ByLayer
370
13
48
1
60
0
100
AcDbLine
10
-142.591624
20
9.262502
30
0
11
-143.427617
21
9.262498
31
0
39
0
210
0
220
0
230
1
0
LINE
5
1A5
100
AcDbEntity
8
SK2
62
256
6
ByLayer
370
13
48
1
60
0
100
AcDbLine
10
-143.00962
20
-12.4375
30
0
11
-143.427617
21
-9.262502
31
0
39
0
210
0
220
0
230
1
0
LINE
5
1A6
100
AcDbEntity
8
SK2
62
256
6
ByLayer
370
13
48
1
60
0
100
AcDbLine
10
-143.00962
20
-12.4375
30
0
11
-142.591624
21
-9.262498
31
0
39
0
210
0
220
0
230
1
0
LINE
5
1A7
100
AcDbEntity
8
SK2
62
256
6
ByLayer
370
13
48
1
60
0
100
AcDbLine
10
-143.427617
20
-9.262502
30
0
11
-142.591624
21
-9.262498
31
0
39
0
210
0
220
0
230
1
0
ENDBLK
5
1A9
100
AcDbEntity
8
0
100
AcDbBlockEnd
0
ENDSEC
0
SECTION
2
ENTITIES
0
ELLIPSE
5
E1
100
AcDbEntity
8
1
62
256
6
ByLayer
370
18
48
1
60
0
100
AcDbEllipse
10
6.695196
20
-7.260046
30
0
11
2.47785437578237
21
1.69122372630477
31
0
210
0
220
0
230
1
40
0.985051
41
0.187906387138309
42
0.503892937168482
0
ELLIPSE
5
E2
100
AcDbEntity
8
1
62
256
6
ByLayer
370
18
48
1
60
0
100
AcDbEllipse
10
13.178821
20
-4.252863
30
0
11
3.42769855316561
21
2.3395261547216
31
0
210
0
220
0
230
1
40
0.985051
41
-2.92501275660843
42
-2.6376997164213
0
ELLIPSE
5
E3
100
AcDbEntity
8
1
62
256
6
ByLayer
370
18
48
1
60
0
100
AcDbEllipse
10
14.993265
20
-5.155448
30
0
11
-3.42769855316562
21
-2.33952615472157
31
0
210
0
220
0
230
1
40
0.985051
41
0.503892937168486
42
-2.986023797023
0
ELLIPSE
5
E4
100
AcDbEntity
8
1
62
256
6
ByLayer
370
18
48
1
60
0
100
AcDbEllipse
10
13.108013
20
-4.21764
30
0
11
-2.14747379234473
21
-1.46572722946412
31
0
210
0
220
0
230
1
40
0.985051
41
-1.1673853428627
42
-0.976435586114998
0
ELLIPSE
5
E5
100
AcDbEntity
8
1
62
256
6
ByLayer
370
18
48
1
60
0
100
AcDbEllipse
10
26.400869
20
-9.834812
30
0
11
-2.20576192816672
21
-1.3382878301211
31
0
210
0
220
0
230
1
40
0.987534
41
2.94406086221519
42
-0.528675148092927
0
ELLIPSE
5
E6
100
AcDbEntity
8
1
62
256
6
ByLayer
370
18
48
1
60
0
100
AcDbEllipse
10
26.400869
20
-9.834812
30
0
11
-2.20576192816672
21
-1.3382878301211
31
0
210
0
220
0
230
1
40
0.987534
41
2.64305701048021
42
2.94406086221519
0
ELLIPSE
5
E7
100
AcDbEntity
8
1
62
256
6
ByLayer
370
18
48
1
60
0
100
AcDbEllipse
10
19.634619
20
-0.25164
30
0
11
2.02532457319283
21
1.22881222752899
31
0
210
0
220
0
230
1
40
0.987534
41
1.32466675151839
42
1.68413813115886
0
ELLIPSE
5
E8
100
AcDbEntity
8
1
62
256
6
ByLayer
370
18
48
1
60
0
100
AcDbEllipse
10
29.85867
20
-5.491223
30
0
11
1.36791437405678
21
0.829945941160309
31
0
210
0
220
0
230
1
40
0.987534
41
2.69989449828805E-06
42
0.713801513320432
0
ELLIPSE
5
E9
100
AcDbEntity
8
1
62
256
6
ByLayer
370
18
48
1
60
0
100
AcDbEllipse
10
22.222508
20
-12.990776
30
0
11
1.36791437405684
21
0.82994594116035
31
0
210
0
220
0
230
1
40
0.987534
41
2.97243732768851
42
-3.14158995369538
0
ELLIPSE
5
EA
100
AcDbEntity
8
1
62
256
6
ByLayer
370
18
48
1
60
0
100
AcDbEllipse
10
13.306429
20
-4.40377
30
0
11
-0.324879663838509
21
-0.197112161025588
31
0
210
0
220
0
230
1
40
0.987534
41
0.3421800537765
42
0.403396498438495
0
ELLIPSE
5
EB
100
AcDbEntity
8
1
62
256
6
ByLayer
370
18
48
1
60
0
100
AcDbEllipse
10
15.143402
20
-3.548818
30
0
11
0.363352255608859
21
0.220454390620724
31
0
210
0
220
0
230
1
40
0.987534
41
2.80444236523644
42
-3.14158584376972
0
ELLIPSE
5
EC
100
AcDbEntity
8
1
62
256
6
ByLayer
370
18
48
1
60
0
100
AcDbEllipse
10
12.835309
20
-5.054613
30
0
11
0.363352255608859
21
0.220454390620724
31
0
210
0
220
0
230
1
40
0.987534
41
-1.8810542899901E-05
42
0.403396498438464
0
ELLIPSE
5
ED
100
AcDbEntity
8
1
62
256
6
ByLayer
370
18
48
1
60
0
100
AcDbEllipse
10
15.470259
20
-4.273638
30
0
11
-0.324879663838509
21
-0.197112161025588
31
0
210
0
220
0
230
1
40
0.987534
41
1.75724481403998
42
2.79939683891877
0
ELLIPSE
5
EE
100
AcDbEntity
8
1
62
256
6
ByLayer
370
18
48
1
60
0
100
AcDbEllipse
10
13.368101
20
-5.645082
30
0
11
-0.324879663838509
21
-0.197112161025588
31
0
210
0
220
0
230
1
40
0.987534
41
0.342174994296151
42
1.45059404963492
0
ELLIPSE
5
EF
100
AcDbEntity
8
1
62
256
6
ByLayer
370
18
48
1
60
0
100
AcDbEllipse
10
16.003051
20
-4.864106
30
0
11
0.363352255608859
21
0.220454390620724
31
0
210
0
220
0
230
1
40
0.987534
41
1.75724481403991
42
3.14157244993315
0
ELLIPSE
5
F0
100
AcDbEntity
8
1
62
256
6
ByLayer
370
18
48
1
60
0
100
AcDbEllipse
10
13.694959
20
-6.369901
30
0
11
0.363352255608859
21
0.220454390620724
31
0
210
0
220
0
230
1
40
0.987534
41
6.81496155194319E-06
42
1.45059404963515
0
ELLIPSE
5
F1
100
AcDbEntity
8
1
62
256
6
ByLayer
370
18
48
1
60
0
100
AcDbEllipse
10
14.35386
20
-4.8517
30
0
11
3.4197859351422
21
2.07486485290093
31
0
210
0
220
0
230
1
40
0.987534
41
1.03099478432214
42
3.14158845937582
0
ELLIPSE
5
F2
100
AcDbEntity
8
1
62
256
6
ByLayer
370
18
48
1
60
0
100
AcDbEllipse
10
14.35386
20
-4.8517
30
0
11
3.4197859351422
21
2.07486485290093
31
0
210
0
220
0
230
1
40
0.987534
41
9.38865616476882E-05
42
1.03099453349996
0
ELLIPSE
5
F3
100
AcDbEntity
8
1
62
256
6
ByLayer
370
18
48
1
60
0
100
AcDbEllipse
10
15.531932
20
-5.51495
30
0
11
-0.324879663838509
21
-0.197112161025588
31
0
210
0
220
0
230
1
40
0.987534
41
0.710047262843247
42
2.79935548313881
0
ELLIPSE
5
F4
100
AcDbEntity
8
1
62
256
6
ByLayer
370
18
48
1
60
0
100
AcDbEllipse
10
14.480853
20
-6.200672
30
0
11
-0.324879663838509
21
-0.197112161025588
31
0
210
0
220
0
230
1
40
0.987534
41
0.342171625757677
42
2.49779160083167
0
ELLIPSE
5
F5
100
AcDbEntity
8
1
62
256
6
ByLayer
370
18
48
1
60
0
100
AcDbEllipse
10
30.958306
20
-7.107418
30
0
11
1.01824126218859
21
0.617791009951252
31
0
210
0
220
0
230
1
40
0.987534
41
-4.44879704530016E-06
42
0.233835969021904
0
ELLIPSE
5
F6
100
AcDbEntity
8
1
62
256
6
ByLayer
370
18
48
1
60
0
100
AcDbEllipse
10
14.41918
20
-4.95936
30
0
11
0.983188456353382
21
0.596523645209018
31
0
210
0
220
0
230
1
40
0.987534
41
1.03099459893183
42
1.29806276022126
0
ELLIPSE
5
F7
100
AcDbEntity
8
1
62
256
6
ByLayer
370
18
48
1
60
0
100
AcDbEllipse
10
14.41918
20
-4.95936
30
0
11
0.983188456353382
21
0.596523645209018
31
0
210
0
220
0
230
1
40
0.987534
41
1.92166900288683
42
2.5885704872537
0
ELLIPSE
5
F8
100
AcDbEntity
8
1
62
256
6
ByLayer
370
18
48
1
60
0
100
AcDbEllipse
10
14.41918
20
-4.95936
30
0
11
0.983188456353382
21
0.596523645209018
31
0
210
0
220
0
230
1
40
0.987534
41
3.0000200745046
42
0
0
ELLIPSE
5
F9
100
AcDbEntity
8
1
62
256
6
ByLayer
370
18
48
1
60
0
100
AcDbEllipse
10
14.41918
20
-4.95936
30
0
11
0.983188456353382
21
0.596523645209018
31
0
210
0
220
0
230
1
40
0.987534
41
0
42
0.189865462697476
0
ELLIPSE
5
FA
100
AcDbEntity
8
1
62
256
6
ByLayer
370
18
48
1
60
0
100
AcDbEllipse
10
14.41918
20
-4.95936
30
0
11
0.983188456353382
21
0.596523645209018
31
0
210
0
220
0
230
1
40
0.987534
41
0.634989872114799
42
1.03099459893183
0
ELLIPSE
5
FB
100
AcDbEntity
8
1
62
256
6
ByLayer
370
18
48
1
60
0
100
AcDbEllipse
10
14.378355
20
-4.892072
30
0
11
0.983188456353382
21
0.596523645209018
31
0
210
0
220
0
230
1
40
0.987534
41
-3.1069412339707
42
-0.0345619915316776
0
ELLIPSE
5
FC
100
AcDbEntity
8
1
62
256
6
ByLayer
370
18
48
1
60
0
100
AcDbEllipse
10
26.919346
20
-10.689364
30
0
11
2.20576192816672
21
1.3382878301211
31
0
210
0
220
0
230
1
40
0.987534
41
-2.33842919789536
42
0
0
ELLIPSE
5
FD
100
AcDbEntity
8
1
62
256
6
ByLayer
370
18
48
1
60
0
100
AcDbEllipse
10
26.919346
20
-10.689364
30
0
11
2.20576192816672
21
1.3382878301211
31
0
210
0
220
0
230
1
40
0.987534
41
0
42
0.330452171067494
0
ELLIPSE
5
FE
100
AcDbEntity
8
1
62
256
6
ByLayer
370
18
48
1
60
0
100
AcDbEllipse
10
26.154973
20
-9.541201
30
0
11
2.32972916831563
21
1.41350168103876
31
0
210
0
220
0
230
1
40
0.987534
41
-0.56902522343712
42
-0.323882768359775
0
ELLIPSE
5
FF
100
AcDbEntity
8
1
62
256
6
ByLayer
370
18
48
1
60
0
100
AcDbEllipse
10
13.515312
20
12.452067
30
0
11
-0.899363878169458
21
-0.000156661672414374
31
0
210
0
220
0
230
1
40
0.003896
41
1.43428739969351
42
3.00508372648862
0
ELLIPSE
5
100
100
AcDbEntity
8
1
62
256
6
ByLayer
370
18
48
1
60
0
100
AcDbEllipse
10
18.530666
20
-27.406639
30
0
11
-13.9999999926293
21
1.4148946763704E-14
31
0
210
0
220
0
230
1
40
1
41
-1.74870763472907
42
-1.59851862875626
0
ELLIPSE
5
101
100
AcDbEntity
8
1
62
256
6
ByLayer
370
18
48
1
60
0
100
AcDbEllipse
10
19.920817
20
-0.162429
30
0
11
2.02532457319283
21
1.22881222752899
31
0
210
0
220
0
230
1
40
0.987534
41
-0.24612957527652
42
1.32466675151838
0
ELLIPSE
5
102
100
AcDbEntity
8
1
62
256
6
ByLayer
370
18
48
1
60
0
100
AcDbEllipse
10
18.530716
20
-27.406374
30
0
11
-13.7630734489052
21
2.5639886795134
31
0
210
0
220
0
230
1
40
0.99999
41
-1.57649442827062
42
-1.56452417026197
0
ELLIPSE
5
103
100
AcDbEntity
8
1
62
256
6
ByLayer
370
18
48
1
60
0
100
AcDbEllipse
10
31.476783
20
-7.96197
30
0
11
-1.01824126218859
21
-0.61779100995125
31
0
210
0
220
0
230
1
40
0.987534
41
2.89546307831326
42
-2.90775668456786
0
ELLIPSE
5
104
100
AcDbEntity
8
1
62
256
6
ByLayer
370
18
48
1
60
0
100
AcDbEllipse
10
29.71849
20
-6.191786
30
0
11
-1.01824126218859
21
-0.61779100995125
31
0
210
0
220
0
230
1
40
0.987534
41
-2.90775668456785
42
-2.42779114026944
0
ELLIPSE
5
105
100
AcDbEntity
8
1
62
256
6
ByLayer
370
18
48
1
60
0
100
AcDbEllipse
10
24.120203
20
-15.186942
30
0
11
-1.01824126218859
21
-0.61779100995125
31
0
210
0
220
0
230
1
40
0.987534
41
0.233835969021914
42
0.713801513320384
0
ELLIPSE
5
106
100
AcDbEntity
8
1
62
256
6
ByLayer
370
18
48
1
60
0
100
AcDbEllipse
10
35.298903
20
-19.125591
30
0
11
-0.678827508125727
21
-0.411860673300833
31
0
210
0
220
0
230
1
40
0.987534
41
0.713801513320281
42
2.89546307831328
0
ELLIPSE
5
107
100
AcDbEntity
8
1
62
256
6
ByLayer
370
18
48
1
60
0
100
AcDbEllipse
10
22.36191
20
-13.416759
30
0
11
-1.01824126218859
21
-0.61779100995125
31
0
210
0
220
0
230
1
40
0.987534
41
-0.246129575276512
42
0.233835969021943
0
ELLIPSE
5
108
100
AcDbEntity
8
1
62
256
6
ByLayer
370
18
48
1
60
0
100
AcDbEllipse
10
30.21895
20
-6.085036
30
0
11
-1.36791437405688
21
-0.829945941160369
31
0
210
0
220
0
230
1
40
0.987534
41
2.89546307831327
42
-2.42779114026937
0
ELLIPSE
5
109
100
AcDbEntity
8
1
62
256
6
ByLayer
370
18
48
1
60
0
100
AcDbEllipse
10
22.582788
20
-13.584589
30
0
11
-1.36791437405688
21
-0.829945941160369
31
0
210
0
220
0
230
1
40
0.987534
41
-0.246129575276546
42
0.713801513320337
0
ELLIPSE
5
10A
100
AcDbEntity
8
1
62
256
6
ByLayer
370
18
48
1
60
0
100
AcDbEllipse
10
10.759791
20
2.31952
30
0
11
-2.9294515097483
21
-0.689729554751706
31
0
210
0
220
0
230
1
40
0.988643
41
-1.75162898668351
42
-0.699939923620116
0
ELLIPSE
5
10B
100
AcDbEntity
8
1
62
256
6
ByLayer
370
18
48
1
60
0
100
AcDbEllipse
10
10.983735
20
1.655891
30
0
11
1.78229485211196
21
0.907427716204003
31
0
210
0
220
0
230
1
40
0.754402
41
0.707667574872059
42
2.12034306913166
0
ELLIPSE
5
10C
100
AcDbEntity
8
1
62
256
6
ByLayer
370
18
48
1
60
0
100
AcDbEllipse
10
12.903161
20
-0.945445
30
0
11
4.89277460366356
21
-2.51212194722806
31
0
210
0
220
0
230
1
40
0.083175
41
-2.42477914533364
42
-1.98301140604759
0
ELLIPSE
5
10D
100
AcDbEntity
8
1
62
256
6
ByLayer
370
18
48
1
60
0
100
AcDbEllipse
10
9.536912
20
-7.501775
30
0
11
-4.97535519664494
21
2.35113046806194
31
0
210
0
220
0
230
1
40
0.153994
41
-0.601516359618352
42
-0.548524061196713
0
ELLIPSE
5
10E
100
AcDbEntity
8
1
62
256
6
ByLayer
370
18
48
1
60
0
100
AcDbEllipse
10
14.811862
20
2.564607
30
0
11
-3.01053100555091
21
1.79612634093687
31
0
210
0
220
0
230
1
40
0.454664
41
-0.0978252986104276
42
0.625392807786229
0
ELLIPSE
5
10F
100
AcDbEntity
8
1
62
256
6
ByLayer
370
18
48
1
60
0
100
AcDbEllipse
10
27.259131
20
-11.137341
30
0
11
-0.828181793207969
21
-2.22415169507076
31
0
210
0
220
0
230
1
40
0.796311
41
1.56563282530439
42
2.42084415877619
0
ELLIPSE
5
110
100
AcDbEntity
8
1
62
256
6
ByLayer
370
18
48
1
60
0
100
AcDbEllipse
10
12.977044
20
0.120718
30
0
11
-1.36821212670754
21
4.30827792679554
31
0
210
0
220
0
230
1
40
0.535969
41
-0.479772778859062
42
-0.120157045498121
0
ELLIPSE
5
111
100
AcDbEntity
8
1
62
256
6
ByLayer
370
18
48
1
60
0
100
AcDbEllipse
10
10.536293
20
-5.555312
30
0
11
4.89277460366356
21
-2.51212194722806
31
0
210
0
220
0
230
1
40
0.083175
41
-2.42477914533364
42
-1.98301140604761
0
ELLIPSE
5
112
100
AcDbEntity
8
1
62
256
6
ByLayer
370
18
48
1
60
0
100
AcDbEllipse
10
8.74298
20
-9.255548
30
0
11
-3.20123336170587
21
1.42694053828601
31
0
210
0
220
0
230
1
40
0.288972
41
-0.612366121439727
42
0.110851984962607
0
ELLIPSE
5
113
100
AcDbEntity
8
1
62
256
6
ByLayer
370
18
48
1
60
0
100
AcDbEllipse
10
9.153643
20
-7.32599
30
0
11
-3.93305561326848
21
0.0797025042910447
31
0
210
0
220
0
230
1
40
0.449589
41
0.399114564343741
42
0.758730297697527
0
ELLIPSE
5
114
100
AcDbEntity
8
1
62
256
6
ByLayer
370
18
48
1
60
0
100
AcDbEllipse
10
6.93639
20
-5.127188
30
0
11
-2.92945150975148
21
-0.689729554761091
31
0
210
0
220
0
230
1
40
0.988643
41
-0.699939923621641
42
0.351749139441242
0
ELLIPSE
5
115
100
AcDbEntity
8
1
62
256
6
ByLayer
370
18
48
1
60
0
100
AcDbEllipse
10
27.259131
20
-11.137341
30
0
11
-1.98081428045176
21
-0.965820039337979
31
0
210
0
220
0
230
1
40
0.772193
41
1.34318189257058
42
2.19839322604851
0
ELLIPSE
5
116
100
AcDbEntity
8
1
62
256
6
ByLayer
370
18
48
1
60
0
100
AcDbEllipse
10
7.154392
20
-5.802391
30
0
11
0.0580607836851641
21
1.99915705871196
31
0
210
0
220
0
230
1
40
0.807679
41
1.25118760271146
42
2.66386309697107
0
ELLIPSE
5
117
100
AcDbEntity
8
1
62
256
6
ByLayer
370
18
48
1
60
0
100
AcDbEllipse
10
13.90254
20
1.001018
30
0
11
-4.8025503485978
21
2.68705282361528
31
0
210
0
220
0
230
1
40
0.320139
41
0.554915217371062
42
0.607907536391716
0
ELLIPSE
5
118
100
AcDbEntity
8
1
62
256
6
ByLayer
370
18
48
1
60
0
100
AcDbEllipse
10
7.9375
20
6.516532
30
0
11
6.22716767738999
21
-3.19724611465389
31
0
210
0
220
0
230
1
40
0.083175
41
0.797732830958254
42
0.812513867698251
0
ELLIPSE
5
119
100
AcDbEntity
8
1
62
256
6
ByLayer
370
18
48
1
60
0
100
AcDbEllipse
10
13.825598
20
-6.585222
30
0
11
0.363352255608859
21
0.220454390620724
31
0
210
0
220
0
230
1
40
0.987534
41
-0.337150288353303
42
1.45059404963508
0
ELLIPSE
5
11A
100
AcDbEntity
8
1
62
256
6
ByLayer
370
18
48
1
60
0
100
AcDbEllipse
10
15.600899
20
-4.488958
30
0
11
-0.324879663838509
21
-0.197112161025588
31
0
210
0
220
0
230
1
40
0.987534
41
1.75724481403983
42
-1.69099860395467
0
ELLIPSE
5
11B
100
AcDbEntity
8
1
62
256
6
ByLayer
370
18
48
1
60
0
100
AcDbEllipse
10
14.489886
20
-5.075896
30
0
11
-3.4197859351422
21
-2.07486485290092
31
0
210
0
220
0
230
1
40
0.987534
41
0
42
6.28318530717959
0
ELLIPSE
5
11C
100
AcDbEntity
8
1
62
256
6
ByLayer
370
18
48
1
60
0
100
AcDbEllipse
10
13.69017
20
-3.859391
30
0
11
0.363352255608859
21
0.220454390620724
31
0
210
0
220
0
230
1
40
0.987534
41
-2.43154539074647
42
-0.643801052758179
0
ELLIPSE
5
11D
100
AcDbEntity
8
1
62
256
6
ByLayer
370
18
48
1
60
0
100
AcDbEllipse
10
13.437068
20
-4.61909
30
0
11
-0.324879663838509
21
-0.197112161025588
31
0
210
0
220
0
230
1
40
0.987534
41
-2.43154539074657
42
0.403396498438508
0
ELLIPSE
5
11E
100
AcDbEntity
8
1
62
256
6
ByLayer
370
18
48
1
60
0
100
AcDbEllipse
10
15.27883
20
-6.274648
30
0
11
0.363352255608859
21
0.220454390620724
31
0
210
0
220
0
230
1
40
0.987534
41
0.710047262843344
42
2.49779160083168
0
ELLIPSE
5
11F
100
AcDbEntity
8
1
62
256
6
ByLayer
370
18
48
1
60
0
100
AcDbEllipse
10
14.611492
20
-6.415992
30
0
11
-0.324879663838509
21
-0.197112161025588
31
0
210
0
220
0
230
1
40
0.987534
41
-0.337150288353352
42
2.49779160083163
0
ELLIPSE
5
120
100
AcDbEntity
8
1
62
256
6
ByLayer
370
18
48
1
60
0
100
AcDbEllipse
10
16.133691
20
-5.079426
30
0
11
0.363352255608859
21
0.220454390620724
31
0
210
0
220
0
230
1
40
0.987534
41
1.75724481403989
42
-2.7381961551513
0
ELLIPSE
5
121
100
AcDbEntity
8
1
62
256
6
ByLayer
370
18
48
1
60
0
100
AcDbEllipse
10
14.54982
20
-5.17468
30
0
11
-1.96637691270677
21
-1.19304729041803
31
0
210
0
220
0
230
1
40
0.987534
41
0
42
6.28318530717959
0
ELLIPSE
5
122
100
AcDbEntity
8
1
62
256
6
ByLayer
370
18
48
1
60
0
100
AcDbEllipse
10
13.498741
20
-5.860402
30
0
11
-0.324879663838509
21
-0.197112161025588
31
0
210
0
220
0
230
1
40
0.987534
41
-1.38434783954997
42
1.450594049635
0
ELLIPSE
5
123
100
AcDbEntity
8
1
62
256
6
ByLayer
370
18
48
1
60
0
100
AcDbEllipse
10
15.274042
20
-3.764138
30
0
11
0.363352255608859
21
0.220454390620724
31
0
210
0
220
0
230
1
40
0.987534
41
2.80444236523651
42
-1.69099860395472
0
ELLIPSE
5
124
100
AcDbEntity
8
1
62
256
6
ByLayer
370
18
48
1
60
0
100
AcDbEllipse
10
14.488148
20
-3.933368
30
0
11
-0.324879663838509
21
-0.197112161025588
31
0
210
0
220
0
230
1
40
0.987534
41
2.80444236523646
42
-0.643801052758159
0
ELLIPSE
5
125
100
AcDbEntity
8
1
62
256
6
ByLayer
370
18
48
1
60
0
100
AcDbEllipse
10
12.965949
20
-5.269933
30
0
11
0.363352255608859
21
0.220454390620724
31
0
210
0
220
0
230
1
40
0.987534
41
-1.38434783954987
42
0.403396498438538
0
ELLIPSE
5
126
100
AcDbEntity
8
1
62
256
6
ByLayer
370
18
48
1
60
0
100
AcDbEllipse
10
15.662572
20
-5.73027
30
0
11
-0.324879663838509
21
-0.197112161025588
31
0
210
0
220
0
230
1
40
0.987534
41
0.710047262843202
42
-2.73819615515133
0
ELLIPSE
5
127
100
AcDbEntity
8
1
62
256
6
ByLayer
370
18
48
1
60
0
100
AcDbEllipse
10
15.40947
20
-6.489968
30
0
11
0.363352255608859
21
0.220454390620724
31
0
210
0
220
0
230
1
40
0.987534
41
0.710047262843299
42
2.49779160083167
0
POINT
5
6C
100
AcDbEntity
8
2
62
256
6
ByLayer
370
18
48
1
60
0
100
AcDbPoint
10
36.09038
20
44.7875
30
0
39
0
210
0
220
0
230
1
50
360
0
POINT
5
6E
100
AcDbEntity
8
80
62
256
6
ByLayer
370
18
48
1
60
0
100
AcDbPoint
10
0
20
0
30
0
39
0
210
0
220
0
230
1
50
360
0
POINT
5
70
100
AcDbEntity
8
81
62
256
6
ByLayer
370
18
48
1
60
0
100
AcDbPoint
10
36.09038
20
-19.9125
30
0
39
0
210
0
220
0
230
1
50
360
0
SPLINE
5
128
100
AcDbEntity
8
1
62
256
6
ByLayer
370
18
48
1
60
0
100
AcDbSpline
70
4
71
3
72
8
73
4
40
0
40
0
40
0
40
0
40
1
40
1
40
1
40
1
41
1
10
4.88744365308526
20
-7.3203152529141
30
0
41
1
10
4.72312874441695
20
-7.15757577853856
30
0
41
1
10
4.56391578018344
20
-6.97445937029747
30
0
41
1
10
4.42124562865956
20
-6.77253824676779
30
0
0
SPLINE
5
129
100
AcDbEntity
8
1
62
256
6
ByLayer
370
18
48
1
60
0
100
AcDbSpline
70
4
71
3
72
8
73
4
40
0
40
0
40
0
40
0
40
1
40
1
40
1
40
1
41
1
10
8.99711454523833
20
-5.34025722098005
30
0
41
1
10
7.64662713444091
20
-5.35861888671309
30
0
41
1
10
6.41856271670179
20
-5.30451776489002
30
0
41
1
10
5.6397264839494
20
-5.12974555789964
30
0
0
SPLINE
5
12A
100
AcDbEntity
8
1
62
256
6
ByLayer
370
18
48
1
60
0
100
AcDbSpline
70
4
71
3
72
10
73
6
40
0
40
0
40
0
40
0
40
0.5
40
0.5
40
1
40
1
40
1
40
1
41
1
10
5.48025476552527
20
-5.09606195460088
30
0
41
1
10
5.17580635776517
20
-5.75678725101517
30
0
41
1
10
5.07205824818118
20
-6.40591031615324
30
0
41
1
10
5.13064157949731
20
-7.32884682565168
30
0
41
1
10
5.23913338209604
20
-7.63255294127646
30
0
41
1
10
5.51577963241743
20
-7.93970134680882
30
0
0
SPLINE
5
12B
100
AcDbEntity
8
1
62
256
6
ByLayer
370
18
48
1
60
0
100
AcDbSpline
70
4
71
3
72
8
73
4
40
0
40
0
40
0
40
0
40
1
40
1
40
1
40
1
41
1
10
26.9161505718568
20
-5.40940780319286
30
0
41
1
10
26.8300133052319
20
-5.3501512591892
30
0
41
1
10
26.742549781923
20
-5.29282125724714
30
0
41
1
10
26.6537289033803
20
-5.23766031050005
30
0
0
SPLINE
5
12C
100
AcDbEntity
8
1
62
256
6
ByLayer
370
18
48
1
60
0
100
AcDbSpline
70
4
71
3
72
8
73
4
40
0
40
0
40
0
40
0
40
1
40
1
40
1
40
1
41
1
10
14.2466700274995
20
-9.48124642887788
30
0
41
1
10
13.967773748569
20
-9.40269725460917
30
0
41
1
10
13.7005226805472
20
-9.30017282797783
30
0
41
1
10
13.4455545898403
20
-9.17286880560732
30
0
0
SPLINE
5
12D
100
AcDbEntity
8
1
62
256
6
ByLayer
370
18
48
1
60
0
100
AcDbSpline
70
4
71
3
72
8
73
4
40
0
40
0
40
0
40
0
40
1
40
1
40
1
40
1
41
1
10
15.4021786621372
20
-0.905467666042597
30
0
41
1
10
14.5773783515796
20
-0.493649869959569
30
0
41
1
10
13.6480307870817
20
-0.416270794136352
30
0
41
1
10
12.7897266408986
20
-0.647108460281942
30
0
0
SPLINE
5
12E
100
AcDbEntity
8
1
62
256
6
ByLayer
370
18
48
1
60
0
100
AcDbSpline
70
4
71
3
72
8
73
4
40
0
40
0
40
0
40
0
40
1
40
1
40
1
40
1
41
1
10
12.5741942242133
20
-0.694967006596642
30
0
41
1
10
12.646967559113
20
-0.682128118388846
30
0
41
1
10
12.7189764637713
20
-0.666136453843535
30
0
41
1
10
12.7897266408986
20
-0.647108460281942
30
0
0
SPLINE
5
12F
100
AcDbEntity
8
1
62
256
6
ByLayer
370
18
48
1
60
0
100
AcDbSpline
70
4
71
3
72
8
73
4
40
0
40
0
40
0
40
0
40
1
40
1
40
1
40
1
41
1
10
28.8503536767494
20
-9.48016177255383
30
0
41
1
10
28.8917186405496
20
-9.5465768592575
30
0
41
1
10
28.9308750206928
20
-9.61796881407881
30
0
41
1
10
28.9669886293294
20
-9.6931934275774
30
0
0
SPLINE
5
130
100
AcDbEntity
8
1
62
256
6
ByLayer
370
18
48
1
60
0
100
AcDbSpline
70
4
71
3
72
10
73
6
40
0
40
0
40
0
40
0
40
0.264715639145587
40
0.264715639145587
40
1
40
1
40
1
40
1
41
1
10
26.5410705427516
20
-10.8646507525951
30
0
41
1
10
26.4770628366565
20
-10.7820136357916
30
0
41
1
10
26.4135426889064
20
-10.6979807906239
30
0
41
1
10
26.1753126537034
20
-10.3761385405821
30
0
41
1
10
26.0034801677355
20
-10.1304992057603
30
0
41
1
10
25.8346245978743
20
-9.87845398897508
30
0
0
SPLINE
5
131
100
AcDbEntity
8
1
62
256
6
ByLayer
370
18
48
1
60
0
100
AcDbSpline
70
4
71
3
72
8
73
4
40
0
40
0
40
0
40
0
40
1
40
1
40
1
40
1
41
1
10
9.83082425400386
20
-6.4100621533909
30
0
41
1
10
10.1689411722256
20
-7.19775977983602
30
0
41
1
10
10.7969690272727
20
-7.85044608685681
30
0
41
1
10
11.6242943645842
20
-8.26352461349427
30
0
0
SPLINE
5
132
100
AcDbEntity
8
1
62
256
6
ByLayer
370
18
48
1
60
0
100
AcDbSpline
70
4
71
3
72
8
73
4
40
0
40
0
40
0
40
0
40
1
40
1
40
1
40
1
41
1
10
8.99711454523833
20
-5.34025722098005
30
0
41
1
10
8.80022634306704
20
-5.17676002551875
30
0
41
1
10
8.59465142159962
20
-5.03940477897749
30
0
41
1
10
8.38460904799763
20
-4.92172497614999
30
0
0
SPLINE
5
133
100
AcDbEntity
8
1
62
256
6
ByLayer
370
18
48
1
60
0
100
AcDbSpline
70
4
71
3
72
12
73
8
40
0
40
0
40
0
40
0
40
0.466938972358616
40
0.466938972358616
40
0.928803236876552
40
0.928803236876552
40
1
40
1
40
1
40
1
41
1
10
9.73840815203926
20
-6.21813123467925
30
0
41
1
10
9.65834619923203
20
-6.06856642872461
30
0
41
1
10
9.55412900751276
20
-5.91622061922013
30
0
41
1
10
9.32259262041362
20
-5.63852165848792
30
0
41
1
10
9.1927643505943
20
-5.50883372344842
30
0
41
1
10
9.03891908583512
20
-5.37534789851384
30
0
41
1
10
9.01806366058349
20
-5.35765349748897
30
0
41
1
10
8.99711454523833
20
-5.34025722098005
30
0
0
SPLINE
5
134
100
AcDbEntity
8
1
62
256
6
ByLayer
370
18
48
1
60
0
100
AcDbSpline
70
4
71
3
72
15
73
11
40
0
40
0
40
0
40
0
40
0.322163720426462
40
0.322163720426462
40
0.644833452600232
40
0.644833452600232
40
0.91223345590456
40
0.91223345590456
40
0.91223345590456
40
1
40
1
40
1
40
1
41
1
10
14.2466700421777
20
-9.48124643301193
30
0
41
1
10
14.7132633646327
20
-9.61168209254683
30
0
41
1
10
15.2088146865548
20
-9.66316936845573
30
0
41
1
10
16.1740021869932
20
-9.61347992664966
30
0
41
1
10
16.6575404220565
20
-9.51133055359946
30
0
41
1
10
17.4746649384632
20
-9.18239979663991
30
0
41
1
10
17.8292281221396
20
-8.97486813386854
30
0
41
1
10
18.137181562154
20
-8.71567322846087
30
0
41
1
10
18.2395218275228
20
-8.62953658585525
30
0
41
1
10
18.3373431405675
20
-8.53735097172918
30
0
41
1
10
18.4293601451485
20
-8.43999307136903
30
0
0
SPLINE
5
135
100
AcDbEntity
8
1
62
256
6
ByLayer
370
18
48
1
60
0
100
AcDbSpline
70
4
71
3
72
8
73
4
40
0
40
0
40
0
40
0
40
1
40
1
40
1
40
1
41
1
10
13.128436807967
20
-10.9353733498927
30
0
41
1
10
13.3846166575273
20
-10.7330707717352
30
0
41
1
10
13.7836333373624
20
-10.214197895593
30
0
41
1
10
14.2466700421777
20
-9.48124643301193
30
0
0
SPLINE
5
136
100
AcDbEntity
8
1
62
256
6
ByLayer
370
18
48
1
60
0
100
AcDbSpline
70
4
71
3
72
8
73
4
40
0
40
0
40
0
40
0
40
1
40
1
40
1
40
1
41
1
10
27.9310072401067
20
-7.12726578213855
30
0
41
1
10
28.0870226666755
20
-7.50741642313085
30
0
41
1
10
28.2430447794661
20
-7.88870685012509
30
0
41
1
10
28.3982502066249
20
-8.26914019833913
30
0
0
SPLINE
5
137
100
AcDbEntity
8
1
62
256
6
ByLayer
370
18
48
1
60
0
100
AcDbSpline
70
4
71
3
72
8
73
4
40
0
40
0
40
0
40
0
40
1
40
1
40
1
40
1
41
1
10
9.83082425400391
20
-6.41006215339098
30
0
41
1
10
9.80318090401641
20
-6.34566253302708
30
0
41
1
10
9.7724081089375
20
-6.28164700937188
30
0
41
1
10
9.73840815203926
20
-6.21813123467925
30
0
0
SPLINE
5
138
100
AcDbEntity
8
1
62
256
6
ByLayer
370
18
48
1
60
0
100
AcDbSpline
70
4
71
3
72
8
73
4
40
0
40
0
40
0
40
0
40
1
40
1
40
1
40
1
41
1
10
9.46906940350601
20
2.32853560006691
30
0
41
1
10
9.9737664084227
20
1.63555377718427
30
0
41
1
10
10.6823694669424
20
0.551614803964611
30
0
41
1
10
11.4286826771503
20
-0.604374547758852
30
0
0
SPLINE
5
139
100
AcDbEntity
8
1
62
256
6
ByLayer
370
18
48
1
60
0
100
AcDbSpline
70
4
71
3
72
11
73
7
40
0
40
0
40
0
40
0
40
0.42340792494602
40
0.740963868655535
40
0.899741840510293
40
1
40
1
40
1
40
1
41
1.02805999725224
10
13.128436807967
20
-10.9353733498927
30
0
41
1.02767136955277
10
13.9406375522792
20
-11.2290915861845
30
0
41
1.02349884684923
10
17.181839332185
20
-11.5373748074048
30
0
41
1.01876555595691
10
21.4032389959761
20
-11.5144629323766
30
0
41
1.01635405201144
10
23.0011117809901
20
-11.4945004711063
30
0
41
1.01722454828215
10
23.4652212303249
20
-11.6568907388252
30
0
41
1.0177432798788
10
23.6543305748661
20
-11.7313199416896
30
0
0
SPLINE
5
13A
100
AcDbEntity
8
1
62
256
6
ByLayer
370
18
48
1
60
0
100
AcDbSpline
70
4
71
3
72
8
73
4
40
0
40
0
40
0
40
0
40
1
40
1
40
1
40
1
41
1
10
5.51089357912878
20
-5.03311453389182
30
0
41
1
10
5.50018766366844
20
-5.05396608185555
30
0
41
1
10
5.48998246497803
20
-5.07495053821455
30
0
41
1
10
5.48025476552522
20
-5.09606195460088
30
0
0
SPLINE
5
13B
100
AcDbEntity
8
1
62
256
6
ByLayer
370
18
48
1
60
0
100
AcDbSpline
70
4
71
1
72
4
73
2
40
0
40
0
40
1
40
1
41
1
10
18.6610303459308
20
-0.159728805720675
30
0
41
1
10
18.9287509474034
20
1.23267537037097
30
0
0
SPLINE
5
13C
100
AcDbEntity
8
1
62
256
6
ByLayer
370
18
48
1
60
0
100
AcDbSpline
70
4
71
3
72
8
73
4
40
0
40
0
40
0
40
0
40
1
40
1
40
1
40
1
41
1
10
9.33429455496565
20
2.41359370208338
30
0
41
1
10
9.34500047042604
20
2.43444525004713
30
0
41
1
10
9.35604242358659
20
2.45484314978398
30
0
41
1
10
9.36740521310645
20
2.47480896252594
30
0
0
SPLINE
5
13D
100
AcDbEntity
8
1
62
256
6
ByLayer
370
18
48
1
60
0
100
AcDbSpline
70
4
71
3
72
10
73
6
40
0
40
0
40
0
40
0
40
0.5
40
0.5
40
1
40
1
40
1
40
1
41
1
10
11.8954849853679
20
4.48583411106006
30
0
41
1
10
11.4390373260658
20
4.44651441893055
30
0
41
1
10
11.0796146837378
20
4.26150018289556
30
0
41
1
10
10.2240608251763
20
3.6236682759106
30
0
41
1
10
9.72217691108716
20
3.09818628335176
30
0
41
1
10
9.36740521310645
20
2.47480896252591
30
0
0
SPLINE
5
13E
100
AcDbEntity
8
1
62
256
6
ByLayer
370
18
48
1
60
0
100
AcDbSpline
70
4
71
3
72
11
73
7
40
0
40
0
40
0
40
0
40
0.564783939443776
40
0.564783939443776
40
0.564783939443776
40
1
40
1
40
1
40
1
41
1
10
22.2834454251885
20
-13.7495130239009
30
0
41
1
10
21.9287781438868
20
-13.6524371936939
30
0
41
1
10
21.5206892901114
20
-13.5564912749834
30
0
41
1
10
21.0892384202694
20
-13.4981595984995
30
0
41
1
10
20.7540245283026
20
-13.4528390541086
30
0
41
1
10
20.401637397584
20
-13.4217723879313
30
0
41
1
10
20.0481260681857
20
-13.3985579095163
30
0
0
SPLINE
5
13F
100
AcDbEntity
8
1
62
256
6
ByLayer
370
18
48
1
60
0
100
AcDbSpline
70
4
71
3
72
8
73
4
40
0
40
0
40
0
40
0
40
1
40
1
40
1
40
1
41
1
10
11.4286826771503
20
-0.604374547758852
30
0
41
1
10
11.1863342185341
20
-0.529418749921348
30
0
41
1
10
10.9615186923557
20
-0.429537775754795
30
0
41
1
10
10.7514763187538
20
-0.311857972927271
30
0
0
SPLINE
5
140
100
AcDbEntity
8
1
62
256
6
ByLayer
370
18
48
1
60
0
100
AcDbSpline
70
4
71
3
72
12
73
8
40
0
40
0
40
0
40
0
40
0.108853988607132
40
0.502629237162306
40
0.699516861439893
40
0.89640448571748
40
1
40
1
40
1
40
1
41
1.02441262532206
10
19.5275896112894
20
-6.30100883660389
30
0
41
1.02394775682001
10
19.819918635638
20
-6.47337418450117
30
0
41
1.02173322384668
10
21.2018008885811
20
-7.2918981339244
30
0
41
1.01876555595691
10
23.1367120482877
20
-8.45343039270995
30
0
41
1.01610930227499
10
24.4273113248395
20
-9.23903763950824
30
0
41
1.01814069306376
10
25.0674478478932
20
-9.51823361712283
30
0
41
1.02005196006971
10
25.6299006665299
20
-9.78082536584961
30
0
41
1.02076673234773
10
25.8346245978648
20
-9.87845398897054
30
0
0
SPLINE
5
141
100
AcDbEntity
8
1
62
256
6
ByLayer
370
18
48
1
60
0
100
AcDbSpline
70
4
71
3
72
8
73
4
40
0
40
0
40
0
40
0
40
1
40
1
40
1
40
1
41
1
10
27.316074715049
20
-12.9086223925362
30
0
41
1
10
27.2314368200816
20
-12.9279068836146
30
0
41
1
10
27.1476912446855
20
-12.9433597901148
30
0
41
1
10
27.0663249130661
20
-12.9548540090454
30
0
0
SPLINE
5
142
100
AcDbEntity
8
1
62
256
6
ByLayer
370
18
48
1
60
0
100
AcDbSpline
70
4
71
3
72
8
73
4
40
0
40
0
40
0
40
0
40
1
40
1
40
1
40
1
41
1
10
17.9453808400419
20
-2.27739300390093
30
0
41
1
10
17.7233367617296
20
-2.10036030779995
30
0
41
1
10
17.4799253865904
20
-1.9428740126823
30
0
41
1
10
17.2234388873934
20
-1.81481185815559
30
0
0
SPLINE
5
143
100
AcDbEntity
8
1
62
256
6
ByLayer
370
18
48
1
60
0
100
AcDbSpline
70
4
71
3
72
8
73
4
40
0
40
0
40
0
40
0
40
1
40
1
40
1
40
1
41
1
10
22.2834454251885
20
-13.7495130239009
30
0
41
1
10
22.3861540144837
20
-13.7776253480449
30
0
41
1
10
22.4898215286627
20
-13.8033953872614
30
0
41
1
10
22.5942641324455
20
-13.8269992477374
30
0
0
SPLINE
5
144
100
AcDbEntity
8
1
62
256
6
ByLayer
370
18
48
1
60
0
100
AcDbSpline
70
4
71
2
72
6
73
3
40
0
40
0
40
0
40
1
40
1
40
1
41
1
10
24.5989516567445
20
-13.6168572206756
30
0
41
1
10
23.6094992056292
20
-13.7699927374458
30
0
41
1
10
22.594308741669
20
-13.826813983366
30
0
0
SPLINE
5
145
100
AcDbEntity
8
1
62
256
6
ByLayer
370
18
48
1
60
0
100
AcDbSpline
70
4
71
3
72
8
73
4
40
0
40
0
40
0
40
0
40
1
40
1
40
1
40
1
41
1
10
17.9453808564771
20
-2.27739298564012
30
0
41
1
10
18.3144821627742
20
-1.3896175037676
30
0
41
1
10
18.5698457793583
20
-0.633976101567157
30
0
41
1
10
18.6610303459308
20
-0.159728805720675
30
0
0
SPLINE
5
146
100
AcDbEntity
8
1
62
256
6
ByLayer
370
18
48
1
60
0
100
AcDbSpline
70
4
71
3
72
8
73
4
40
0
40
0
40
0
40
0
40
1
40
1
40
1
40
1
41
1
10
12.5741942242133
20
-0.694967006596642
30
0
41
1
10
12.3778461214026
20
0.873685095494011
30
0
41
1
10
12.1455013618881
20
2.34970363785294
30
0
41
1
10
11.8930540793331
20
3.2194807246056
30
0
0
SPLINE
5
147
100
AcDbEntity
8
1
62
256
6
ByLayer
370
18
48
1
60
0
100
AcDbSpline
70
4
71
3
72
12
73
8
40
0
40
0
40
0
40
0
40
0.108854002841678
40
0.502629245107339
40
0.69951686624017
40
0.896404487373
40
1
40
1
40
1
40
1
41
1.0244126255267
10
18.4293600054552
20
-8.43999301705214
30
0
41
1.02394775696077
10
18.7468118261425
20
-8.56342765147037
30
0
41
1.02173322391444
10
20.2533231519512
20
-9.13921589849689
30
0
41
1.01876555595691
10
22.3988962359442
20
-9.89044919380076
30
0
41
1.01610930227499
10
23.8536757921414
20
-10.3562880855873
30
0
41
1.01814069306376
10
24.485285758444
20
-10.6520909482176
30
0
41
1.0200519600697
10
25.0577722014407
20
-10.8951405475173
30
0
41
1.02076673234771
10
25.2682720677256
20
-10.9815195782841
30
0
0
SPLINE
5
148
100
AcDbEntity
8
1
62
256
6
ByLayer
370
18
48
1
60
0
100
AcDbSpline
70
4
71
3
72
10
73
6
40
0
40
0
40
0
40
0
40
0.5
40
0.5
40
1
40
1
40
1
40
1
41
1
10
12.3762851513791
20
-11.5293397354394
30
0
41
1
10
13.5753599581058
20
-12.1139641509494
30
0
41
1
10
14.8350035984913
20
-12.4965632485058
30
0
41
1
10
17.3973685659936
20
-13.1180772609628
30
0
41
1
10
18.7210414221163
20
-13.3114105529567
30
0
41
1
10
20.0481260681854
20
-13.3985579095164
30
0
0
SPLINE
5
149
100
AcDbEntity
8
1
62
256
6
ByLayer
370
18
48
1
60
0
100
AcDbSpline
70
4
71
3
72
15
73
11
40
0
40
0
40
0
40
0
40
0.227604479949748
40
0.227604479949748
40
0.479423709218442
40
0.479423709218442
40
0.78557427038284
40
0.78557427038284
40
0.78557427038284
40
1
40
1
40
1
40
1
41
1
10
19.5275896112893
20
-6.30100883660381
30
0
41
1
10
19.5909311949689
20
-5.96788961941613
30
0
41
1
10
19.6056086855025
20
-5.61805148607618
30
0
41
1
10
19.5410134022586
20
-4.89802691061189
30
0
41
1
10
19.4517237485528
20
-4.52115136519097
30
0
41
1
10
19.1542760746054
20
-3.73514056444438
30
0
41
1
10
18.9207465381698
20
-3.32509655260011
30
0
41
1
10
18.6334984136703
20
-2.96523859291318
30
0
41
1
10
18.4310726097037
20
-2.71164411973658
30
0
41
1
10
18.1990548137968
20
-2.47946458967238
30
0
41
1
10
17.9453808466835
20
-2.2773930091962
30
0
0
SPLINE
5
14A
100
AcDbEntity
8
1
62
256
6
ByLayer
370
18
48
1
60
0
100
AcDbSpline
70
4
71
3
72
12
73
8
40
0
40
0
40
0
40
0
40
0.286978363858294
40
0.286978363858294
40
0.569998995185616
40
0.569998995185616
40
1
40
1
40
1
40
1
41
1
10
18.4293601451476
20
-8.43999307136897
30
0
41
1
10
18.5901964773608
20
-8.26980321286939
30
0
41
1
10
18.7376453106913
20
-8.08585273481251
30
0
41
1
10
18.9978957438659
20
-7.70102976713011
30
0
41
1
10
19.112041243477
20
-7.49910500686087
30
0
41
1
10
19.3550782980725
20
-6.97500969036133
30
0
41
1
10
19.4631132530959
20
-6.64001320449938
30
0
41
1
10
19.5275896112893
20
-6.30100883660381
30
0
0
SPLINE
5
14B
100
AcDbEntity
8
1
62
256
6
ByLayer
370
18
48
1
60
0
100
AcDbSpline
70
4
71
2
72
6
73
3
40
0
40
0
40
0
40
1
40
1
40
1
41
1.02805999725224
10
13.128436807967
20
-10.9353733498927
30
0
41
1.02805999725224
10
12.752360979673
20
-11.2323565426661
30
0
41
1.02805999725224
10
12.3762851513791
20
-11.5293397354394
30
0
0
SPLINE
5
14C
100
AcDbEntity
8
1
62
256
6
ByLayer
370
18
48
1
60
0
100
AcDbSpline
70
4
71
2
72
6
73
3
40
0
40
0
40
0
40
1
40
1
40
1
41
1
10
26.9160258394981
20
-5.40955259340012
30
0
41
1
10
27.4707206804489
20
-6.25038864701733
30
0
41
1
10
27.9309729632119
20
-7.12714989658835
30
0
0
SPLINE
5
14D
100
AcDbEntity
8
1
62
256
6
ByLayer
370
18
48
1
60
0
100
AcDbSpline
70
4
71
3
72
10
73
6
40
0
40
0
40
0
40
0
40
0.5
40
0.5
40
1
40
1
40
1
40
1
41
1
10
24.9975533878901
20
-3.75872640402349
30
0
41
1
10
24.144860832739
20
-2.76024243315479
30
0
41
1
10
23.2174785160709
20
-1.83439601233175
30
0
41
1
10
21.1846994064944
20
-0.155826436364777
30
0
41
1
10
20.1127996405824
20
0.627462466829456
30
0
41
1
10
18.9287509474034
20
1.23267537037097
30
0
0
SPLINE
5
14E
100
AcDbEntity
8
1
62
256
6
ByLayer
370
18
48
1
60
0
100
AcDbSpline
70
4
71
3
72
8
73
4
40
0
40
0
40
0
40
0
40
1
40
1
40
1
40
1
41
1
10
6.36046054136921
20
-7.55616381956642
30
0
41
1
10
7.10890674745428
20
-7.45802047455069
30
0
41
1
10
8.37717677461234
20
-6.92006538122286
30
0
41
1
10
9.73840815203425
20
-6.21813123467214
30
0
0
SPLINE
5
14F
100
AcDbEntity
8
1
62
256
6
ByLayer
370
18
48
1
60
0
100
AcDbSpline
70
4
71
3
72
12
73
8
40
0
40
0
40
0
40
0
40
0.471343086678523
40
0.471343086678523
40
0.892619726108242
40
0.892619726108242
40
1
40
1
40
1
40
1
41
1
10
11.4286826771503
20
-0.604374547758852
30
0
41
1
10
11.5974149772011
20
-0.656561651582365
30
0
41
1
10
11.7778318392021
20
-0.695703955619592
30
0
41
1
10
12.1233477662134
20
-0.730902681564288
30
0
41
1
10
12.2916987134097
20
-0.731089469862809
30
0
41
1
10
12.4929648071714
20
-0.708020066724771
30
0
41
1
10
12.5339049714153
20
-0.702074956415828
30
0
41
1
10
12.5741942242133
20
-0.694967006596642
30
0
0
SPLINE
5
150
100
AcDbEntity
8
1
62
256
6
ByLayer
370
18
48
1
60
0
100
AcDbSpline
70
4
71
3
72
10
73
6
40
0
40
0
40
0
40
0
40
0.5
40
0.5
40
1
40
1
40
1
40
1
41
1
10
25.506488577494
20
-8.12393470040823
30
0
41
1
10
25.9474221697833
20
-7.83074395309967
30
0
41
1
10
26.4021805506983
20
-7.60063574806946
30
0
41
1
10
27.3951023022408
20
-7.52099649778796
30
0
41
1
10
27.9379557776156
20
-7.70221670629411
30
0
41
1
10
28.3982502066249
20
-8.26914019833919
30
0
0
SPLINE
5
151
100
AcDbEntity
8
1
62
256
6
ByLayer
370
18
48
1
60
0
100
AcDbSpline
70
4
71
3
72
10
73
6
40
0
40
0
40
0
40
0
40
0.5
40
0.5
40
1
40
1
40
1
40
1
41
1
10
25.7943109915582
20
-13.340744175525
30
0
41
1
10
25.0378138140677
20
-13.3757018256853
30
0
41
1
10
24.5055487261694
20
-13.1581695449276
30
0
41
1
10
23.8742180141976
20
-12.5425121369429
30
0
41
1
10
23.7319650565723
20
-12.1463828558751
30
0
41
1
10
23.6543305749431
20
-11.73131994172
30
0
0
SPLINE
5
152
100
AcDbEntity
8
1
62
256
6
ByLayer
370
18
48
1
60
0
100
AcDbSpline
70
4
71
3
72
11
73
7
40
0
40
0
40
0
40
0
40
0.423407924939447
40
0.740963868644031
40
0.899741840496324
40
1
40
1
40
1
40
1
41
1.02805999725224
10
18.6610303459309
20
-0.159728805720686
30
0
41
1.02767136955277
10
19.3748793353423
20
-0.645003415022219
30
0
41
1.02349884684923
10
21.4903804612331
20
-3.14577557078271
30
0
41
1.01876555595691
10
23.9602212305516
20
-6.53431547057045
30
0
41
1.01635405201137
10
24.9042716138235
20
-7.78778069706667
30
0
41
1.01722454828226
10
25.3266531179384
20
-8.03144306662724
30
0
41
1.01774327987904
10
25.5064885774945
20
-8.12393470040853
30
0
0
SPLINE
5
153
100
AcDbEntity
8
1
62
256
6
ByLayer
370
18
48
1
60
0
100
AcDbSpline
70
4
71
3
72
10
73
6
40
0
40
0
40
0
40
0
40
0.655488757716276
40
0.655488757716276
40
1
40
1
40
1
40
1
41
1
10
12.4128415482621
20
4.69390179175267
30
0
41
1
10
12.09966839683
20
4.88718673124797
30
0
41
1
10
11.7288464520826
20
5.06677231741526
30
0
41
1
10
11.0923610362191
20
5.23827317698616
30
0
41
1
10
10.8576480399556
20
5.279111875513
30
0
41
1
10
10.6158718697685
20
5.29252491034893
30
0
0
SPLINE
5
154
100
AcDbEntity
8
1
62
256
6
ByLayer
370
18
48
1
60
0
100
AcDbSpline
70
4
71
3
72
20
73
16
40
0
40
0
40
0
40
0
40
0.110576036200127
40
0.110576036200127
40
0.197179369122808
40
0.197179369122808
40
0.284291117387363
40
0.284291117387363
40
0.36590421791807
40
0.36590421791807
40
0.497270233392062
40
0.497270233392062
40
0.733496364826692
40
0.733496364826692
40
1
40
1
40
1
40
1
41
1
10
23.6543305749443
20
-11.7313199417204
30
0
41
1
10
23.6474165493879
20
-11.6943753335775
30
0
41
1
10
23.6495150620814
20
-11.6535663574824
30
0
41
1
10
23.677597625118
20
-11.5762127671073
30
0
41
1
10
23.6988649913146
20
-11.5399027051795
30
0
41
1
10
23.7598495595923
20
-11.4676993388661
30
0
41
1
10
23.8005457160399
20
-11.4309147045816
30
0
41
1
10
23.8911472559364
20
-11.3648292212383
30
0
41
1
10
23.9411851626414
20
-11.3344259202899
30
0
41
1
10
24.0768463162362
20
-11.2629477330902
30
0
41
1
10
24.1677522851153
20
-11.2251663858632
30
0
41
1
10
24.4193865766872
20
-11.1363070828322
30
0
41
1
10
24.5836023134619
20
-11.0955963771042
30
0
41
1
10
24.9213562812072
20
-11.0271036841176
30
0
41
1
10
25.0970094016041
20
-11.0013063578044
30
0
41
1
10
25.2682720677425
20
-10.981519578291
30
0
0
SPLINE
5
155
100
AcDbEntity
8
1
62
256
6
ByLayer
370
18
48
1
60
0
100
AcDbSpline
70
4
71
3
72
8
73
4
40
0
40
0
40
0
40
0
40
1
40
1
40
1
40
1
41
1
10
24.9975533878902
20
-3.75872640402372
30
0
41
1
10
25.5246258906385
20
-4.37591655339307
30
0
41
1
10
26.1019765253294
20
-4.89500232239411
30
0
41
1
10
26.6537289033803
20
-5.23766031050008
30
0
0
SPLINE
5
156
100
AcDbEntity
8
1
62
256
6
ByLayer
370
18
48
1
60
0
100
AcDbSpline
70
4
71
3
72
8
73
4
40
0
40
0
40
0
40
0
40
1
40
1
40
1
40
1
41
1
10
24.5990398881228
20
-13.6168254370507
30
0
41
1
10
24.9959385320464
20
-13.5278160162454
30
0
41
1
10
25.395054320649
20
-13.4356411465764
30
0
41
1
10
25.7943109915827
20
-13.3407441755238
30
0
0
SPLINE
5
157
100
AcDbEntity
8
1
62
256
6
ByLayer
370
18
48
1
60
0
100
AcDbSpline
70
4
71
3
72
20
73
16
40
0
40
0
40
0
40
0
40
0.332873226652388
40
0.332873226652388
40
0.501657261698201
40
0.501657261698201
40
0.631212321676508
40
0.631212321676508
40
0.722542323637666
40
0.722542323637666
40
0.81476534740419
40
0.81476534740419
40
0.896421359038801
40
0.896421359038801
40
1
40
1
40
1
40
1
41
1
10
25.8346245978743
20
-9.87845398897508
30
0
41
1
10
25.7208711128179
20
-9.70874083259554
30
0
41
1
10
25.6108388955746
20
-9.52631777224809
30
0
41
1
10
25.4672956586079
20
-9.2214693613648
30
0
41
1
10
25.4224086836733
20
-9.11236219332147
30
0
41
1
10
25.3591215743679
20
-8.90899290059048
30
0
41
1
10
25.3366273280579
20
-8.81543707824292
30
0
41
1
10
25.3156340942711
20
-8.65545975727758
30
0
41
1
10
25.3120225380145
20
-8.58780910394955
30
0
41
1
10
25.318639331414
20
-8.46015983739844
30
0
41
1
10
25.3292674190188
20
-8.39861326106487
30
0
41
1
10
25.3613782363553
20
-8.29918695050966
30
0
41
1
10
25.3817413800244
20
-8.25816252892992
30
0
41
1
10
25.4347029276614
20
-8.18126179153745
30
0
41
1
10
25.4696319204027
20
-8.14843784675304
30
0
41
1
10
25.506488577494
20
-8.12393470040823
30
0
0
SPLINE
5
158
100
AcDbEntity
8
1
62
256
6
ByLayer
370
18
48
1
60
0
100
AcDbSpline
70
4
71
3
72
10
73
6
40
0
40
0
40
0
40
0
40
0.967465556419479
40
0.967465556419479
40
1
40
1
40
1
40
1
41
1
10
25.2682720677425
20
-10.981519578291
30
0
41
1
10
25.6854402296838
20
-10.9332500263843
30
0
41
1
10
26.0977671810957
20
-10.8937198366351
30
0
41
1
10
26.5139968690173
20
-10.8663845573165
30
0
41
1
10
26.527539419164
20
-10.8655098160739
30
0
41
1
10
26.5410705427682
20
-10.864650752594
30
0
0
INSERT
5
16B
100
AcDbEntity
8
SK2
62
256
6
ByLayer
370
25
48
1
60
0
100
AcDbBlockReference
2
DimnDraft3D11
10
0
20
0
30
0
41
1
42
1
43
1
50
0
210
0
220
0
230
1
0
LINE
5
72
100
AcDbEntity
8
1
62
256
6
ByLayer
370
18
48
1
60
0
100
AcDbLine
10
4.885552
20
-7.31844
30
0
11
5.581744
21
-8.00884
31
0
39
0
210
0
220
0
230
1
0
LINE
5
74
100
AcDbEntity
8
1
62
256
6
ByLayer
370
18
48
1
60
0
100
AcDbLine
10
31.586865
20
-5.25509
30
0
11
31.226584
21
-4.661277
31
0
39
0
210
0
220
0
230
1
0
LINE
5
75
100
AcDbEntity
8
1
62
256
6
ByLayer
370
18
48
1
60
0
100
AcDbLine
10
14.780049
20
-3.769272
30
0
11
14.910689
21
-3.984592
31
0
39
0
210
0
220
0
230
1
0
LINE
5
76
100
AcDbEntity
8
1
62
256
6
ByLayer
370
18
48
1
60
0
100
AcDbLine
10
10.934074
20
-6.926564
30
0
11
11.0701
21
-7.150761
31
0
39
0
210
0
220
0
230
1
0
LINE
5
77
100
AcDbEntity
8
1
62
256
6
ByLayer
370
18
48
1
60
0
100
AcDbLine
10
17.909671
20
-3.001031
30
0
11
17.773646
21
-2.776835
31
0
39
0
210
0
220
0
230
1
0
LINE
5
78
100
AcDbEntity
8
1
62
256
6
ByLayer
370
18
48
1
60
0
100
AcDbLine
10
21.107859
20
-13.645889
30
0
11
21.343669
21
-14.03455
31
0
39
0
210
0
220
0
230
1
0
LINE
5
79
100
AcDbEntity
8
1
62
256
6
ByLayer
370
18
48
1
60
0
100
AcDbLine
10
32.495024
20
-7.344179
30
0
11
31.976547
21
-6.489627
31
0
39
0
210
0
220
0
230
1
0
LINE
5
7A
100
AcDbEntity
8
1
62
256
6
ByLayer
370
18
48
1
60
0
100
AcDbLine
10
15.639699
20
-5.084561
30
0
11
15.770339
21
-5.299881
31
0
39
0
210
0
220
0
230
1
0
LINE
5
7B
100
AcDbEntity
8
1
62
256
6
ByLayer
370
18
48
1
60
0
100
AcDbLine
10
13.329301
20
-5.049479
30
0
11
13.198661
21
-4.834159
31
0
39
0
210
0
220
0
230
1
0
LINE
5
7C
100
AcDbEntity
8
1
62
256
6
ByLayer
370
18
48
1
60
0
100
AcDbLine
10
14.188951
20
-6.364767
30
0
11
14.058311
21
-6.149447
31
0
39
0
210
0
220
0
230
1
0
LINE
5
7D
100
AcDbEntity
8
1
62
256
6
ByLayer
370
18
48
1
60
0
100
AcDbLine
10
9.230138
20
-5.551121
30
0
11
8.818264
21
-5.142674
31
0
39
0
210
0
220
0
230
1
0
LINE
5
7E
100
AcDbEntity
8
1
62
256
6
ByLayer
370
18
48
1
60
0
100
AcDbLine
10
20.854594
20
-13.820722
30
0
11
21.214874
21
-14.414535
31
0
39
0
210
0
220
0
230
1
0
LINE
5
7F
100
AcDbEntity
8
80
62
256
6
ByLayer
370
18
48
1
60
0
100
AcDbLine
10
0
20
0
30
0
11
-5
21
0
31
0
39
0
210
0
220
0
230
1
0
LINE
5
80
100
AcDbEntity
8
81
62
256
6
ByLayer
370
18
48
1
60
0
100
AcDbLine
10
36.09038
20
-19.9125
30
0
11
46.09038
21
-19.9125
31
0
39
0
210
0
220
0
230
1
0
LINE
5
81
100
AcDbEntity
8
1
62
256
6
ByLayer
370
18
48
1
60
0
100
AcDbLine
10
11.289879
20
-7.931892
30
0
11
12.527188
21
-8.547384
31
0
39
0
210
0
220
0
230
1
0
LINE
5
82
100
AcDbEntity
8
1
62
256
6
ByLayer
370
18
48
1
60
0
100
AcDbLine
10
22.180774
20
0.542028
30
0
11
22.826292
21
-1.572905
31
0
39
0
210
0
220
0
230
1
0
LINE
5
83
100
AcDbEntity
8
1
62
256
6
ByLayer
370
18
48
1
60
0
100
AcDbLine
10
20.965144
20
-13.48621
30
0
11
21.008306
21
-13.627622
31
0
39
0
210
0
220
0
230
1
0
LINE
5
84
100
AcDbEntity
8
1
62
256
6
ByLayer
370
18
48
1
60
0
100
AcDbLine
10
14.924841
20
6.013319
30
0
11
13.804085
21
3.830462
31
0
39
0
210
0
220
0
230
1
0
LINE
5
85
100
AcDbEntity
8
1
62
256
6
ByLayer
370
18
48
1
60
0
100
AcDbLine
10
7.234926
20
-8.964067
30
0
11
5.14726
21
-13.030143
31
0
39
0
210
0
220
0
230
1
0
LINE
5
86
100
AcDbEntity
8
1
62
256
6
ByLayer
370
18
48
1
60
0
100
AcDbLine
10
24.349547
20
-3.071567
30
0
11
30.66308
21
-5.092599
31
0
39
0
210
0
220
0
230
1
0
LINE
5
87
100
AcDbEntity
8
1
62
256
6
ByLayer
370
18
48
1
60
0
100
AcDbLine
10
14.436907
20
12.452618
30
0
11
10.749484
21
5.270749
31
0
39
0
210
0
220
0
230
1
0
LINE
5
88
100
AcDbEntity
8
1
62
256
6
ByLayer
370
18
48
1
60
0
100
AcDbLine
10
4.511751
20
-6.878272
30
0
11
1.406423
21
-12.926412
31
0
39
0
210
0
220
0
230
1
0
LINE
5
89
100
AcDbEntity
8
1
62
256
6
ByLayer
370
18
48
1
60
0
100
AcDbLine
10
21.811753
20
1.264048
30
0
11
22.180774
21
0.542028
31
0
39
0
210
0
220
0
230
1
0
LINE
5
8A
100
AcDbEntity
8
1
62
256
6
ByLayer
370
18
48
1
60
0
100
AcDbLine
10
21.173061
20
-13.658266
30
0
11
21.126174
21
-13.504648
31
0
39
0
210
0
220
0
230
1
0
LINE
5
8B
100
AcDbEntity
8
1
62
256
6
ByLayer
370
18
48
1
60
0
100
AcDbLine
10
21.558361
20
1.546604
30
0
11
22.396576
21
-1.199669
31
0
39
0
210
0
220
0
230
1
0
LINE
5
8C
100
AcDbEntity
8
1
62
256
6
ByLayer
370
18
48
1
60
0
100
AcDbLine
10
24.50436
20
-3.235743
30
0
11
28.869572
21
-4.633095
31
0
39
0
210
0
220
0
230
1
0
LINE
5
8D
100
AcDbEntity
8
1
62
256
6
ByLayer
370
18
48
1
60
0
100
AcDbLine
10
30.162863
20
-5.047092
30
0
11
30.701852
21
-5.219629
31
0
39
0
210
0
220
0
230
1
0
LINE
5
8E
100
AcDbEntity
8
1
62
256
6
ByLayer
370
18
48
1
60
0
100
AcDbLine
10
14.40631
20
12.451745
30
0
11
10.721576
21
5.275115
31
0
39
0
210
0
220
0
230
1
0
LINE
5
8F
100
AcDbEntity
8
1
62
256
6
ByLayer
370
18
48
1
60
0
100
AcDbLine
10
4.492811
20
-6.85644
30
0
11
1.376697
21
-12.925588
31
0
39
0
210
0
220
0
230
1
0
LINE
5
90
100
AcDbEntity
8
1
62
256
6
ByLayer
370
18
48
1
60
0
100
AcDbLine
10
13.392923
20
12.448574
30
0
11
9.59953
21
5.060313
31
0
39
0
210
0
220
0
230
1
0
LINE
5
91
100
AcDbEntity
8
1
62
256
6
ByLayer
370
18
48
1
60
0
100
AcDbLine
10
4.009578
20
-5.827048
30
0
11
0.406717
21
-12.844217
31
0
39
0
210
0
220
0
230
1
0
LINE
5
92
100
AcDbEntity
8
1
62
256
6
ByLayer
370
18
48
1
60
0
100
AcDbLine
10
21.339797
20
1.729305
30
0
11
22.175037
21
-1.007218
31
0
39
0
210
0
220
0
230
1
0
LINE
5
93
100
AcDbEntity
8
1
62
256
6
ByLayer
370
18
48
1
60
0
100
AcDbLine
10
32.052058
20
-6.614165
30
0
11
31.745337
21
-5.609242
31
0
39
0
210
0
220
0
230
1
0
LINE
5
94
100
AcDbEntity
8
1
62
256
6
ByLayer
370
18
48
1
60
0
100
AcDbLine
10
22.085413
20
-15.096352
30
0
11
22.474589
21
-15.219059
31
0
39
0
210
0
220
0
230
1
0
LINE
5
95
100
AcDbEntity
8
1
62
256
6
ByLayer
370
18
48
1
60
0
100
AcDbLine
10
20.919483
20
-13.611789
30
0
11
21.056402
21
-14.060382
31
0
39
0
210
0
220
0
230
1
0
LINE
5
96
100
AcDbEntity
8
1
62
256
6
ByLayer
370
18
48
1
60
0
100
AcDbLine
10
30.716326
20
-4.573272
30
0
11
30.481928
21
-4.499367
31
0
39
0
210
0
220
0
230
1
0
LINE
5
97
100
AcDbEntity
8
1
62
256
6
ByLayer
370
18
48
1
60
0
100
AcDbLine
10
30.356045
20
-3.97946
30
0
11
30.319839
21
-3.968044
31
0
39
0
210
0
220
0
230
1
0
LINE
5
98
100
AcDbEntity
8
1
62
256
6
ByLayer
370
18
48
1
60
0
100
AcDbLine
10
21.056402
20
-14.060382
30
0
11
20.769034
21
-13.586742
31
0
39
0
210
0
220
0
230
1
0
LINE
5
99
100
AcDbEntity
8
1
62
256
6
ByLayer
370
18
48
1
60
0
100
AcDbLine
10
14.730346
20
-3.641224
30
0
11
14.859129
21
-3.853483
31
0
39
0
210
0
220
0
230
1
0
LINE
5
9A
100
AcDbEntity
8
1
62
256
6
ByLayer
370
18
48
1
60
0
100
AcDbLine
10
21.225706
20
-13.770927
30
0
11
21.145432
21
-13.507923
31
0
39
0
210
0
220
0
230
1
0
LINE
5
9B
100
AcDbEntity
8
1
62
256
6
ByLayer
370
18
48
1
60
0
100
AcDbLine
10
24.598193
20
-3.335309
30
0
11
30.088724
21
-5.066467
31
0
39
0
210
0
220
0
230
1
0
LINE
5
9C
100
AcDbEntity
8
1
62
256
6
ByLayer
370
18
48
1
60
0
100
AcDbLine
10
30.053532
20
-5.008464
30
0
11
30.088724
21
-5.066467
31
0
39
0
210
0
220
0
230
1
0
LINE
5
9D
100
AcDbEntity
8
1
62
256
6
ByLayer
370
18
48
1
60
0
100
AcDbLine
10
21.225706
20
-13.770927
30
0
11
21.155282
21
-13.654855
31
0
39
0
210
0
220
0
230
1
0
LINE
5
9E
100
AcDbEntity
8
1
62
256
6
ByLayer
370
18
48
1
60
0
100
AcDbLine
10
30.567655
20
-5.357812
30
0
11
30.431255
21
-5.132998
31
0
39
0
210
0
220
0
230
1
0
LINE
5
9F
100
AcDbEntity
8
1
62
256
6
ByLayer
370
18
48
1
60
0
100
AcDbLine
10
31.807471
20
-6.273444
30
0
11
30.675735
21
-5.134054
31
0
39
0
210
0
220
0
230
1
0
LINE
5
A0
100
AcDbEntity
8
1
62
256
6
ByLayer
370
18
48
1
60
0
100
AcDbLine
10
20.670263
20
9.499202
30
0
11
14.924841
21
6.013319
31
0
39
0
210
0
220
0
230
1
0
LINE
5
A1
100
AcDbEntity
8
1
62
256
6
ByLayer
370
18
48
1
60
0
100
AcDbLine
10
14.924841
20
6.013319
30
0
11
17.080771
21
11.645864
31
0
39
0
210
0
220
0
230
1
0
LINE
5
A2
100
AcDbEntity
8
1
62
256
6
ByLayer
370
18
48
1
60
0
100
AcDbLine
10
5.14726
20
-13.030143
30
0
11
1.406423
21
-12.926412
31
0
39
0
210
0
220
0
230
1
0
LINE
5
A3
100
AcDbEntity
8
1
62
256
6
ByLayer
370
18
48
1
60
0
100
AcDbLine
10
0.208393
20
-12.645893
30
0
11
0.406717
21
-12.844217
31
0
39
0
210
0
220
0
230
1
0
LINE
5
A4
100
AcDbEntity
8
1
62
256
6
ByLayer
370
18
48
1
60
0
100
AcDbLine
10
5.14726
20
-13.030143
30
0
11
18.918729
21
-13.412018
31
0
39
0
210
0
220
0
230
1
0
LINE
5
A5
100
AcDbEntity
8
1
62
256
6
ByLayer
370
18
48
1
60
0
100
AcDbLine
10
19.237369
20
2.076773
30
0
11
18.951171
21
1.987562
31
0
39
0
210
0
220
0
230
1
0
LINE
5
A6
100
AcDbEntity
8
1
62
256
6
ByLayer
370
18
48
1
60
0
100
AcDbLine
10
1.376697
20
-12.925588
30
0
11
0.462745
21
-12.900245
31
0
39
0
210
0
220
0
230
1
0
LINE
5
A7
100
AcDbEntity
8
1
62
256
6
ByLayer
370
18
48
1
60
0
100
AcDbLine
10
15.725036
20
12.456649
30
0
11
17.080771
21
11.645864
31
0
39
0
210
0
220
0
230
1
0
LINE
5
A8
100
AcDbEntity
8
1
62
256
6
ByLayer
370
18
48
1
60
0
100
AcDbLine
10
1.406423
20
-12.926412
30
0
11
1.376697
21
-12.925588
31
0
39
0
210
0
220
0
230
1
0
LINE
5
A9
100
AcDbEntity
8
1
62
256
6
ByLayer
370
18
48
1
60
0
100
AcDbLine
10
0
20
-12.4375
30
0
11
0
21
12.4375
31
0
39
0
210
0
220
0
230
1
0
LINE
5
AA
100
AcDbEntity
8
1
62
256
6
ByLayer
370
18
48
1
60
0
100
AcDbLine
10
0
20
12.4375
30
0
11
3.367418
21
12.452193
31
0
39
0
210
0
220
0
230
1
0
LINE
5
AB
100
AcDbEntity
8
1
62
256
6
ByLayer
370
18
48
1
60
0
100
AcDbLine
10
27.446221
20
5.446904
30
0
11
20.670263
21
9.499202
31
0
39
0
210
0
220
0
230
1
0
LINE
5
AC
100
AcDbEntity
8
1
62
256
6
ByLayer
370
18
48
1
60
0
100
AcDbLine
10
14.436907
20
12.452618
30
0
11
14.40631
21
12.451745
31
0
39
0
210
0
220
0
230
1
0
LINE
5
AD
100
AcDbEntity
8
1
62
256
6
ByLayer
370
18
48
1
60
0
100
AcDbLine
10
0.208393
20
-12.645893
30
0
11
0
21
-12.4375
31
0
39
0
210
0
220
0
230
1
0
LINE
5
AE
100
AcDbEntity
8
1
62
256
6
ByLayer
370
18
48
1
60
0
100
AcDbLine
10
3.367418
20
12.452193
30
0
11
0.208393
21
-12.645893
31
0
39
0
210
0
220
0
230
1
0
LINE
5
AF
100
AcDbEntity
8
1
62
256
6
ByLayer
370
18
48
1
60
0
100
AcDbLine
10
27.446221
20
5.446904
30
0
11
30.66308
21
-5.092599
31
0
39
0
210
0
220
0
230
1
0
LINE
5
B0
100
AcDbEntity
8
1
62
256
6
ByLayer
370
18
48
1
60
0
100
AcDbLine
10
15.725036
20
12.456649
30
0
11
14.436907
21
12.452618
31
0
39
0
210
0
220
0
230
1
0
LINE
5
B1
100
AcDbEntity
8
1
62
256
6
ByLayer
370
18
48
1
60
0
100
AcDbLine
10
20.670263
20
9.499202
30
0
11
17.080771
21
11.645864
31
0
39
0
210
0
220
0
230
1
0
LINE
5
B2
100
AcDbEntity
8
1
62
256
6
ByLayer
370
18
48
1
60
0
100
AcDbLine
10
0.406717
20
-12.844217
30
0
11
0.462745
21
-12.900245
31
0
39
0
210
0
220
0
230
1
0
LINE
5
B3
100
AcDbEntity
8
1
62
256
6
ByLayer
370
18
48
1
60
0
100
AcDbLine
10
30.66308
20
-5.092599
30
0
11
30.701852
21
-5.219629
31
0
39
0
210
0
220
0
230
1
0
LINE
5
B4
100
AcDbEntity
8
1
62
256
6
ByLayer
370
18
48
1
60
0
100
AcDbLine
10
13.392923
20
12.448574
30
0
11
3.367418
21
12.452193
31
0
39
0
210
0
220
0
230
1
0
LINE
5
B5
100
AcDbEntity
8
1
62
256
6
ByLayer
370
18
48
1
60
0
100
AcDbLine
10
32.612986
20
-7.607801
30
0
11
36.056372
21
-18.889478
31
0
39
0
210
0
220
0
230
1
0
LINE
5
B6
100
AcDbEntity
8
1
62
256
6
ByLayer
370
18
48
1
60
0
100
AcDbLine
10
32.325948
20
-7.127996
30
0
11
30.567655
21
-5.357812
31
0
39
0
210
0
220
0
230
1
0
LINE
5
B7
100
AcDbEntity
8
1
62
256
6
ByLayer
370
18
48
1
60
0
100
AcDbLine
10
31.807471
20
-6.273444
30
0
11
32.325948
21
-7.127996
31
0
39
0
210
0
220
0
230
1
0
LINE
5
B8
100
AcDbEntity
8
1
62
256
6
ByLayer
370
18
48
1
60
0
100
AcDbLine
10
35.052081
20
-19.875803
30
0
11
23.749969
21
-16.312261
31
0
39
0
210
0
220
0
230
1
0
LINE
5
B9
100
AcDbEntity
8
1
62
256
6
ByLayer
370
18
48
1
60
0
100
AcDbLine
10
21.512745
20
-14.250733
30
0
11
23.271037
21
-16.020916
31
0
39
0
210
0
220
0
230
1
0
LINE
5
BA
100
AcDbEntity
8
1
62
256
6
ByLayer
370
18
48
1
60
0
100
AcDbLine
10
30.716326
20
-4.573272
30
0
11
30.356045
21
-3.97946
31
0
39
0
210
0
220
0
230
1
0
LINE
5
BB
100
AcDbEntity
8
1
62
256
6
ByLayer
370
18
48
1
60
0
100
AcDbLine
10
13.445555
20
-9.172869
30
0
11
13.104323
21
-8.834476
31
0
39
0
210
0
220
0
230
1
0
LINE
5
BC
100
AcDbEntity
8
1
62
256
6
ByLayer
370
18
48
1
60
0
100
AcDbLine
10
12.376285
20
-11.52934
30
0
11
7.556696
21
-9.122948
31
0
39
0
210
0
220
0
230
1
0
LINE
5
BD
100
AcDbEntity
8
1
62
256
6
ByLayer
370
18
48
1
60
0
100
AcDbLine
10
28.789998
20
-9.25003
30
0
11
28.39825
21
-8.26914
31
0
39
0
210
0
220
0
230
1
0
LINE
5
BE
100
AcDbEntity
8
1
62
256
6
ByLayer
370
18
48
1
60
0
100
AcDbLine
10
8.079851
20
3.657598
30
0
11
4.256451
21
-3.78911
31
0
39
0
210
0
220
0
230
1
0
LINE
5
BF
100
AcDbEntity
8
1
62
256
6
ByLayer
370
18
48
1
60
0
100
AcDbLine
10
14.105769
20
3.643658
30
0
11
14.109161
21
3.639067
31
0
39
0
210
0
220
0
230
1
0
LINE
5
C0
100
AcDbEntity
8
1
62
256
6
ByLayer
370
18
48
1
60
0
100
AcDbLine
10
29.050197
20
-9.901538
30
0
11
28.966989
21
-9.693193
31
0
39
0
210
0
220
0
230
1
0
LINE
5
C1
100
AcDbEntity
8
1
62
256
6
ByLayer
370
18
48
1
60
0
100
AcDbLine
10
14.105769
20
3.643658
30
0
11
12.476473
21
4.654527
31
0
39
0
210
0
220
0
230
1
0
LINE
5
C2
100
AcDbEntity
8
1
62
256
6
ByLayer
370
18
48
1
60
0
100
AcDbLine
10
18.928751
20
1.232675
30
0
11
14.109161
21
3.639067
31
0
39
0
210
0
220
0
230
1
0
LINE
5
C3
100
AcDbEntity
8
1
62
256
6
ByLayer
370
18
48
1
60
0
100
AcDbLine
10
9.334295
20
2.413594
30
0
11
8.079851
21
3.657598
31
0
39
0
210
0
220
0
230
1
0
LINE
5
C4
100
AcDbEntity
8
1
62
256
6
ByLayer
370
18
48
1
60
0
100
AcDbLine
10
11.624294
20
-8.263525
30
0
11
13.445555
21
-9.172869
31
0
39
0
210
0
220
0
230
1
0
LINE
5
C5
100
AcDbEntity
8
1
62
256
6
ByLayer
370
18
48
1
60
0
100
AcDbLine
10
5.510894
20
-5.033115
30
0
11
4.256451
21
-3.78911
31
0
39
0
210
0
220
0
230
1
0
LINE
5
C6
100
AcDbEntity
8
1
62
256
6
ByLayer
370
18
48
1
60
0
100
AcDbLine
10
5.510894
20
-5.033115
30
0
11
9.334295
21
2.413594
31
0
39
0
210
0
220
0
230
1
0
LINE
5
C7
100
AcDbEntity
8
1
62
256
6
ByLayer
370
18
48
1
60
0
100
AcDbLine
10
28.789998
20
-9.25003
30
0
11
28.850354
21
-9.480162
31
0
39
0
210
0
220
0
230
1
0
LINE
5
C8
100
AcDbEntity
8
1
62
256
6
ByLayer
370
18
48
1
60
0
100
AcDbLine
10
27.538715
20
-12.845401
30
0
11
27.316075
21
-12.908622
31
0
39
0
210
0
220
0
230
1
0
LINE
5
C9
100
AcDbEntity
8
1
62
256
6
ByLayer
370
18
48
1
60
0
100
AcDbLine
10
12.829133
20
4.281074
30
0
11
14.105769
21
3.643658
31
0
39
0
210
0
220
0
230
1
0
LINE
5
CA
100
AcDbEntity
8
1
62
256
6
ByLayer
370
18
48
1
60
0
100
AcDbLine
10
11.624294
20
-8.263525
30
0
11
11.289879
21
-7.931892
31
0
39
0
210
0
220
0
230
1
0
LINE
5
CB
100
AcDbEntity
8
1
62
256
6
ByLayer
370
18
48
1
60
0
100
AcDbLine
10
11.893054
20
3.219481
30
0
11
18.66103
21
-0.159729
31
0
39
0
210
0
220
0
230
1
0
LINE
5
CC
100
AcDbEntity
8
1
62
256
6
ByLayer
370
18
48
1
60
0
100
AcDbLine
10
12.829133
20
4.281074
30
0
11
12.412842
21
4.693902
31
0
39
0
210
0
220
0
230
1
0
LINE
5
CD
100
AcDbEntity
8
1
62
256
6
ByLayer
370
18
48
1
60
0
100
AcDbLine
10
6.360461
20
-7.556164
30
0
11
13.128437
21
-10.935373
31
0
39
0
210
0
220
0
230
1
0
LINE
5
CE
100
AcDbEntity
8
1
62
256
6
ByLayer
370
18
48
1
60
0
100
AcDbLine
10
26.842504
20
-13.043098
30
0
11
25.794311
21
-13.340744
31
0
39
0
210
0
220
0
230
1
0
LINE
5
CF
100
AcDbEntity
8
1
62
256
6
ByLayer
370
18
48
1
60
0
100
AcDbLine
10
27.066325
20
-12.954854
30
0
11
26.842504
21
-13.043098
31
0
39
0
210
0
220
0
230
1
0
LINE
5
D0
100
AcDbEntity
8
1
62
256
6
ByLayer
370
18
48
1
60
0
100
AcDbLine
10
8.384609
20
-4.921725
30
0
11
8.060696
21
-4.600507
31
0
39
0
210
0
220
0
230
1
0
LINE
5
D1
100
AcDbEntity
8
1
62
256
6
ByLayer
370
18
48
1
60
0
100
AcDbLine
10
26.541071
20
-10.864651
30
0
11
29.025948
21
-11.808307
31
0
39
0
210
0
220
0
230
1
0
LINE
5
D2
100
AcDbEntity
8
1
62
256
6
ByLayer
370
18
48
1
60
0
100
AcDbLine
10
7.551367
20
-9.122128
30
0
11
7.556696
21
-9.122948
31
0
39
0
210
0
220
0
230
1
0
LINE
5
D3
100
AcDbEntity
8
1
62
256
6
ByLayer
370
18
48
1
60
0
100
AcDbLine
10
7.551367
20
-9.122128
30
0
11
6.274732
21
-8.484711
31
0
39
0
210
0
220
0
230
1
0
LINE
5
D4
100
AcDbEntity
8
1
62
256
6
ByLayer
370
18
48
1
60
0
100
AcDbLine
10
8.060696
20
-4.600507
30
0
11
6.710341
21
-3.928781
31
0
39
0
210
0
220
0
230
1
0
LINE
5
D5
100
AcDbEntity
8
1
62
256
6
ByLayer
370
18
48
1
60
0
100
AcDbLine
10
6.710341
20
-3.928781
30
0
11
9.077208
21
0.681086
31
0
39
0
210
0
220
0
230
1
0
LINE
5
D6
100
AcDbEntity
8
1
62
256
6
ByLayer
370
18
48
1
60
0
100
AcDbLine
10
17.223439
20
-1.814812
30
0
11
15.402179
21
-0.905468
31
0
39
0
210
0
220
0
230
1
0
LINE
5
D7
100
AcDbEntity
8
1
62
256
6
ByLayer
370
18
48
1
60
0
100
AcDbLine
10
15.721764
20
-4.552368
30
0
11
15.852404
21
-4.767688
31
0
39
0
210
0
220
0
230
1
0
LINE
5
D8
100
AcDbEntity
8
1
62
256
6
ByLayer
370
18
48
1
60
0
100
AcDbLine
10
13.522394
20
-5.987233
30
0
11
13.653034
21
-6.202553
31
0
39
0
210
0
220
0
230
1
0
LINE
5
D9
100
AcDbEntity
8
1
62
256
6
ByLayer
370
18
48
1
60
0
100
AcDbLine
10
15.412455
20
-5.873565
30
0
11
15.543095
21
-6.088885
31
0
39
0
210
0
220
0
230
1
0
LINE
5
DA
100
AcDbEntity
8
1
62
256
6
ByLayer
370
18
48
1
60
0
100
AcDbLine
10
13.084037
20
-4.711
30
0
11
13.214677
21
-4.92632
31
0
39
0
210
0
220
0
230
1
0
LINE
5
DB
100
AcDbEntity
8
1
62
256
6
ByLayer
370
18
48
1
60
0
100
AcDbLine
10
14.857537
20
-6.235592
30
0
11
14.988177
21
-6.450912
31
0
39
0
210
0
220
0
230
1
0
LINE
5
DC
100
AcDbEntity
8
SK1
62
256
6
ByLayer
370
18
48
1
60
0
100
AcDbLine
10
0
20
-12.4375
30
0
11
0
21
12.4375
31
0
39
0
210
0
220
0
230
1
0
LINE
5
DE
100
AcDbEntity
8
SK1
62
256
6
ByLayer
370
18
48
1
60
0
100
AcDbLine
10
-135.25962
20
-12.4375
30
0
11
-135.25962
21
12.4375
31
0
39
0
210
0
220
0
230
1
0
LINE
5
DF
100
AcDbEntity
8
SK1
62
256
6
ByLayer
370
18
48
1
60
0
100
AcDbLine
10
0
20
-12.4375
30
0
11
-135.25962
21
-12.4375
31
0
39
0
210
0
220
0
230
1
0
LINE
5
E0
100
AcDbEntity
8
SK1
62
256
6
ByLayer
370
18
48
1
60
0
100
AcDbLine
10
-135.25962
20
12.4375
30
0
11
0
21
12.4375
31
0
39
0
210
0
220
0
230
1
0
MTEXT
5
159
100
AcDbEntity
8
SK6
62
256
6
ByLayer
370
18
48
1
60
0
100
AcDbMText
10
-63.70962
20
21.572075
30
0
210
0
220
0
230
1
1
\W0.7525;DDHNL 3225P 15
40
3.5
41
0
44
1.084337
50
0
71
7
72
5
7
iso_b_vert
0
DIMENSION
5
179
100
AcDbEntity
8
2
62
256
6
ByLayer
370
13
48
1
60
0
100
AcDbDimension
2
DimnDraft3D2
10
34.104228
20
-19.575057
30
0
11
22.568238
21
-30.116133
31
0
70
34
71
5
72
1
41
1
210
0
220
0
230
1
3
Standard
100
AcDb2LineAngularDimension
13
36.09038
23
-19.9125
33
0
14
36.09038
24
-18.325
34
0
15
35.057945
25
-19.875763
35
0
16
18.939237
26
-32.777027
36
0
40
0
0
DIMENSION
5
18E
100
AcDbEntity
8
2
62
256
6
ByLayer
370
13
48
1
60
0
100
AcDbDimension
2
DimnDraft3D3
10
36.09038
20
-48.1625
30
0
11
13.326111
21
-48.1625
31
0
70
32
71
5
72
1
41
1
210
0
220
0
230
1
3
Standard
100
AcDbAlignedDimension
13
0
23
-14.4375
33
0
14
36.09038
24
-21.9125
34
0
50
0
100
AcDbRotatedDimension
1001
ACAD
1000
DSTYLE
1002
{
1070
   279
1070
     0
1070
   172
1070
     1
1070
   173
1070
     1
1070
   340
1005
15A
1070
    77
1070
     1
1070
    73
1070
     0
1070
   171
1070
     3
1070
   274
1070
     4
1070
   177
1070
     2
1070
   176
1070
     2
1070
   178
1070
     7
1070
    78
1070
     8
1070
    41
1041
3.175
1070
   147
1041
2.25
1070
    42
1041
2.0
1070
    44
1041
2.0
1070
   140
1041
4.5
1070
   343
1005
17A
1070
   344
1005
17A
1002
}
0
DIMENSION
5
19C
100
AcDbEntity
8
2
62
256
6
ByLayer
370
13
48
1
60
0
100
AcDbDimension
2
DimnDraft3D4
10
58.34038
20
-19.9125
30
0
11
58.34038
21
-9.019079
31
0
70
32
71
5
72
1
41
1
210
0
220
0
230
1
3
Standard
100
AcDbAlignedDimension
13
2
23
12.4375
33
0
14
38.09038
24
-19.9125
34
0
50
90
100
AcDbRotatedDimension
1001
ACAD
1000
DSTYLE
1002
{
1070
    74
1070
     0
1070
   279
1070
     0
1070
   172
1070
     1
1070
   173
1070
     1
1070
   340
1005
15A
1070
    77
1070
     1
1070
    73
1070
     0
1070
   171
1070
     3
1070
   274
1070
     4
1070
   177
1070
     2
1070
   176
1070
     2
1070
   178
1070
     7
1070
    78
1070
     8
1070
    41
1041
3.175
1070
   147
1041
2.25
1070
    42
1041
2.0
1070
    44
1041
2.0
1070
   140
1041
4.5
1070
   343
1005
17A
1070
   344
1005
17A
1002
}
0
DIMENSION
5
1AA
100
AcDbEntity
8
SK2
62
256
6
ByLayer
370
13
48
1
60
0
100
AcDbDimension
2
DimnDraft3D5
10
-143.00962
20
-12.4375
30
0
11
-143.00962
21
-5.281579
31
0
70
32
71
5
72
1
41
1
210
0
220
0
230
1
3
Standard
100
AcDbAlignedDimension
13
-137.25962
23
12.4375
33
0
14
-137.25962
24
-12.4375
34
0
50
90
100
AcDbRotatedDimension
1001
ACAD
1000
DSTYLE
1002
{
1070
    74
1070
     0
1070
   279
1070
     0
1070
   172
1070
     1
1070
   173
1070
     1
1070
   340
1005
15A
1070
    77
1070
     1
1070
    73
1070
     0
1070
   171
1070
     3
1070
   274
1070
     4
1070
   177
1070
     2
1070
   176
1070
     2
1070
   178
1070
     7
1070
    78
1070
     8
1070
    41
1041
3.175
1070
   147
1041
2.25
1070
    42
1041
2.0
1070
    44
1041
2.0
1070
   140
1041
4.5
1070
   343
1005
17A
1070
   344
1005
17A
1002
}
0
ENDSEC
0
SECTION
2
OBJECTS
0
DICTIONARY
5
214
330
0
100
AcDbDictionary
280
0
281
1
3
ACAD_GROUP
350
215
3
ACAD_MLINESTYLE
350
216
0
DICTIONARY
5
215
330
0
100
AcDbDictionary
280
0
281
1
0
DICTIONARY
5
216
330
0
100
AcDbDictionary
280
0
281
1
3
Standard
350
18
0
MLINESTYLE
5
18
330
216
100
AcDbMlineStyle
2
Standard
70
0
3

62
256
51
90
52
90
71
2
49
-0.5
62
256
6
ByLayer
49
0.5
62
256
6
ByLayer
0
RASTERVARIABLES
5
203
330

100
AcDbRasterVariables
90
0
70
1
71
1
72
1
0
ENDSEC
0
EOF
