0
SECTION
2
HEADER
9
$ACADVER
1
AC1015
9
$DWGCODEPAGE
3
ANSI_1252
9
$HANDSEED
5
202
9
$ANGBASE
50
0
9
$ANGDIR
70
0
9
$ATTMODE
70
1
9
$AUNITS
70
0
9
$AUPREC
70
0
9
$CECOLOR
62
256
9
$CELTSCALE
40
1
9
$CELTYPE
6
ByLayer
9
$CELWEIGHT
370
18
9
$CLAYER
8
0
9
$CMLJUST
70
0
9
$CMLSCALE
40
1
9
$CMLSTYLE
2
Standard
9
$DIMSTYLE
2
Standard
9
$TEXTSIZE
40
0.2
9
$TEXTSTYLE
7
Standard
9
$LUNITS
70
2
9
$LUPREC
70
4
9
$EXTNAMES
290
1
9
$INSUNITS
70
4
9
$LTSCALE
40
1
9
$LWDISPLAY
290
1
9
$PDMODE
70
0
9
$PDSIZE
40
0
9
$PLINEGEN
70
0
0
ENDSEC
0
SECTION
2
CLASSES
0
CLASS
1
RASTERVARIABLES
2
AcDbRasterVariables
3
ISM
90
0
280
0
281
0
0
ENDSEC
0
SECTION
2
TABLES
0
TABLE
2
VPORT
5
1f8
100
AcDbSymbolTable
0
VPORT
5
1
100
AcDbSymbolTableRecord
100
AcDbViewportTableRecord
2
*Active
70
0
10
0
20
0
11
1
21
1
12
-1
22
1
13
0
23
0
14
0.5
24
0.5
15
10
25
10
16
0
26
0
36
1
17
0
27
0
37
0
0
ENDTAB
0
TABLE
2
LTYPE
5
1f9
100
AcDbSymbolTable
0
LTYPE
5
14
100
AcDbSymbolTableRecord
100
AcDbLinetypeTableRecord
70
0
2
ByBlock
3

72
65
73
0
40
0
0
LTYPE
5
15
100
AcDbSymbolTableRecord
100
AcDbLinetypeTableRecord
70
0
2
ByLayer
3

72
65
73
0
40
0
0
LTYPE
5
16
100
AcDbSymbolTableRecord
100
AcDbLinetypeTableRecord
70
0
2
CONTINUOUS
3
Solid line
72
65
73
0
40
0
0
LTYPE
5
6A
100
AcDbSymbolTableRecord
100
AcDbLinetypeTableRecord
70
0
2
CENTER
3
____ _ ____ _ ____ _ ____
72
65
73
4
40
47.5
49
22
74
0
49
-8.5
74
0
49
8.5
74
0
49
-8.5
74
0
0
LTYPE
5
6B
100
AcDbSymbolTableRecord
100
AcDbLinetypeTableRecord
70
0
2
DASHED
3
__ __ __ __ __ __ __ __ __
72
65
73
2
40
25.72
49
12.86
74
0
49
-12.86
74
0
0
ENDTAB
0
TABLE
2
LAYER
5
1fa
100
AcDbSymbolTable
0
LAYER
5
10
100
AcDbSymbolTableRecord
100
AcDbLayerTableRecord
2
0
70
0
62
7
6
CONTINUOUS
290
1
370
-3
390
0
0
LAYER
5
6D
100
AcDbSymbolTableRecord
100
AcDbLayerTableRecord
2
2
70
0
62
7
6
CONTINUOUS
290
1
370
-3
390
0
0
LAYER
5
6F
100
AcDbSymbolTableRecord
100
AcDbLayerTableRecord
2
80
70
0
62
-6
6
CONTINUOUS
290
1
370
-3
390
0
0
LAYER
5
71
100
AcDbSymbolTableRecord
100
AcDbLayerTableRecord
2
81
70
0
62
-3
6
CONTINUOUS
290
1
370
-3
390
0
0
LAYER
5
73
100
AcDbSymbolTableRecord
100
AcDbLayerTableRecord
2
1
70
0
62
4
6
CONTINUOUS
290
1
370
-3
390
0
0
LAYER
5
1e5
100
AcDbSymbolTableRecord
100
AcDbLayerTableRecord
2
SK1
70
0
62
4
6
CONTINUOUS
290
1
370
-3
390
0
0
LAYER
5
1e6
100
AcDbSymbolTableRecord
100
AcDbLayerTableRecord
2
SK6
70
0
62
5
6
CONTINUOUS
290
1
370
-3
390
0
0
LAYER
5
1e7
100
AcDbSymbolTableRecord
100
AcDbLayerTableRecord
2
SK2
70
0
62
7
6
CONTINUOUS
290
1
370
-3
390
0
0
ENDTAB
0
TABLE
2
STYLE
5
1fb
100
AcDbSymbolTable
0
STYLE
5
11
100
AcDbSymbolTableRecord
100
AcDbTextStyleTableRecord
2
Standard
3
txt
70
0
71
0
40
0
41
1
42
0
50
0
0
STYLE
5
13B
100
AcDbSymbolTableRecord
100
AcDbTextStyleTableRecord
2
iso_b_vert
3
simplex.shx
70
0
71
0
40
0
41
1
42
0
50
0
0
STYLE
5
13C
100
AcDbSymbolTableRecord
100
AcDbTextStyleTableRecord
2
DWGDirectTextStyle
3
simplex
70
0
71
0
40
0
41
1
42
0
50
0
0
ENDTAB
0
TABLE
2
DIMSTYLE
5
1fc
100
AcDbSymbolTable
100
AcDbDimStyleTable
0
DIMSTYLE
105
27
100
AcDbSymbolTableRecord
100
AcDbDimStyleTableRecord
2
Standard
70
0
3
<>
41
0.18
42
0.0625
44
0.18
140
0.18
147
0.09
73
0
74
0
77
1
271
2
275
0
278
52
280
0
340
11
0
ENDTAB
0
TABLE
2
VIEW
5
1fd
100
AcDbSymbolTable
0
ENDTAB
0
TABLE
2
UCS
5
1fe
100
AcDbSymbolTable
0
ENDTAB
0
TABLE
2
APPID
5
1ff
100
AcDbSymbolTable
0
APPID
5
12
100
AcDbSymbolTableRecord
100
AcDbRegAppTableRecord
2
ACAD
70
0
0
ENDTAB
0
TABLE
2
BLOCK_RECORD
5
200
100
AcDbSymbolTable
0
BLOCK_RECORD
5
1F
100
AcDbSymbolTableRecord
100
AcDbBlockTableRecord
2
*Model_Space
340
0
70
0
0
BLOCK_RECORD
5
1B
100
AcDbSymbolTableRecord
100
AcDbBlockTableRecord
2
*Paper_Space
340
0
70
0
0
BLOCK_RECORD
5
23
100
AcDbSymbolTableRecord
100
AcDbBlockTableRecord
2
*Paper_Space0
340
0
70
0
0
BLOCK_RECORD
5
13E
100
AcDbSymbolTableRecord
100
AcDbBlockTableRecord
2
DimnDraft3D1
340
0
70
0
0
BLOCK_RECORD
5
14C
100
AcDbSymbolTableRecord
100
AcDbBlockTableRecord
2
_CLOSED
340
0
70
0
0
BLOCK_RECORD
5
153
100
AcDbSymbolTableRecord
100
AcDbBlockTableRecord
2
DimnDraft3D2
340
0
70
0
0
BLOCK_RECORD
5
162
100
AcDbSymbolTableRecord
100
AcDbBlockTableRecord
2
DimnDraft3D3
340
0
70
0
0
BLOCK_RECORD
5
170
100
AcDbSymbolTableRecord
100
AcDbBlockTableRecord
2
DimnDraft3D4
340
0
70
0
0
BLOCK_RECORD
5
17E
100
AcDbSymbolTableRecord
100
AcDbBlockTableRecord
2
DimnDraft3D5
340
0
70
0
0
ENDTAB
0
ENDSEC
0
SECTION
2
BLOCKS
0
BLOCK
5
20
100
AcDbEntity
8
0
100
AcDbBlockBegin
2
*Model_Space
70
0
10
0
20
0
30
0
3
*Model_Space
0
ENDBLK
5
21
100
AcDbEntity
8
0
100
AcDbBlockEnd
0
BLOCK
5
1C
100
AcDbEntity
8
0
100
AcDbBlockBegin
2
*Paper_Space
70
0
10
0
20
0
30
0
3
*Paper_Space
0
ENDBLK
5
1D
100
AcDbEntity
8
0
100
AcDbBlockEnd
0
BLOCK
5
24
100
AcDbEntity
8
0
100
AcDbBlockBegin
2
*Paper_Space0
70
0
10
0
20
0
30
0
3
*Paper_Space0
0
ENDBLK
5
25
100
AcDbEntity
8
0
100
AcDbBlockEnd
0
BLOCK
5
149
100
AcDbEntity
8
0
100
AcDbBlockBegin
2
DimnDraft3D1
70
0
10
0
20
0
30
0
3
DimnDraft3D1
0
MTEXT
5
13F
100
AcDbEntity
8
2
62
256
6
ByLayer
370
18
48
1
60
0
100
AcDbMText
10
13.984735
20
43.274881
30
0
210
0
220
0
230
1
1
\W0.7399;95%%d
40
4.5
41
0
44
1.084337
50
47.3457231599999
71
7
72
5
7
iso_b_vert
0
LINE
5
140
100
AcDbEntity
8
2
62
256
6
ByLayer
370
13
48
1
60
0
100
AcDbLine
10
32.166874
20
32.425
30
0
11
32.166874
21
53.40075
31
0
39
0
210
0
220
0
230
1
0
LINE
5
141
100
AcDbEntity
8
2
62
256
6
ByLayer
370
13
48
1
60
0
100
AcDbLine
10
28.318255
20
30.176971
30
0
11
9.335682
21
28.619173
31
0
39
0
210
0
220
0
230
1
0
ARC
5
142
100
AcDbEntity
8
2
62
256
6
ByLayer
370
13
48
1
60
0
100
AcDbCircle
39
0
10
32.166874
20
30.492807
30
0
40
20.9079424705682
210
0
220
0
230
1
100
AcDbArc
50
90
51
184.691446
0
LINE
5
143
100
AcDbEntity
8
2
62
256
6
ByLayer
370
13
48
1
60
0
100
AcDbLine
10
32.166874
20
51.40075
30
0
11
29.009989
21
50.862777
31
0
39
0
210
0
220
0
230
1
0
LINE
5
144
100
AcDbEntity
8
2
62
256
6
ByLayer
370
13
48
1
60
0
100
AcDbLine
10
32.166874
20
51.40075
30
0
11
28.978317
21
51.69817
31
0
39
0
210
0
220
0
230
1
0
LINE
5
145
100
AcDbEntity
8
2
62
256
6
ByLayer
370
13
48
1
60
0
100
AcDbLine
10
29.009989
20
50.862777
30
0
11
28.978317
21
51.69817
31
0
39
0
210
0
220
0
230
1
0
LINE
5
146
100
AcDbEntity
8
2
62
256
6
ByLayer
370
13
48
1
60
0
100
AcDbLine
10
11.328981
20
28.782752
30
0
11
10.771766
21
31.936298
31
0
39
0
210
0
220
0
230
1
0
LINE
5
147
100
AcDbEntity
8
2
62
256
6
ByLayer
370
13
48
1
60
0
100
AcDbLine
10
11.328981
20
28.782752
30
0
11
11.606951
21
31.973064
31
0
39
0
210
0
220
0
230
1
0
LINE
5
148
100
AcDbEntity
8
2
62
256
6
ByLayer
370
13
48
1
60
0
100
AcDbLine
10
10.771766
20
31.936298
30
0
11
11.606951
21
31.973064
31
0
39
0
210
0
220
0
230
1
0
ENDBLK
5
14A
100
AcDbEntity
8
0
100
AcDbBlockEnd
0
BLOCK
5
14D
100
AcDbEntity
8
0
100
AcDbBlockBegin
2
_CLOSED
70
0
10
0
20
0
30
0
3
_CLOSED
0
LINE
5
14F
100
AcDbEntity
8
0
62
256
6
ByLayer
370
-2
48
1
60
0
100
AcDbLine
10
-1
20
0.166667
30
0
11
0
21
0
31
0
39
0
210
0
220
0
230
1
0
LINE
5
150
100
AcDbEntity
8
0
62
256
6
ByLayer
370
-2
48
1
60
0
100
AcDbLine
10
0
20
0
30
0
11
-1
21
-0.166667
31
0
39
0
210
0
220
0
230
1
0
LINE
5
151
100
AcDbEntity
8
0
62
256
6
ByLayer
370
-2
48
1
60
0
100
AcDbLine
10
-1
20
0.166667
30
0
11
-1
21
-0.166667
31
0
39
0
210
0
220
0
230
1
0
LINE
5
152
100
AcDbEntity
8
0
62
256
6
ByLayer
370
-2
48
1
60
0
100
AcDbLine
10
0
20
0
30
0
11
-1
21
0
31
0
39
0
210
0
220
0
230
1
0
ENDBLK
5
14E
100
AcDbEntity
8
0
100
AcDbBlockEnd
0
BLOCK
5
15F
100
AcDbEntity
8
0
100
AcDbBlockBegin
2
DimnDraft3D2
70
0
10
0
20
0
30
0
3
DimnDraft3D2
0
MTEXT
5
154
100
AcDbEntity
8
SK2
62
256
6
ByLayer
370
18
48
1
60
0
100
AcDbMText
10
-228.058126
20
-4.393421
30
0
210
0
220
0
230
1
1
\W0.7640;40.0
40
4.5
41
0
44
1.084337
50
90
71
7
72
5
7
iso_b_vert
0
LINE
5
156
100
AcDbEntity
8
SK2
62
256
6
ByLayer
370
13
48
1
60
0
100
AcDbLine
10
-221.183126
20
-19.925
30
0
11
-228.933126
21
-19.925
31
0
39
0
210
0
220
0
230
1
0
LINE
5
157
100
AcDbEntity
8
SK2
62
256
6
ByLayer
370
13
48
1
60
0
100
AcDbLine
10
-221.183126
20
19.925
30
0
11
-228.933126
21
19.925
31
0
39
0
210
0
220
0
230
1
0
LINE
5
158
100
AcDbEntity
8
SK2
62
256
6
ByLayer
370
13
48
1
60
0
100
AcDbLine
10
-226.933126
20
-19.925
30
0
11
-226.933126
21
19.925
31
0
39
0
210
0
220
0
230
1
0
LINE
5
159
100
AcDbEntity
8
SK2
62
256
6
ByLayer
370
13
48
1
60
0
100
AcDbLine
10
-226.933126
20
-19.925
30
0
11
-227.351123
21
-16.750002
31
0
39
0
210
0
220
0
230
1
0
LINE
5
15A
100
AcDbEntity
8
SK2
62
256
6
ByLayer
370
13
48
1
60
0
100
AcDbLine
10
-226.933126
20
-19.925
30
0
11
-226.515129
21
-16.749998
31
0
39
0
210
0
220
0
230
1
0
LINE
5
15B
100
AcDbEntity
8
SK2
62
256
6
ByLayer
370
13
48
1
60
0
100
AcDbLine
10
-227.351123
20
-16.750002
30
0
11
-226.515129
21
-16.749998
31
0
39
0
210
0
220
0
230
1
0
LINE
5
15C
100
AcDbEntity
8
SK2
62
256
6
ByLayer
370
13
48
1
60
0
100
AcDbLine
10
-226.933126
20
19.925
30
0
11
-226.515129
21
16.750002
31
0
39
0
210
0
220
0
230
1
0
LINE
5
15D
100
AcDbEntity
8
SK2
62
256
6
ByLayer
370
13
48
1
60
0
100
AcDbLine
10
-226.933126
20
19.925
30
0
11
-227.351123
21
16.749998
31
0
39
0
210
0
220
0
230
1
0
LINE
5
15E
100
AcDbEntity
8
SK2
62
256
6
ByLayer
370
13
48
1
60
0
100
AcDbLine
10
-226.515129
20
16.750002
30
0
11
-227.351123
21
16.749998
31
0
39
0
210
0
220
0
230
1
0
ENDBLK
5
160
100
AcDbEntity
8
0
100
AcDbBlockEnd
0
BLOCK
5
16D
100
AcDbEntity
8
0
100
AcDbBlockBegin
2
DimnDraft3D3
70
0
10
0
20
0
30
0
3
DimnDraft3D3
0
MTEXT
5
163
100
AcDbEntity
8
2
62
256
6
ByLayer
370
18
48
1
60
0
100
AcDbMText
10
53.291874
20
1.093421
30
0
210
0
220
0
230
1
1
\W0.7346;50.0
40
4.5
41
0
44
1.084337
50
90
71
7
72
5
7
iso_b_vert
0
LINE
5
164
100
AcDbEntity
8
2
62
256
6
ByLayer
370
13
48
1
60
0
100
AcDbLine
10
2
20
-19.925
30
0
11
56.416874
21
-19.925
31
0
39
0
210
0
220
0
230
1
0
LINE
5
165
100
AcDbEntity
8
2
62
256
6
ByLayer
370
13
48
1
60
0
100
AcDbLine
10
34.166874
20
30.425
30
0
11
56.416874
21
30.425
31
0
39
0
210
0
220
0
230
1
0
LINE
5
166
100
AcDbEntity
8
2
62
256
6
ByLayer
370
13
48
1
60
0
100
AcDbLine
10
54.416874
20
-19.925
30
0
11
54.416874
21
30.425
31
0
39
0
210
0
220
0
230
1
0
LINE
5
167
100
AcDbEntity
8
2
62
256
6
ByLayer
370
13
48
1
60
0
100
AcDbLine
10
54.416874
20
-19.925
30
0
11
53.998877
21
-16.750002
31
0
39
0
210
0
220
0
230
1
0
LINE
5
168
100
AcDbEntity
8
2
62
256
6
ByLayer
370
13
48
1
60
0
100
AcDbLine
10
54.416874
20
-19.925
30
0
11
54.834871
21
-16.749998
31
0
39
0
210
0
220
0
230
1
0
LINE
5
169
100
AcDbEntity
8
2
62
256
6
ByLayer
370
13
48
1
60
0
100
AcDbLine
10
53.998877
20
-16.750002
30
0
11
54.834871
21
-16.749998
31
0
39
0
210
0
220
0
230
1
0
LINE
5
16A
100
AcDbEntity
8
2
62
256
6
ByLayer
370
13
48
1
60
0
100
AcDbLine
10
54.416874
20
30.425
30
0
11
54.834871
21
27.250002
31
0
39
0
210
0
220
0
230
1
0
LINE
5
16B
100
AcDbEntity
8
2
62
256
6
ByLayer
370
13
48
1
60
0
100
AcDbLine
10
54.416874
20
30.425
30
0
11
53.998877
21
27.249998
31
0
39
0
210
0
220
0
230
1
0
LINE
5
16C
100
AcDbEntity
8
2
62
256
6
ByLayer
370
13
48
1
60
0
100
AcDbLine
10
54.834871
20
27.250002
30
0
11
53.998877
21
27.249998
31
0
39
0
210
0
220
0
230
1
0
ENDBLK
5
16E
100
AcDbEntity
8
0
100
AcDbBlockEnd
0
BLOCK
5
17B
100
AcDbEntity
8
0
100
AcDbBlockBegin
2
DimnDraft3D4
70
0
10
0
20
0
30
0
3
DimnDraft3D4
0
MTEXT
5
171
100
AcDbEntity
8
2
62
256
6
ByLayer
370
18
48
1
60
0
100
AcDbMText
10
11.926858
20
61.3
30
0
210
0
220
0
230
1
1
\W0.7346;32.2
40
4.5
41
0
44
1.084337
50
0
71
7
72
5
7
iso_b_vert
0
LINE
5
172
100
AcDbEntity
8
2
62
256
6
ByLayer
370
13
48
1
60
0
100
AcDbLine
10
0
20
21.925
30
0
11
0
21
62.175
31
0
39
0
210
0
220
0
230
1
0
LINE
5
173
100
AcDbEntity
8
2
62
256
6
ByLayer
370
13
48
1
60
0
100
AcDbLine
10
32.166874
20
32.425
30
0
11
32.166874
21
62.175
31
0
39
0
210
0
220
0
230
1
0
LINE
5
174
100
AcDbEntity
8
2
62
256
6
ByLayer
370
13
48
1
60
0
100
AcDbLine
10
0
20
60.175
30
0
11
32.166874
21
60.175
31
0
39
0
210
0
220
0
230
1
0
LINE
5
175
100
AcDbEntity
8
2
62
256
6
ByLayer
370
13
48
1
60
0
100
AcDbLine
10
0
20
60.175
30
0
11
3.174998
21
60.592997
31
0
39
0
210
0
220
0
230
1
0
LINE
5
176
100
AcDbEntity
8
2
62
256
6
ByLayer
370
13
48
1
60
0
100
AcDbLine
10
0
20
60.175
30
0
11
3.175002
21
59.757003
31
0
39
0
210
0
220
0
230
1
0
LINE
5
177
100
AcDbEntity
8
2
62
256
6
ByLayer
370
13
48
1
60
0
100
AcDbLine
10
3.174998
20
60.592997
30
0
11
3.175002
21
59.757003
31
0
39
0
210
0
220
0
230
1
0
LINE
5
178
100
AcDbEntity
8
2
62
256
6
ByLayer
370
13
48
1
60
0
100
AcDbLine
10
32.166874
20
60.175
30
0
11
28.991876
21
59.757003
31
0
39
0
210
0
220
0
230
1
0
LINE
5
179
100
AcDbEntity
8
2
62
256
6
ByLayer
370
13
48
1
60
0
100
AcDbLine
10
32.166874
20
60.175
30
0
11
28.991873
21
60.592997
31
0
39
0
210
0
220
0
230
1
0
LINE
5
17A
100
AcDbEntity
8
2
62
256
6
ByLayer
370
13
48
1
60
0
100
AcDbLine
10
28.991876
20
59.757003
30
0
11
28.991873
21
60.592997
31
0
39
0
210
0
220
0
230
1
0
ENDBLK
5
17C
100
AcDbEntity
8
0
100
AcDbBlockEnd
0
BLOCK
5
189
100
AcDbEntity
8
0
100
AcDbBlockBegin
2
DimnDraft3D5
70
0
10
0
20
0
30
0
3
DimnDraft3D5
0
MTEXT
5
17F
100
AcDbEntity
8
SK2
62
256
6
ByLayer
370
18
48
1
60
0
100
AcDbMText
10
-99.346284
20
71.3
30
0
210
0
220
0
230
1
1
\W0.7468;250.0
40
4.5
41
0
44
1.084337
50
0
71
7
72
5
7
iso_b_vert
0
LINE
5
180
100
AcDbEntity
8
SK2
62
256
6
ByLayer
370
13
48
1
60
0
100
AcDbLine
10
32.166874
20
32.425
30
0
11
32.166874
21
72.175
31
0
39
0
210
0
220
0
230
1
0
LINE
5
181
100
AcDbEntity
8
SK2
62
256
6
ByLayer
370
13
48
1
60
0
100
AcDbLine
10
-219.183126
20
21.925
30
0
11
-219.183126
21
72.175
31
0
39
0
210
0
220
0
230
1
0
LINE
5
182
100
AcDbEntity
8
SK2
62
256
6
ByLayer
370
13
48
1
60
0
100
AcDbLine
10
32.166874
20
70.175
30
0
11
-219.183126
21
70.175
31
0
39
0
210
0
220
0
230
1
0
LINE
5
183
100
AcDbEntity
8
SK2
62
256
6
ByLayer
370
13
48
1
60
0
100
AcDbLine
10
32.166874
20
70.175
30
0
11
28.991876
21
69.757003
31
0
39
0
210
0
220
0
230
1
0
LINE
5
184
100
AcDbEntity
8
SK2
62
256
6
ByLayer
370
13
48
1
60
0
100
AcDbLine
10
32.166874
20
70.175
30
0
11
28.991873
21
70.592997
31
0
39
0
210
0
220
0
230
1
0
LINE
5
185
100
AcDbEntity
8
SK2
62
256
6
ByLayer
370
13
48
1
60
0
100
AcDbLine
10
28.991876
20
69.757003
30
0
11
28.991873
21
70.592997
31
0
39
0
210
0
220
0
230
1
0
LINE
5
186
100
AcDbEntity
8
SK2
62
256
6
ByLayer
370
13
48
1
60
0
100
AcDbLine
10
-219.183126
20
70.175
30
0
11
-216.008127
21
70.592997
31
0
39
0
210
0
220
0
230
1
0
LINE
5
187
100
AcDbEntity
8
SK2
62
256
6
ByLayer
370
13
48
1
60
0
100
AcDbLine
10
-219.183126
20
70.175
30
0
11
-216.008124
21
69.757003
31
0
39
0
210
0
220
0
230
1
0
LINE
5
188
100
AcDbEntity
8
SK2
62
256
6
ByLayer
370
13
48
1
60
0
100
AcDbLine
10
-216.008127
20
70.592997
30
0
11
-216.008124
21
69.757003
31
0
39
0
210
0
220
0
230
1
0
ENDBLK
5
18A
100
AcDbEntity
8
0
100
AcDbBlockEnd
0
ENDSEC
0
SECTION
2
ENTITIES
0
ELLIPSE
5
D1
100
AcDbEntity
8
1
62
256
6
ByLayer
370
18
48
1
60
0
100
AcDbEllipse
10
17.475391
20
-4.346324
30
0
11
-0.52307298110741
21
-0.646976074611917
31
0
210
0
220
0
230
1
40
0.015037
41
-3.0005380976721
42
-1.42974177092928
0
ELLIPSE
5
D2
100
AcDbEntity
8
1
62
256
6
ByLayer
370
18
48
1
60
0
100
AcDbEllipse
10
0.774263
20
19.411237
30
0
11
-0.0555415204330009
21
1.43583217262434
31
0
210
0
220
0
230
1
40
0.146209
41
-0.0769934567014192
42
1.49380287009699
0
ELLIPSE
5
D3
100
AcDbEntity
8
1
62
256
6
ByLayer
370
18
48
1
60
0
100
AcDbEllipse
10
25.331623
20
23.589749
30
0
11
1.82433549546547
21
-1.82433549545711
31
0
210
0
220
0
230
1
40
0.989133
41
0.0601632530895649
42
2.72619714852581
0
ELLIPSE
5
D4
100
AcDbEntity
8
1
62
256
6
ByLayer
370
18
48
1
60
0
100
AcDbEllipse
10
6.293945
20
15.343383
30
0
11
-2.64176164563563
21
1.42549993603113
31
0
210
0
220
0
230
1
40
0.99535
41
0.053994272425291
42
1.10568333548862
0
ELLIPSE
5
D5
100
AcDbEntity
8
1
62
256
6
ByLayer
370
18
48
1
60
0
100
AcDbEllipse
10
8.708599
20
17.89175
30
0
11
-4.61457313765034
21
-2.99901035906992
31
0
210
0
220
0
230
1
40
0.211917
41
0.562020330546667
42
0.615012637463111
0
ELLIPSE
5
D6
100
AcDbEntity
8
1
62
256
6
ByLayer
370
18
48
1
60
0
100
AcDbEllipse
10
9.970896
20
16.096118
30
0
11
4.49946397613839
21
3.16304029810448
31
0
210
0
220
0
230
1
40
0.02553
41
1.9721703332227
42
2.4139380725087
0
ELLIPSE
5
D7
100
AcDbEntity
8
1
62
256
6
ByLayer
370
18
48
1
60
0
100
AcDbEllipse
10
15.371857
20
8.591141
30
0
11
-2.73155517442574
21
-2.19821380478309
31
0
210
0
220
0
230
1
40
0.397671
41
-0.633132940006887
42
0.0900851663824088
0
ELLIPSE
5
D8
100
AcDbEntity
8
1
62
256
6
ByLayer
370
18
48
1
60
0
100
AcDbEllipse
10
25.729348
20
23.96046
30
0
11
-1.96901555077361
21
1.05721853420256
31
0
210
0
220
0
230
1
40
0.792316
41
-1.9796663743499
42
-1.12445504087262
0
ELLIPSE
5
D9
100
AcDbEntity
8
1
62
256
6
ByLayer
370
18
48
1
60
0
100
AcDbEllipse
10
11.123196
20
8.473714
30
0
11
-2.64176164553253
21
1.42549993620071
31
0
210
0
220
0
230
1
40
0.99535
41
1.10568333555377
42
2.15737239862044
0
ELLIPSE
5
DA
100
AcDbEntity
8
1
62
256
6
ByLayer
370
18
48
1
60
0
100
AcDbEllipse
10
8.66359
20
17.362107
30
0
11
-4.14474739229596
21
-0.189995049920456
31
0
210
0
220
0
230
1
40
0.485394
41
-0.655408047037352
42
-0.295792313703085
0
ELLIPSE
5
DB
100
AcDbEntity
8
1
62
256
6
ByLayer
370
18
48
1
60
0
100
AcDbEllipse
10
11.503388
20
8.918394
30
0
11
1.84475298056335
21
-0.772584261231505
31
0
210
0
220
0
230
1
40
0.769512
41
-2.03706734224382
42
-0.624391847984252
0
ELLIPSE
5
DC
100
AcDbEntity
8
1
62
256
6
ByLayer
370
18
48
1
60
0
100
AcDbEllipse
10
6.666633
20
15.798738
30
0
11
0.210927185793125
21
-1.98884632948184
31
0
210
0
220
0
230
1
40
0.785865
41
-2.58712821171059
42
-1.17445271745099
0
ELLIPSE
5
DD
100
AcDbEntity
8
1
62
256
6
ByLayer
370
18
48
1
60
0
100
AcDbEllipse
10
14.546348
20
16.209045
30
0
11
-2.87977528400876
21
2.98820921516755
31
0
210
0
220
0
230
1
40
0.986455
41
-3.08930074312011
42
-0.156280282981033
0
ELLIPSE
5
DE
100
AcDbEntity
8
1
62
256
6
ByLayer
370
18
48
1
60
0
100
AcDbEllipse
10
14.222726
20
10.047832
30
0
11
-4.38100178517228
21
-3.33108858978619
31
0
210
0
220
0
230
1
40
0.262905
41
-0.617119832026701
42
-0.56412751504089
0
ELLIPSE
5
DF
100
AcDbEntity
8
1
62
256
6
ByLayer
370
18
48
1
60
0
100
AcDbEllipse
10
12.960432
20
11.843466
30
0
11
4.49946397613839
21
3.16304029810448
31
0
210
0
220
0
230
1
40
0.02553
41
1.97217033322258
42
2.41393807250862
0
ELLIPSE
5
E0
100
AcDbEntity
8
1
62
256
6
ByLayer
370
18
48
1
60
0
100
AcDbEllipse
10
9.187128
20
3.652774
30
0
11
5.72659051508523
21
4.02568765213298
31
0
210
0
220
0
230
1
40
0.02553
41
-0.823354940523177
42
-0.80857390378311
0
ELLIPSE
5
E1
100
AcDbEntity
8
1
62
256
6
ByLayer
370
18
48
1
60
0
100
AcDbEllipse
10
12.821801
20
15.007495
30
0
11
-1.80419656347537
21
1.8721310745628
31
0
210
0
220
0
230
1
40
0.986455
41
1.31064721821957
42
1.52142843609831
0
ELLIPSE
5
E2
100
AcDbEntity
8
1
62
256
6
ByLayer
370
18
48
1
60
0
100
AcDbEllipse
10
25.729348
20
23.96046
30
0
11
-0.701994003634366
21
2.1771323139433
31
0
210
0
220
0
230
1
40
0.799417
41
-2.2117976407916
42
-1.35658630731763
0
ELLIPSE
5
E3
100
AcDbEntity
8
1
62
256
6
ByLayer
370
18
48
1
60
0
100
AcDbEllipse
10
6.067785
20
17.124656
30
0
11
2.08176526554851
21
-2.16015123988015
31
0
210
0
220
0
230
1
40
0.986455
41
-0.156280282981029
42
-0.0604884076533436
0
ELLIPSE
5
E4
100
AcDbEntity
8
1
62
256
6
ByLayer
370
18
48
1
60
0
100
AcDbEllipse
10
13.492841
20
10.492438
30
0
11
-1.2359228795812
21
-4.14806483903474
31
0
210
0
220
0
230
1
40
0.51148
41
0.211573503658036
42
0.571189237021758
0
ELLIPSE
5
E5
100
AcDbEntity
8
1
62
256
6
ByLayer
370
18
48
1
60
0
100
AcDbEllipse
10
7.70639
20
19.495362
30
0
11
-2.98777498565123
21
-1.83435464435321
31
0
210
0
220
0
230
1
40
0.346844
41
-0.0943604517375538
42
0.628857654662784
0
ELLIPSE
5
E6
100
AcDbEntity
8
1
62
256
6
ByLayer
370
18
48
1
60
0
100
AcDbEllipse
10
12.914961
20
16.426293
30
0
11
-0.268700576851509
21
0.268700576850267
31
0
210
0
220
0
230
1
40
0.989133
41
-1.06840509419349
42
-0.318251980072544
0
ELLIPSE
5
E7
100
AcDbEntity
8
1
62
256
6
ByLayer
370
18
48
1
60
0
100
AcDbEllipse
10
13.933499
20
17.136634
30
0
11
-0.268700576851509
21
0.268700576850267
31
0
210
0
220
0
230
1
40
0.989133
41
-2.11560264539024
42
-0.318294813050739
0
ELLIPSE
5
E8
100
AcDbEntity
8
1
62
256
6
ByLayer
370
18
48
1
60
0
100
AcDbEllipse
10
12.639725
20
15.929638
30
0
11
0.300520382004971
21
-0.300520382003594
31
0
210
0
220
0
230
1
40
0.989133
41
-0.0212075429970997
42
1.76653679499133
0
ELLIPSE
5
E9
100
AcDbEntity
8
1
62
256
6
ByLayer
370
18
48
1
60
0
100
AcDbEllipse
10
13.965909
20
15.809439
30
0
11
2.82842712475267
21
-2.82842712473971
31
0
210
0
220
0
230
1
40
0.989133
41
3.14154186687325
42
-0.790861354621181
0
ELLIPSE
5
EA
100
AcDbEntity
8
1
62
256
6
ByLayer
370
18
48
1
60
0
100
AcDbEllipse
10
13.965909
20
15.809439
30
0
11
2.82842712475267
21
-2.82842712473971
31
0
210
0
220
0
230
1
40
0.989133
41
-0.790861354621178
42
-4.48968146700254E-16
0
ELLIPSE
5
EB
100
AcDbEntity
8
1
62
256
6
ByLayer
370
18
48
1
60
0
100
AcDbEllipse
10
15.183196
20
15.358924
30
0
11
-0.268700576851509
21
0.268700576850267
31
0
210
0
220
0
230
1
40
0.989133
41
-2.82331226018587
42
-1.37505585859849
0
ELLIPSE
5
EC
100
AcDbEntity
8
1
62
256
6
ByLayer
370
18
48
1
60
0
100
AcDbEllipse
10
14.049079
20
15.892608
30
0
11
0.813172798366393
21
-0.813172798362666
31
0
210
0
220
0
230
1
40
0.989133
41
-0.871548499668286
42
-0.790861769890211
0
ELLIPSE
5
ED
100
AcDbEntity
8
1
62
256
6
ByLayer
370
18
48
1
60
0
100
AcDbEllipse
10
14.049079
20
15.892608
30
0
11
0.813172798366393
21
-0.813172798362666
31
0
210
0
220
0
230
1
40
0.989133
41
-2.11748433396723
42
-1.45431416230868
0
ELLIPSE
5
EE
100
AcDbEntity
8
1
62
256
6
ByLayer
370
18
48
1
60
0
100
AcDbEllipse
10
14.049079
20
15.892608
30
0
11
0.813172798366393
21
-0.813172798362666
31
0
210
0
220
0
230
1
40
0.989133
41
0.0350958709234867
42
-2.63663229861767
0
ELLIPSE
5
EF
100
AcDbEntity
8
1
62
256
6
ByLayer
370
18
48
1
60
0
100
AcDbEllipse
10
14.049079
20
15.892608
30
0
11
0.813172798366393
21
-0.813172798362666
31
0
210
0
220
0
230
1
40
0.989133
41
-0.790860895639595
42
-0.118448983741292
0
ELLIPSE
5
F0
100
AcDbEntity
8
1
62
256
6
ByLayer
370
18
48
1
60
0
100
AcDbEllipse
10
15.067617
20
16.60295
30
0
11
-0.268700576851509
21
0.268700576850267
31
0
210
0
220
0
230
1
40
0.989133
41
-3.11070847430898
42
-0.327858307401795
0
ELLIPSE
5
F1
100
AcDbEntity
8
1
62
256
6
ByLayer
370
18
48
1
60
0
100
AcDbEllipse
10
14.164658
20
14.648583
30
0
11
-0.268700576851509
21
0.268700576850267
31
0
210
0
220
0
230
1
40
0.989133
41
-2.82335423483986
42
-2.42225340979502
0
ELLIPSE
5
F2
100
AcDbEntity
8
1
62
256
6
ByLayer
370
18
48
1
60
0
100
AcDbEllipse
10
15.233956
20
16.769288
30
0
11
-0.268700576851509
21
0.268700576850267
31
0
210
0
220
0
230
1
40
0.989133
41
3.12038511059279
42
-0.327858307401795
0
ELLIPSE
5
F3
100
AcDbEntity
8
1
62
256
6
ByLayer
370
18
48
1
60
0
100
AcDbEllipse
10
14.099838
20
17.302972
30
0
11
-0.268700576851509
21
0.268700576850267
31
0
210
0
220
0
230
1
40
0.989133
41
-2.11560264539028
42
0.719339243794816
0
ELLIPSE
5
F4
100
AcDbEntity
8
1
62
256
6
ByLayer
370
18
48
1
60
0
100
AcDbEllipse
10
13.196878
20
15.348606
30
0
11
-0.268700576851509
21
0.268700576850267
31
0
210
0
220
0
230
1
40
0.989133
41
-0.0212075429970818
42
2.81373434618802
0
ELLIPSE
5
F5
100
AcDbEntity
8
1
62
256
6
ByLayer
370
18
48
1
60
0
100
AcDbEllipse
10
15.62477
20
16.021917
30
0
11
0.300520382004971
21
-0.300520382003594
31
0
210
0
220
0
230
1
40
0.989133
41
-3.14157045834452
42
-1.37505585859846
0
ELLIPSE
5
F6
100
AcDbEntity
8
1
62
256
6
ByLayer
370
18
48
1
60
0
100
AcDbEllipse
10
13.300669
20
17.360187
30
0
11
0.300520382004971
21
-0.300520382003594
31
0
210
0
220
0
230
1
40
0.989133
41
-1.06840509419364
42
0.719339243794657
0
ELLIPSE
5
F7
100
AcDbEntity
8
1
62
256
6
ByLayer
370
18
48
1
60
0
100
AcDbEllipse
10
13.081299
20
16.592631
30
0
11
-0.268700576851509
21
0.268700576850267
31
0
210
0
220
0
230
1
40
0.989133
41
-1.06840509419369
42
1.76653679499145
0
ELLIPSE
5
F8
100
AcDbEntity
8
1
62
256
6
ByLayer
370
18
48
1
60
0
100
AcDbEllipse
10
14.139105
20
15.982635
30
0
11
-2.82842712475272
21
2.82842712473966
31
0
210
0
220
0
230
1
40
0.989133
41
0
42
6.28318530717959
0
ELLIPSE
5
F9
100
AcDbEntity
8
1
62
256
6
ByLayer
370
18
48
1
60
0
100
AcDbEllipse
10
14.963826
20
14.591368
30
0
11
0.300520382004971
21
-0.300520382003594
31
0
210
0
220
0
230
1
40
0.989133
41
3.14158919864628
42
-2.42225340979514
0
ELLIPSE
5
FA
100
AcDbEntity
8
1
62
256
6
ByLayer
370
18
48
1
60
0
100
AcDbEllipse
10
14.710023
20
17.323157
30
0
11
0.300520382004971
21
-0.300520382003594
31
0
210
0
220
0
230
1
40
0.989133
41
-2.11560264539029
42
-0.327858307401933
0
ELLIPSE
5
FB
100
AcDbEntity
8
1
62
256
6
ByLayer
370
18
48
1
60
0
100
AcDbEllipse
10
15.130165
20
14.757707
30
0
11
0.300520382004971
21
-0.300520382003594
31
0
210
0
220
0
230
1
40
0.989133
41
2.07318755939612
42
-2.42225340979514
0
ELLIPSE
5
FC
100
AcDbEntity
8
1
62
256
6
ByLayer
370
18
48
1
60
0
100
AcDbEllipse
10
14.876361
20
17.489496
30
0
11
0.300520382004971
21
-0.300520382003594
31
0
210
0
220
0
230
1
40
0.989133
41
-2.11560264539031
42
-0.327858307401996
0
ELLIPSE
5
FD
100
AcDbEntity
8
1
62
256
6
ByLayer
370
18
48
1
60
0
100
AcDbEllipse
10
14.330996
20
14.814921
30
0
11
-0.268700576851509
21
0.268700576850267
31
0
210
0
220
0
230
1
40
0.989133
41
1.02599000819956
42
-2.42225340979497
0
ELLIPSE
5
FE
100
AcDbEntity
8
1
62
256
6
ByLayer
370
18
48
1
60
0
100
AcDbEllipse
10
13.554473
20
14.628398
30
0
11
0.300520382004971
21
-0.300520382003594
31
0
210
0
220
0
230
1
40
0.989133
41
1.0259900081996
42
2.81373434618791
0
ELLIPSE
5
FF
100
AcDbEntity
8
1
62
256
6
ByLayer
370
18
48
1
60
0
100
AcDbEllipse
10
15.791109
20
16.188256
30
0
11
0.300520382004971
21
-0.300520382003594
31
0
210
0
220
0
230
1
40
0.989133
41
3.12038511059283
42
-1.37505585859852
0
ELLIPSE
5
100
100
AcDbEntity
8
1
62
256
6
ByLayer
370
18
48
1
60
0
100
AcDbEllipse
10
14.215417
20
16.058947
30
0
11
-1.62634559673282
21
1.6263455967253
31
0
210
0
220
0
230
1
40
0.989133
41
0
42
6.28318530717959
0
ELLIPSE
5
101
100
AcDbEntity
8
1
62
256
6
ByLayer
370
18
48
1
60
0
100
AcDbEllipse
10
13.134331
20
17.193848
30
0
11
0.300520382004971
21
-0.300520382003594
31
0
210
0
220
0
230
1
40
0.989133
41
-1.0684050941937
42
-3.51676195759719E-06
0
ELLIPSE
5
102
100
AcDbEntity
8
1
62
256
6
ByLayer
370
18
48
1
60
0
100
AcDbEllipse
10
13.997098
20
15.840627
30
0
11
0.813172798366393
21
-0.813172798362666
31
0
210
0
220
0
230
1
40
0.989133
41
0.0827105325832792
42
3.10924201807355
0
ELLIPSE
5
103
100
AcDbEntity
8
1
62
256
6
ByLayer
370
18
48
1
60
0
100
AcDbEllipse
10
15.349535
20
15.525263
30
0
11
-0.268700576851509
21
0.268700576850267
31
0
210
0
220
0
230
1
40
0.989133
41
2.07318755939621
42
-1.37505585859849
0
ELLIPSE
5
104
100
AcDbEntity
8
1
62
256
6
ByLayer
370
18
48
1
60
0
100
AcDbEllipse
10
29.9653
20
17.966357
30
0
11
0.561442784263405
21
-0.561442784260832
31
0
210
0
220
0
230
1
40
0.989133
41
-0.0842560729599249
42
-6.32268066609993E-08
0
ELLIPSE
5
105
100
AcDbEntity
8
1
62
256
6
ByLayer
370
18
48
1
60
0
100
AcDbEllipse
10
20.203088
20
28.718283
30
0
11
-0.561442784263416
21
0.561442784260822
31
0
210
0
220
0
230
1
40
0.989133
41
-0.698131700797738
42
0.698131700797741
0
ELLIPSE
5
106
100
AcDbEntity
8
1
62
256
6
ByLayer
370
18
48
1
60
0
100
AcDbEllipse
10
31.377153
20
29.635279
30
0
11
-0.561442784263416
21
0.561442784260822
31
0
210
0
220
0
230
1
40
0.989133
41
-2.44346095279206
42
-0.698131700797712
0
ELLIPSE
5
107
100
AcDbEntity
8
1
62
256
6
ByLayer
370
18
48
1
60
0
100
AcDbEllipse
10
30.460157
20
18.461214
30
0
11
-0.561442784263416
21
0.561442784260822
31
0
210
0
220
0
230
1
40
0.989133
41
2.44346095279201
42
-2.44346095279203
0
ELLIPSE
5
108
100
AcDbEntity
8
1
62
256
6
ByLayer
370
18
48
1
60
0
100
AcDbEllipse
10
19.708231
20
28.223426
30
0
11
0.561442784263405
21
-0.561442784260832
31
0
210
0
220
0
230
1
40
0.989133
41
3.14159259036299
42
-3.05733670707358
0
POINT
5
6C
100
AcDbEntity
8
2
62
256
6
ByLayer
370
18
48
1
60
0
100
AcDbPoint
10
32.166874
20
30.425
30
0
39
0
210
0
220
0
230
1
50
360
0
POINT
5
6E
100
AcDbEntity
8
80
62
256
6
ByLayer
370
18
48
1
60
0
100
AcDbPoint
10
0
20
0
30
0
39
0
210
0
220
0
230
1
50
360
0
POINT
5
70
100
AcDbEntity
8
81
62
256
6
ByLayer
370
18
48
1
60
0
100
AcDbPoint
10
32.166874
20
30.425
30
0
39
0
210
0
220
0
230
1
50
360
0
SPLINE
5
109
100
AcDbEntity
8
1
62
256
6
ByLayer
370
18
48
1
60
0
100
AcDbSpline
70
4
71
3
72
8
73
4
40
0
40
0
40
0
40
0
40
1
40
1
40
1
40
1
41
1
10
25.4081233860413
20
25.8538087563458
30
0
41
1
10
25.3228921402185
20
25.860061876181
30
0
41
1
10
25.2393292840784
20
25.8623904042928
30
0
41
1
10
25.1588872517261
20
25.8609096158297
30
0
0
SPLINE
5
10A
100
AcDbEntity
8
1
62
256
6
ByLayer
370
18
48
1
60
0
100
AcDbSpline
70
4
71
3
72
10
73
6
40
0
40
0
40
0
40
0
40
0.5
40
0.5
40
1
40
1
40
1
40
1
41
1
10
10.9068861520167
20
22.3306074476031
30
0
41
1
10
12.006438349362
20
23.0820561872706
30
0
41
1
10
13.1944392815325
20
23.6410279963307
30
0
41
1
10
15.6333475394829
20
24.6220784233674
30
0
41
1
10
16.9113968570791
20
25.0017606172336
30
0
41
1
10
18.2079015446761
20
25.276253941966
30
0
0
SPLINE
5
10B
100
AcDbEntity
8
1
62
256
6
ByLayer
370
18
48
1
60
0
100
AcDbSpline
70
4
71
3
72
10
73
6
40
0
40
0
40
0
40
0
40
0.5
40
0.5
40
1
40
1
40
1
40
1
41
1
10
24.459410283689
20
16.3834053796007
30
0
41
1
10
23.7603058565764
20
15.2691110369058
30
0
41
1
10
22.9772130046122
20
14.2165346169759
30
0
41
1
10
21.210850527368
20
12.2584793641532
30
0
41
1
10
20.2649624398664
20
11.3273223012154
30
0
41
1
10
19.1831562212524
20
10.5575108305179
30
0
0
SPLINE
5
10C
100
AcDbEntity
8
1
62
256
6
ByLayer
370
18
48
1
60
0
100
AcDbSpline
70
4
71
3
72
8
73
4
40
0
40
0
40
0
40
0
40
1
40
1
40
1
40
1
41
1
10
5.66442388300743
20
17.4023500784024
30
0
41
1
10
6.47799527386189
20
17.3506437602958
30
0
41
1
10
7.8486926154942
20
16.9524365143838
30
0
41
1
10
9.31090331571522
20
16.4270996824242
30
0
0
SPLINE
5
10D
100
AcDbEntity
8
1
62
256
6
ByLayer
370
18
48
1
60
0
100
AcDbSpline
70
4
71
3
72
8
73
4
40
0
40
0
40
0
40
0
40
1
40
1
40
1
40
1
41
1
10
12.892720012296
20
11.3319210958072
30
0
41
1
10
12.9020819512562
20
9.76250585907391
30
0
41
1
10
12.8394208032269
20
8.30296615777746
30
0
41
1
10
12.65251656886
20
7.4617017342278
30
0
0
SPLINE
5
10E
100
AcDbEntity
8
1
62
256
6
ByLayer
370
18
48
1
60
0
100
AcDbSpline
70
4
71
3
72
12
73
8
40
0
40
0
40
0
40
0
40
0.108853988607126
40
0.502629237162299
40
0.699516861439885
40
0.896404485717471
40
1
40
1
40
1
40
1
41
1.02441262532206
10
18.9578957588324
20
17.8909268302486
30
0
41
1.02394775682001
10
19.2197571847181
20
18.1057348729849
30
0
41
1.02173322384668
10
20.4555178292676
20
19.1264023101832
30
0
41
1.01876555595691
10
22.1705702549477
20
20.5836469527043
30
0
41
1.01610930227499
10
23.3047684697051
20
21.5744536459851
30
0
41
1.01814069306376
10
23.8828468281086
20
21.9561408063603
30
0
41
1.02005196006971
10
24.38642797372
20
22.3105452032412
30
0
41
1.02076673234773
10
24.569183198218
20
22.4418252596138
30
0
0
SPLINE
5
10F
100
AcDbEntity
8
1
62
256
6
ByLayer
370
18
48
1
60
0
100
AcDbSpline
70
4
71
3
72
8
73
4
40
0
40
0
40
0
40
0
40
1
40
1
40
1
40
1
41
1
10
11.7698012166803
20
11.0855307145302
30
0
41
1
10
11.5370851518313
20
10.980884521778
30
0
41
1
10
11.3244779505179
20
10.8546226950921
30
0
41
1
10
11.1282293059733
20
10.7134618243842
30
0
0
SPLINE
5
110
100
AcDbEntity
8
1
62
256
6
ByLayer
370
18
48
1
60
0
100
AcDbSpline
70
4
71
3
72
10
73
6
40
0
40
0
40
0
40
0
40
0.5
40
0.5
40
1
40
1
40
1
40
1
41
1
10
12.7300207035705
20
6.3041173091197
30
0
41
1
10
12.2963490299677
20
6.25709971893068
30
0
41
1
10
11.9410289551098
20
6.36551937093853
30
0
41
1
10
11.0471725043969
20
6.83959327924995
30
0
41
1
10
10.4931161985107
20
7.27627729887115
30
0
41
1
10
10.0522874072057
20
7.84871321664482
30
0
0
SPLINE
5
111
100
AcDbEntity
8
1
62
256
6
ByLayer
370
18
48
1
60
0
100
AcDbSpline
70
4
71
3
72
11
73
7
40
0
40
0
40
0
40
0
40
0.423407924939468
40
0.74096386864407
40
0.89974184049637
40
1
40
1
40
1
40
1
41
1.02805999725225
10
18.8474711250062
20
11.7821385624201
30
0
41
1.02767136955277
10
19.4864354824226
20
12.3622928326277
30
0
41
1.02349884684923
10
21.2480453531734
20
15.1205143200869
30
0
41
1.01876555595691
10
23.2080786780512
20
18.8366241963604
30
0
41
1.01635405201137
10
23.9529627866518
20
20.2254823616133
30
0
41
1.01722454828226
10
24.3266313523599
20
20.5358181613697
30
0
41
1.01774327987904
10
24.4869348645966
20
20.6571325994336
30
0
0
SPLINE
5
112
100
AcDbEntity
8
1
62
256
6
ByLayer
370
18
48
1
60
0
100
AcDbSpline
70
4
71
3
72
15
73
11
40
0
40
0
40
0
40
0
40
0.322163720426458
40
0.322163720426458
40
0.644833452600231
40
0.644833452600231
40
0.912233455904555
40
0.912233455904555
40
0.912233455904555
40
1
40
1
40
1
40
1
41
1
10
13.2738432551012
20
20.3315760786412
30
0
41
1
10
13.7177814214559
20
20.5251749236039
30
0
41
1
10
14.2015026455331
20
20.6443025609104
30
0
41
1
10
15.1670629912043
20
20.7250328678215
30
0
41
1
10
15.6624994081177
20
20.6878807862832
30
0
41
1
10
16.5210504054767
20
20.4704169911247
30
0
41
1
10
16.9023813607606
20
20.3119734863347
30
0
41
1
10
17.2434529802838
20
20.0971129281496
30
0
41
1
10
17.3567992057723
20
20.0257096454295
30
0
41
1
10
17.4663716159933
20
19.9478194439433
30
0
41
1
10
17.5707471734419
20
19.8641628630791
30
0
0
SPLINE
5
113
100
AcDbEntity
8
1
62
256
6
ByLayer
370
18
48
1
60
0
100
AcDbSpline
70
4
71
3
72
10
73
6
40
0
40
0
40
0
40
0
40
0.5
40
0.5
40
1
40
1
40
1
40
1
41
1
10
5.14251635224616
20
14.8329233154273
30
0
41
1
10
4.75068183099631
20
15.4450922336967
30
0
41
1
10
4.5406656542217
20
16.0914558244605
30
0
41
1
10
4.4263405602436
20
17.0581527443268
30
0
41
1
10
4.46476551365879
20
17.4005348149439
30
0
41
1
10
4.67196040889439
20
17.7668078208953
30
0
0
SPLINE
5
114
100
AcDbEntity
8
1
62
256
6
ByLayer
370
18
48
1
60
0
100
AcDbSpline
70
4
71
3
72
8
73
4
40
0
40
0
40
0
40
0
40
1
40
1
40
1
40
1
41
1
10
5.18156775257251
20
14.7747260443905
30
0
41
1
10
5.16804535498255
20
14.7939618223423
30
0
41
1
10
5.1550362024434
20
14.8133633666823
30
0
41
1
10
5.14251635224616
20
14.8329233154273
30
0
0
SPLINE
5
115
100
AcDbEntity
8
1
62
256
6
ByLayer
370
18
48
1
60
0
100
AcDbSpline
70
4
71
3
72
8
73
4
40
0
40
0
40
0
40
0
40
1
40
1
40
1
40
1
41
1
10
27.412253285088
20
22.655468541228
30
0
41
1
10
27.4421705022768
20
22.728821504657
30
0
41
1
10
27.4694137630813
20
22.8066082980331
30
0
41
1
10
27.4933550897969
20
22.8875408467741
30
0
0
SPLINE
5
116
100
AcDbEntity
8
1
62
256
6
ByLayer
370
18
48
1
60
0
100
AcDbSpline
70
4
71
3
72
11
73
7
40
0
40
0
40
0
40
0
40
0.564783939443774
40
0.564783939443774
40
0.564783939443774
40
1
40
1
40
1
40
1
41
1
10
20.3370416100087
20
25.9668108998332
30
0
41
1
10
20.0107109057946
20
25.8105824827609
30
0
41
1
10
19.6289591688879
20
25.6504283132166
30
0
41
1
10
19.2158390672008
20
25.5273089383662
30
0
41
1
10
18.8948671864695
20
25.4316518712354
30
0
41
1
10
18.5532669266369
20
25.3493739953285
30
0
41
1
10
18.2079015446765
20
25.276253941966
30
0
0
SPLINE
5
117
100
AcDbEntity
8
1
62
256
6
ByLayer
370
18
48
1
60
0
100
AcDbSpline
70
4
71
1
72
4
73
2
40
0
40
0
40
1
40
1
41
1
10
11.8593784391537
20
21.7227869065947
30
0
41
1
10
10.9068861520167
20
22.3306074476031
30
0
0
SPLINE
5
118
100
AcDbEntity
8
1
62
256
6
ByLayer
370
18
48
1
60
0
100
AcDbSpline
70
4
71
2
72
6
73
3
40
0
40
0
40
0
40
1
40
1
40
1
41
1.02805999725224
10
18.8474711250062
20
11.7821385624201
30
0
41
1.02805999725224
10
19.0153136731293
20
11.1698246964689
30
0
41
1.02805999725224
10
19.1831562212524
20
10.5575108305179
30
0
0
SPLINE
5
119
100
AcDbEntity
8
1
62
256
6
ByLayer
370
18
48
1
60
0
100
AcDbSpline
70
4
71
3
72
8
73
4
40
0
40
0
40
0
40
0
40
1
40
1
40
1
40
1
41
1
10
10.1430149414033
20
7.99769321633076
30
0
41
1
10
10.594227390596
20
8.70808193942693
30
0
41
1
10
11.1772831645162
20
9.84975616344323
30
0
41
1
10
11.7698012166803
20
11.0855307145302
30
0
0
SPLINE
5
11A
100
AcDbEntity
8
1
62
256
6
ByLayer
370
18
48
1
60
0
100
AcDbSpline
70
4
71
3
72
15
73
11
40
0
40
0
40
0
40
0
40
0.227604479949749
40
0.227604479949749
40
0.479423709218441
40
0.479423709218441
40
0.785574270382839
40
0.785574270382839
40
0.785574270382839
40
1
40
1
40
1
40
1
41
1
10
18.9578957588323
20
17.8909268302485
30
0
41
1
10
19.0682617910721
20
17.5678443513034
30
0
41
1
10
19.1316180200658
20
17.2225933907551
30
0
41
1
10
19.1668352045948
20
16.5002314330451
30
0
41
1
10
19.1295882251817
20
16.1152210697105
30
0
41
1
10
18.941712512294
20
15.2969881549029
30
0
41
1
10
18.7661435922811
20
14.8593160126821
30
0
41
1
10
18.5313179209954
20
14.4631498390127
30
0
41
1
10
18.3658345940465
20
14.1839687082424
30
0
41
1
10
18.168605967759
20
13.9214394033506
30
0
41
1
10
17.9456004956597
20
13.6859435769769
30
0
0
SPLINE
5
11B
100
AcDbEntity
8
1
62
256
6
ByLayer
370
18
48
1
60
0
100
AcDbSpline
70
4
71
3
72
12
73
8
40
0
40
0
40
0
40
0
40
0.108854002841676
40
0.502629245107338
40
0.699516866240169
40
0.896404487373
40
1
40
1
40
1
40
1
41
1.0244126255267
10
17.5707470442475
20
19.864162788417
30
0
41
1.02394775696077
10
17.8643404861537
20
20.0338317277938
30
0
41
1.02173322391444
10
19.2575172538188
20
20.8305728688571
30
0
41
1.01876555595691
10
21.2386519337554
20
21.909312299872
30
0
41
1.01610930227499
10
22.5802225143795
20
22.6051292358598
30
0
41
1.01814069306376
10
23.1475311734624
20
23.0021364268238
30
0
41
1.0200519600697
10
23.6637855611127
20
23.3385129800287
30
0
41
1.02076673234771
10
23.8538362372838
20
23.4594151660888
30
0
0
SPLINE
5
11C
100
AcDbEntity
8
1
62
256
6
ByLayer
370
18
48
1
60
0
100
AcDbSpline
70
4
71
3
72
8
73
4
40
0
40
0
40
0
40
0
40
1
40
1
40
1
40
1
41
1
10
10.0108183040526
20
7.90505735848959
30
0
41
1
10
10.0243407016426
20
7.88582158053774
30
0
41
1
10
10.0381683419069
20
7.86704745492912
30
0
41
1
10
10.0522874072057
20
7.84871321664482
30
0
0
SPLINE
5
11D
100
AcDbEntity
8
1
62
256
6
ByLayer
370
18
48
1
60
0
100
AcDbSpline
70
4
71
3
72
8
73
4
40
0
40
0
40
0
40
0
40
1
40
1
40
1
40
1
41
1
10
8.69854297926076
20
15.4544335732667
30
0
41
1
10
7.3432254156761
20
15.3018561355243
30
0
41
1
10
6.10198343431256
20
15.1110398434026
30
0
41
1
10
5.30625925636105
20
14.8780380476223
30
0
0
SPLINE
5
11E
100
AcDbEntity
8
1
62
256
6
ByLayer
370
18
48
1
60
0
100
AcDbSpline
70
4
71
3
72
8
73
4
40
0
40
0
40
0
40
0
40
1
40
1
40
1
40
1
41
1
10
9.37257984871758
20
16.6333197230598
30
0
41
1
10
9.35526436027436
20
16.5645434541669
30
0
41
1
10
9.33474074272578
20
16.4957720044375
30
0
41
1
10
9.31090331571903
20
16.427099682432
30
0
0
SPLINE
5
11F
100
AcDbEntity
8
1
62
256
6
ByLayer
370
18
48
1
60
0
100
AcDbSpline
70
4
71
3
72
8
73
4
40
0
40
0
40
0
40
0
40
1
40
1
40
1
40
1
41
1
10
12.892720012296
20
11.3319210958072
30
0
41
1
10
12.9656544896668
20
11.3300903911556
30
0
41
1
10
13.0382181202124
20
11.325077379417
30
0
41
1
10
13.1099019538257
20
11.3169327680035
30
0
0
SPLINE
5
120
100
AcDbEntity
8
1
62
256
6
ByLayer
370
18
48
1
60
0
100
AcDbSpline
70
4
71
3
72
20
73
16
40
0
40
0
40
0
40
0
40
0.332873226652408
40
0.332873226652408
40
0.501657261698235
40
0.501657261698235
40
0.631212321676533
40
0.631212321676533
40
0.722542323637688
40
0.722542323637688
40
0.814765347404205
40
0.814765347404205
40
0.896421359038805
40
0.896421359038805
40
1
40
1
40
1
40
1
41
1
10
24.5691831982265
20
22.4418252596199
30
0
41
1
10
24.4852779280626
20
22.2527711505886
30
0
41
1
10
24.4064242755785
20
22.0520096850371
30
0
41
1
10
24.3120017453125
20
21.7245919858794
30
0
41
1
10
24.2842156815273
20
21.6087062946413
30
0
41
1
10
24.2512968785567
20
21.3967830356867
30
0
41
1
10
24.2422835104096
20
21.3006176617148
30
0
41
1
10
24.2430503814734
20
21.1396765209082
30
0
41
1
10
24.2482513176111
20
21.0726727519807
30
0
41
1
10
24.2705032439601
20
20.9489335863241
30
0
41
1
10
24.2881199521857
20
20.8907616193421
30
0
41
1
10
24.3304159251827
20
20.7997787586609
30
0
41
1
10
24.3544556107768
20
20.7636626780622
30
0
41
1
10
24.413215322179
20
20.6989243503699
30
0
41
1
10
24.4497080546103
20
20.6737593344947
30
0
41
1
10
24.4869348645964
20
20.6571325994334
30
0
0
SPLINE
5
121
100
AcDbEntity
8
1
62
256
6
ByLayer
370
18
48
1
60
0
100
AcDbSpline
70
4
71
3
72
8
73
4
40
0
40
0
40
0
40
0
40
1
40
1
40
1
40
1
41
1
10
24.4594102836891
20
16.3834053796009
30
0
41
1
10
24.8915457794837
20
17.07218107543
30
0
41
1
10
25.3789658461431
20
17.678485599676
30
0
41
1
10
25.8570469744899
20
18.1145349422815
30
0
0
SPLINE
5
122
100
AcDbEntity
8
1
62
256
6
ByLayer
370
18
48
1
60
0
100
AcDbSpline
70
4
71
3
72
8
73
4
40
0
40
0
40
0
40
0
40
1
40
1
40
1
40
1
41
1.02417048357497
10
22.6312643245158
20
26.1705816563442
30
0
41
1.02233815524058
10
21.9066182919906
20
26.1792173390945
30
0
41
1.02059845272928
10
21.1944071875589
20
26.1429838031521
30
0
41
1.01923193651505
10
20.624251226013
20
26.0960866516668
30
0
0
SPLINE
5
123
100
AcDbEntity
8
1
62
256
6
ByLayer
370
18
48
1
60
0
100
AcDbSpline
70
4
71
3
72
8
73
4
40
0
40
0
40
0
40
0
40
1
40
1
40
1
40
1
41
1
10
9.37257984871758
20
16.6333197230597
30
0
41
1
10
9.58437254361809
20
17.4745498957919
30
0
41
1
10
10.1008143113963
20
18.2229041587904
30
0
41
1
10
10.8580928043911
20
18.751039411548
30
0
0
SPLINE
5
124
100
AcDbEntity
8
1
62
256
6
ByLayer
370
18
48
1
60
0
100
AcDbSpline
70
4
71
2
72
6
73
3
40
0
40
0
40
0
40
1
40
1
40
1
41
1.02805999725224
10
11.8593784391537
20
21.7227869065947
30
0
41
0.93055444607248
10
12.3637768828774
20
21.400911612602
30
0
41
0.937301687719829
10
13.273843255099
20
20.3315760786437
30
0
0
SPLINE
5
125
100
AcDbEntity
8
1
62
256
6
ByLayer
370
18
48
1
60
0
100
AcDbSpline
70
4
71
3
72
12
73
8
40
0
40
0
40
0
40
0
40
0.466938972358612
40
0.466938972358612
40
0.928803236876547
40
0.928803236876547
40
1
40
1
40
1
40
1
41
1
10
9.31090331571903
20
16.427099682432
30
0
41
1
10
9.25477174585365
20
16.2653924126253
30
0
41
1
10
9.17389581340063
20
16.098783223674
30
0
41
1
10
8.98323699918558
20
15.7913878129927
30
0
41
1
10
8.87162306847864
20
15.6459058756606
30
0
41
1
10
8.735694333786
20
15.494384560962
30
0
41
1
10
8.71719468800745
20
15.4742589214885
30
0
41
1
10
8.69854297926076
20
15.4544335732667
30
0
0
SPLINE
5
126
100
AcDbEntity
8
1
62
256
6
ByLayer
370
18
48
1
60
0
100
AcDbSpline
70
4
71
3
72
8
73
4
40
0
40
0
40
0
40
0
40
1
40
1
40
1
40
1
41
1
10
22.6313558901225
20
26.1705805649092
30
0
41
1
10
23.0388814458622
20
26.1348235431911
30
0
41
1
10
23.4483322709114
20
26.0969240199646
30
0
41
1
10
23.8575735783712
20
26.0570528256883
30
0
0
SPLINE
5
127
100
AcDbEntity
8
1
62
256
6
ByLayer
370
18
48
1
60
0
100
AcDbSpline
70
4
71
3
72
20
73
16
40
0
40
0
40
0
40
0
40
0.110576036200125
40
0.110576036200125
40
0.197179369122809
40
0.197179369122809
40
0.284291117387368
40
0.284291117387368
40
0.365904217918077
40
0.365904217918077
40
0.497270233392073
40
0.497270233392073
40
0.733496364826715
40
0.733496364826715
40
1
40
1
40
1
40
1
41
1
10
22.1475163438189
20
23.9849844025286
30
0
41
1
10
22.1487266678009
20
23.9445292637273
30
0
41
1
10
22.1593969302312
20
23.9014823920036
30
0
41
1
10
22.2027309792152
20
23.8239469414816
30
0
41
1
10
22.2308232667967
20
23.7889133573192
30
0
41
1
10
22.304606683684
20
23.7223969969753
30
0
41
1
10
22.3514254195795
20
23.6901311812847
30
0
41
1
10
22.4523036387865
20
23.6351097035019
30
0
41
1
10
22.5067240763295
20
23.6112039056391
30
0
41
1
10
22.6519436772389
20
23.5580368765812
30
0
41
1
10
22.7471084228396
20
23.5331681150587
30
0
41
1
10
23.0071955203077
20
23.4810501370314
30
0
41
1
10
23.1732615132203
20
23.4654138881483
30
0
41
1
10
23.5115875745707
20
23.4494613068803
30
0
41
1
10
23.6854540319272
20
23.4516118808595
30
0
41
1
10
23.853836237299
20
23.4594151660984
30
0
0
SPLINE
5
128
100
AcDbEntity
8
1
62
256
6
ByLayer
370
18
48
1
60
0
100
AcDbSpline
70
4
71
3
72
12
73
8
40
0
40
0
40
0
40
0
40
0.471343086678529
40
0.471343086678529
40
0.892619726108231
40
0.892619726108231
40
1
40
1
40
1
40
1
41
1
10
11.7698012166803
20
11.0855307145302
30
0
41
1
10
11.9318270744266
20
11.1583894110346
30
0
41
1
10
12.106513988488
20
11.2206193083986
30
0
41
1
10
12.4445486563501
20
11.3023314025642
30
0
41
1
10
12.6107461965981
20
11.3261602162779
30
0
41
1
10
12.8114166908556
20
11.3327667975399
30
0
41
1
10
12.8523415467421
20
11.3329346225695
30
0
41
1
10
12.892720012296
20
11.3319210958072
30
0
0
SPLINE
5
129
100
AcDbEntity
8
1
62
256
6
ByLayer
370
18
48
1
60
0
100
AcDbSpline
70
4
71
3
72
8
73
4
40
0
40
0
40
0
40
0
40
1
40
1
40
1
40
1
41
1
10
13.2738432411305
20
20.3315760725295
30
0
41
1
10
13.0083924167883
20
20.2154500657899
30
0
41
1
10
12.7585338755358
20
20.0764301822417
30
0
41
1
10
12.5251530726224
20
19.9136675652182
30
0
0
SPLINE
5
12A
100
AcDbEntity
8
1
62
256
6
ByLayer
370
18
48
1
60
0
100
AcDbSpline
70
4
71
3
72
8
73
4
40
0
40
0
40
0
40
0
40
1
40
1
40
1
40
1
41
1
10
8.69854297926076
20
15.4544335732667
30
0
41
1
10
8.52324672726786
20
15.2681069859848
30
0
41
1
10
8.33494189483974
20
15.1072747387451
30
0
41
1
10
8.13869325029515
20
14.9661138680371
30
0
0
SPLINE
5
12B
100
AcDbEntity
8
1
62
256
6
ByLayer
370
18
48
1
60
0
100
AcDbSpline
70
4
71
3
72
10
73
6
40
0
40
0
40
0
40
0
40
0.655488757716277
40
0.655488757716277
40
1
40
1
40
1
40
1
41
1
10
13.1552410907415
20
6.28206387214294
30
0
41
1
10
12.8570814080824
20
6.06174309098319
30
0
41
1
10
12.5013724808824
20
5.84567338078378
30
0
41
1
10
11.8779284078645
20
5.6045141347189
30
0
41
1
10
11.6458886312644
20
5.53685703069004
30
0
41
1
10
11.4037507056277
20
5.49474641512003
30
0
0
SPLINE
5
12C
100
AcDbEntity
8
1
62
256
6
ByLayer
370
18
48
1
60
0
100
AcDbSpline
70
4
71
3
72
10
73
6
40
0
40
0
40
0
40
0
40
0.264715639145577
40
0.264715639145577
40
1
40
1
40
1
40
1
41
1
10
25.0988234811593
20
23.5495082142706
30
0
41
1
10
25.0499867588743
20
23.4557277691706
30
0
41
1
10
25.0017778519996
20
23.3606774906506
30
0
41
1
10
24.8218158880295
20
22.9976500371603
30
0
41
1
10
24.6937165475348
20
22.7225776746765
30
0
41
1
10
24.5691831982265
20
22.4418252596199
30
0
0
SPLINE
5
12D
100
AcDbEntity
8
1
62
256
6
ByLayer
370
18
48
1
60
0
100
AcDbSpline
70
4
71
3
72
11
73
7
40
0
40
0
40
0
40
0
40
0.423407924946039
40
0.740963868655568
40
0.899741840510332
40
1
40
1
40
1
40
1
41
1.02805999725224
10
11.8593784391537
20
21.7227869065947
30
0
41
1.02767136955277
10
12.6225686545512
20
22.1262283561055
30
0
41
1.02349884684923
10
15.8060253414239
20
22.8618551479542
30
0
41
1.01876555595691
10
19.9784127485652
20
23.4308639577941
30
0
41
1.01635405201144
10
21.5491250175286
20
23.6449713428073
30
0
41
1.01722454828215
10
21.9754991989341
20
23.8803327518136
30
0
41
1.0177432798788
10
22.1475163437474
20
23.9849844024851
30
0
0
SPLINE
5
12E
100
AcDbEntity
8
1
62
256
6
ByLayer
370
18
48
1
60
0
100
AcDbSpline
70
4
71
3
72
8
73
4
40
0
40
0
40
0
40
0
40
1
40
1
40
1
40
1
41
1
10
26.8398878419392
20
20.1838917712485
30
0
41
1
10
26.9431593009878
20
20.5809399680268
30
0
41
1
10
27.0455640496959
20
20.9798172889063
30
0
41
1
10
27.1465497985651
20
21.3784434422078
30
0
0
SPLINE
5
12F
100
AcDbEntity
8
1
62
256
6
ByLayer
370
18
48
1
60
0
100
AcDbSpline
70
4
71
3
72
8
73
4
40
0
40
0
40
0
40
0
40
1
40
1
40
1
40
1
41
1
10
15.6298522778773
20
11.9631524957173
30
0
41
1
10
14.8748850261423
20
11.4366291307899
30
0
41
1
10
13.9795327321888
20
11.2181266020108
30
0
41
1
10
13.1099019538256
20
11.3169327680035
30
0
0
SPLINE
5
130
100
AcDbEntity
8
1
62
256
6
ByLayer
370
18
48
1
60
0
100
AcDbSpline
70
4
71
3
72
10
73
6
40
0
40
0
40
0
40
0
40
0.5
40
0.5
40
1
40
1
40
1
40
1
41
1
10
24.4869348645964
20
20.6571325994334
30
0
41
1
10
24.9323028387124
20
20.4581720523591
30
0
41
1
10
25.3825050185362
20
20.3237847732072
30
0
41
1
10
26.3120741551832
20
20.4445809267972
30
0
41
1
10
26.7919000251421
20
20.7308319845311
30
0
41
1
10
27.1465497985649
20
21.3784434422081
30
0
0
SPLINE
5
131
100
AcDbEntity
8
1
62
256
6
ByLayer
370
18
48
1
60
0
100
AcDbSpline
70
4
71
3
72
8
73
4
40
0
40
0
40
0
40
0
40
1
40
1
40
1
40
1
41
1.01923193622652
10
26.0830968099453
20
18.3308110575382
30
0
41
1.02059843499303
10
26.3223543974624
20
18.8484043083125
30
0
41
1.02233811057541
10
26.6001392614709
20
19.502598773643
30
0
41
1.02417041321379
10
26.8398483638036
20
20.183779585098
30
0
0
SPLINE
5
132
100
AcDbEntity
8
1
62
256
6
ByLayer
370
18
48
1
60
0
100
AcDbSpline
70
4
71
3
72
10
73
6
40
0
40
0
40
0
40
0
40
0.967465556419485
40
0.967465556419485
40
1
40
1
40
1
40
1
41
1
10
23.853836237299
20
23.4594151660984
30
0
41
1
10
24.2640033720986
20
23.4783459687651
30
0
41
1
10
24.6676751535644
20
23.5057556541278
30
0
41
1
10
25.0725009556381
20
23.5467919779018
30
0
41
1
10
25.0856693587207
20
23.5481427217503
30
0
41
1
10
25.0988234811753
20
23.5495082142723
30
0
0
SPLINE
5
133
100
AcDbEntity
8
1
62
256
6
ByLayer
370
18
48
1
60
0
100
AcDbSpline
70
4
71
3
72
8
73
4
40
0
40
0
40
0
40
0
40
1
40
1
40
1
40
1
41
1
10
26.0830747819832
20
18.330763403925
30
0
41
1
10
26.0093284299045
20
18.2568858522708
30
0
41
1
10
25.9340082845333
20
18.1847299921606
30
0
41
1
10
25.8570469744898
20
18.1145349422815
30
0
0
SPLINE
5
134
100
AcDbEntity
8
1
62
256
6
ByLayer
370
18
48
1
60
0
100
AcDbSpline
70
4
71
2
72
6
73
3
40
0
40
0
40
0
40
1
40
1
40
1
41
0.937301687603846
10
17.9456005080189
20
13.6859435555514
30
0
41
0.930554446910518
10
18.6697069154619
20
12.4306480827478
30
0
41
1.02805999725225
10
18.8474711250062
20
11.7821385624201
30
0
0
SPLINE
5
135
100
AcDbEntity
8
1
62
256
6
ByLayer
370
18
48
1
60
0
100
AcDbSpline
70
4
71
3
72
12
73
8
40
0
40
0
40
0
40
0
40
0.286978363858291
40
0.286978363858291
40
0.569998995185616
40
0.569998995185616
40
1
40
1
40
1
40
1
41
1
10
17.5707471734411
20
19.8641628630789
30
0
41
1
10
17.7531855764954
20
19.7179235542677
30
0
41
1
10
17.9244694214947
20
19.5560045577218
30
0
41
1
10
18.2355010910462
20
19.2101986290043
30
0
41
1
10
18.3767197475549
20
19.0254587508791
30
0
41
1
10
18.6910472509365
20
18.5381504834679
30
0
41
1
10
18.8455614179998
20
18.2197178223396
30
0
41
1
10
18.9578957588323
20
17.8909268302485
30
0
0
SPLINE
5
136
100
AcDbEntity
8
1
62
256
6
ByLayer
370
18
48
1
60
0
100
AcDbSpline
70
4
71
3
72
11
73
7
40
0
40
0
40
0
40
0
40
0.561302936805723
40
0.561302936805723
40
0.561302936805723
40
1
40
1
40
1
40
1
41
1
10
4.57692562904413
20
17.8216574316446
30
0
41
1
10
4.3739132331628
20
17.6493822345835
30
0
41
1
10
4.17116732176351
20
17.4510306165131
30
0
41
1
10
3.98420115927735
20
17.222815429463
30
0
41
1
10
3.83688498806151
20
17.0429979313529
30
0
41
1
10
3.698115630335
20
16.8426625019757
30
0
41
1
10
3.57945961501298
20
16.6248973405253
30
0
0
SPLINE
5
137
100
AcDbEntity
8
1
62
256
6
ByLayer
370
18
48
1
60
0
100
AcDbSpline
70
4
71
3
72
8
73
4
40
0
40
0
40
0
40
0
40
1
40
1
40
1
40
1
41
1
10
17.9456004898166
20
13.6859435708117
30
0
41
1
10
17.7502484874667
20
13.4798254267145
30
0
41
1
10
17.5316831989894
20
13.2895125647213
30
0
41
1
10
17.2969125461087
20
13.1257806493874
30
0
0
SPLINE
5
138
100
AcDbEntity
8
1
62
256
6
ByLayer
370
18
48
1
60
0
100
AcDbSpline
70
4
71
3
72
8
73
4
40
0
40
0
40
0
40
0
40
1
40
1
40
1
40
1
41
1
10
20.3370416100087
20
25.9668108998333
30
0
41
1
10
20.4315441706918
20
26.0120533035488
30
0
41
1
10
20.5273312072789
20
26.0550947575622
30
0
41
1
10
20.6241986131331
20
26.0960823240257
30
0
0
SPLINE
5
139
100
AcDbEntity
8
1
62
256
6
ByLayer
370
18
48
1
60
0
100
AcDbSpline
70
4
71
3
72
10
73
6
40
0
40
0
40
0
40
0
40
0.5
40
0.5
40
1
40
1
40
1
40
1
41
1
10
23.8575735783475
20
26.0570528256853
30
0
41
1
10
23.1249270058627
20
25.9668101510476
30
0
41
1
10
22.6608156106275
20
25.6458129039177
30
0
41
1
10
22.1862038295907
20
24.8847236519281
30
0
41
1
10
22.1338776720436
20
24.4394799975641
30
0
41
1
10
22.1475163438178
20
23.9849844025279
30
0
0
LINE
5
72
100
AcDbEntity
8
1
62
256
6
ByLayer
370
18
48
1
60
0
100
AcDbLine
10
5.101023
20
18.268155
30
0
11
4.578555
21
17.82306
31
0
39
0
210
0
220
0
230
1
0
LINE
5
74
100
AcDbEntity
8
1
62
256
6
ByLayer
370
18
48
1
60
0
100
AcDbLine
10
13.434851
20
16.893328
30
0
11
13.60119
21
17.059667
31
0
39
0
210
0
220
0
230
1
0
LINE
5
75
100
AcDbEntity
8
1
62
256
6
ByLayer
370
18
48
1
60
0
100
AcDbLine
10
12.920103
20
15.608975
30
0
11
12.940246
21
15.629118
31
0
39
0
210
0
220
0
230
1
0
LINE
5
76
100
AcDbEntity
8
1
62
256
6
ByLayer
370
18
48
1
60
0
100
AcDbLine
10
14.829645
20
15.058227
30
0
11
14.663306
21
14.891889
31
0
39
0
210
0
220
0
230
1
0
LINE
5
77
100
AcDbEntity
8
1
62
256
6
ByLayer
370
18
48
1
60
0
100
AcDbLine
10
15.490589
20
16.488776
30
0
11
15.32425
21
16.322437
31
0
39
0
210
0
220
0
230
1
0
LINE
5
78
100
AcDbEntity
8
1
62
256
6
ByLayer
370
18
48
1
60
0
100
AcDbLine
10
16.794336
20
12.981012
30
0
11
16.967532
21
13.154208
31
0
39
0
210
0
220
0
230
1
0
LINE
5
79
100
AcDbEntity
8
1
62
256
6
ByLayer
370
18
48
1
60
0
100
AcDbLine
10
11.310678
20
18.811062
30
0
11
11.137482
21
18.637866
31
0
39
0
210
0
220
0
230
1
0
LINE
5
7A
100
AcDbEntity
8
1
62
256
6
ByLayer
370
18
48
1
60
0
100
AcDbLine
10
30.526743
20
17.404914
30
0
11
31.0216
21
17.899772
31
0
39
0
210
0
220
0
230
1
0
LINE
5
7B
100
AcDbEntity
8
1
62
256
6
ByLayer
370
18
48
1
60
0
100
AcDbLine
10
19.641646
20
29.279726
30
0
11
19.146788
21
28.784869
31
0
39
0
210
0
220
0
230
1
0
LINE
5
7C
100
AcDbEntity
8
1
62
256
6
ByLayer
370
18
48
1
60
0
100
AcDbLine
10
8.016921
20
14.844309
30
0
11
8.396042
21
15.167286
31
0
39
0
210
0
220
0
230
1
0
LINE
5
7D
100
AcDbEntity
8
80
62
256
6
ByLayer
370
18
48
1
60
0
100
AcDbLine
10
0
20
0
30
0
11
-5
21
0
31
0
39
0
210
0
220
0
230
1
0
LINE
5
7E
100
AcDbEntity
8
81
62
256
6
ByLayer
370
18
48
1
60
0
100
AcDbLine
10
32.166874
20
30.425
30
0
11
42.166874
21
30.425
31
0
39
0
210
0
220
0
230
1
0
LINE
5
7F
100
AcDbEntity
8
SK1
62
256
6
ByLayer
370
18
48
1
60
0
100
AcDbLine
10
-219.183126
20
19.925
30
0
11
-219.183126
21
-19.925
31
0
39
0
210
0
220
0
230
1
0
LINE
5
81
100
AcDbEntity
8
SK1
62
256
6
ByLayer
370
18
48
1
60
0
100
AcDbLine
10
-219.183126
20
-19.925
30
0
11
0
21
-19.925
31
0
39
0
210
0
220
0
230
1
0
LINE
5
82
100
AcDbEntity
8
SK1
62
256
6
ByLayer
370
18
48
1
60
0
100
AcDbLine
10
0
20
19.925
30
0
11
-219.183126
21
19.925
31
0
39
0
210
0
220
0
230
1
0
LINE
5
83
100
AcDbEntity
8
SK1
62
256
6
ByLayer
370
18
48
1
60
0
100
AcDbLine
10
0
20
19.925
30
0
11
0
21
-19.925
31
0
39
0
210
0
220
0
230
1
0
LINE
5
84
100
AcDbEntity
8
1
62
256
6
ByLayer
370
18
48
1
60
0
100
AcDbLine
10
0.5
20
20.425
30
0
11
0.5
21
-19.927182
31
0
39
0
210
0
220
0
230
1
0
LINE
5
85
100
AcDbEntity
8
1
62
256
6
ByLayer
370
18
48
1
60
0
100
AcDbLine
10
18.012693
20
-3.683876
30
0
11
20.227976
21
-1.006289
31
0
39
0
210
0
220
0
230
1
0
LINE
5
86
100
AcDbEntity
8
1
62
256
6
ByLayer
370
18
48
1
60
0
100
AcDbLine
10
19.418803
20
0.232955
30
0
11
20.227976
21
-1.006289
31
0
39
0
210
0
220
0
230
1
0
LINE
5
87
100
AcDbEntity
8
1
62
256
6
ByLayer
370
18
48
1
60
0
100
AcDbLine
10
19.365628
20
28.700502
30
0
11
19.102713
21
25.496745
31
0
39
0
210
0
220
0
230
1
0
LINE
5
88
100
AcDbEntity
8
1
62
256
6
ByLayer
370
18
48
1
60
0
100
AcDbLine
10
1.803735
20
25.290607
30
0
11
2.35879
21
27.3621
31
0
39
0
210
0
220
0
230
1
0
LINE
5
89
100
AcDbEntity
8
1
62
256
6
ByLayer
370
18
48
1
60
0
100
AcDbLine
10
0.5
20
-19.927182
30
0
11
0
21
-19.925
31
0
39
0
210
0
220
0
230
1
0
LINE
5
8A
100
AcDbEntity
8
1
62
256
6
ByLayer
370
18
48
1
60
0
100
AcDbLine
10
0.788429
20
20.817854
30
0
11
0.963912
21
22.156345
31
0
39
0
210
0
220
0
230
1
0
LINE
5
8B
100
AcDbEntity
8
1
62
256
6
ByLayer
370
18
48
1
60
0
100
AcDbLine
10
18.012693
20
-3.683876
30
0
11
11.534486
21
5.531454
31
0
39
0
210
0
220
0
230
1
0
LINE
5
8C
100
AcDbEntity
8
1
62
256
6
ByLayer
370
18
48
1
60
0
100
AcDbLine
10
3.656269
20
16.738316
30
0
11
0.788429
21
20.817854
31
0
39
0
210
0
220
0
230
1
0
LINE
5
8D
100
AcDbEntity
8
1
62
256
6
ByLayer
370
18
48
1
60
0
100
AcDbLine
10
24.910628
20
17.050579
30
0
11
30.492203
21
17.533203
31
0
39
0
210
0
220
0
230
1
0
LINE
5
8E
100
AcDbEntity
8
1
62
256
6
ByLayer
370
18
48
1
60
0
100
AcDbLine
10
30.492203
20
17.533203
30
0
11
30.44966
21
17.631035
31
0
39
0
210
0
220
0
230
1
0
LINE
5
8F
100
AcDbEntity
8
1
62
256
6
ByLayer
370
18
48
1
60
0
100
AcDbLine
10
19.254997
20
28.748681
30
0
11
2.35879
21
27.3621
31
0
39
0
210
0
220
0
230
1
0
LINE
5
90
100
AcDbEntity
8
1
62
256
6
ByLayer
370
18
48
1
60
0
100
AcDbLine
10
29.963158
20
11.086517
30
0
11
20.420278
21
-0.76852
31
0
39
0
210
0
220
0
230
1
0
LINE
5
91
100
AcDbEntity
8
1
62
256
6
ByLayer
370
18
48
1
60
0
100
AcDbLine
10
17.392221
20
-4.429494
30
0
11
10.351115
21
5.586568
31
0
39
0
210
0
220
0
230
1
0
LINE
5
92
100
AcDbEntity
8
1
62
256
6
ByLayer
370
18
48
1
60
0
100
AcDbLine
10
3.306063
20
15.608241
30
0
11
0.560681
21
19.51358
31
0
39
0
210
0
220
0
230
1
0
LINE
5
93
100
AcDbEntity
8
1
62
256
6
ByLayer
370
18
48
1
60
0
100
AcDbLine
10
20.420278
20
-0.76852
30
0
11
20.227976
21
-1.006289
31
0
39
0
210
0
220
0
230
1
0
LINE
5
94
100
AcDbEntity
8
1
62
256
6
ByLayer
370
18
48
1
60
0
100
AcDbLine
10
25.006529
20
17.173803
30
0
11
25.883472
21
17.24963
31
0
39
0
210
0
220
0
230
1
0
LINE
5
95
100
AcDbEntity
8
1
62
256
6
ByLayer
370
18
48
1
60
0
100
AcDbLine
10
19.418803
20
0.232955
30
0
11
14.478052
21
7.261235
31
0
39
0
210
0
220
0
230
1
0
LINE
5
96
100
AcDbEntity
8
1
62
256
6
ByLayer
370
18
48
1
60
0
100
AcDbLine
10
6.193741
20
19.04577
30
0
11
1.803735
21
25.290607
31
0
39
0
210
0
220
0
230
1
0
LINE
5
97
100
AcDbEntity
8
1
62
256
6
ByLayer
370
18
48
1
60
0
100
AcDbLine
10
4.90338
20
-19.944274
30
0
11
17.392221
21
-4.429494
31
0
39
0
210
0
220
0
230
1
0
LINE
5
98
100
AcDbEntity
8
1
62
256
6
ByLayer
370
18
48
1
60
0
100
AcDbLine
10
1.641515
20
-19.94577
30
0
11
0.560681
21
19.51358
31
0
39
0
210
0
220
0
230
1
0
LINE
5
99
100
AcDbEntity
8
1
62
256
6
ByLayer
370
18
48
1
60
0
100
AcDbLine
10
0.5
20
-19.927182
30
0
11
1.641515
21
-19.94577
31
0
39
0
210
0
220
0
230
1
0
LINE
5
9A
100
AcDbEntity
8
1
62
256
6
ByLayer
370
18
48
1
60
0
100
AcDbLine
10
17.991901
20
-3.704668
30
0
11
11.504936
21
5.523119
31
0
39
0
210
0
220
0
230
1
0
LINE
5
9B
100
AcDbEntity
8
1
62
256
6
ByLayer
370
18
48
1
60
0
100
AcDbLine
10
3.639041
20
16.712453
30
0
11
0.735033
21
20.84344
31
0
39
0
210
0
220
0
230
1
0
LINE
5
9C
100
AcDbEntity
8
1
62
256
6
ByLayer
370
18
48
1
60
0
100
AcDbLine
10
17.991901
20
-3.704668
30
0
11
18.012693
21
-3.683876
31
0
39
0
210
0
220
0
230
1
0
LINE
5
9D
100
AcDbEntity
8
1
62
256
6
ByLayer
370
18
48
1
60
0
100
AcDbLine
10
0
20
-19.925
30
0
11
0
21
19.925
31
0
39
0
210
0
220
0
230
1
0
LINE
5
9E
100
AcDbEntity
8
1
62
256
6
ByLayer
370
18
48
1
60
0
100
AcDbLine
10
0.5
20
20.425
30
0
11
0
21
19.925
31
0
39
0
210
0
220
0
230
1
0
LINE
5
9F
100
AcDbEntity
8
1
62
256
6
ByLayer
370
18
48
1
60
0
100
AcDbLine
10
20.420278
20
-0.76852
30
0
11
19.418803
21
0.232955
31
0
39
0
210
0
220
0
230
1
0
LINE
5
A0
100
AcDbEntity
8
1
62
256
6
ByLayer
370
18
48
1
60
0
100
AcDbLine
10
19.254997
20
28.748681
30
0
11
19.365628
21
28.700502
31
0
39
0
210
0
220
0
230
1
0
LINE
5
A1
100
AcDbEntity
8
1
62
256
6
ByLayer
370
18
48
1
60
0
100
AcDbLine
10
29.963158
20
11.086517
30
0
11
30.492203
21
17.533203
31
0
39
0
210
0
220
0
230
1
0
LINE
5
A2
100
AcDbEntity
8
1
62
256
6
ByLayer
370
18
48
1
60
0
100
AcDbLine
10
0.963912
20
22.156345
30
0
11
1.803735
21
25.290607
31
0
39
0
210
0
220
0
230
1
0
LINE
5
A3
100
AcDbEntity
8
1
62
256
6
ByLayer
370
18
48
1
60
0
100
AcDbLine
10
0.963912
20
22.156345
30
0
11
0.5
21
20.425
31
0
39
0
210
0
220
0
230
1
0
LINE
5
A4
100
AcDbEntity
8
1
62
256
6
ByLayer
370
18
48
1
60
0
100
AcDbLine
10
0.735033
20
20.84344
30
0
11
0.788429
21
20.817854
31
0
39
0
210
0
220
0
230
1
0
LINE
5
A5
100
AcDbEntity
8
1
62
256
6
ByLayer
370
18
48
1
60
0
100
AcDbLine
10
4.90338
20
-19.944274
30
0
11
1.641515
21
-19.94577
31
0
39
0
210
0
220
0
230
1
0
LINE
5
A6
100
AcDbEntity
8
1
62
256
6
ByLayer
370
18
48
1
60
0
100
AcDbLine
10
18.985509
20
25.464839
30
0
11
19.254997
21
28.748681
31
0
39
0
210
0
220
0
230
1
0
LINE
5
A7
100
AcDbEntity
8
1
62
256
6
ByLayer
370
18
48
1
60
0
100
AcDbLine
10
13.600145
20
6.661082
30
0
11
14.768692
21
7.476041
31
0
39
0
210
0
220
0
230
1
0
LINE
5
A8
100
AcDbEntity
8
1
62
256
6
ByLayer
370
18
48
1
60
0
100
AcDbLine
10
19.183156
20
10.557511
30
0
11
14.771625
21
7.480855
31
0
39
0
210
0
220
0
230
1
0
LINE
5
A9
100
AcDbEntity
8
1
62
256
6
ByLayer
370
18
48
1
60
0
100
AcDbLine
10
25.634975
20
25.824073
30
0
11
25.408123
21
25.853809
31
0
39
0
210
0
220
0
230
1
0
LINE
5
AA
100
AcDbEntity
8
1
62
256
6
ByLayer
370
18
48
1
60
0
100
AcDbLine
10
24.925595
20
25.917058
30
0
11
23.857574
21
26.057053
31
0
39
0
210
0
220
0
230
1
0
LINE
5
AB
100
AcDbEntity
8
1
62
256
6
ByLayer
370
18
48
1
60
0
100
AcDbLine
10
17.296913
20
13.125781
30
0
11
15.629852
21
11.963152
31
0
39
0
210
0
220
0
230
1
0
LINE
5
AC
100
AcDbEntity
8
1
62
256
6
ByLayer
370
18
48
1
60
0
100
AcDbLine
10
25.098823
20
23.549508
30
0
11
27.280779
21
24.971625
31
0
39
0
210
0
220
0
230
1
0
LINE
5
AD
100
AcDbEntity
8
1
62
256
6
ByLayer
370
18
48
1
60
0
100
AcDbLine
10
27.38543
20
22.417912
30
0
11
27.14655
21
21.378443
31
0
39
0
210
0
220
0
230
1
0
LINE
5
AE
100
AcDbEntity
8
1
62
256
6
ByLayer
370
18
48
1
60
0
100
AcDbLine
10
10.858093
20
18.751039
30
0
11
12.525153
21
19.913668
31
0
39
0
210
0
220
0
230
1
0
LINE
5
AF
100
AcDbEntity
8
1
62
256
6
ByLayer
370
18
48
1
60
0
100
AcDbLine
10
8.138693
20
14.966114
30
0
11
7.792518
21
14.671203
31
0
39
0
210
0
220
0
230
1
0
LINE
5
B0
100
AcDbEntity
8
1
62
256
6
ByLayer
370
18
48
1
60
0
100
AcDbLine
10
6.489977
20
19.252616
30
0
11
5.321429
21
18.437656
31
0
39
0
210
0
220
0
230
1
0
LINE
5
B1
100
AcDbEntity
8
1
62
256
6
ByLayer
370
18
48
1
60
0
100
AcDbLine
10
13.600145
20
6.661082
30
0
11
13.155241
21
6.282064
31
0
39
0
210
0
220
0
230
1
0
LINE
5
B2
100
AcDbEntity
8
1
62
256
6
ByLayer
370
18
48
1
60
0
100
AcDbLine
10
10.858093
20
18.751039
30
0
11
10.500693
21
18.446567
31
0
39
0
210
0
220
0
230
1
0
LINE
5
B3
100
AcDbEntity
8
1
62
256
6
ByLayer
370
18
48
1
60
0
100
AcDbLine
10
8.670157
20
6.762935
30
0
11
3.840907
21
13.632604
31
0
39
0
210
0
220
0
230
1
0
LINE
5
B4
100
AcDbEntity
8
1
62
256
6
ByLayer
370
18
48
1
60
0
100
AcDbLine
10
6.557271
20
13.810565
30
0
11
9.546807
21
9.557913
31
0
39
0
210
0
220
0
230
1
0
LINE
5
B5
100
AcDbEntity
8
1
62
256
6
ByLayer
370
18
48
1
60
0
100
AcDbLine
10
10.500693
20
18.446567
30
0
11
12.160468
21
19.602989
31
0
39
0
210
0
220
0
230
1
0
LINE
5
B6
100
AcDbEntity
8
1
62
256
6
ByLayer
370
18
48
1
60
0
100
AcDbLine
10
12.652517
20
7.461702
30
0
11
18.847471
21
11.782139
31
0
39
0
210
0
220
0
230
1
0
LINE
5
B7
100
AcDbEntity
8
1
62
256
6
ByLayer
370
18
48
1
60
0
100
AcDbLine
10
5.181568
20
14.774726
30
0
11
10.010818
21
7.905057
31
0
39
0
210
0
220
0
230
1
0
LINE
5
B8
100
AcDbEntity
8
1
62
256
6
ByLayer
370
18
48
1
60
0
100
AcDbLine
10
7.792518
20
14.671203
30
0
11
6.557271
21
13.810565
31
0
39
0
210
0
220
0
230
1
0
LINE
5
B9
100
AcDbEntity
8
1
62
256
6
ByLayer
370
18
48
1
60
0
100
AcDbLine
10
10.010818
20
7.905057
30
0
11
8.670157
21
6.762935
31
0
39
0
210
0
220
0
230
1
0
LINE
5
BA
100
AcDbEntity
8
1
62
256
6
ByLayer
370
18
48
1
60
0
100
AcDbLine
10
27.38543
20
22.417912
30
0
11
27.412253
21
22.655469
31
0
39
0
210
0
220
0
230
1
0
LINE
5
BB
100
AcDbEntity
8
1
62
256
6
ByLayer
370
18
48
1
60
0
100
AcDbLine
10
14.768692
20
7.476041
30
0
11
14.771625
21
7.480855
31
0
39
0
210
0
220
0
230
1
0
LINE
5
BC
100
AcDbEntity
8
1
62
256
6
ByLayer
370
18
48
1
60
0
100
AcDbLine
10
5.181568
20
14.774726
30
0
11
3.840907
21
13.632604
31
0
39
0
210
0
220
0
230
1
0
LINE
5
BD
100
AcDbEntity
8
1
62
256
6
ByLayer
370
18
48
1
60
0
100
AcDbLine
10
12.525153
20
19.913668
30
0
11
12.160468
21
19.602989
31
0
39
0
210
0
220
0
230
1
0
LINE
5
BE
100
AcDbEntity
8
1
62
256
6
ByLayer
370
18
48
1
60
0
100
AcDbLine
10
10.906886
20
22.330607
30
0
11
6.495355
21
19.253952
31
0
39
0
210
0
220
0
230
1
0
LINE
5
BF
100
AcDbEntity
8
1
62
256
6
ByLayer
370
18
48
1
60
0
100
AcDbLine
10
27.544094
20
23.108328
30
0
11
27.493355
21
22.887541
31
0
39
0
210
0
220
0
230
1
0
LINE
5
C0
100
AcDbEntity
8
1
62
256
6
ByLayer
370
18
48
1
60
0
100
AcDbLine
10
14.768692
20
7.476041
30
0
11
13.215854
21
6.326886
31
0
39
0
210
0
220
0
230
1
0
LINE
5
C1
100
AcDbEntity
8
1
62
256
6
ByLayer
370
18
48
1
60
0
100
AcDbLine
10
5.664424
20
17.40235
30
0
11
11.859378
21
21.722787
31
0
39
0
210
0
220
0
230
1
0
LINE
5
C2
100
AcDbEntity
8
1
62
256
6
ByLayer
370
18
48
1
60
0
100
AcDbLine
10
25.158887
20
25.86091
30
0
11
24.925595
21
25.917058
31
0
39
0
210
0
220
0
230
1
0
LINE
5
C3
100
AcDbEntity
8
1
62
256
6
ByLayer
370
18
48
1
60
0
100
AcDbLine
10
6.489977
20
19.252616
30
0
11
6.495355
21
19.253952
31
0
39
0
210
0
220
0
230
1
0
LINE
5
C4
100
AcDbEntity
8
1
62
256
6
ByLayer
370
18
48
1
60
0
100
AcDbLine
10
13.018514
20
16.788617
30
0
11
13.184853
21
16.954956
31
0
39
0
210
0
220
0
230
1
0
LINE
5
C5
100
AcDbEntity
8
1
62
256
6
ByLayer
370
18
48
1
60
0
100
AcDbLine
10
14.898815
20
16.942923
30
0
11
15.065153
21
17.109262
31
0
39
0
210
0
220
0
230
1
0
LINE
5
C6
100
AcDbEntity
8
1
62
256
6
ByLayer
370
18
48
1
60
0
100
AcDbLine
10
16.794336
20
12.981012
30
0
11
16.794469
21
12.981145
31
0
39
0
210
0
220
0
230
1
0
LINE
5
C7
100
AcDbEntity
8
1
62
256
6
ByLayer
370
18
48
1
60
0
100
AcDbLine
10
14.541905
20
14.621575
30
0
11
14.708244
21
14.787913
31
0
39
0
210
0
220
0
230
1
0
LINE
5
C8
100
AcDbEntity
8
1
62
256
6
ByLayer
370
18
48
1
60
0
100
AcDbLine
10
14.300057
20
17.224682
30
0
11
14.466396
21
17.391021
31
0
39
0
210
0
220
0
230
1
0
LINE
5
C9
100
AcDbEntity
8
1
62
256
6
ByLayer
370
18
48
1
60
0
100
AcDbLine
10
12.9226
20
15.611607
30
0
11
12.933874
21
15.622882
31
0
39
0
210
0
220
0
230
1
0
LINE
5
CA
100
AcDbEntity
8
1
62
256
6
ByLayer
370
18
48
1
60
0
100
AcDbLine
10
15.391641
20
15.67189
30
0
11
15.55798
21
15.838228
31
0
39
0
210
0
220
0
230
1
0
LINE
5
CB
100
AcDbEntity
8
1
62
256
6
ByLayer
370
18
48
1
60
0
100
AcDbLine
10
19.416032
20
28.791407
30
0
11
19.337411
21
28.712786
31
0
39
0
210
0
220
0
230
1
0
LINE
5
CC
100
AcDbEntity
8
1
62
256
6
ByLayer
370
18
48
1
60
0
100
AcDbLine
10
31.30403
20
30.422336
30
0
11
20.129965
21
29.50534
31
0
39
0
210
0
220
0
230
1
0
LINE
5
CD
100
AcDbEntity
8
1
62
256
6
ByLayer
370
18
48
1
60
0
100
AcDbLine
10
25.045244
20
17.223784
30
0
11
30.533281
21
17.674158
31
0
39
0
210
0
220
0
230
1
0
LINE
5
CE
100
AcDbEntity
8
1
62
256
6
ByLayer
370
18
48
1
60
0
100
AcDbLine
10
31.247214
20
18.388091
30
0
11
32.16421
21
29.562156
31
0
39
0
210
0
220
0
230
1
0
LINE
5
CF
100
AcDbEntity
8
1
62
256
6
ByLayer
370
18
48
1
60
0
100
AcDbLine
10
19.416032
20
28.791407
30
0
11
19.146621
21
25.508501
31
0
39
0
210
0
220
0
230
1
0
LINE
5
D0
100
AcDbEntity
8
1
62
256
6
ByLayer
370
18
48
1
60
0
100
AcDbLine
10
30.461928
20
17.602805
30
0
11
30.533281
21
17.674158
31
0
39
0
210
0
220
0
230
1
0
MTEXT
5
13A
100
AcDbEntity
8
SK6
62
256
6
ByLayer
370
18
48
1
60
0
100
AcDbMText
10
-107.633126
20
-30.810385
30
0
210
0
220
0
230
1
1
\W0.7660;DCLNR 4040S 12
40
3.5
41
0
44
1.084337
50
0
71
7
72
5
7
iso_b_vert
0
DIMENSION
5
14B
100
AcDbEntity
8
2
62
256
6
ByLayer
370
13
48
1
60
0
100
AcDbDimension
2
DimnDraft3D1
10
30.311554
20
30.340551
30
0
11
13.480462
21
47.708542
31
0
70
34
71
5
72
1
41
1
210
0
220
0
230
1
3
Standard
100
AcDb2LineAngularDimension
13
32.166874
23
30.425
33
0
14
32.166874
24
28.8375
34
0
15
31.308203
25
30.422341
35
0
16
16.790012
26
44.659464
36
0
40
0
0
DIMENSION
5
161
100
AcDbEntity
8
SK2
62
256
6
ByLayer
370
13
48
1
60
0
100
AcDbDimension
2
DimnDraft3D2
10
-226.933126
20
19.925
30
0
11
-226.933126
21
-5.518421
31
0
70
32
71
5
72
1
41
1
210
0
220
0
230
1
3
Standard
100
AcDbAlignedDimension
13
-221.183126
23
-19.925
33
0
14
-221.183126
24
19.925
34
0
50
90
100
AcDbRotatedDimension
1001
ACAD
1000
DSTYLE
1002
{
1070
    74
1070
     0
1070
   279
1070
     0
1070
   172
1070
     1
1070
   173
1070
     1
1070
   340
1005
13B
1070
    77
1070
     1
1070
    73
1070
     0
1070
   171
1070
     3
1070
   274
1070
     4
1070
   177
1070
     2
1070
   176
1070
     2
1070
   178
1070
     7
1070
    78
1070
     8
1070
    41
1041
3.175
1070
   147
1041
2.25
1070
    42
1041
2.0
1070
    44
1041
2.0
1070
   140
1041
4.5
1070
   343
1005
14C
1070
   344
1005
14C
1002
}
0
DIMENSION
5
16F
100
AcDbEntity
8
2
62
256
6
ByLayer
370
13
48
1
60
0
100
AcDbDimension
2
DimnDraft3D3
10
54.416874
20
30.425
30
0
11
54.416874
21
-0.031579
31
0
70
32
71
5
72
1
41
1
210
0
220
0
230
1
3
Standard
100
AcDbAlignedDimension
13
2
23
-19.925
33
0
14
34.166874
24
30.425
34
0
50
90
100
AcDbRotatedDimension
1001
ACAD
1000
DSTYLE
1002
{
1070
    74
1070
     0
1070
   279
1070
     0
1070
   172
1070
     1
1070
   173
1070
     1
1070
   340
1005
13B
1070
    77
1070
     1
1070
    73
1070
     0
1070
   171
1070
     3
1070
   274
1070
     4
1070
   177
1070
     2
1070
   176
1070
     2
1070
   178
1070
     7
1070
    78
1070
     8
1070
    41
1041
3.175
1070
   147
1041
2.25
1070
    42
1041
2.0
1070
    44
1041
2.0
1070
   140
1041
4.5
1070
   343
1005
14C
1070
   344
1005
14C
1002
}
0
DIMENSION
5
17D
100
AcDbEntity
8
2
62
256
6
ByLayer
370
13
48
1
60
0
100
AcDbDimension
2
DimnDraft3D4
10
32.166874
20
60.175
30
0
11
10.801858
21
60.175
31
0
70
32
71
5
72
1
41
1
210
0
220
0
230
1
3
Standard
100
AcDbAlignedDimension
13
0
23
21.925
33
0
14
32.166874
24
32.425
34
0
50
0
100
AcDbRotatedDimension
1001
ACAD
1000
DSTYLE
1002
{
1070
   279
1070
     0
1070
   172
1070
     1
1070
   173
1070
     1
1070
   340
1005
13B
1070
    77
1070
     1
1070
    73
1070
     0
1070
   171
1070
     3
1070
   274
1070
     4
1070
   177
1070
     2
1070
   176
1070
     2
1070
   178
1070
     7
1070
    78
1070
     8
1070
    41
1041
3.175
1070
   147
1041
2.25
1070
    42
1041
2.0
1070
    44
1041
2.0
1070
   140
1041
4.5
1070
   343
1005
14C
1070
   344
1005
14C
1002
}
0
DIMENSION
5
18B
100
AcDbEntity
8
SK2
62
256
6
ByLayer
370
13
48
1
60
0
100
AcDbDimension
2
DimnDraft3D5
10
-219.183126
20
70.175
30
0
11
-100.471284
21
70.175
31
0
70
32
71
5
72
1
41
1
210
0
220
0
230
1
3
Standard
100
AcDbAlignedDimension
13
32.166874
23
32.425
33
0
14
-219.183126
24
21.925
34
0
50
0
100
AcDbRotatedDimension
1001
ACAD
1000
DSTYLE
1002
{
1070
   279
1070
     0
1070
   172
1070
     1
1070
   173
1070
     1
1070
   340
1005
13B
1070
    77
1070
     1
1070
    73
1070
     0
1070
   171
1070
     3
1070
   274
1070
     4
1070
   177
1070
     2
1070
   176
1070
     2
1070
   178
1070
     7
1070
    78
1070
     8
1070
    41
1041
3.175
1070
   147
1041
2.25
1070
    42
1041
2.0
1070
    44
1041
2.0
1070
   140
1041
4.5
1070
   343
1005
14C
1070
   344
1005
14C
1002
}
0
ENDSEC
0
SECTION
2
OBJECTS
0
DICTIONARY
5
1f5
330
0
100
AcDbDictionary
280
0
281
1
3
ACAD_GROUP
350
1f6
3
ACAD_MLINESTYLE
350
1f7
0
DICTIONARY
5
1f6
330
0
100
AcDbDictionary
280
0
281
1
0
DICTIONARY
5
1f7
330
0
100
AcDbDictionary
280
0
281
1
3
Standard
350
18
0
MLINESTYLE
5
18
330
1f7
100
AcDbMlineStyle
2
Standard
70
0
3

62
256
51
90
52
90
71
2
49
-0.5
62
256
6
ByLayer
49
0.5
62
256
6
ByLayer
0
RASTERVARIABLES
5
1e4
330

100
AcDbRasterVariables
90
0
70
1
71
1
72
1
0
ENDSEC
0
EOF
