0
SECTION
2
HEADER
9
$ACADVER
1
AC1015
9
$DWGCODEPAGE
3
ANSI_1252
9
$HANDSEED
5
220
9
$ANGBASE
50
0
9
$ANGDIR
70
0
9
$ATTMODE
70
1
9
$AUNITS
70
0
9
$AUPREC
70
0
9
$CECOLOR
62
256
9
$CELTSCALE
40
1
9
$CELTYPE
6
ByLayer
9
$CELWEIGHT
370
18
9
$CLAYER
8
0
9
$CMLJUST
70
0
9
$CMLSCALE
40
1
9
$CMLSTYLE
2
Standard
9
$DIMSTYLE
2
Standard
9
$TEXTSIZE
40
0.2
9
$TEXTSTYLE
7
Standard
9
$LUNITS
70
2
9
$LUPREC
70
4
9
$EXTNAMES
290
1
9
$INSUNITS
70
4
9
$LTSCALE
40
1
9
$LWDISPLAY
290
1
9
$PDMODE
70
0
9
$PDSIZE
40
0
9
$PLINEGEN
70
0
0
ENDSEC
0
SECTION
2
CLASSES
0
CLASS
1
RASTERVARIABLES
2
AcDbRasterVariables
3
ISM
90
0
280
0
281
0
0
ENDSEC
0
SECTION
2
TABLES
0
TABLE
2
VPORT
5
216
100
AcDbSymbolTable
0
VPORT
5
1
100
AcDbSymbolTableRecord
100
AcDbViewportTableRecord
2
*Active
70
0
10
0
20
0
11
1
21
1
12
-1
22
1
13
0
23
0
14
0.5
24
0.5
15
10
25
10
16
0
26
0
36
1
17
0
27
0
37
0
0
ENDTAB
0
TABLE
2
LTYPE
5
217
100
AcDbSymbolTable
0
LTYPE
5
14
100
AcDbSymbolTableRecord
100
AcDbLinetypeTableRecord
70
0
2
ByBlock
3

72
65
73
0
40
0
0
LTYPE
5
15
100
AcDbSymbolTableRecord
100
AcDbLinetypeTableRecord
70
0
2
ByLayer
3

72
65
73
0
40
0
0
LTYPE
5
16
100
AcDbSymbolTableRecord
100
AcDbLinetypeTableRecord
70
0
2
CONTINUOUS
3
Solid line
72
65
73
0
40
0
0
LTYPE
5
6A
100
AcDbSymbolTableRecord
100
AcDbLinetypeTableRecord
70
0
2
CENTER
3
____ _ ____ _ ____ _ ____
72
65
73
4
40
47.5
49
22
74
0
49
-8.5
74
0
49
8.5
74
0
49
-8.5
74
0
0
LTYPE
5
6B
100
AcDbSymbolTableRecord
100
AcDbLinetypeTableRecord
70
0
2
DASHED
3
__ __ __ __ __ __ __ __ __
72
65
73
2
40
25.72
49
12.86
74
0
49
-12.86
74
0
0
ENDTAB
0
TABLE
2
LAYER
5
218
100
AcDbSymbolTable
0
LAYER
5
10
100
AcDbSymbolTableRecord
100
AcDbLayerTableRecord
2
0
70
0
62
7
6
CONTINUOUS
290
1
370
-3
390
0
0
LAYER
5
6D
100
AcDbSymbolTableRecord
100
AcDbLayerTableRecord
2
2
70
0
62
7
6
CONTINUOUS
290
1
370
-3
390
0
0
LAYER
5
6F
100
AcDbSymbolTableRecord
100
AcDbLayerTableRecord
2
80
70
0
62
-6
6
CONTINUOUS
290
1
370
-3
390
0
0
LAYER
5
71
100
AcDbSymbolTableRecord
100
AcDbLayerTableRecord
2
81
70
0
62
-3
6
CONTINUOUS
290
1
370
-3
390
0
0
LAYER
5
73
100
AcDbSymbolTableRecord
100
AcDbLayerTableRecord
2
1
70
0
62
4
6
CONTINUOUS
290
1
370
-3
390
0
0
LAYER
5
203
100
AcDbSymbolTableRecord
100
AcDbLayerTableRecord
2
SK1
70
0
62
4
6
CONTINUOUS
290
1
370
-3
390
0
0
LAYER
5
204
100
AcDbSymbolTableRecord
100
AcDbLayerTableRecord
2
SK6
70
0
62
5
6
CONTINUOUS
290
1
370
-3
390
0
0
LAYER
5
205
100
AcDbSymbolTableRecord
100
AcDbLayerTableRecord
2
SK2
70
0
62
7
6
CONTINUOUS
290
1
370
-3
390
0
0
ENDTAB
0
TABLE
2
STYLE
5
219
100
AcDbSymbolTable
0
STYLE
5
11
100
AcDbSymbolTableRecord
100
AcDbTextStyleTableRecord
2
Standard
3
txt
70
0
71
0
40
0
41
1
42
0
50
0
0
STYLE
5
159
100
AcDbSymbolTableRecord
100
AcDbTextStyleTableRecord
2
iso_b_vert
3
simplex.shx
70
0
71
0
40
0
41
1
42
0
50
0
0
STYLE
5
15A
100
AcDbSymbolTableRecord
100
AcDbTextStyleTableRecord
2
DWGDirectTextStyle
3
simplex
70
0
71
0
40
0
41
1
42
0
50
0
0
ENDTAB
0
TABLE
2
DIMSTYLE
5
21a
100
AcDbSymbolTable
100
AcDbDimStyleTable
0
DIMSTYLE
105
27
100
AcDbSymbolTableRecord
100
AcDbDimStyleTableRecord
2
Standard
70
0
3
<>
41
0.18
42
0.0625
44
0.18
140
0.18
147
0.09
73
0
74
0
77
1
271
2
275
0
278
52
280
0
340
11
0
ENDTAB
0
TABLE
2
VIEW
5
21b
100
AcDbSymbolTable
0
ENDTAB
0
TABLE
2
UCS
5
21c
100
AcDbSymbolTable
0
ENDTAB
0
TABLE
2
APPID
5
21d
100
AcDbSymbolTable
0
APPID
5
12
100
AcDbSymbolTableRecord
100
AcDbRegAppTableRecord
2
ACAD
70
0
0
ENDTAB
0
TABLE
2
BLOCK_RECORD
5
21e
100
AcDbSymbolTable
0
BLOCK_RECORD
5
1F
100
AcDbSymbolTableRecord
100
AcDbBlockTableRecord
2
*Model_Space
340
0
70
0
0
BLOCK_RECORD
5
1B
100
AcDbSymbolTableRecord
100
AcDbBlockTableRecord
2
*Paper_Space
340
0
70
0
0
BLOCK_RECORD
5
23
100
AcDbSymbolTableRecord
100
AcDbBlockTableRecord
2
*Paper_Space0
340
0
70
0
0
BLOCK_RECORD
5
15C
100
AcDbSymbolTableRecord
100
AcDbBlockTableRecord
2
DimnDraft3D1
340
0
70
0
0
BLOCK_RECORD
5
16A
100
AcDbSymbolTableRecord
100
AcDbBlockTableRecord
2
_CLOSED
340
0
70
0
0
BLOCK_RECORD
5
171
100
AcDbSymbolTableRecord
100
AcDbBlockTableRecord
2
DimnDraft3D2
340
0
70
0
0
BLOCK_RECORD
5
180
100
AcDbSymbolTableRecord
100
AcDbBlockTableRecord
2
DimnDraft3D3
340
0
70
0
0
BLOCK_RECORD
5
18E
100
AcDbSymbolTableRecord
100
AcDbBlockTableRecord
2
DimnDraft3D4
340
0
70
0
0
BLOCK_RECORD
5
19C
100
AcDbSymbolTableRecord
100
AcDbBlockTableRecord
2
DimnDraft3D5
340
0
70
0
0
ENDTAB
0
ENDSEC
0
SECTION
2
BLOCKS
0
BLOCK
5
20
100
AcDbEntity
8
0
100
AcDbBlockBegin
2
*Model_Space
70
0
10
0
20
0
30
0
3
*Model_Space
0
ENDBLK
5
21
100
AcDbEntity
8
0
100
AcDbBlockEnd
0
BLOCK
5
1C
100
AcDbEntity
8
0
100
AcDbBlockBegin
2
*Paper_Space
70
0
10
0
20
0
30
0
3
*Paper_Space
0
ENDBLK
5
1D
100
AcDbEntity
8
0
100
AcDbBlockEnd
0
BLOCK
5
24
100
AcDbEntity
8
0
100
AcDbBlockBegin
2
*Paper_Space0
70
0
10
0
20
0
30
0
3
*Paper_Space0
0
ENDBLK
5
25
100
AcDbEntity
8
0
100
AcDbBlockEnd
0
BLOCK
5
167
100
AcDbEntity
8
0
100
AcDbBlockBegin
2
DimnDraft3D1
70
0
10
0
20
0
30
0
3
DimnDraft3D1
0
MTEXT
5
15D
100
AcDbEntity
8
2
62
256
6
ByLayer
370
18
48
1
60
0
100
AcDbMText
10
21.089539
20
37.292579
30
0
210
0
220
0
230
1
1
\W0.7399;95%%d
40
4.5
41
0
44
1.084337
50
47.3457231600001
71
7
72
5
7
iso_b_vert
0
LINE
5
15E
100
AcDbEntity
8
2
62
256
6
ByLayer
370
13
48
1
60
0
100
AcDbLine
10
39.254088
20
26.425
30
0
11
39.254088
21
47.410736
31
0
39
0
210
0
220
0
230
1
0
LINE
5
15F
100
AcDbEntity
8
2
62
256
6
ByLayer
370
13
48
1
60
0
100
AcDbLine
10
34.976134
20
24.175642
30
0
11
16.446733
21
22.655033
31
0
39
0
210
0
220
0
230
1
0
ARC
5
160
100
AcDbEntity
8
2
62
256
6
ByLayer
370
13
48
1
60
0
100
AcDbCircle
39
0
10
39.254088
20
24.526711
30
0
40
20.8840256708074
210
0
220
0
230
1
100
AcDbArc
50
90
51
184.691446
0
LINE
5
161
100
AcDbEntity
8
2
62
256
6
ByLayer
370
13
48
1
60
0
100
AcDbLine
10
39.254088
20
45.410736
30
0
11
36.097227
21
44.872627
31
0
39
0
210
0
220
0
230
1
0
LINE
5
162
100
AcDbEntity
8
2
62
256
6
ByLayer
370
13
48
1
60
0
100
AcDbLine
10
39.254088
20
45.410736
30
0
11
36.065518
21
45.708019
31
0
39
0
210
0
220
0
230
1
0
LINE
5
163
100
AcDbEntity
8
2
62
256
6
ByLayer
370
13
48
1
60
0
100
AcDbLine
10
36.097227
20
44.872627
30
0
11
36.065518
21
45.708019
31
0
39
0
210
0
220
0
230
1
0
LINE
5
164
100
AcDbEntity
8
2
62
256
6
ByLayer
370
13
48
1
60
0
100
AcDbLine
10
18.440032
20
22.818612
30
0
11
17.882954
21
25.972181
31
0
39
0
210
0
220
0
230
1
0
LINE
5
165
100
AcDbEntity
8
2
62
256
6
ByLayer
370
13
48
1
60
0
100
AcDbLine
10
18.440032
20
22.818612
30
0
11
18.71814
21
26.008912
31
0
39
0
210
0
220
0
230
1
0
LINE
5
166
100
AcDbEntity
8
2
62
256
6
ByLayer
370
13
48
1
60
0
100
AcDbLine
10
17.882954
20
25.972181
30
0
11
18.71814
21
26.008912
31
0
39
0
210
0
220
0
230
1
0
ENDBLK
5
168
100
AcDbEntity
8
0
100
AcDbBlockEnd
0
BLOCK
5
16B
100
AcDbEntity
8
0
100
AcDbBlockBegin
2
_CLOSED
70
0
10
0
20
0
30
0
3
_CLOSED
0
LINE
5
16D
100
AcDbEntity
8
0
62
256
6
ByLayer
370
-2
48
1
60
0
100
AcDbLine
10
-1
20
0.166667
30
0
11
0
21
0
31
0
39
0
210
0
220
0
230
1
0
LINE
5
16E
100
AcDbEntity
8
0
62
256
6
ByLayer
370
-2
48
1
60
0
100
AcDbLine
10
0
20
0
30
0
11
-1
21
-0.166667
31
0
39
0
210
0
220
0
230
1
0
LINE
5
16F
100
AcDbEntity
8
0
62
256
6
ByLayer
370
-2
48
1
60
0
100
AcDbLine
10
-1
20
0.166667
30
0
11
-1
21
-0.166667
31
0
39
0
210
0
220
0
230
1
0
LINE
5
170
100
AcDbEntity
8
0
62
256
6
ByLayer
370
-2
48
1
60
0
100
AcDbLine
10
0
20
0
30
0
11
-1
21
0
31
0
39
0
210
0
220
0
230
1
0
ENDBLK
5
16C
100
AcDbEntity
8
0
100
AcDbBlockEnd
0
BLOCK
5
17D
100
AcDbEntity
8
0
100
AcDbBlockBegin
2
DimnDraft3D2
70
0
10
0
20
0
30
0
3
DimnDraft3D2
0
MTEXT
5
172
100
AcDbEntity
8
SK2
62
256
6
ByLayer
370
18
48
1
60
0
100
AcDbMText
10
-140.970912
20
-4.156579
30
0
210
0
220
0
230
1
1
\W0.7346;32.0
40
4.5
41
0
44
1.084337
50
90
71
7
72
5
7
iso_b_vert
0
LINE
5
174
100
AcDbEntity
8
SK2
62
256
6
ByLayer
370
13
48
1
60
0
100
AcDbLine
10
-134.095912
20
-15.925
30
0
11
-141.845912
21
-15.925
31
0
39
0
210
0
220
0
230
1
0
LINE
5
175
100
AcDbEntity
8
SK2
62
256
6
ByLayer
370
13
48
1
60
0
100
AcDbLine
10
-134.095912
20
15.925
30
0
11
-141.845912
21
15.925
31
0
39
0
210
0
220
0
230
1
0
LINE
5
176
100
AcDbEntity
8
SK2
62
256
6
ByLayer
370
13
48
1
60
0
100
AcDbLine
10
-139.845912
20
-15.925
30
0
11
-139.845912
21
15.925
31
0
39
0
210
0
220
0
230
1
0
LINE
5
177
100
AcDbEntity
8
SK2
62
256
6
ByLayer
370
13
48
1
60
0
100
AcDbLine
10
-139.845912
20
-15.925
30
0
11
-140.263908
21
-12.750002
31
0
39
0
210
0
220
0
230
1
0
LINE
5
178
100
AcDbEntity
8
SK2
62
256
6
ByLayer
370
13
48
1
60
0
100
AcDbLine
10
-139.845912
20
-15.925
30
0
11
-139.427915
21
-12.749998
31
0
39
0
210
0
220
0
230
1
0
LINE
5
179
100
AcDbEntity
8
SK2
62
256
6
ByLayer
370
13
48
1
60
0
100
AcDbLine
10
-140.263908
20
-12.750002
30
0
11
-139.427915
21
-12.749998
31
0
39
0
210
0
220
0
230
1
0
LINE
5
17A
100
AcDbEntity
8
SK2
62
256
6
ByLayer
370
13
48
1
60
0
100
AcDbLine
10
-139.845912
20
15.925
30
0
11
-139.427915
21
12.750002
31
0
39
0
210
0
220
0
230
1
0
LINE
5
17B
100
AcDbEntity
8
SK2
62
256
6
ByLayer
370
13
48
1
60
0
100
AcDbLine
10
-139.845912
20
15.925
30
0
11
-140.263908
21
12.749998
31
0
39
0
210
0
220
0
230
1
0
LINE
5
17C
100
AcDbEntity
8
SK2
62
256
6
ByLayer
370
13
48
1
60
0
100
AcDbLine
10
-139.427915
20
12.750002
30
0
11
-140.263908
21
12.749998
31
0
39
0
210
0
220
0
230
1
0
ENDBLK
5
17E
100
AcDbEntity
8
0
100
AcDbBlockEnd
0
BLOCK
5
18B
100
AcDbEntity
8
0
100
AcDbBlockBegin
2
DimnDraft3D3
70
0
10
0
20
0
30
0
3
DimnDraft3D3
0
MTEXT
5
181
100
AcDbEntity
8
2
62
256
6
ByLayer
370
18
48
1
60
0
100
AcDbMText
10
60.379088
20
-0.143421
30
0
210
0
220
0
230
1
1
\W0.7640;40.0
40
4.5
41
0
44
1.084337
50
90
71
7
72
5
7
iso_b_vert
0
LINE
5
182
100
AcDbEntity
8
2
62
256
6
ByLayer
370
13
48
1
60
0
100
AcDbLine
10
2
20
-15.925
30
0
11
63.504088
21
-15.925
31
0
39
0
210
0
220
0
230
1
0
LINE
5
183
100
AcDbEntity
8
2
62
256
6
ByLayer
370
13
48
1
60
0
100
AcDbLine
10
41.254088
20
24.425
30
0
11
63.504088
21
24.425
31
0
39
0
210
0
220
0
230
1
0
LINE
5
184
100
AcDbEntity
8
2
62
256
6
ByLayer
370
13
48
1
60
0
100
AcDbLine
10
61.504088
20
-15.925
30
0
11
61.504088
21
24.425
31
0
39
0
210
0
220
0
230
1
0
LINE
5
185
100
AcDbEntity
8
2
62
256
6
ByLayer
370
13
48
1
60
0
100
AcDbLine
10
61.504088
20
-15.925
30
0
11
61.086092
21
-12.750002
31
0
39
0
210
0
220
0
230
1
0
LINE
5
186
100
AcDbEntity
8
2
62
256
6
ByLayer
370
13
48
1
60
0
100
AcDbLine
10
61.504088
20
-15.925
30
0
11
61.922085
21
-12.749998
31
0
39
0
210
0
220
0
230
1
0
LINE
5
187
100
AcDbEntity
8
2
62
256
6
ByLayer
370
13
48
1
60
0
100
AcDbLine
10
61.086092
20
-12.750002
30
0
11
61.922085
21
-12.749998
31
0
39
0
210
0
220
0
230
1
0
LINE
5
188
100
AcDbEntity
8
2
62
256
6
ByLayer
370
13
48
1
60
0
100
AcDbLine
10
61.504088
20
24.425
30
0
11
61.922085
21
21.250002
31
0
39
0
210
0
220
0
230
1
0
LINE
5
189
100
AcDbEntity
8
2
62
256
6
ByLayer
370
13
48
1
60
0
100
AcDbLine
10
61.504088
20
24.425
30
0
11
61.086092
21
21.249998
31
0
39
0
210
0
220
0
230
1
0
LINE
5
18A
100
AcDbEntity
8
2
62
256
6
ByLayer
370
13
48
1
60
0
100
AcDbLine
10
61.922085
20
21.250002
30
0
11
61.086092
21
21.249998
31
0
39
0
210
0
220
0
230
1
0
ENDBLK
5
18C
100
AcDbEntity
8
0
100
AcDbBlockEnd
0
BLOCK
5
199
100
AcDbEntity
8
0
100
AcDbBlockBegin
2
DimnDraft3D4
70
0
10
0
20
0
30
0
3
DimnDraft3D4
0
MTEXT
5
18F
100
AcDbEntity
8
2
62
256
6
ByLayer
370
18
48
1
60
0
100
AcDbMText
10
15.470465
20
55.3
30
0
210
0
220
0
230
1
1
\W0.7346;39.3
40
4.5
41
0
44
1.084337
50
0
71
7
72
5
7
iso_b_vert
0
LINE
5
190
100
AcDbEntity
8
2
62
256
6
ByLayer
370
13
48
1
60
0
100
AcDbLine
10
0
20
17.925
30
0
11
0
21
56.175
31
0
39
0
210
0
220
0
230
1
0
LINE
5
191
100
AcDbEntity
8
2
62
256
6
ByLayer
370
13
48
1
60
0
100
AcDbLine
10
39.254088
20
26.425
30
0
11
39.254088
21
56.175
31
0
39
0
210
0
220
0
230
1
0
LINE
5
192
100
AcDbEntity
8
2
62
256
6
ByLayer
370
13
48
1
60
0
100
AcDbLine
10
0
20
54.175
30
0
11
39.254088
21
54.175
31
0
39
0
210
0
220
0
230
1
0
LINE
5
193
100
AcDbEntity
8
2
62
256
6
ByLayer
370
13
48
1
60
0
100
AcDbLine
10
0
20
54.175
30
0
11
3.174998
21
54.592997
31
0
39
0
210
0
220
0
230
1
0
LINE
5
194
100
AcDbEntity
8
2
62
256
6
ByLayer
370
13
48
1
60
0
100
AcDbLine
10
0
20
54.175
30
0
11
3.175002
21
53.757003
31
0
39
0
210
0
220
0
230
1
0
LINE
5
195
100
AcDbEntity
8
2
62
256
6
ByLayer
370
13
48
1
60
0
100
AcDbLine
10
3.174998
20
54.592997
30
0
11
3.175002
21
53.757003
31
0
39
0
210
0
220
0
230
1
0
LINE
5
196
100
AcDbEntity
8
2
62
256
6
ByLayer
370
13
48
1
60
0
100
AcDbLine
10
39.254088
20
54.175
30
0
11
36.07909
21
53.757003
31
0
39
0
210
0
220
0
230
1
0
LINE
5
197
100
AcDbEntity
8
2
62
256
6
ByLayer
370
13
48
1
60
0
100
AcDbLine
10
39.254088
20
54.175
30
0
11
36.079087
21
54.592997
31
0
39
0
210
0
220
0
230
1
0
LINE
5
198
100
AcDbEntity
8
2
62
256
6
ByLayer
370
13
48
1
60
0
100
AcDbLine
10
36.07909
20
53.757003
30
0
11
36.079087
21
54.592997
31
0
39
0
210
0
220
0
230
1
0
ENDBLK
5
19A
100
AcDbEntity
8
0
100
AcDbBlockEnd
0
BLOCK
5
1A7
100
AcDbEntity
8
0
100
AcDbBlockBegin
2
DimnDraft3D5
70
0
10
0
20
0
30
0
3
DimnDraft3D5
0
MTEXT
5
19D
100
AcDbEntity
8
SK2
62
256
6
ByLayer
370
18
48
1
60
0
100
AcDbMText
10
-51.696569
20
65.3
30
0
210
0
220
0
230
1
1
\W0.6864;170.0
40
4.5
41
0
44
1.084337
50
0
71
7
72
5
7
iso_b_vert
0
LINE
5
19E
100
AcDbEntity
8
SK2
62
256
6
ByLayer
370
13
48
1
60
0
100
AcDbLine
10
39.254088
20
26.425
30
0
11
39.254088
21
66.175
31
0
39
0
210
0
220
0
230
1
0
LINE
5
19F
100
AcDbEntity
8
SK2
62
256
6
ByLayer
370
13
48
1
60
0
100
AcDbLine
10
-132.095912
20
17.925
30
0
11
-132.095912
21
66.175
31
0
39
0
210
0
220
0
230
1
0
LINE
5
1A0
100
AcDbEntity
8
SK2
62
256
6
ByLayer
370
13
48
1
60
0
100
AcDbLine
10
39.254088
20
64.175
30
0
11
-132.095912
21
64.175
31
0
39
0
210
0
220
0
230
1
0
LINE
5
1A1
100
AcDbEntity
8
SK2
62
256
6
ByLayer
370
13
48
1
60
0
100
AcDbLine
10
39.254088
20
64.175
30
0
11
36.07909
21
63.757003
31
0
39
0
210
0
220
0
230
1
0
LINE
5
1A2
100
AcDbEntity
8
SK2
62
256
6
ByLayer
370
13
48
1
60
0
100
AcDbLine
10
39.254088
20
64.175
30
0
11
36.079087
21
64.592997
31
0
39
0
210
0
220
0
230
1
0
LINE
5
1A3
100
AcDbEntity
8
SK2
62
256
6
ByLayer
370
13
48
1
60
0
100
AcDbLine
10
36.07909
20
63.757003
30
0
11
36.079087
21
64.592997
31
0
39
0
210
0
220
0
230
1
0
LINE
5
1A4
100
AcDbEntity
8
SK2
62
256
6
ByLayer
370
13
48
1
60
0
100
AcDbLine
10
-132.095912
20
64.175
30
0
11
-128.920913
21
64.592997
31
0
39
0
210
0
220
0
230
1
0
LINE
5
1A5
100
AcDbEntity
8
SK2
62
256
6
ByLayer
370
13
48
1
60
0
100
AcDbLine
10
-132.095912
20
64.175
30
0
11
-128.92091
21
63.757003
31
0
39
0
210
0
220
0
230
1
0
LINE
5
1A6
100
AcDbEntity
8
SK2
62
256
6
ByLayer
370
13
48
1
60
0
100
AcDbLine
10
-128.920913
20
64.592997
30
0
11
-128.92091
21
63.757003
31
0
39
0
210
0
220
0
230
1
0
ENDBLK
5
1A8
100
AcDbEntity
8
0
100
AcDbBlockEnd
0
ENDSEC
0
SECTION
2
ENTITIES
0
ELLIPSE
5
D1
100
AcDbEntity
8
1
62
256
6
ByLayer
370
18
48
1
60
0
100
AcDbEllipse
10
7.953735
20
7.548385
30
0
11
2.08176526554849
21
-2.16015123988017
31
0
210
0
220
0
230
1
40
0.986455
41
-0.15628028298103
42
-0.0604792845384563
0
ELLIPSE
5
D2
100
AcDbEntity
8
1
62
256
6
ByLayer
370
18
48
1
60
0
100
AcDbEllipse
10
17.642061
20
6.988306
30
0
11
-3.57369703919159
21
3.70825962846094
31
0
210
0
220
0
230
1
40
0.986455
41
3.08108183140579
42
-0.15628028298103
0
ELLIPSE
5
D3
100
AcDbEntity
8
1
62
256
6
ByLayer
370
18
48
1
60
0
100
AcDbEllipse
10
30.728584
20
15.899495
30
0
11
2.24506403027242
21
-2.24506403026215
31
0
210
0
220
0
230
1
40
0.989133
41
0.0999238899414867
42
2.69055980370838
0
ELLIPSE
5
D4
100
AcDbEntity
8
1
62
256
6
ByLayer
370
18
48
1
60
0
100
AcDbEllipse
10
25.732505
20
6.391404
30
0
11
2.36914480392033
21
-2.36914480390949
31
0
210
0
220
0
230
1
40
0.989133
41
-0.503527467500463
42
0.698131700797728
0
ELLIPSE
5
D5
100
AcDbEntity
8
1
62
256
6
ByLayer
370
18
48
1
60
0
100
AcDbEllipse
10
25.023745
20
15.910317
30
0
11
-0.942887807262442
21
3.82930736951048
31
0
210
0
220
0
230
1
40
0.533007
41
0.722279790337254
42
0.834869713101363
0
ELLIPSE
5
D6
100
AcDbEntity
8
1
62
256
6
ByLayer
370
18
48
1
60
0
100
AcDbEllipse
10
24.412192
20
5.071091
30
0
11
2.47363954431143
21
-2.47363954430012
31
0
210
0
220
0
230
1
40
0.989133
41
0.353759079292448
42
0.660923429469333
0
ELLIPSE
5
D7
100
AcDbEntity
8
1
62
256
6
ByLayer
370
18
48
1
60
0
100
AcDbEllipse
10
24.396598
20
5.055496
30
0
11
2.36757352713321
21
-2.36757352712238
31
0
210
0
220
0
230
1
40
0.989133
41
0.288006640584399
42
0.567043856927002
0
ELLIPSE
5
D8
100
AcDbEntity
8
1
62
256
6
ByLayer
370
18
48
1
60
0
100
AcDbEllipse
10
17.1505
20
5.113856
30
0
11
-0.318198051534674
21
0.318198051533219
31
0
210
0
220
0
230
1
40
0.989133
41
-2.796233736612
42
-2.42314011518003
0
ELLIPSE
5
D9
100
AcDbEntity
8
1
62
256
6
ByLayer
370
18
48
1
60
0
100
AcDbEllipse
10
16.95702
20
6.523735
30
0
11
0.989949493663429
21
-0.989949493658904
31
0
210
0
220
0
230
1
40
0.989133
41
3.11238420644166
42
-1.40718976785497
0
ELLIPSE
5
DA
100
AcDbEntity
8
1
62
256
6
ByLayer
370
18
48
1
60
0
100
AcDbEllipse
10
16.95702
20
6.523735
30
0
11
0.989949493663429
21
-0.989949493658904
31
0
210
0
220
0
230
1
40
0.989133
41
0.136215985086715
42
3.11238420644166
0
ELLIPSE
5
DB
100
AcDbEntity
8
1
62
256
6
ByLayer
370
18
48
1
60
0
100
AcDbEllipse
10
17.014199
20
6.580914
30
0
11
0.989949493663429
21
-0.989949493658904
31
0
210
0
220
0
230
1
40
0.989133
41
0.106742054852236
42
0.781063466822066
0
ELLIPSE
5
DC
100
AcDbEntity
8
1
62
256
6
ByLayer
370
18
48
1
60
0
100
AcDbEllipse
10
17.014199
20
6.580914
30
0
11
0.989949493663429
21
-0.989949493658904
31
0
210
0
220
0
230
1
40
0.989133
41
-0.845199859506946
42
-0.266134084374536
0
ELLIPSE
5
DD
100
AcDbEntity
8
1
62
256
6
ByLayer
370
18
48
1
60
0
100
AcDbEllipse
10
17.014199
20
6.580914
30
0
11
0.989949493663429
21
-0.989949493658904
31
0
210
0
220
0
230
1
40
0.989133
41
-2.09709674383293
42
-1.48318776289585
0
ELLIPSE
5
DE
100
AcDbEntity
8
1
62
256
6
ByLayer
370
18
48
1
60
0
100
AcDbEllipse
10
17.014199
20
6.580914
30
0
11
0.989949493663429
21
-0.989949493658904
31
0
210
0
220
0
230
1
40
0.989133
41
3.05866088756547
42
-2.6706900750705
0
ELLIPSE
5
DF
100
AcDbEntity
8
1
62
256
6
ByLayer
370
18
48
1
60
0
100
AcDbEllipse
10
15.676753
20
7.210279
30
0
11
-0.318198051534674
21
0.318198051533219
31
0
210
0
220
0
230
1
40
0.989133
41
-1.06751838880859
42
-0.345369760549617
0
ELLIPSE
5
E0
100
AcDbEntity
8
1
62
256
6
ByLayer
370
18
48
1
60
0
100
AcDbEllipse
10
18.351645
20
5.95155
30
0
11
-0.318198051534674
21
0.318198051533219
31
0
210
0
220
0
230
1
40
0.989133
41
-2.79615610031137
42
-1.37594256398339
0
ELLIPSE
5
E1
100
AcDbEntity
8
1
62
256
6
ByLayer
370
18
48
1
60
0
100
AcDbEllipse
10
16.877899
20
8.047972
30
0
11
-0.318198051534674
21
0.318198051533219
31
0
210
0
220
0
230
1
40
0.989133
41
-2.11471594000527
42
-0.345401656471055
0
ELLIPSE
5
E2
100
AcDbEntity
8
1
62
256
6
ByLayer
370
18
48
1
60
0
100
AcDbEllipse
10
18.873456
20
6.733493
30
0
11
0.353553390594082
21
-0.353553390592466
31
0
210
0
220
0
230
1
40
0.989133
41
-3.14158599185618
42
-2.52793907665038
0
ELLIPSE
5
E3
100
AcDbEntity
8
1
62
256
6
ByLayer
370
18
48
1
60
0
100
AcDbEllipse
10
18.215344
20
7.418608
30
0
11
-0.318198051534674
21
0.318198051533219
31
0
210
0
220
0
230
1
40
0.989133
41
-3.11202227657915
42
-0.328745012786833
0
ELLIPSE
5
E4
100
AcDbEntity
8
1
62
256
6
ByLayer
370
18
48
1
60
0
100
AcDbEllipse
10
16.915436
20
6.482151
30
0
11
3.53553390594082
21
-3.53553390592465
31
0
210
0
220
0
230
1
40
0.989133
41
4.73448724736358E-05
42
-1.40718982501423
0
ELLIPSE
5
E5
100
AcDbEntity
8
1
62
256
6
ByLayer
370
18
48
1
60
0
100
AcDbEllipse
10
16.915436
20
6.482151
30
0
11
3.53553390594082
21
-3.53553390592465
31
0
210
0
220
0
230
1
40
0.989133
41
-0.214071732482901
42
-1.79587258680102E-16
0
ELLIPSE
5
E6
100
AcDbEntity
8
1
62
256
6
ByLayer
370
18
48
1
60
0
100
AcDbEllipse
10
16.447432
20
5.106042
30
0
11
0.353553390594082
21
-0.353553390592466
31
0
210
0
220
0
230
1
40
0.989133
41
2.29888598877627
42
2.81284764080303
0
ELLIPSE
5
E7
100
AcDbEntity
8
1
62
256
6
ByLayer
370
18
48
1
60
0
100
AcDbEllipse
10
16.026175
20
5.956342
30
0
11
-0.318198051534674
21
0.318198051533219
31
0
210
0
220
0
230
1
40
0.989133
41
-0.0203208376120573
42
2.81284764080296
0
ELLIPSE
5
E8
100
AcDbEntity
8
1
62
256
6
ByLayer
370
18
48
1
60
0
100
AcDbEllipse
10
16.447432
20
5.106042
30
0
11
0.353553390594082
21
-0.353553390592466
31
0
210
0
220
0
230
1
40
0.989133
41
1.02687671358452
42
1.54083836561118
0
ELLIPSE
5
E9
100
AcDbEntity
8
1
62
256
6
ByLayer
370
18
48
1
60
0
100
AcDbEllipse
10
17.222819
20
6.789534
30
0
11
0.989949493663429
21
-0.989949493658904
31
0
210
0
220
0
230
1
40
0.989133
41
-0.266134084374961
42
-0.0829317660243146
0
ELLIPSE
5
EA
100
AcDbEntity
8
1
62
256
6
ByLayer
370
18
48
1
60
0
100
AcDbEllipse
10
17.222819
20
6.789534
30
0
11
0.989949493663429
21
-0.989949493658904
31
0
210
0
220
0
230
1
40
0.989133
41
-2.36052918676774
42
-2.17732686841752
0
ELLIPSE
5
EB
100
AcDbEntity
8
1
62
256
6
ByLayer
370
18
48
1
60
0
100
AcDbEllipse
10
17.227321
20
6.794036
30
0
11
1.00762716319313
21
-1.00762716318853
31
0
210
0
220
0
230
1
40
0.989133
41
-2.39912493185046
42
-2.13873112333485
0
ELLIPSE
5
EC
100
AcDbEntity
8
1
62
256
6
ByLayer
370
18
48
1
60
0
100
AcDbEllipse
10
15.368064
20
6.641456
30
0
11
0.353553390594082
21
-0.353553390592466
31
0
210
0
220
0
230
1
40
0.989133
41
-0.0203208376120453
42
0.493640814414618
0
ELLIPSE
5
ED
100
AcDbEntity
8
1
62
256
6
ByLayer
370
18
48
1
60
0
100
AcDbEllipse
10
17.227321
20
6.794036
30
0
11
-1.76776695297041
21
1.76776695296233
31
0
210
0
220
0
230
1
40
0.989133
41
0
42
6.28318530717959
0
ELLIPSE
5
EE
100
AcDbEntity
8
1
62
256
6
ByLayer
370
18
48
1
60
0
100
AcDbEllipse
10
19.086577
20
6.946615
30
0
11
0.353553390594082
21
-0.353553390592466
31
0
210
0
220
0
230
1
40
0.989133
41
-1.88990421601007
42
-1.37594256398338
0
ELLIPSE
5
EF
100
AcDbEntity
8
1
62
256
6
ByLayer
370
18
48
1
60
0
100
AcDbEllipse
10
15.368064
20
6.641456
30
0
11
0.353553390594082
21
-0.353553390592466
31
0
210
0
220
0
230
1
40
0.989133
41
1.25168843757966
42
1.76565008960639
0
ELLIPSE
5
F0
100
AcDbEntity
8
1
62
256
6
ByLayer
370
18
48
1
60
0
100
AcDbEllipse
10
17.227321
20
6.794036
30
0
11
1.00762716319313
21
-1.00762716318853
31
0
210
0
220
0
230
1
40
0.989133
41
-0.304729829457256
42
-0.0443360209416236
0
ELLIPSE
5
F1
100
AcDbEntity
8
1
62
256
6
ByLayer
370
18
48
1
60
0
100
AcDbEllipse
10
17.222819
20
6.789534
30
0
11
0.989949493663429
21
-0.989949493658904
31
0
210
0
220
0
230
1
40
0.989133
41
2.87545856921484
42
3.05866088756591
0
ELLIPSE
5
F2
100
AcDbEntity
8
1
62
256
6
ByLayer
370
18
48
1
60
0
100
AcDbEllipse
10
18.564767
20
6.164671
30
0
11
-0.318198051534674
21
0.318198051533219
31
0
210
0
220
0
230
1
40
0.989133
41
2.07407426478112
42
-1.37594256398339
0
ELLIPSE
5
F3
100
AcDbEntity
8
1
62
256
6
ByLayer
370
18
48
1
60
0
100
AcDbEllipse
10
15.934832
20
8.116328
30
0
11
0.353553390594082
21
-0.353553390592466
31
0
210
0
220
0
230
1
40
0.989133
41
-1.06751838880867
42
-0.433543974257267
0
ELLIPSE
5
F4
100
AcDbEntity
8
1
62
256
6
ByLayer
370
18
48
1
60
0
100
AcDbEllipse
10
16.147953
20
8.329449
30
0
11
0.353553390594082
21
-0.353553390592466
31
0
210
0
220
0
230
1
40
0.989133
41
-1.06751838880876
42
-0.553556736781933
0
ELLIPSE
5
F5
100
AcDbEntity
8
1
62
256
6
ByLayer
370
18
48
1
60
0
100
AcDbEllipse
10
17.014199
20
6.580914
30
0
11
0.989949493663429
21
-0.989949493658904
31
0
210
0
220
0
230
1
40
0.989133
41
2.01146333636888
42
2.87545856921523
0
ELLIPSE
5
F6
100
AcDbEntity
8
1
62
256
6
ByLayer
370
18
48
1
60
0
100
AcDbEllipse
10
18.428466
20
7.631729
30
0
11
-0.318198051534674
21
0.318198051533219
31
0
210
0
220
0
230
1
40
0.989133
41
3.12127181597767
42
-0.32874501278679
0
ELLIPSE
5
F7
100
AcDbEntity
8
1
62
256
6
ByLayer
370
18
48
1
60
0
100
AcDbEllipse
10
17.794088
20
8.268907
30
0
11
0.353553390594082
21
-0.353553390592466
31
0
210
0
220
0
230
1
40
0.989133
41
-2.11471594000525
42
-1.4807415254538
0
ELLIPSE
5
F8
100
AcDbEntity
8
1
62
256
6
ByLayer
370
18
48
1
60
0
100
AcDbEllipse
10
17.227321
20
6.794036
30
0
11
1.00762716319313
21
-1.00762716318853
31
0
210
0
220
0
230
1
40
0.989133
41
1.78966527293595
42
2.05005908145158
0
ELLIPSE
5
F9
100
AcDbEntity
8
1
62
256
6
ByLayer
370
18
48
1
60
0
100
AcDbEllipse
10
15.889875
20
7.4234
30
0
11
-0.318198051534674
21
0.318198051533219
31
0
210
0
220
0
230
1
40
0.989133
41
-1.06751838880855
42
1.76565008960639
0
ELLIPSE
5
FA
100
AcDbEntity
8
1
62
256
6
ByLayer
370
18
48
1
60
0
100
AcDbEllipse
10
17.086521
20
6.653236
30
0
11
-3.53553390594082
21
3.53553390592466
31
0
210
0
220
0
230
1
40
0.989133
41
0
42
6.28318530717959
0
ELLIPSE
5
FB
100
AcDbEntity
8
1
62
256
6
ByLayer
370
18
48
1
60
0
100
AcDbEllipse
10
18.306688
20
5.258622
30
0
11
0.353553390594082
21
-0.353553390592466
31
0
210
0
220
0
230
1
40
0.989133
41
2.07407426478113
42
2.58803591680783
0
ELLIPSE
5
FC
100
AcDbEntity
8
1
62
256
6
ByLayer
370
18
48
1
60
0
100
AcDbEllipse
10
18.00721
20
8.482029
30
0
11
0.353553390594082
21
-0.353553390592466
31
0
210
0
220
0
230
1
40
0.989133
41
-2.11471594000525
42
-1.60075428797852
0
ELLIPSE
5
FD
100
AcDbEntity
8
1
62
256
6
ByLayer
370
18
48
1
60
0
100
AcDbEllipse
10
18.873456
20
6.733493
30
0
11
0.353553390594082
21
-0.353553390592466
31
0
210
0
220
0
230
1
40
0.989133
41
-2.00991697853483
42
-1.37594256398344
0
ELLIPSE
5
FE
100
AcDbEntity
8
1
62
256
6
ByLayer
370
18
48
1
60
0
100
AcDbEllipse
10
17.227321
20
6.794036
30
0
11
1.00762716319313
21
-1.00762716318853
31
0
210
0
220
0
230
1
40
0.989133
41
2.83686282413253
42
3.09725663264816
0
ELLIPSE
5
FF
100
AcDbEntity
8
1
62
256
6
ByLayer
370
18
48
1
60
0
100
AcDbEllipse
10
17.227321
20
6.794036
30
0
11
1.00762716319313
21
-1.00762716318853
31
0
210
0
220
0
230
1
40
0.989133
41
0.742467721739352
42
1.00286153025499
0
ELLIPSE
5
100
100
AcDbEntity
8
1
62
256
6
ByLayer
370
18
48
1
60
0
100
AcDbEllipse
10
17.794088
20
8.268907
30
0
11
0.353553390594082
21
-0.353553390592466
31
0
210
0
220
0
230
1
40
0.989133
41
-0.962719427338393
42
-0.328745012786781
0
ELLIPSE
5
101
100
AcDbEntity
8
1
62
256
6
ByLayer
370
18
48
1
60
0
100
AcDbEllipse
10
18.00721
20
8.482029
30
0
11
0.353553390594082
21
-0.353553390592466
31
0
210
0
220
0
230
1
40
0.989133
41
-0.842706664813525
42
-0.328745012786826
0
ELLIPSE
5
102
100
AcDbEntity
8
1
62
256
6
ByLayer
370
18
48
1
60
0
100
AcDbEllipse
10
17.222819
20
6.789534
30
0
11
0.989949493663429
21
-0.989949493658904
31
0
210
0
220
0
230
1
40
0.989133
41
-1.31333163557181
42
-1.13012931722089
0
ELLIPSE
5
103
100
AcDbEntity
8
1
62
256
6
ByLayer
370
18
48
1
60
0
100
AcDbEllipse
10
17.222819
20
6.789534
30
0
11
0.989949493663429
21
-0.989949493658904
31
0
210
0
220
0
230
1
40
0.989133
41
1.82826101801866
42
2.01146333636887
0
ELLIPSE
5
104
100
AcDbEntity
8
1
62
256
6
ByLayer
370
18
48
1
60
0
100
AcDbEllipse
10
18.093567
20
5.0455
30
0
11
0.353553390594082
21
-0.353553390592466
31
0
210
0
220
0
230
1
40
0.989133
41
-3.05711452973141
42
-2.42314011518003
0
ELLIPSE
5
105
100
AcDbEntity
8
1
62
256
6
ByLayer
370
18
48
1
60
0
100
AcDbEllipse
10
17.227321
20
6.794036
30
0
11
1.00762716319313
21
-1.00762716318853
31
0
210
0
220
0
230
1
40
0.989133
41
-1.35192738065386
42
-1.09153357213823
0
ELLIPSE
5
106
100
AcDbEntity
8
1
62
256
6
ByLayer
370
18
48
1
60
0
100
AcDbEllipse
10
17.222819
20
6.789534
30
0
11
0.989949493663429
21
-0.989949493658904
31
0
210
0
220
0
230
1
40
0.989133
41
0.781063466822041
42
0.964265785172297
0
ELLIPSE
5
107
100
AcDbEntity
8
1
62
256
6
ByLayer
370
18
48
1
60
0
100
AcDbEllipse
10
17.363621
20
5.326978
30
0
11
-0.318198051534674
21
0.318198051533219
31
0
210
0
220
0
230
1
40
0.989133
41
1.02687671358456
42
-2.42314011518001
0
ELLIPSE
5
108
100
AcDbEntity
8
1
62
256
6
ByLayer
370
18
48
1
60
0
100
AcDbEllipse
10
17.014199
20
6.580914
30
0
11
0.989949493663429
21
-0.989949493658904
31
0
210
0
220
0
230
1
40
0.989133
41
0.964265785172306
42
1.82826101801867
0
ELLIPSE
5
109
100
AcDbEntity
8
1
62
256
6
ByLayer
370
18
48
1
60
0
100
AcDbEllipse
10
17.09102
20
8.261094
30
0
11
-0.318198051534674
21
0.318198051533219
31
0
210
0
220
0
230
1
40
0.989133
41
-2.11471594000524
42
0.718452538409788
0
ELLIPSE
5
10A
100
AcDbEntity
8
1
62
256
6
ByLayer
370
18
48
1
60
0
100
AcDbEllipse
10
18.306688
20
5.258622
30
0
11
0.353553390594082
21
-0.353553390592466
31
0
210
0
220
0
230
1
40
0.989133
41
-2.93710176720675
42
-2.42314011517998
0
ELLIPSE
5
10B
100
AcDbEntity
8
1
62
256
6
ByLayer
370
18
48
1
60
0
100
AcDbEllipse
10
19.086577
20
6.946615
30
0
11
0.353553390594082
21
-0.353553390592466
31
0
210
0
220
0
230
1
40
0.989133
41
3.12127181597777
42
-2.64795183917515
0
ELLIPSE
5
10C
100
AcDbEntity
8
1
62
256
6
ByLayer
370
18
48
1
60
0
100
AcDbEllipse
10
16.147953
20
8.329449
30
0
11
0.353553390594082
21
-0.353553390592466
31
0
210
0
220
0
230
1
40
0.989133
41
0.204490886383034
42
0.718452538409768
0
ELLIPSE
5
10D
100
AcDbEntity
8
1
62
256
6
ByLayer
370
18
48
1
60
0
100
AcDbEllipse
10
12.129969
20
-7.803229
30
0
11
5.72659051508524
21
4.02568765213296
31
0
210
0
220
0
230
1
40
0.02553
41
-0.839252960940437
42
-0.808573903783143
0
ELLIPSE
5
10E
100
AcDbEntity
8
1
62
256
6
ByLayer
370
18
48
1
60
0
100
AcDbEllipse
10
10.082703
20
8.329093
30
0
11
-4.6371438000429
21
-0.10727103312416
31
0
210
0
220
0
230
1
40
0.533782
41
-0.677420796207545
42
0.440551877963068
0
ELLIPSE
5
10F
100
AcDbEntity
8
1
62
256
6
ByLayer
370
18
48
1
60
0
100
AcDbEllipse
10
16.257245
20
-0.454269
30
0
11
-1.28250598833203
21
-4.64708230247758
31
0
210
0
220
0
230
1
40
0.556435
41
-0.527165213425961
42
0.59080746074463
0
ELLIPSE
5
110
100
AcDbEntity
8
1
62
256
6
ByLayer
370
18
48
1
60
0
100
AcDbEllipse
10
31.226125
20
16.362656
30
0
11
-0.897950543939597
21
2.77148575033893
31
0
210
0
220
0
230
1
40
0.794417
41
-1.80970431868416
42
-1.35999434265634
0
ELLIPSE
5
111
100
AcDbEntity
8
1
62
256
6
ByLayer
370
18
48
1
60
0
100
AcDbEllipse
10
31.226125
20
16.362656
30
0
11
-2.50367503217008
21
1.35073548483248
31
0
210
0
220
0
230
1
40
0.787101
41
-1.97655749917799
42
-1.52684752314366
0
ELLIPSE
5
112
100
AcDbEntity
8
1
62
256
6
ByLayer
370
18
48
1
60
0
100
AcDbEllipse
10
11.596295
20
6.325953
30
0
11
4.4994639761384
21
3.16304029810447
31
0
210
0
220
0
230
1
40
0.02553
41
1.92165591251136
42
2.32707508452467
0
ELLIPSE
5
113
100
AcDbEntity
8
1
62
256
6
ByLayer
370
18
48
1
60
0
100
AcDbEllipse
10
15.045759
20
1.419047
30
0
11
4.4994639761384
21
3.16304029810447
31
0
210
0
220
0
230
1
40
0.02553
41
1.92165591251143
42
2.32707508452467
0
ELLIPSE
5
114
100
AcDbEntity
8
1
62
256
6
ByLayer
370
18
48
1
60
0
100
AcDbEllipse
10
7.565593
20
6.184742
30
0
11
-3.08205525315369
21
1.66308325886199
31
0
210
0
220
0
230
1
40
0.99535
41
-0.0665514951706059
42
1.10568333554055
0
ELLIPSE
5
115
100
AcDbEntity
8
1
62
256
6
ByLayer
370
18
48
1
60
0
100
AcDbEllipse
10
13.740134
20
-2.59862
30
0
11
-3.08205525308208
21
1.66308325898965
31
0
210
0
220
0
230
1
40
0.99535
41
1.10568333558264
42
2.27791816629417
0
ELLIPSE
5
116
100
AcDbEntity
8
1
62
256
6
ByLayer
370
18
48
1
60
0
100
AcDbEllipse
10
1.911737
20
10.858263
30
0
11
-0.618768166579435
21
1.85497269604706
31
0
210
0
220
0
230
1
40
0.304658
41
-0.649022127698575
42
0.921774199096904
0
ELLIPSE
5
117
100
AcDbEntity
8
1
62
256
6
ByLayer
370
18
48
1
60
0
100
AcDbEllipse
10
18.288054
20
-12.437249
30
0
11
-0.641839549364725
21
-0.478041744935846
31
0
210
0
220
0
230
1
40
0.021498
41
1.42485747065606
42
2.99565379738071
0
ELLIPSE
5
118
100
AcDbEntity
8
1
62
256
6
ByLayer
370
18
48
1
60
0
100
AcDbEllipse
10
24.501144
20
22.126935
30
0
11
-0.842164176395103
21
0.842164176391254
31
0
210
0
220
0
230
1
40
0.989133
41
-0.698131700797728
42
0.698131700797754
0
ELLIPSE
5
119
100
AcDbEntity
8
1
62
256
6
ByLayer
370
18
48
1
60
0
100
AcDbEllipse
10
36.956024
20
9.672055
30
0
11
-0.842164176395103
21
0.842164176391254
31
0
210
0
220
0
230
1
40
0.989133
41
2.44346095279207
42
-2.44346095279204
0
ELLIPSE
5
11A
100
AcDbEntity
8
1
62
256
6
ByLayer
370
18
48
1
60
0
100
AcDbEllipse
10
38.069507
20
23.240419
30
0
11
-0.842164176395103
21
0.842164176391254
31
0
210
0
220
0
230
1
40
0.989133
41
-2.44346095279205
42
-0.698131700797722
0
POINT
5
6C
100
AcDbEntity
8
2
62
256
6
ByLayer
370
18
48
1
60
0
100
AcDbPoint
10
39.254088
20
24.425
30
0
39
0
210
0
220
0
230
1
50
360
0
POINT
5
6E
100
AcDbEntity
8
80
62
256
6
ByLayer
370
18
48
1
60
0
100
AcDbPoint
10
0
20
0
30
0
39
0
210
0
220
0
230
1
50
360
0
POINT
5
70
100
AcDbEntity
8
81
62
256
6
ByLayer
370
18
48
1
60
0
100
AcDbPoint
10
39.254088
20
24.425
30
0
39
0
210
0
220
0
230
1
50
360
0
SPLINE
5
11B
100
AcDbEntity
8
1
62
256
6
ByLayer
370
18
48
1
60
0
100
AcDbSpline
70
4
71
3
72
8
73
4
40
0
40
0
40
0
40
0
40
1
40
1
40
1
40
1
41
1
10
5.48885465975468
20
9.01402492165175
30
0
41
1
10
5.17848099463748
20
8.75159373307201
30
0
41
1
10
4.87054254049281
20
8.43693202993725
30
0
41
1
10
4.60044493106972
20
8.04815409089935
30
0
0
SPLINE
5
11C
100
AcDbEntity
8
1
62
256
6
ByLayer
370
18
48
1
60
0
100
AcDbSpline
70
4
71
3
72
10
73
6
40
0
40
0
40
0
40
0
40
0.230438518716825
40
0.230438518716825
40
1
40
1
40
1
40
1
41
1
10
16.5252517069443
20
8.00216297797175
30
0
41
1
10
16.5286736863084
20
8.00616903817485
30
0
41
1
10
16.5320100626891
20
8.01018276744264
30
0
41
1
10
16.546099577639
20
8.02757368570835
30
0
41
1
10
16.556031978565
20
8.04098934578204
30
0
41
1
10
16.5651553257761
20
8.05427787019292
30
0
0
SPLINE
5
11D
100
AcDbEntity
8
1
62
256
6
ByLayer
370
18
48
1
60
0
100
AcDbSpline
70
4
71
3
72
10
73
6
40
0
40
0
40
0
40
0
40
0.276054056492218
40
0.276054056492218
40
1
40
1
40
1
40
1
41
1
10
17.9176646508565
20
7.98852051838057
30
0
41
1
10
17.9237869206838
20
7.98782156516992
30
0
41
1
10
17.9298497000325
20
7.98725880972304
30
0
41
1
10
17.951483655347
20
7.98567598514137
30
0
41
1
10
17.9667020123661
20
7.98537127915819
30
0
41
1
10
17.9814390198825
20
7.9857174267276
30
0
0
SPLINE
5
11E
100
AcDbEntity
8
1
62
256
6
ByLayer
370
18
48
1
60
0
100
AcDbSpline
70
4
71
3
72
10
73
6
40
0
40
0
40
0
40
0
40
0.201157530231464
40
0.201157530231464
40
1
40
1
40
1
40
1
41
1
10
17.647065134276
20
8.14306444016333
30
0
41
1
10
17.649342011444
20
8.13995964960878
30
0
41
1
10
17.6516847688145
20
8.13685828646499
30
0
41
1
10
17.6636269172351
20
8.12153077735707
30
0
41
1
10
17.6742748312367
20
8.10933611713156
30
0
41
1
10
17.6862099606403
20
8.09743663240627
30
0
0
SPLINE
5
11F
100
AcDbEntity
8
1
62
256
6
ByLayer
370
18
48
1
60
0
100
AcDbSpline
70
4
71
3
72
10
73
6
40
0
40
0
40
0
40
0
40
0.276054056492171
40
0.276054056492171
40
1
40
1
40
1
40
1
41
1
10
16.5279732690506
20
5.59054723828419
30
0
41
1
10
16.5225779306851
20
5.59197312295663
30
0
41
1
10
16.5172769392058
20
5.59329766627306
30
0
41
1
10
16.4984974716478
20
5.59773497861113
30
0
41
1
10
16.4855458873719
20
5.60030645733744
30
0
41
1
10
16.4732022422314
20
5.60235367214403
30
0
0
SPLINE
5
120
100
AcDbEntity
8
1
62
256
6
ByLayer
370
18
48
1
60
0
100
AcDbSpline
70
4
71
3
72
10
73
6
40
0
40
0
40
0
40
0
40
0.201157530231779
40
0.201157530231779
40
1
40
1
40
1
40
1
41
1
10
16.8075761278371
20
5.44500665870748
30
0
41
1
10
16.8046308567699
20
5.44744305536275
30
0
41
1
10
16.8016300314503
20
5.44988635055745
30
0
41
1
10
16.7864874349255
20
5.4620134115612
30
0
41
1
10
16.7734562981442
20
5.47182484900696
30
0
41
1
10
16.7594279592672
20
5.4816311242588
30
0
0
SPLINE
5
121
100
AcDbEntity
8
1
62
256
6
ByLayer
370
18
48
1
60
0
100
AcDbSpline
70
4
71
3
72
10
73
6
40
0
40
0
40
0
40
0
40
0.769561481283173
40
0.769561481283173
40
1
40
1
40
1
40
1
41
1
10
18.1897833925987
20
5.74322433550611
30
0
41
1
10
18.1744894959157
20
5.73871349409799
30
0
41
1
10
18.1587785891263
20
5.73351783014121
30
0
41
1
10
18.1379545391259
20
5.7257068713447
30
0
41
1
10
18.1331165596861
20
5.72382919101528
30
0
41
1
10
18.128253088047
20
5.7218736714162
30
0
0
SPLINE
5
122
100
AcDbEntity
8
1
62
256
6
ByLayer
370
18
48
1
60
0
100
AcDbSpline
70
4
71
3
72
10
73
6
40
0
40
0
40
0
40
0
40
0.769561481283321
40
0.769561481283321
40
1
40
1
40
1
40
1
41
1
10
16.264857869514
20
7.84484676336419
30
0
41
1
10
16.2776054565285
20
7.84681129510386
30
0
41
1
10
16.2909125367331
20
7.84960313247581
30
0
41
1
10
16.3089184585096
20
7.8545959630485
30
0
41
1
10
16.3131268217155
20
7.85584402714397
30
0
41
1
10
16.3173848318602
20
7.85719408524864
30
0
0
SPLINE
5
123
100
AcDbEntity
8
1
62
256
6
ByLayer
370
18
48
1
60
0
100
AcDbSpline
70
4
71
3
72
10
73
6
40
0
40
0
40
0
40
0
40
0.537616842495311
40
0.537616842495311
40
1
40
1
40
1
40
1
41
1
10
15.8304060160414
20
6.80317633792276
30
0
41
1
10
15.8272040947549
20
6.81456963300232
30
0
41
1
10
15.8238267480511
20
6.82556367016292
30
0
41
1
10
15.8173194059644
20
6.84524420055618
30
0
41
1
10
15.8142138844834
20
6.85405956499713
30
0
41
1
10
15.8110369369447
20
6.86259599289994
30
0
0
SPLINE
5
124
100
AcDbEntity
8
1
62
256
6
ByLayer
370
18
48
1
60
0
100
AcDbSpline
70
4
71
3
72
10
73
6
40
0
40
0
40
0
40
0
40
0.537616842495077
40
0.537616842495077
40
1
40
1
40
1
40
1
41
1
10
18.615231903866
20
6.77589141874228
30
0
41
1
10
18.6198442264823
20
6.76590852499254
30
0
41
1
10
18.6247636659377
20
6.75645658058355
30
0
41
1
10
18.6343121870403
20
6.73981722920624
30
0
41
1
10
18.6388959354277
20
6.73248009167156
30
0
41
1
10
18.6436043251692
20
6.72547510597164
30
0
0
SPLINE
5
125
100
AcDbEntity
8
1
62
256
6
ByLayer
370
18
48
1
60
0
100
AcDbSpline
70
4
71
3
72
10
73
6
40
0
40
0
40
0
40
0
40
0.230438518716684
40
0.230438518716684
40
1
40
1
40
1
40
1
41
1
10
17.9203862129629
20
5.57690477869309
30
0
41
1
10
17.9175696950933
20
5.57350417998441
30
0
41
1
10
17.9148629349465
20
5.57012006695058
30
0
41
1
10
17.9035915482203
20
5.55554727690867
30
0
41
1
10
17.8960629738791
20
5.54453544341979
30
0
41
1
10
17.8894859363365
20
5.53379322867733
30
0
0
SPLINE
5
126
100
AcDbEntity
8
1
62
256
6
ByLayer
370
18
48
1
60
0
100
AcDbSpline
70
4
71
3
72
10
73
6
40
0
40
0
40
0
40
0
40
0.355593196477681
40
0.355593196477681
40
1
40
1
40
1
40
1
41
1
10
15.8451133662979
20
6.49581787262943
30
0
41
1
10
15.8464112246705
20
6.5016199214779
30
0
41
1
10
15.8476338003974
20
6.50760593261163
30
0
41
1
10
15.8508188478687
20
6.5249439114971
30
0
41
1
10
15.8525909162395
20
6.53677134835732
30
0
41
1
10
15.8539938311739
20
6.54929133117565
30
0
0
SPLINE
5
127
100
AcDbEntity
8
1
62
256
6
ByLayer
370
18
48
1
60
0
100
AcDbSpline
70
4
71
3
72
10
73
6
40
0
40
0
40
0
40
0
40
0.355593196477952
40
0.355593196477952
40
1
40
1
40
1
40
1
41
1
10
18.6095278958137
20
7.09225322623996
30
0
41
1
10
18.6070499610104
20
7.08527110096077
30
0
41
1
10
18.6046791731399
20
7.07813687768345
30
0
41
1
10
18.5983850117158
20
7.05768978484514
30
0
41
1
10
18.5947355609171
20
7.043984965557
30
0
41
1
10
18.5916440887335
20
7.02977642548947
30
0
0
SPLINE
5
128
100
AcDbEntity
8
1
62
256
6
ByLayer
370
18
48
1
60
0
100
AcDbSpline
70
4
71
3
72
8
73
4
40
0
40
0
40
0
40
0
40
1
40
1
40
1
40
1
41
1
10
13.1249470399422
20
-3.20600007009699
30
0
41
1
10
13.4260034807166
20
-2.09535541195106
30
0
41
1
10
13.7906625497694
20
-0.65442925049328
30
0
41
1
10
14.1424494014355
20
0.841209606221497
30
0
0
SPLINE
5
129
100
AcDbEntity
8
1
62
256
6
ByLayer
370
18
48
1
60
0
100
AcDbSpline
70
4
71
3
72
10
73
6
40
0
40
0
40
0
40
0
40
0.0734657164133877
40
0.699676314776456
40
1
40
1
40
1
40
1
41
1.02544020896672
10
29.4299902157439
20
18.9495034555623
30
0
41
1.02527247753992
10
29.3162471394187
20
18.9563219278642
30
0
41
1.02366228488755
10
28.2127506382793
20
19.0135448365611
30
0
41
1.02128760257541
10
26.3863338781272
20
18.9728760142692
30
0
41
1.01951717951064
10
25.3365500484198
20
18.8971540795611
30
0
41
1.01906346594983
10
25.0198918354715
20
18.8673694468909
30
0
0
SPLINE
5
12A
100
AcDbEntity
8
1
62
256
6
ByLayer
370
18
48
1
60
0
100
AcDbSpline
70
4
71
3
72
8
73
4
40
0
40
0
40
0
40
0
40
1
40
1
40
1
40
1
41
1
10
24.5880382983411
20
18.6704124446355
30
0
41
1
10
24.7300775537183
20
18.7391374146811
30
0
41
1
10
24.8736897151005
20
18.8052224065269
30
0
41
1
10
25.0194276309655
20
18.8673257788132
30
0
0
SPLINE
5
12B
100
AcDbEntity
8
1
62
256
6
ByLayer
370
18
48
1
60
0
100
AcDbSpline
70
4
71
3
72
8
73
4
40
0
40
0
40
0
40
0
40
1
40
1
40
1
40
1
41
1
10
20.9751299675765
20
3.0717349801956
30
0
41
1
10
20.9154204560439
20
3.02597562756014
30
0
41
1
10
20.854654984472
20
2.98150187904551
30
0
41
1
10
20.7927957647248
20
2.93836050508759
30
0
0
SPLINE
5
12C
100
AcDbEntity
8
1
62
256
6
ByLayer
370
18
48
1
60
0
100
AcDbSpline
70
4
71
3
72
11
73
7
40
0
40
0
40
0
40
0
40
0.0598016998855021
40
0.468392215040456
40
0.740785891810426
40
1
40
1
40
1
40
1
41
1.02298250505371
10
22.8093650404744
20
9.10725811581976
30
0
41
1.02281639303115
10
23.0021685381697
20
9.25311994002698
30
0
41
1.02150796927554
10
24.5247952726397
20
10.4091425698271
30
0
41
1.01953314781965
10
26.9648623253173
20
12.3174197766559
30
0
41
1.0172623798868
10
28.7328549276242
20
13.7600379469109
30
0
41
1.01931548101
10
29.4252848478038
20
14.260588730682
30
0
41
1.02052415826788
10
29.9025062892126
20
14.6264590060164
30
0
0
SPLINE
5
12D
100
AcDbEntity
8
1
62
256
6
ByLayer
370
18
48
1
60
0
100
AcDbSpline
70
4
71
3
72
16
73
12
40
0
40
0
40
0
40
0
40
0.474320436274425
40
0.474320436274425
40
0.658954025821058
40
0.658954025821058
40
0.845504004041765
40
0.845504004041765
40
0.957858191960715
40
0.957858191960715
40
1
40
1
40
1
40
1
41
1
10
13.8274353526609
20
-4.0737139732687
30
0
41
1
10
13.7774029502751
20
-3.98289557624241
30
0
41
1
10
13.7012377650195
20
-3.87445681429608
30
0
41
1
10
13.5533035566308
20
-3.68946864192506
30
0
41
1
10
13.5063926842631
20
-3.6327132751986
30
0
41
1
10
13.4032754110745
20
-3.51104126559048
30
0
41
1
10
13.3459169703156
20
-3.44463528447503
30
0
41
1
10
13.2480053473194
20
-3.33520605602126
30
0
41
1
10
13.2089718570272
20
-3.29244819913339
30
0
41
1
10
13.1548456644198
20
-3.23607717148562
30
0
41
1
10
13.1398401122234
20
-3.22076344317614
30
0
41
1
10
13.1249470399422
20
-3.20600007009699
30
0
0
SPLINE
5
12E
100
AcDbEntity
8
1
62
256
6
ByLayer
370
18
48
1
60
0
100
AcDbSpline
70
4
71
3
72
8
73
4
40
0
40
0
40
0
40
0
40
1
40
1
40
1
40
1
41
1
10
11.2038572685415
20
7.17418529128327
30
0
41
1
10
11.1474058028323
20
6.82728573502624
30
0
41
1
10
11.009778979549
20
6.48201654710005
30
0
41
1
10
10.8051476873338
20
6.17540660143584
30
0
0
SPLINE
5
12F
100
AcDbEntity
8
1
62
256
6
ByLayer
370
18
48
1
60
0
100
AcDbSpline
70
4
71
3
72
8
73
4
40
0
40
0
40
0
40
0
40
1
40
1
40
1
40
1
41
1
10
24.588038298341
20
18.6704124446355
30
0
41
1
10
23.999896097637
20
18.385842837321
30
0
41
1
10
23.2427316898509
20
18.169042855553
30
0
41
1
10
22.4396831514172
20
18.0071891781766
30
0
0
SPLINE
5
130
100
AcDbEntity
8
1
62
256
6
ByLayer
370
18
48
1
60
0
100
AcDbSpline
70
4
71
3
72
11
73
7
40
0
40
0
40
0
40
0
40
0.425230898249522
40
0.744154071936663
40
0.956769521061424
40
1
40
1
40
1
40
1
41
1.0258173342201
10
21.7464686987278
20
1.39707149960144
30
0
41
1.02559001729416
10
22.6169388090217
20
2.13504735767336
30
0
41
1.0228008665691
10
25.1478519304309
20
5.34067888496899
30
0
41
1.01953314781965
10
28.2199544758532
20
10.2024696468122
30
0
41
1.01775466813744
10
29.2800978578063
20
11.8810931153712
30
0
41
1.01823166218986
10
29.7232363804765
20
12.3659744220874
30
0
41
1.01834276704995
10
29.7983852512219
20
12.4437716063753
30
0
0
SPLINE
5
131
100
AcDbEntity
8
1
62
256
6
ByLayer
370
18
48
1
60
0
100
AcDbSpline
70
4
71
3
72
10
73
6
40
0
40
0
40
0
40
0
40
0.5
40
0.5
40
1
40
1
40
1
40
1
41
1
10
29.4263906097712
20
18.9497189259605
30
0
41
1
10
28.5250518538537
20
18.7984500875228
30
0
41
1
10
27.9978770905627
20
18.3947961588763
30
0
41
1
10
27.2431520600598
20
17.5097271933272
30
0
41
1
10
27.1068954306305
20
16.9718650353421
30
0
41
1
10
26.9921649185578
20
16.4356547649214
30
0
0
SPLINE
5
132
100
AcDbEntity
8
1
62
256
6
ByLayer
370
18
48
1
60
0
100
AcDbSpline
70
4
71
3
72
8
73
4
40
0
40
0
40
0
40
0
40
1
40
1
40
1
40
1
41
1
10
13.8479792845265
20
-4.11143130585421
30
0
41
1
10
13.8413146171978
20
-4.09904299735038
30
0
41
1
10
13.8344555785554
20
-4.08645702841164
30
0
41
1
10
13.8274353526606
20
-4.07371397326887
30
0
0
SPLINE
5
133
100
AcDbEntity
8
1
62
256
6
ByLayer
370
18
48
1
60
0
100
AcDbSpline
70
4
71
3
72
8
73
4
40
0
40
0
40
0
40
0
40
1
40
1
40
1
40
1
41
1
10
5.93861397819859
20
7.14823207966623
30
0
41
1
10
7.03977307239217
20
7.01067895355783
30
0
41
1
10
8.90942953675636
20
6.63378122220291
30
0
41
1
10
10.8051476873337
20
6.17540660143581
30
0
0
SPLINE
5
134
100
AcDbEntity
8
1
62
256
6
ByLayer
370
18
48
1
60
0
100
AcDbSpline
70
4
71
3
72
8
73
4
40
0
40
0
40
0
40
0
40
1
40
1
40
1
40
1
41
1
10
14.4780450707038
20
0.950664610501093
30
0
41
1
10
14.8429276881294
20
1.03655091148229
30
0
41
1
10
15.2148282158683
20
1.04303661231219
30
0
41
1
10
15.5633034280723
20
0.972819168164961
30
0
0
SPLINE
5
135
100
AcDbEntity
8
1
62
256
6
ByLayer
370
18
48
1
60
0
100
AcDbSpline
70
4
71
3
72
14
73
10
40
0
40
0
40
0
40
0
40
0.0560617400824606
40
0.0560617400824606
40
0.432699965147824
40
0.432699965147824
40
0.811345304670917
40
0.811345304670917
40
1
40
1
40
1
40
1
41
1
10
32.1782655875465
20
18.3907422752625
30
0
41
1
10
32.1436244012769
20
18.405130249619
30
0
41
1
10
32.108683687456
20
18.4192083396735
30
0
41
1
10
31.8392515200684
20
18.5243548501533
30
0
41
1
10
31.5891203913627
20
18.601619161179
30
0
41
1
10
31.0942239662585
20
18.7095616758815
30
0
41
1
10
30.8428972624343
20
18.7411746135021
30
0
41
1
10
30.495628338762
20
18.7509266924798
30
0
41
1
10
30.3830946023131
20
18.748126111338
30
0
41
1
10
30.2762588261076
20
18.7397714858767
30
0
0
SPLINE
5
136
100
AcDbEntity
8
1
62
256
6
ByLayer
370
18
48
1
60
0
100
AcDbSpline
70
4
71
3
72
12
73
8
40
0
40
0
40
0
40
0
40
0.500000000000005
40
0.500000000000005
40
0.750000000000002
40
0.750000000000002
40
1
40
1
40
1
40
1
41
1
10
29.9025062893534
20
14.6264590061243
30
0
41
1
10
29.7453030742893
20
14.2771192272584
30
0
41
1
10
29.5988144514726
20
13.9028748161439
30
0
41
1
10
29.4904458033596
20
13.2350994043099
30
0
41
1
10
29.4751473970342
20
12.9860442206472
30
0
41
1
10
29.5698431684062
20
12.5770188903471
30
0
41
1
10
29.6837908103062
20
12.468655309544
30
0
41
1
10
29.7983852512219
20
12.4437716063753
30
0
0
SPLINE
5
137
100
AcDbEntity
8
1
62
256
6
ByLayer
370
18
48
1
60
0
100
AcDbSpline
70
4
71
3
72
10
73
6
40
0
40
0
40
0
40
0
40
0.5
40
0.5
40
1
40
1
40
1
40
1
41
1
10
29.8522268139285
20
7.46275406585426
30
0
41
1
10
28.8828797602612
20
5.88353594001299
30
0
41
1
10
27.7847941920457
20
4.40760328611594
30
0
41
1
10
25.3098766689968
20
1.67937309012638
30
0
41
1
10
23.9297699056389
20
0.406953455065377
30
0
41
1
10
22.4042102574231
20
-0.670631294212285
30
0
0
SPLINE
5
138
100
AcDbEntity
8
1
62
256
6
ByLayer
370
18
48
1
60
0
100
AcDbSpline
70
4
71
3
72
16
73
12
40
0
40
0
40
0
40
0
40
0.107738294188998
40
0.107738294188998
40
0.260376815889415
40
0.260376815889415
40
0.501548994683958
40
0.501548994683958
40
0.879664328740051
40
0.879664328740051
40
1
40
1
40
1
40
1
41
1
10
6.4908977312229
20
6.23101718775985
30
0
41
1
10
6.46824381027403
20
6.27944285284468
30
0
41
1
10
6.44284015227646
20
6.32939193744767
30
0
41
1
10
6.38264065335176
20
6.4440747981769
30
0
41
1
10
6.34707017773547
20
6.50884269040159
30
0
41
1
10
6.26137887583405
20
6.66218070948915
30
0
41
1
10
6.21270741022732
20
6.74632830544715
30
0
41
1
10
6.10038572338118
20
6.93256284756313
30
0
41
1
10
6.04108725340558
20
7.02176084622647
30
0
41
1
10
5.97106938871514
20
7.11093154019605
30
0
41
1
10
5.95460630435275
20
7.13053391984033
30
0
41
1
10
5.93861397819785
20
7.1482320796791
30
0
0
SPLINE
5
139
100
AcDbEntity
8
1
62
256
6
ByLayer
370
18
48
1
60
0
100
AcDbSpline
70
4
71
3
72
8
73
4
40
0
40
0
40
0
40
0
40
1
40
1
40
1
40
1
41
1
10
5.93861397819859
20
7.14823207966623
30
0
41
1
10
5.92988027367079
20
7.15789737145803
30
0
41
1
10
5.92126094296901
20
7.16733306130328
30
0
41
1
10
5.91274770347309
20
7.17653384042043
30
0
0
SPLINE
5
13A
100
AcDbEntity
8
1
62
256
6
ByLayer
370
18
48
1
60
0
100
AcDbSpline
70
4
71
3
72
10
73
6
40
0
40
0
40
0
40
0
40
0.73129736996679
40
0.73129736996679
40
1
40
1
40
1
40
1
41
1
10
14.1424494014355
20
0.841209606221497
30
0
41
1
10
14.2206704798552
20
0.873406438502286
30
0
41
1
10
14.3039147095198
20
0.903022851934566
30
0
41
1
10
14.4169873003264
20
0.93547815106632
30
0
41
1
10
14.4477081130207
20
0.943523878238182
30
0
41
1
10
14.4780450707039
20
0.950664610501093
30
0
0
SPLINE
5
13B
100
AcDbEntity
8
1
62
256
6
ByLayer
370
18
48
1
60
0
100
AcDbSpline
70
4
71
2
72
6
73
3
40
0
40
0
40
0
40
1
40
1
40
1
41
0.943993462491077
10
20.9751300001985
20
3.07173492044612
30
0
41
0.955129619920243
10
21.546860522995
20
2.02456778165108
30
0
41
1.0258173342201
10
21.7464686987278
20
1.39707149960144
30
0
0
SPLINE
5
13C
100
AcDbEntity
8
1
62
256
6
ByLayer
370
18
48
1
60
0
100
AcDbSpline
70
4
71
3
72
10
73
6
40
0
40
0
40
0
40
0
40
0.731096563947307
40
0.731096563947307
40
1
40
1
40
1
40
1
41
1
10
10.8051476873337
20
6.17540660143581
30
0
41
1
10
10.7588801971064
20
6.10608156071959
30
0
41
1
10
10.7055111408547
20
6.03537381244348
30
0
41
1
10
10.6301382857615
20
5.94470875771066
30
0
41
1
10
10.609317704321
20
5.92052446598584
30
0
41
1
10
10.5883677551289
20
5.89693474048372
30
0
0
SPLINE
5
13D
100
AcDbEntity
8
1
62
256
6
ByLayer
370
18
48
1
60
0
100
AcDbSpline
70
4
71
3
72
10
73
6
40
0
40
0
40
0
40
0
40
0.300434803509635
40
0.926576302243942
40
1
40
1
40
1
40
1
41
1.01906281214953
10
31.5727960253515
20
9.54508973121699
30
0
41
1.01951662816455
10
31.7092680644852
20
9.83139434839956
30
0
41
1.02128725997138
10
32.1398134556665
20
10.7880985082568
30
0
41
1.02366220434836
10
32.8029636967151
20
12.4838206548558
30
0
41
1.02527232143637
10
33.1264095888608
20
13.5361722769702
30
0
41
1.02543997666398
10
33.1588679274745
20
13.6449141422795
30
0
0
SPLINE
5
13E
100
AcDbEntity
8
1
62
256
6
ByLayer
370
18
48
1
60
0
100
AcDbSpline
70
4
71
3
72
8
73
4
40
0
40
0
40
0
40
0
40
1
40
1
40
1
40
1
41
1
10
19.0118874781752
20
1.69633335555702
30
0
41
1
10
17.9736424739889
20
0.972248632720323
30
0
41
1
10
16.7272974343617
20
0.73827541508885
30
0
41
1
10
15.5633034280722
20
0.972819168164989
30
0
0
SPLINE
5
13F
100
AcDbEntity
8
1
62
256
6
ByLayer
370
18
48
1
60
0
100
AcDbSpline
70
4
71
3
72
8
73
4
40
0
40
0
40
0
40
0
40
1
40
1
40
1
40
1
41
1
10
10.5883677551289
20
5.89693474048372
30
0
41
1
10
9.06904219561966
20
6.06266163962457
30
0
41
1
10
7.60594402392019
20
6.1828642353301
30
0
41
1
10
6.4908977312229
20
6.23101718775985
30
0
0
SPLINE
5
140
100
AcDbEntity
8
1
62
256
6
ByLayer
370
18
48
1
60
0
100
AcDbSpline
70
4
71
3
72
8
73
4
40
0
40
0
40
0
40
0
40
1
40
1
40
1
40
1
41
1
10
12.8666968862749
20
-2.90055714309975
30
0
41
1
10
12.9453883377822
20
-3.0124967069109
30
0
41
1
10
13.0318486936521
20
-3.11371248877202
30
0
41
1
10
13.1249470399423
20
-3.20600007009699
30
0
0
SPLINE
5
141
100
AcDbEntity
8
1
62
256
6
ByLayer
370
18
48
1
60
0
100
AcDbSpline
70
4
71
3
72
10
73
6
40
0
40
0
40
0
40
0
40
0.579529299651681
40
0.579529299651681
40
1
40
1
40
1
40
1
41
1
10
29.8522268139286
20
7.46275406585426
30
0
41
1
10
30.0967775782341
20
7.86116555141922
30
0
41
1
10
30.3599808198842
20
8.24512473814951
30
0
41
1
10
30.8256795159398
20
8.82134784091929
30
0
41
1
10
31.0301208829449
20
9.03985322566638
30
0
41
1
10
31.2306484230336
20
9.221217320091
30
0
0
SPLINE
5
142
100
AcDbEntity
8
1
62
256
6
ByLayer
370
18
48
1
60
0
100
AcDbSpline
70
4
71
3
72
8
73
4
40
0
40
0
40
0
40
0
40
1
40
1
40
1
40
1
41
1
10
15.059291339167
20
11.4870886555776
30
0
41
1
10
14.9954959778431
20
11.4465652579854
30
0
41
1
10
14.9328001869031
20
11.4048332697862
30
0
41
1
10
14.8712147313623
20
11.3618828223233
30
0
0
SPLINE
5
143
100
AcDbEntity
8
1
62
256
6
ByLayer
370
18
48
1
60
0
100
AcDbSpline
70
4
71
3
72
8
73
4
40
0
40
0
40
0
40
0
40
1
40
1
40
1
40
1
41
1
10
6.69215510973964
20
5.88280496244505
30
0
41
1
10
6.61346365823238
20
5.99474452625617
30
0
41
1
10
6.54703682848986
20
6.11101265836515
30
0
41
1
10
6.4908977312229
20
6.23101718775985
30
0
0
SPLINE
5
144
100
AcDbEntity
8
1
62
256
6
ByLayer
370
18
48
1
60
0
100
AcDbSpline
70
4
71
3
72
8
73
4
40
0
40
0
40
0
40
0
40
1
40
1
40
1
40
1
41
1
10
14.4780450707038
20
0.950664610501093
30
0
41
1
10
14.2760255086234
20
-0.997497998129063
30
0
41
1
10
14.0224521262289
20
-2.92590184384284
30
0
41
1
10
13.8274353526609
20
-4.0737139732687
30
0
0
SPLINE
5
145
100
AcDbEntity
8
1
62
256
6
ByLayer
370
18
48
1
60
0
100
AcDbSpline
70
4
71
3
72
10
73
6
40
0
40
0
40
0
40
0
40
0.5
40
0.5
40
1
40
1
40
1
40
1
41
1
10
22.8093650405406
20
9.10725811586994
30
0
41
1
10
23.2254791893757
20
8.05225364000677
30
0
41
1
10
23.2010066908516
20
6.86475771628463
30
0
41
1
10
22.5216273108687
20
4.73022778265923
30
0
41
1
10
21.8700405054676
20
3.75717715135653
30
0
41
1
10
20.9751299675766
20
3.0717349801956
30
0
0
SPLINE
5
146
100
AcDbEntity
8
1
62
256
6
ByLayer
370
18
48
1
60
0
100
AcDbSpline
70
4
71
3
72
8
73
4
40
0
40
0
40
0
40
0
40
1
40
1
40
1
40
1
41
1
10
15.0592913390353
20
11.4870886554937
30
0
41
1
10
14.5594961753434
20
12.0452204747728
30
0
41
1
10
14.1270279007697
20
12.4603262382586
30
0
41
1
10
13.8112371176745
20
12.6850366458761
30
0
0
SPLINE
5
147
100
AcDbEntity
8
1
62
256
6
ByLayer
370
18
48
1
60
0
100
AcDbSpline
70
4
71
3
72
8
73
4
40
0
40
0
40
0
40
0
40
1
40
1
40
1
40
1
41
1
10
31.5727927271743
20
9.54508281197622
30
0
41
1
10
31.4614234325634
20
9.43408965053709
30
0
41
1
10
31.347014435307
20
9.32646279624063
30
0
41
1
10
31.2306484230335
20
9.22121732009097
30
0
0
SPLINE
5
148
100
AcDbEntity
8
1
62
256
6
ByLayer
370
18
48
1
60
0
100
AcDbSpline
70
4
71
3
72
10
73
6
40
0
40
0
40
0
40
0
40
0.914968234315956
40
0.914968234315956
40
1
40
1
40
1
40
1
41
1
10
29.0808022717565
20
15.7953431421835
30
0
41
1
10
29.5210079633931
20
15.8172918917456
30
0
41
1
10
29.9551742538335
20
15.8463029960404
30
0
41
1
10
30.4226954876239
20
15.8851498709972
30
0
41
1
10
30.4624012654246
20
15.8885148775827
30
0
41
1
10
30.5020461055118
20
15.8919428299595
30
0
0
SPLINE
5
149
100
AcDbEntity
8
1
62
256
6
ByLayer
370
18
48
1
60
0
100
AcDbSpline
70
4
71
3
72
11
73
7
40
0
40
0
40
0
40
0
40
0.0598016998824435
40
0.46839221502871
40
0.740785891792888
40
1
40
1
40
1
40
1
41
1.0229825050537
10
21.3532058956644
20
11.1786625236363
30
0
41
1.02281639303114
10
21.5579403983057
20
11.307552345614
30
0
41
1.02150796927553
10
23.1794982748411
20
12.3228442012485
30
0
41
1.01953314781965
10
25.842583499782
20
13.9138752975343
30
0
41
1.01726237988674
10
27.8396971661108
20
15.0305659182554
30
0
41
1.01931548101018
10
28.5619156489128
20
15.4887421030223
30
0
41
1.02052415826821
10
29.0808022717565
20
15.7953431421835
30
0
0
SPLINE
5
14A
100
AcDbEntity
8
1
62
256
6
ByLayer
370
18
48
1
60
0
100
AcDbSpline
70
4
71
3
72
8
73
4
40
0
40
0
40
0
40
0
40
1
40
1
40
1
40
1
41
1
10
12.2188813168946
20
13.8181251976009
30
0
41
1
10
15.2960050094326
20
15.9368647080674
30
0
41
1
10
18.785107189849
20
17.2706128315153
30
0
41
1
10
22.4396831514172
20
18.0071891781766
30
0
0
SPLINE
5
14B
100
AcDbEntity
8
1
62
256
6
ByLayer
370
18
48
1
60
0
100
AcDbSpline
70
4
71
3
72
14
73
10
40
0
40
0
40
0
40
0
40
0.264998964150951
40
0.264998964150951
40
0.63300715060745
40
0.63300715060745
40
0.984533813617863
40
0.984533813617863
40
1
40
1
40
1
40
1
41
1
10
33.2505036943847
20
14.5088713455759
30
0
41
1
10
33.3150053202796
20
14.6411852089583
30
0
41
1
10
33.372756175366
20
14.7886779548295
30
0
41
1
10
33.486554559276
20
15.1643914448468
30
0
41
1
10
33.5344297226424
20
15.4075231883366
30
0
41
1
10
33.5850078425823
20
15.8891851194174
30
0
41
1
10
33.5904884106548
20
16.1329765937907
30
0
41
1
10
33.5788800577766
20
16.3789886666327
30
0
41
1
10
33.57835410281
20
16.3894458442678
30
0
41
1
10
33.577796449114
20
16.3998923013015
30
0
0
SPLINE
5
14C
100
AcDbEntity
8
1
62
256
6
ByLayer
370
18
48
1
60
0
100
AcDbSpline
70
4
71
2
72
6
73
3
40
0
40
0
40
0
40
1
40
1
40
1
41
1.0258173342201
10
21.7464686987278
20
1.39707149960144
30
0
41
1.0258173342201
10
22.0753394780755
20
0.363220102694595
30
0
41
1.0258173342201
10
22.4042102574231
20
-0.670631294212279
30
0
0
SPLINE
5
14D
100
AcDbEntity
8
1
62
256
6
ByLayer
370
18
48
1
60
0
100
AcDbSpline
70
4
71
3
72
10
73
6
40
0
40
0
40
0
40
0
40
0.31168179770978
40
0.31168179770978
40
1
40
1
40
1
40
1
41
1
10
30.5020461055312
20
15.8919428299612
30
0
41
1
10
30.4380867479821
20
15.7636839622611
30
0
41
1
10
30.374672424807
20
15.6343276727775
30
0
41
1
10
30.1728504375743
20
15.2162020074726
30
0
41
1
10
30.0362558478679
20
14.9238201902789
30
0
41
1
10
29.9025062893534
20
14.6264590061243
30
0
0
SPLINE
5
14E
100
AcDbEntity
8
1
62
256
6
ByLayer
370
18
48
1
60
0
100
AcDbSpline
70
4
71
3
72
10
73
6
40
0
40
0
40
0
40
0
40
0.5
40
0.5
40
1
40
1
40
1
40
1
41
1
10
15.0592913390353
20
11.4870886554937
30
0
41
1
10
16.0099272421552
20
12.0899624921831
30
0
41
1
10
17.1503322761395
20
12.3762855947305
30
0
41
1
10
19.3848545162758
20
12.3013125585817
30
0
41
1
10
20.4999912705688
20
11.9298744400366
30
0
41
1
10
21.3532058957346
20
11.1786625236805
30
0
0
SPLINE
5
14F
100
AcDbEntity
8
1
62
256
6
ByLayer
370
18
48
1
60
0
100
AcDbSpline
70
4
71
3
72
8
73
4
40
0
40
0
40
0
40
0
40
1
40
1
40
1
40
1
41
1
10
11.2038572685415
20
7.17418529128327
30
0
41
1
10
11.3921718988569
20
8.33139637291575
30
0
41
1
10
12.0404717707957
20
9.38768817293007
30
0
41
1
10
13.0903064448127
20
10.1198556727927
30
0
0
SPLINE
5
150
100
AcDbEntity
8
1
62
256
6
ByLayer
370
18
48
1
60
0
100
AcDbSpline
70
4
71
3
72
8
73
4
40
0
40
0
40
0
40
0
40
1
40
1
40
1
40
1
41
1
10
14.1424494014355
20
0.841209606221497
30
0
41
1
10
13.8826706026783
20
0.734281210670503
30
0
41
1
10
13.6416089819169
20
0.596206325370531
30
0
41
1
10
13.4234361577664
20
0.439768584257621
30
0
0
SPLINE
5
151
100
AcDbEntity
8
1
62
256
6
ByLayer
370
18
48
1
60
0
100
AcDbSpline
70
4
71
1
72
4
73
2
40
0
40
0
40
1
40
1
41
1
10
13.8112371176745
20
12.6850366458761
30
0
41
1
10
12.2188813168946
20
13.8181251976009
30
0
0
SPLINE
5
152
100
AcDbEntity
8
1
62
256
6
ByLayer
370
18
48
1
60
0
100
AcDbSpline
70
4
71
3
72
10
73
6
40
0
40
0
40
0
40
0
40
0.5
40
0.5
40
1
40
1
40
1
40
1
41
1
10
29.7983852512219
20
12.4437716063753
30
0
41
1
10
30.3714394056829
20
12.3278122916355
30
0
41
1
10
30.9544855842321
20
12.231049564588
30
0
41
1
10
32.0996749761414
20
12.5583613603401
30
0
41
1
10
32.6888939492864
20
12.8772420558153
30
0
41
1
10
33.1578849638509
20
13.6416220203803
30
0
0
SPLINE
5
153
100
AcDbEntity
8
1
62
256
6
ByLayer
370
18
48
1
60
0
100
AcDbSpline
70
4
71
3
72
8
73
4
40
0
40
0
40
0
40
0
40
1
40
1
40
1
40
1
41
1
10
10.5883677551289
20
5.89693474048372
30
0
41
1
10
10.4014091912575
20
5.68641865943934
30
0
41
1
10
10.1921443022883
20
5.50311252958545
30
0
41
1
10
9.97397147813774
20
5.34667478847257
30
0
0
SPLINE
5
154
100
AcDbEntity
8
1
62
256
6
ByLayer
370
18
48
1
60
0
100
AcDbSpline
70
4
71
3
72
12
73
8
40
0
40
0
40
0
40
0
40
0.274077856982874
40
0.274077856982874
40
0.548155363965173
40
0.548155363965173
40
1
40
1
40
1
40
1
41
1
10
21.3532058957346
20
11.1786625236805
30
0
41
1
10
21.5285252371098
20
11.0242862521823
30
0
41
1
10
21.6943194338808
20
10.8579507959266
30
0
41
1
10
22.0023992347536
20
10.5060196002948
30
0
41
1
10
22.1453910282901
20
10.3196177665675
30
0
41
1
10
22.4888443151562
20
9.80634234217393
30
0
41
1
10
22.6691099939058
20
9.4628038246222
30
0
41
1
10
22.8093650405407
20
9.10725811586997
30
0
0
SPLINE
5
155
100
AcDbEntity
8
1
62
256
6
ByLayer
370
18
48
1
60
0
100
AcDbSpline
70
4
71
3
72
11
73
7
40
0
40
0
40
0
40
0
40
0.425230898251465
40
0.744154071940064
40
0.956769521065797
40
1
40
1
40
1
40
1
41
1.0258173342201
10
13.8112371176744
20
12.6850366458761
30
0
41
1.02559001729416
10
14.8026111096365
20
13.2510252355593
30
0
41
1.0228008665691
10
18.6728512856146
20
14.5514474493054
30
0
41
1.01953314781965
10
24.316732314088
20
15.7548514858581
30
0
41
1.01775466813745
10
26.275583681897
20
16.1550517204073
30
0
41
1.01823166218985
10
26.8917893179827
20
16.3937429160858
30
0
41
1.01834276704992
10
26.9921649185579
20
16.4356547649214
30
0
0
SPLINE
5
156
100
AcDbEntity
8
1
62
256
6
ByLayer
370
18
48
1
60
0
100
AcDbSpline
70
4
71
3
72
8
73
4
40
0
40
0
40
0
40
0
40
1
40
1
40
1
40
1
41
1
10
16.0319209873694
20
-5.2227894752869
30
0
41
1
10
15.6104672642342
20
-5.53373258683101
30
0
41
1
10
15.0969884443986
20
-5.83296646646559
30
0
41
1
10
14.4839325066202
20
-6.01122932304298
30
0
0
SPLINE
5
157
100
AcDbEntity
8
1
62
256
6
ByLayer
370
18
48
1
60
0
100
AcDbSpline
70
4
71
3
72
20
73
16
40
0
40
0
40
0
40
0
40
0.118962056339781
40
0.118962056339781
40
0.191173230286451
40
0.191173230286451
40
0.263712164126321
40
0.263712164126321
40
0.333306822588764
40
0.333306822588764
40
0.451479822004409
40
0.451479822004409
40
0.654414534009054
40
0.654414534009054
40
1
40
1
40
1
40
1
41
1
10
26.9921649185578
20
16.4356547649214
30
0
41
1
10
26.9822115739112
20
16.3854053966417
30
0
41
1
10
26.9857144929341
20
16.3302161250613
30
0
41
1
10
27.0299264526533
20
16.2384090556257
30
0
41
1
10
27.0563252965446
20
16.2022179115199
30
0
41
1
10
27.1281254994971
20
16.1326725680552
30
0
41
1
10
27.1745425073704
20
16.0985167229458
30
0
41
1
10
27.2768329779007
20
16.0383419549557
30
0
41
1
10
27.3332045575243
20
16.0113217925175
30
0
41
1
10
27.4899144357303
20
15.9474449299565
30
0
41
1
10
27.5961573395141
20
15.9153579759132
30
0
41
1
10
27.8804109124247
20
15.8466269223665
30
0
41
1
10
28.0617923671371
20
15.8209520309634
30
0
41
1
10
28.5305124810776
20
15.7795487552069
30
0
41
1
10
28.8122690323931
20
15.7819105232106
30
0
41
1
10
29.0808022717565
20
15.7953431421835
30
0
0
LINE
5
72
100
AcDbEntity
8
1
62
256
6
ByLayer
370
18
48
1
60
0
100
AcDbLine
10
6.175289
20
9.598202
30
0
11
5.483216
21
9.008618
31
0
39
0
210
0
220
0
230
1
0
LINE
5
74
100
AcDbEntity
8
1
62
256
6
ByLayer
370
18
48
1
60
0
100
AcDbLine
10
23.658979
20
22.9691
30
0
11
23.205462
21
22.515582
31
0
39
0
210
0
220
0
230
1
0
LINE
5
75
100
AcDbEntity
8
1
62
256
6
ByLayer
370
18
48
1
60
0
100
AcDbLine
10
15.698823
20
6.265109
30
0
11
15.721617
21
6.287903
31
0
39
0
210
0
220
0
230
1
0
LINE
5
76
100
AcDbEntity
8
1
62
256
6
ByLayer
370
18
48
1
60
0
100
AcDbLine
10
18.733024
20
7.300168
30
0
11
18.519903
21
7.087047
31
0
39
0
210
0
220
0
230
1
0
LINE
5
77
100
AcDbEntity
8
1
62
256
6
ByLayer
370
18
48
1
60
0
100
AcDbLine
10
20.45097
20
2.946617
30
0
11
20.622055
21
3.117702
31
0
39
0
210
0
220
0
230
1
0
LINE
5
78
100
AcDbEntity
8
1
62
256
6
ByLayer
370
18
48
1
60
0
100
AcDbLine
10
13.550987
20
10.18877
30
0
11
13.381121
21
10.018904
31
0
39
0
210
0
220
0
230
1
0
LINE
5
79
100
AcDbEntity
8
1
62
256
6
ByLayer
370
18
48
1
60
0
100
AcDbLine
10
9.902852
20
5.268021
30
0
11
10.227697
21
5.54476
31
0
39
0
210
0
220
0
230
1
0
LINE
5
7A
100
AcDbEntity
8
1
62
256
6
ByLayer
370
18
48
1
60
0
100
AcDbLine
10
37.354016
20
8.385719
30
0
11
37.798188
21
8.829891
31
0
39
0
210
0
220
0
230
1
0
LINE
5
7B
100
AcDbEntity
8
80
62
256
6
ByLayer
370
18
48
1
60
0
100
AcDbLine
10
0
20
0
30
0
11
-5
21
0
31
0
39
0
210
0
220
0
230
1
0
LINE
5
7C
100
AcDbEntity
8
81
62
256
6
ByLayer
370
18
48
1
60
0
100
AcDbLine
10
39.254088
20
24.425
30
0
11
49.254088
21
24.425
31
0
39
0
210
0
220
0
230
1
0
LINE
5
7D
100
AcDbEntity
8
1
62
256
6
ByLayer
370
18
48
1
60
0
100
AcDbLine
10
30.152628
20
7.92415
30
0
11
37.065709
21
8.49147
31
0
39
0
210
0
220
0
230
1
0
LINE
5
7E
100
AcDbEntity
8
1
62
256
6
ByLayer
370
18
48
1
60
0
100
AcDbLine
10
23.320558
20
22.236621
30
0
11
22.983382
21
18.12795
31
0
39
0
210
0
220
0
230
1
0
LINE
5
7F
100
AcDbEntity
8
1
62
256
6
ByLayer
370
18
48
1
60
0
100
AcDbLine
10
37.027853
20
8.453614
30
0
11
37.065709
21
8.49147
31
0
39
0
210
0
220
0
230
1
0
LINE
5
80
100
AcDbEntity
8
1
62
256
6
ByLayer
370
18
48
1
60
0
100
AcDbLine
10
23.320558
20
22.236621
30
0
11
23.27377
21
22.189832
31
0
39
0
210
0
220
0
230
1
0
LINE
5
81
100
AcDbEntity
8
1
62
256
6
ByLayer
370
18
48
1
60
0
100
AcDbLine
10
22.093959
20
-9.521216
30
0
11
18.031942
21
-3.742947
31
0
39
0
210
0
220
0
230
1
0
LINE
5
82
100
AcDbEntity
8
1
62
256
6
ByLayer
370
18
48
1
60
0
100
AcDbLine
10
7.829443
20
10.770234
30
0
11
4.910021
21
14.923148
31
0
39
0
210
0
220
0
230
1
0
LINE
5
83
100
AcDbEntity
8
1
62
256
6
ByLayer
370
18
48
1
60
0
100
AcDbLine
10
22.822824
20
18.091033
30
0
11
23.186596
21
22.523789
31
0
39
0
210
0
220
0
230
1
0
LINE
5
84
100
AcDbEntity
8
1
62
256
6
ByLayer
370
18
48
1
60
0
100
AcDbLine
10
29.053683
20
6.082841
30
0
11
29.070446
21
6.28711
31
0
39
0
210
0
220
0
230
1
0
LINE
5
85
100
AcDbEntity
8
1
62
256
6
ByLayer
370
18
48
1
60
0
100
AcDbLine
10
30.039851
20
7.750901
30
0
11
37.355004
21
8.383422
31
0
39
0
210
0
220
0
230
1
0
LINE
5
86
100
AcDbEntity
8
1
62
256
6
ByLayer
370
18
48
1
60
0
100
AcDbLine
10
18.945357
20
-11.945504
30
0
11
14.719455
21
-5.934105
31
0
39
0
210
0
220
0
230
1
0
LINE
5
87
100
AcDbEntity
8
1
62
256
6
ByLayer
370
18
48
1
60
0
100
AcDbLine
10
4.74936
20
8.248478
30
0
11
1.966403
21
12.207268
31
0
39
0
210
0
220
0
230
1
0
LINE
5
88
100
AcDbEntity
8
1
62
256
6
ByLayer
370
18
48
1
60
0
100
AcDbLine
10
28.429518
20
5.373549
30
0
11
29.053683
21
6.082841
31
0
39
0
210
0
220
0
230
1
0
LINE
5
89
100
AcDbEntity
8
1
62
256
6
ByLayer
370
18
48
1
60
0
100
AcDbLine
10
18.204884
20
-12.520419
30
0
11
13.682424
21
-6.087163
31
0
39
0
210
0
220
0
230
1
0
LINE
5
8A
100
AcDbEntity
8
1
62
256
6
ByLayer
370
18
48
1
60
0
100
AcDbLine
10
4.254502
20
7.324173
30
0
11
1.087523
21
11.82924
31
0
39
0
210
0
220
0
230
1
0
LINE
5
8B
100
AcDbEntity
8
1
62
256
6
ByLayer
370
18
48
1
60
0
100
AcDbLine
10
30.119148
20
7.872688
30
0
11
31.430024
21
7.986036
31
0
39
0
210
0
220
0
230
1
0
LINE
5
8C
100
AcDbEntity
8
1
62
256
6
ByLayer
370
18
48
1
60
0
100
AcDbLine
10
37.260151
20
8.490151
30
0
11
37.306836
21
8.494188
31
0
39
0
210
0
220
0
230
1
0
LINE
5
8D
100
AcDbEntity
8
1
62
256
6
ByLayer
370
18
48
1
60
0
100
AcDbLine
10
18.924565
20
-11.966296
30
0
11
14.690636
21
-5.943479
31
0
39
0
210
0
220
0
230
1
0
LINE
5
8E
100
AcDbEntity
8
1
62
256
6
ByLayer
370
18
48
1
60
0
100
AcDbLine
10
4.731368
20
8.223702
30
0
11
1.76035
21
12.450013
31
0
39
0
210
0
220
0
230
1
0
LINE
5
8F
100
AcDbEntity
8
1
62
256
6
ByLayer
370
18
48
1
60
0
100
AcDbLine
10
15.701644
20
6.268076
30
0
11
15.714438
21
6.28087
31
0
39
0
210
0
220
0
230
1
0
LINE
5
90
100
AcDbEntity
8
1
62
256
6
ByLayer
370
18
48
1
60
0
100
AcDbLine
10
20.45097
20
2.946617
30
0
11
20.451135
21
2.946783
31
0
39
0
210
0
220
0
230
1
0
LINE
5
91
100
AcDbEntity
8
1
62
256
6
ByLayer
370
18
48
1
60
0
100
AcDbLine
10
18.598819
20
6.321944
30
0
11
18.81194
21
6.535065
31
0
39
0
210
0
220
0
230
1
0
LINE
5
92
100
AcDbEntity
8
1
62
256
6
ByLayer
370
18
48
1
60
0
100
AcDbLine
10
18.406612
20
6.567272
30
0
11
18.615232
21
6.775891
31
0
39
0
210
0
220
0
230
1
0
LINE
5
93
100
AcDbEntity
8
1
62
256
6
ByLayer
370
18
48
1
60
0
100
AcDbLine
10
17.711767
20
5.368285
30
0
11
17.920386
21
5.576905
31
0
39
0
210
0
220
0
230
1
0
LINE
5
94
100
AcDbEntity
8
1
62
256
6
ByLayer
370
18
48
1
60
0
100
AcDbLine
10
17.311883
20
8.152626
30
0
11
17.525005
21
8.365747
31
0
39
0
210
0
220
0
230
1
0
LINE
5
95
100
AcDbEntity
8
1
62
256
6
ByLayer
370
18
48
1
60
0
100
AcDbLine
10
17.597216
20
5.081477
30
0
11
17.810337
21
5.294598
31
0
39
0
210
0
220
0
230
1
0
LINE
5
96
100
AcDbEntity
8
1
62
256
6
ByLayer
370
18
48
1
60
0
100
AcDbLine
10
18.015802
20
7.821381
30
0
11
18.228923
21
8.034502
31
0
39
0
210
0
220
0
230
1
0
LINE
5
97
100
AcDbEntity
8
1
62
256
6
ByLayer
370
18
48
1
60
0
100
AcDbLine
10
18.591644
20
7.029776
30
0
11
18.383024
21
6.821157
31
0
39
0
210
0
220
0
230
1
0
LINE
5
98
100
AcDbEntity
8
1
62
256
6
ByLayer
370
18
48
1
60
0
100
AcDbLine
10
16.316632
20
7.793543
30
0
11
16.525252
21
8.002163
31
0
39
0
210
0
220
0
230
1
0
LINE
5
99
100
AcDbEntity
8
1
62
256
6
ByLayer
370
18
48
1
60
0
100
AcDbLine
10
15.799001
20
7.63946
30
0
11
16.012122
21
7.852581
31
0
39
0
210
0
220
0
230
1
0
LINE
5
9A
100
AcDbEntity
8
1
62
256
6
ByLayer
370
18
48
1
60
0
100
AcDbLine
10
17.68621
20
8.097437
30
0
11
17.47759
21
7.888817
31
0
39
0
210
0
220
0
230
1
0
LINE
5
9B
100
AcDbEntity
8
1
62
256
6
ByLayer
370
18
48
1
60
0
100
AcDbLine
10
17.709045
20
7.779901
30
0
11
17.917665
21
7.988521
31
0
39
0
210
0
220
0
230
1
0
LINE
5
9C
100
AcDbEntity
8
1
62
256
6
ByLayer
370
18
48
1
60
0
100
AcDbLine
10
16.317385
20
7.857194
30
0
11
16.108765
21
7.648574
31
0
39
0
210
0
220
0
230
1
0
LINE
5
9D
100
AcDbEntity
8
1
62
256
6
ByLayer
370
18
48
1
60
0
100
AcDbLine
10
16.632506
20
-4.711145
30
0
11
18.212283
21
-3.60939
31
0
39
0
210
0
220
0
230
1
0
LINE
5
9E
100
AcDbEntity
8
1
62
256
6
ByLayer
370
18
48
1
60
0
100
AcDbLine
10
22.40421
20
-0.670631
30
0
11
18.225523
21
-3.584899
31
0
39
0
210
0
220
0
230
1
0
LINE
5
9F
100
AcDbEntity
8
1
62
256
6
ByLayer
370
18
48
1
60
0
100
AcDbLine
10
5.912748
20
7.176534
30
0
11
13.811237
21
12.685037
31
0
39
0
210
0
220
0
230
1
0
LINE
5
A0
100
AcDbEntity
8
1
62
256
6
ByLayer
370
18
48
1
60
0
100
AcDbLine
10
13.847979
20
-4.111431
30
0
11
21.746469
21
1.397071
31
0
39
0
210
0
220
0
230
1
0
LINE
5
A1
100
AcDbEntity
8
1
62
256
6
ByLayer
370
18
48
1
60
0
100
AcDbLine
10
33.158629
20
13.648588
30
0
11
33.250504
21
14.508871
31
0
39
0
210
0
220
0
230
1
0
LINE
5
A2
100
AcDbEntity
8
1
62
256
6
ByLayer
370
18
48
1
60
0
100
AcDbLine
10
18.212283
20
-3.60939
30
0
11
16.158694
21
-5.129117
31
0
39
0
210
0
220
0
230
1
0
LINE
5
A3
100
AcDbEntity
8
1
62
256
6
ByLayer
370
18
48
1
60
0
100
AcDbLine
10
13.090306
20
10.119856
30
0
11
14.871215
21
11.361883
31
0
39
0
210
0
220
0
230
1
0
LINE
5
A4
100
AcDbEntity
8
1
62
256
6
ByLayer
370
18
48
1
60
0
100
AcDbLine
10
12.866697
20
-2.900557
30
0
11
10.878256
21
-4.594529
31
0
39
0
210
0
220
0
230
1
0
LINE
5
A5
100
AcDbEntity
8
1
62
256
6
ByLayer
370
18
48
1
60
0
100
AcDbLine
10
16.632506
20
-4.711145
30
0
11
16.031921
21
-5.222789
31
0
39
0
210
0
220
0
230
1
0
LINE
5
A6
100
AcDbEntity
8
1
62
256
6
ByLayer
370
18
48
1
60
0
100
AcDbLine
10
9.973971
20
5.346675
30
0
11
9.678468
21
5.094932
31
0
39
0
210
0
220
0
230
1
0
LINE
5
A7
100
AcDbEntity
8
1
62
256
6
ByLayer
370
18
48
1
60
0
100
AcDbLine
10
30.502046
20
15.891943
30
0
11
33.19121
21
17.640129
31
0
39
0
210
0
220
0
230
1
0
LINE
5
A8
100
AcDbEntity
8
1
62
256
6
ByLayer
370
18
48
1
60
0
100
AcDbLine
10
14.871215
20
11.361883
30
0
11
14.681271
21
11.200068
31
0
39
0
210
0
220
0
230
1
0
LINE
5
A9
100
AcDbEntity
8
1
62
256
6
ByLayer
370
18
48
1
60
0
100
AcDbLine
10
8.013365
20
10.898696
30
0
11
6.433589
21
9.796941
31
0
39
0
210
0
220
0
230
1
0
LINE
5
AA
100
AcDbEntity
8
1
62
256
6
ByLayer
370
18
48
1
60
0
100
AcDbLine
10
30.276259
20
18.739771
30
0
11
29.433524
21
18.947957
31
0
39
0
210
0
220
0
230
1
0
LINE
5
AB
100
AcDbEntity
8
1
62
256
6
ByLayer
370
18
48
1
60
0
100
AcDbLine
10
18.212283
20
-3.60939
30
0
11
18.225523
21
-3.584899
31
0
39
0
210
0
220
0
230
1
0
LINE
5
AC
100
AcDbEntity
8
1
62
256
6
ByLayer
370
18
48
1
60
0
100
AcDbLine
10
6.692155
20
5.882805
30
0
11
4.703715
21
4.188833
31
0
39
0
210
0
220
0
230
1
0
LINE
5
AD
100
AcDbEntity
8
1
62
256
6
ByLayer
370
18
48
1
60
0
100
AcDbLine
10
12.218881
20
13.818125
30
0
11
8.040194
21
10.903858
31
0
39
0
210
0
220
0
230
1
0
LINE
5
AE
100
AcDbEntity
8
1
62
256
6
ByLayer
370
18
48
1
60
0
100
AcDbLine
10
10.878256
20
-4.594529
30
0
11
4.703715
21
4.188833
31
0
39
0
210
0
220
0
230
1
0
LINE
5
AF
100
AcDbEntity
8
1
62
256
6
ByLayer
370
18
48
1
60
0
100
AcDbLine
10
9.678468
20
5.094932
30
0
11
8.449935
21
4.238972
31
0
39
0
210
0
220
0
230
1
0
LINE
5
B0
100
AcDbEntity
8
1
62
256
6
ByLayer
370
18
48
1
60
0
100
AcDbLine
10
6.692155
20
5.882805
30
0
11
12.866697
21
-2.900557
31
0
39
0
210
0
220
0
230
1
0
LINE
5
B1
100
AcDbEntity
8
1
62
256
6
ByLayer
370
18
48
1
60
0
100
AcDbLine
10
8.013365
20
10.898696
30
0
11
8.040194
21
10.903858
31
0
39
0
210
0
220
0
230
1
0
LINE
5
B2
100
AcDbEntity
8
1
62
256
6
ByLayer
370
18
48
1
60
0
100
AcDbLine
10
8.449935
20
4.238972
30
0
11
11.8994
21
-0.667934
31
0
39
0
210
0
220
0
230
1
0
LINE
5
B3
100
AcDbEntity
8
1
62
256
6
ByLayer
370
18
48
1
60
0
100
AcDbLine
10
12.908145
20
9.96467
30
0
11
14.681271
21
11.200068
31
0
39
0
210
0
220
0
230
1
0
LINE
5
B4
100
AcDbEntity
8
1
62
256
6
ByLayer
370
18
48
1
60
0
100
AcDbLine
10
20.792796
20
2.938361
30
0
11
19.011887
21
1.696333
31
0
39
0
210
0
220
0
230
1
0
LINE
5
B5
100
AcDbEntity
8
1
62
256
6
ByLayer
370
18
48
1
60
0
100
AcDbLine
10
4.396588
20
20.321588
30
0
11
0
21
15.925
31
0
39
0
210
0
220
0
230
1
0
LINE
5
B6
100
AcDbEntity
8
1
62
256
6
ByLayer
370
18
48
1
60
0
100
AcDbLine
10
15.033893
20
-15.786027
30
0
11
33.115621
21
-2.318699
31
0
39
0
210
0
220
0
230
1
0
LINE
5
B7
100
AcDbEntity
8
1
62
256
6
ByLayer
370
18
48
1
60
0
100
AcDbLine
10
18.924565
20
-11.966296
30
0
11
18.945357
21
-11.945504
31
0
39
0
210
0
220
0
230
1
0
LINE
5
B8
100
AcDbEntity
8
1
62
256
6
ByLayer
370
18
48
1
60
0
100
AcDbLine
10
1.76035
20
12.450013
30
0
11
1.966403
21
12.207268
31
0
39
0
210
0
220
0
230
1
0
LINE
5
B9
100
AcDbEntity
8
1
62
256
6
ByLayer
370
18
48
1
60
0
100
AcDbLine
10
3.72871
20
-15.94127
30
0
11
1.087523
21
11.82924
31
0
39
0
210
0
220
0
230
1
0
LINE
5
BA
100
AcDbEntity
8
1
62
256
6
ByLayer
370
18
48
1
60
0
100
AcDbLine
10
13.58759
20
-15.936746
30
0
11
3.72871
21
-15.94127
31
0
39
0
210
0
220
0
230
1
0
LINE
5
BB
100
AcDbEntity
8
1
62
256
6
ByLayer
370
18
48
1
60
0
100
AcDbLine
10
36.777227
20
1.342907
30
0
11
37.355004
21
8.383422
31
0
39
0
210
0
220
0
230
1
0
LINE
5
BC
100
AcDbEntity
8
1
62
256
6
ByLayer
370
18
48
1
60
0
100
AcDbLine
10
33.115621
20
-2.318699
30
0
11
36.777227
21
1.342907
31
0
39
0
210
0
220
0
230
1
0
LINE
5
BD
100
AcDbEntity
8
1
62
256
6
ByLayer
370
18
48
1
60
0
100
AcDbLine
10
13.58759
20
-15.936746
30
0
11
15.033893
21
-15.786027
31
0
39
0
210
0
220
0
230
1
0
LINE
5
BE
100
AcDbEntity
8
1
62
256
6
ByLayer
370
18
48
1
60
0
100
AcDbLine
10
18.945357
20
-11.945504
30
0
11
22.093959
21
-9.521216
31
0
39
0
210
0
220
0
230
1
0
LINE
5
BF
100
AcDbEntity
8
1
62
256
6
ByLayer
370
18
48
1
60
0
100
AcDbLine
10
0
20
-15.925
30
0
11
0
21
15.925
31
0
39
0
210
0
220
0
230
1
0
LINE
5
C0
100
AcDbEntity
8
1
62
256
6
ByLayer
370
18
48
1
60
0
100
AcDbLine
10
36.777227
20
1.342907
30
0
11
22.093959
21
-9.521216
31
0
39
0
210
0
220
0
230
1
0
LINE
5
C1
100
AcDbEntity
8
1
62
256
6
ByLayer
370
18
48
1
60
0
100
AcDbLine
10
23.186596
20
22.523789
30
0
11
23.297227
21
22.47561
31
0
39
0
210
0
220
0
230
1
0
LINE
5
C2
100
AcDbEntity
8
1
62
256
6
ByLayer
370
18
48
1
60
0
100
AcDbLine
10
13.58759
20
-15.936746
30
0
11
18.204884
21
-12.520419
31
0
39
0
210
0
220
0
230
1
0
LINE
5
C3
100
AcDbEntity
8
1
62
256
6
ByLayer
370
18
48
1
60
0
100
AcDbLine
10
4.910021
20
14.923148
30
0
11
4.396588
21
20.321588
31
0
39
0
210
0
220
0
230
1
0
LINE
5
C4
100
AcDbEntity
8
1
62
256
6
ByLayer
370
18
48
1
60
0
100
AcDbLine
10
37.355004
20
8.383422
30
0
11
37.306836
21
8.494188
31
0
39
0
210
0
220
0
230
1
0
LINE
5
C5
100
AcDbEntity
8
1
62
256
6
ByLayer
370
18
48
1
60
0
100
AcDbLine
10
23.297227
20
22.47561
30
0
11
22.966966
21
18.451203
31
0
39
0
210
0
220
0
230
1
0
LINE
5
C6
100
AcDbEntity
8
1
62
256
6
ByLayer
370
18
48
1
60
0
100
AcDbLine
10
0
20
-15.925
30
0
11
3.72871
21
-15.94127
31
0
39
0
210
0
220
0
230
1
0
LINE
5
C7
100
AcDbEntity
8
1
62
256
6
ByLayer
370
18
48
1
60
0
100
AcDbLine
10
4.396588
20
20.321588
30
0
11
5.115817
21
21.040817
31
0
39
0
210
0
220
0
230
1
0
LINE
5
C8
100
AcDbEntity
8
1
62
256
6
ByLayer
370
18
48
1
60
0
100
AcDbLine
10
1.966403
20
12.207268
30
0
11
4.910021
21
14.923148
31
0
39
0
210
0
220
0
230
1
0
LINE
5
C9
100
AcDbEntity
8
1
62
256
6
ByLayer
370
18
48
1
60
0
100
AcDbLine
10
23.186596
20
22.523789
30
0
11
5.115817
21
21.040817
31
0
39
0
210
0
220
0
230
1
0
LINE
5
CA
100
AcDbEntity
8
SK1
62
256
6
ByLayer
370
18
48
1
60
0
100
AcDbLine
10
-132.095912
20
-15.925
30
0
11
0
21
-15.925
31
0
39
0
210
0
220
0
230
1
0
LINE
5
CC
100
AcDbEntity
8
SK1
62
256
6
ByLayer
370
18
48
1
60
0
100
AcDbLine
10
-132.095912
20
15.925
30
0
11
-132.095912
21
-15.925
31
0
39
0
210
0
220
0
230
1
0
LINE
5
CD
100
AcDbEntity
8
SK1
62
256
6
ByLayer
370
18
48
1
60
0
100
AcDbLine
10
0
20
15.925
30
0
11
-132.095912
21
15.925
31
0
39
0
210
0
220
0
230
1
0
LINE
5
CE
100
AcDbEntity
8
SK1
62
256
6
ByLayer
370
18
48
1
60
0
100
AcDbLine
10
0
20
15.925
30
0
11
0
21
-15.925
31
0
39
0
210
0
220
0
230
1
0
LINE
5
CF
100
AcDbEntity
8
1
62
256
6
ByLayer
370
18
48
1
60
0
100
AcDbLine
10
38.136609
20
9.56237
30
0
11
39.250092
21
23.130733
31
0
39
0
210
0
220
0
230
1
0
LINE
5
D0
100
AcDbEntity
8
1
62
256
6
ByLayer
370
18
48
1
60
0
100
AcDbLine
10
37.959822
20
24.421004
30
0
11
24.391458
21
23.307521
31
0
39
0
210
0
220
0
230
1
0
MTEXT
5
158
100
AcDbEntity
8
SK6
62
256
6
ByLayer
370
18
48
1
60
0
100
AcDbMText
10
-60.545912
20
-26.808135
30
0
210
0
220
0
230
1
1
\W0.7470;DCLNR 3232P 16
40
3.5
41
0
44
1.084337
50
0
71
7
72
5
7
iso_b_vert
0
DIMENSION
5
169
100
AcDbEntity
8
2
62
256
6
ByLayer
370
13
48
1
60
0
100
AcDbDimension
2
DimnDraft3D1
10
36.969433
20
24.339221
30
0
11
20.585266
21
41.726241
31
0
70
34
71
5
72
1
41
1
210
0
220
0
230
1
3
Standard
100
AcDb2LineAngularDimension
13
39.254088
23
24.425
33
0
14
39.254088
24
22.04375
34
0
15
37.966083
25
24.421011
35
0
16
23.894816
26
38.677162
36
0
40
0
0
DIMENSION
5
17F
100
AcDbEntity
8
SK2
62
256
6
ByLayer
370
13
48
1
60
0
100
AcDbDimension
2
DimnDraft3D2
10
-139.845912
20
15.925
30
0
11
-139.845912
21
-5.281579
31
0
70
32
71
5
72
1
41
1
210
0
220
0
230
1
3
Standard
100
AcDbAlignedDimension
13
-134.095912
23
-15.925
33
0
14
-134.095912
24
15.925
34
0
50
90
100
AcDbRotatedDimension
1001
ACAD
1000
DSTYLE
1002
{
1070
    74
1070
     0
1070
   279
1070
     0
1070
   172
1070
     1
1070
   173
1070
     1
1070
   340
1005
159
1070
    77
1070
     1
1070
    73
1070
     0
1070
   171
1070
     3
1070
   274
1070
     4
1070
   177
1070
     2
1070
   176
1070
     2
1070
   178
1070
     7
1070
    78
1070
     8
1070
    41
1041
3.175
1070
   147
1041
2.25
1070
    42
1041
2.0
1070
    44
1041
2.0
1070
   140
1041
4.5
1070
   343
1005
16A
1070
   344
1005
16A
1002
}
0
DIMENSION
5
18D
100
AcDbEntity
8
2
62
256
6
ByLayer
370
13
48
1
60
0
100
AcDbDimension
2
DimnDraft3D3
10
61.504088
20
24.425
30
0
11
61.504088
21
-1.268421
31
0
70
32
71
5
72
1
41
1
210
0
220
0
230
1
3
Standard
100
AcDbAlignedDimension
13
2
23
-15.925
33
0
14
41.254088
24
24.425
34
0
50
90
100
AcDbRotatedDimension
1001
ACAD
1000
DSTYLE
1002
{
1070
    74
1070
     0
1070
   279
1070
     0
1070
   172
1070
     1
1070
   173
1070
     1
1070
   340
1005
159
1070
    77
1070
     1
1070
    73
1070
     0
1070
   171
1070
     3
1070
   274
1070
     4
1070
   177
1070
     2
1070
   176
1070
     2
1070
   178
1070
     7
1070
    78
1070
     8
1070
    41
1041
3.175
1070
   147
1041
2.25
1070
    42
1041
2.0
1070
    44
1041
2.0
1070
   140
1041
4.5
1070
   343
1005
16A
1070
   344
1005
16A
1002
}
0
DIMENSION
5
19B
100
AcDbEntity
8
2
62
256
6
ByLayer
370
13
48
1
60
0
100
AcDbDimension
2
DimnDraft3D4
10
39.254088
20
54.175
30
0
11
14.345465
21
54.175
31
0
70
32
71
5
72
1
41
1
210
0
220
0
230
1
3
Standard
100
AcDbAlignedDimension
13
0
23
17.925
33
0
14
39.254088
24
26.425
34
0
50
0
100
AcDbRotatedDimension
1001
ACAD
1000
DSTYLE
1002
{
1070
   279
1070
     0
1070
   172
1070
     1
1070
   173
1070
     1
1070
   340
1005
159
1070
    77
1070
     1
1070
    73
1070
     0
1070
   171
1070
     3
1070
   274
1070
     4
1070
   177
1070
     2
1070
   176
1070
     2
1070
   178
1070
     7
1070
    78
1070
     8
1070
    41
1041
3.175
1070
   147
1041
2.25
1070
    42
1041
2.0
1070
    44
1041
2.0
1070
   140
1041
4.5
1070
   343
1005
16A
1070
   344
1005
16A
1002
}
0
DIMENSION
5
1A9
100
AcDbEntity
8
SK2
62
256
6
ByLayer
370
13
48
1
60
0
100
AcDbDimension
2
DimnDraft3D5
10
-132.095912
20
64.175
30
0
11
-52.821569
21
64.175
31
0
70
32
71
5
72
1
41
1
210
0
220
0
230
1
3
Standard
100
AcDbAlignedDimension
13
39.254088
23
26.425
33
0
14
-132.095912
24
17.925
34
0
50
0
100
AcDbRotatedDimension
1001
ACAD
1000
DSTYLE
1002
{
1070
   279
1070
     0
1070
   172
1070
     1
1070
   173
1070
     1
1070
   340
1005
159
1070
    77
1070
     1
1070
    73
1070
     0
1070
   171
1070
     3
1070
   274
1070
     4
1070
   177
1070
     2
1070
   176
1070
     2
1070
   178
1070
     7
1070
    78
1070
     8
1070
    41
1041
3.175
1070
   147
1041
2.25
1070
    42
1041
2.0
1070
    44
1041
2.0
1070
   140
1041
4.5
1070
   343
1005
16A
1070
   344
1005
16A
1002
}
0
ENDSEC
0
SECTION
2
OBJECTS
0
DICTIONARY
5
213
330
0
100
AcDbDictionary
280
0
281
1
3
ACAD_GROUP
350
214
3
ACAD_MLINESTYLE
350
215
0
DICTIONARY
5
214
330
0
100
AcDbDictionary
280
0
281
1
0
DICTIONARY
5
215
330
0
100
AcDbDictionary
280
0
281
1
3
Standard
350
18
0
MLINESTYLE
5
18
330
215
100
AcDbMlineStyle
2
Standard
70
0
3

62
256
51
90
52
90
71
2
49
-0.5
62
256
6
ByLayer
49
0.5
62
256
6
ByLayer
0
RASTERVARIABLES
5
202
330

100
AcDbRasterVariables
90
0
70
1
71
1
72
1
0
ENDSEC
0
EOF
