0
SECTION
2
HEADER
9
$ACADVER
1
AC1015
9
$DWGCODEPAGE
3
ANSI_1252
9
$HANDSEED
5
1ff
9
$ANGBASE
50
0
9
$ANGDIR
70
0
9
$ATTMODE
70
1
9
$AUNITS
70
0
9
$AUPREC
70
0
9
$CECOLOR
62
256
9
$CELTSCALE
40
1
9
$CELTYPE
6
ByLayer
9
$CELWEIGHT
370
18
9
$CLAYER
8
0
9
$CMLJUST
70
0
9
$CMLSCALE
40
1
9
$CMLSTYLE
2
Standard
9
$DIMSTYLE
2
Standard
9
$TEXTSIZE
40
0.2
9
$TEXTSTYLE
7
Standard
9
$LUNITS
70
2
9
$LUPREC
70
4
9
$EXTNAMES
290
1
9
$INSUNITS
70
4
9
$LTSCALE
40
1
9
$LWDISPLAY
290
1
9
$PDMODE
70
0
9
$PDSIZE
40
0
9
$PLINEGEN
70
0
0
ENDSEC
0
SECTION
2
CLASSES
0
CLASS
1
RASTERVARIABLES
2
AcDbRasterVariables
3
ISM
90
0
280
0
281
0
0
ENDSEC
0
SECTION
2
TABLES
0
TABLE
2
VPORT
5
1f5
100
AcDbSymbolTable
0
VPORT
5
1
100
AcDbSymbolTableRecord
100
AcDbViewportTableRecord
2
*Active
70
0
10
0
20
0
11
1
21
1
12
-1
22
1
13
0
23
0
14
0.5
24
0.5
15
10
25
10
16
0
26
0
36
1
17
0
27
0
37
0
0
ENDTAB
0
TABLE
2
LTYPE
5
1f6
100
AcDbSymbolTable
0
LTYPE
5
14
100
AcDbSymbolTableRecord
100
AcDbLinetypeTableRecord
70
0
2
ByBlock
3

72
65
73
0
40
0
0
LTYPE
5
15
100
AcDbSymbolTableRecord
100
AcDbLinetypeTableRecord
70
0
2
ByLayer
3

72
65
73
0
40
0
0
LTYPE
5
16
100
AcDbSymbolTableRecord
100
AcDbLinetypeTableRecord
70
0
2
CONTINUOUS
3
Solid line
72
65
73
0
40
0
0
LTYPE
5
6A
100
AcDbSymbolTableRecord
100
AcDbLinetypeTableRecord
70
0
2
CENTER
3
____ _ ____ _ ____ _ ____
72
65
73
4
40
47.5
49
22
74
0
49
-8.5
74
0
49
8.5
74
0
49
-8.5
74
0
0
LTYPE
5
6B
100
AcDbSymbolTableRecord
100
AcDbLinetypeTableRecord
70
0
2
DASHED
3
__ __ __ __ __ __ __ __ __
72
65
73
2
40
25.72
49
12.86
74
0
49
-12.86
74
0
0
ENDTAB
0
TABLE
2
LAYER
5
1f7
100
AcDbSymbolTable
0
LAYER
5
10
100
AcDbSymbolTableRecord
100
AcDbLayerTableRecord
2
0
70
0
62
7
6
CONTINUOUS
290
1
370
-3
390
0
0
LAYER
5
6D
100
AcDbSymbolTableRecord
100
AcDbLayerTableRecord
2
2
70
0
62
7
6
CONTINUOUS
290
1
370
-3
390
0
0
LAYER
5
6F
100
AcDbSymbolTableRecord
100
AcDbLayerTableRecord
2
80
70
0
62
-6
6
CONTINUOUS
290
1
370
-3
390
0
0
LAYER
5
71
100
AcDbSymbolTableRecord
100
AcDbLayerTableRecord
2
81
70
0
62
-3
6
CONTINUOUS
290
1
370
-3
390
0
0
LAYER
5
73
100
AcDbSymbolTableRecord
100
AcDbLayerTableRecord
2
1
70
0
62
4
6
CONTINUOUS
290
1
370
-3
390
0
0
LAYER
5
1e2
100
AcDbSymbolTableRecord
100
AcDbLayerTableRecord
2
SK1
70
0
62
4
6
CONTINUOUS
290
1
370
-3
390
0
0
LAYER
5
1e3
100
AcDbSymbolTableRecord
100
AcDbLayerTableRecord
2
SK6
70
0
62
5
6
CONTINUOUS
290
1
370
-3
390
0
0
LAYER
5
1e4
100
AcDbSymbolTableRecord
100
AcDbLayerTableRecord
2
SK2
70
0
62
7
6
CONTINUOUS
290
1
370
-3
390
0
0
ENDTAB
0
TABLE
2
STYLE
5
1f8
100
AcDbSymbolTable
0
STYLE
5
11
100
AcDbSymbolTableRecord
100
AcDbTextStyleTableRecord
2
Standard
3
txt
70
0
71
0
40
0
41
1
42
0
50
0
0
STYLE
5
138
100
AcDbSymbolTableRecord
100
AcDbTextStyleTableRecord
2
iso_b_vert
3
simplex.shx
70
0
71
0
40
0
41
1
42
0
50
0
0
STYLE
5
139
100
AcDbSymbolTableRecord
100
AcDbTextStyleTableRecord
2
DWGDirectTextStyle
3
simplex
70
0
71
0
40
0
41
1
42
0
50
0
0
ENDTAB
0
TABLE
2
DIMSTYLE
5
1f9
100
AcDbSymbolTable
100
AcDbDimStyleTable
0
DIMSTYLE
105
27
100
AcDbSymbolTableRecord
100
AcDbDimStyleTableRecord
2
Standard
70
0
3
<>
41
0.18
42
0.0625
44
0.18
140
0.18
147
0.09
73
0
74
0
77
1
271
2
275
0
278
52
280
0
340
11
0
ENDTAB
0
TABLE
2
VIEW
5
1fa
100
AcDbSymbolTable
0
ENDTAB
0
TABLE
2
UCS
5
1fb
100
AcDbSymbolTable
0
ENDTAB
0
TABLE
2
APPID
5
1fc
100
AcDbSymbolTable
0
APPID
5
12
100
AcDbSymbolTableRecord
100
AcDbRegAppTableRecord
2
ACAD
70
0
0
ENDTAB
0
TABLE
2
BLOCK_RECORD
5
1fd
100
AcDbSymbolTable
0
BLOCK_RECORD
5
1F
100
AcDbSymbolTableRecord
100
AcDbBlockTableRecord
2
*Model_Space
340
0
70
0
0
BLOCK_RECORD
5
1B
100
AcDbSymbolTableRecord
100
AcDbBlockTableRecord
2
*Paper_Space
340
0
70
0
0
BLOCK_RECORD
5
23
100
AcDbSymbolTableRecord
100
AcDbBlockTableRecord
2
*Paper_Space0
340
0
70
0
0
BLOCK_RECORD
5
13B
100
AcDbSymbolTableRecord
100
AcDbBlockTableRecord
2
DimnDraft3D1
340
0
70
0
0
BLOCK_RECORD
5
149
100
AcDbSymbolTableRecord
100
AcDbBlockTableRecord
2
_CLOSED
340
0
70
0
0
BLOCK_RECORD
5
150
100
AcDbSymbolTableRecord
100
AcDbBlockTableRecord
2
DimnDraft3D2
340
0
70
0
0
BLOCK_RECORD
5
15F
100
AcDbSymbolTableRecord
100
AcDbBlockTableRecord
2
DimnDraft3D3
340
0
70
0
0
BLOCK_RECORD
5
16D
100
AcDbSymbolTableRecord
100
AcDbBlockTableRecord
2
DimnDraft3D4
340
0
70
0
0
BLOCK_RECORD
5
17B
100
AcDbSymbolTableRecord
100
AcDbBlockTableRecord
2
DimnDraft3D5
340
0
70
0
0
ENDTAB
0
ENDSEC
0
SECTION
2
BLOCKS
0
BLOCK
5
20
100
AcDbEntity
8
0
100
AcDbBlockBegin
2
*Model_Space
70
0
10
0
20
0
30
0
3
*Model_Space
0
ENDBLK
5
21
100
AcDbEntity
8
0
100
AcDbBlockEnd
0
BLOCK
5
1C
100
AcDbEntity
8
0
100
AcDbBlockBegin
2
*Paper_Space
70
0
10
0
20
0
30
0
3
*Paper_Space
0
ENDBLK
5
1D
100
AcDbEntity
8
0
100
AcDbBlockEnd
0
BLOCK
5
24
100
AcDbEntity
8
0
100
AcDbBlockBegin
2
*Paper_Space0
70
0
10
0
20
0
30
0
3
*Paper_Space0
0
ENDBLK
5
25
100
AcDbEntity
8
0
100
AcDbBlockEnd
0
BLOCK
5
146
100
AcDbEntity
8
0
100
AcDbBlockBegin
2
DimnDraft3D1
70
0
10
0
20
0
30
0
3
DimnDraft3D1
0
MTEXT
5
13C
100
AcDbEntity
8
2
62
256
6
ByLayer
370
18
48
1
60
0
100
AcDbMText
10
14.047401
20
37.274881
30
0
210
0
220
0
230
1
1
\W0.7399;95%%d
40
4.5
41
0
44
1.084337
50
47.3457231599999
71
7
72
5
7
iso_b_vert
0
LINE
5
13D
100
AcDbEntity
8
2
62
256
6
ByLayer
370
13
48
1
60
0
100
AcDbLine
10
32.22954
20
26.425
30
0
11
32.22954
21
47.40075
31
0
39
0
210
0
220
0
230
1
0
LINE
5
13E
100
AcDbEntity
8
2
62
256
6
ByLayer
370
13
48
1
60
0
100
AcDbLine
10
28.38092
20
24.176971
30
0
11
9.398348
21
22.619173
31
0
39
0
210
0
220
0
230
1
0
ARC
5
13F
100
AcDbEntity
8
2
62
256
6
ByLayer
370
13
48
1
60
0
100
AcDbCircle
39
0
10
32.22954
20
24.492807
30
0
40
20.9079424705682
210
0
220
0
230
1
100
AcDbArc
50
90
51
184.691446
0
LINE
5
140
100
AcDbEntity
8
2
62
256
6
ByLayer
370
13
48
1
60
0
100
AcDbLine
10
32.22954
20
45.40075
30
0
11
29.072655
21
44.862777
31
0
39
0
210
0
220
0
230
1
0
LINE
5
141
100
AcDbEntity
8
2
62
256
6
ByLayer
370
13
48
1
60
0
100
AcDbLine
10
32.22954
20
45.40075
30
0
11
29.040983
21
45.69817
31
0
39
0
210
0
220
0
230
1
0
LINE
5
142
100
AcDbEntity
8
2
62
256
6
ByLayer
370
13
48
1
60
0
100
AcDbLine
10
29.072655
20
44.862777
30
0
11
29.040983
21
45.69817
31
0
39
0
210
0
220
0
230
1
0
LINE
5
143
100
AcDbEntity
8
2
62
256
6
ByLayer
370
13
48
1
60
0
100
AcDbLine
10
11.391647
20
22.782752
30
0
11
10.834432
21
25.936298
31
0
39
0
210
0
220
0
230
1
0
LINE
5
144
100
AcDbEntity
8
2
62
256
6
ByLayer
370
13
48
1
60
0
100
AcDbLine
10
11.391647
20
22.782752
30
0
11
11.669617
21
25.973064
31
0
39
0
210
0
220
0
230
1
0
LINE
5
145
100
AcDbEntity
8
2
62
256
6
ByLayer
370
13
48
1
60
0
100
AcDbLine
10
10.834432
20
25.936298
30
0
11
11.669617
21
25.973064
31
0
39
0
210
0
220
0
230
1
0
ENDBLK
5
147
100
AcDbEntity
8
0
100
AcDbBlockEnd
0
BLOCK
5
14A
100
AcDbEntity
8
0
100
AcDbBlockBegin
2
_CLOSED
70
0
10
0
20
0
30
0
3
_CLOSED
0
LINE
5
14C
100
AcDbEntity
8
0
62
256
6
ByLayer
370
-2
48
1
60
0
100
AcDbLine
10
-1
20
0.166667
30
0
11
0
21
0
31
0
39
0
210
0
220
0
230
1
0
LINE
5
14D
100
AcDbEntity
8
0
62
256
6
ByLayer
370
-2
48
1
60
0
100
AcDbLine
10
0
20
0
30
0
11
-1
21
-0.166667
31
0
39
0
210
0
220
0
230
1
0
LINE
5
14E
100
AcDbEntity
8
0
62
256
6
ByLayer
370
-2
48
1
60
0
100
AcDbLine
10
-1
20
0.166667
30
0
11
-1
21
-0.166667
31
0
39
0
210
0
220
0
230
1
0
LINE
5
14F
100
AcDbEntity
8
0
62
256
6
ByLayer
370
-2
48
1
60
0
100
AcDbLine
10
0
20
0
30
0
11
-1
21
0
31
0
39
0
210
0
220
0
230
1
0
ENDBLK
5
14B
100
AcDbEntity
8
0
100
AcDbBlockEnd
0
BLOCK
5
15C
100
AcDbEntity
8
0
100
AcDbBlockBegin
2
DimnDraft3D2
70
0
10
0
20
0
30
0
3
DimnDraft3D2
0
MTEXT
5
151
100
AcDbEntity
8
SK2
62
256
6
ByLayer
370
18
48
1
60
0
100
AcDbMText
10
-147.99546
20
-4.156579
30
0
210
0
220
0
230
1
1
\W0.7346;32.0
40
4.5
41
0
44
1.084337
50
90
71
7
72
5
7
iso_b_vert
0
LINE
5
153
100
AcDbEntity
8
SK2
62
256
6
ByLayer
370
13
48
1
60
0
100
AcDbLine
10
-141.12046
20
-15.925
30
0
11
-148.87046
21
-15.925
31
0
39
0
210
0
220
0
230
1
0
LINE
5
154
100
AcDbEntity
8
SK2
62
256
6
ByLayer
370
13
48
1
60
0
100
AcDbLine
10
-141.12046
20
15.925
30
0
11
-148.87046
21
15.925
31
0
39
0
210
0
220
0
230
1
0
LINE
5
155
100
AcDbEntity
8
SK2
62
256
6
ByLayer
370
13
48
1
60
0
100
AcDbLine
10
-146.87046
20
-15.925
30
0
11
-146.87046
21
15.925
31
0
39
0
210
0
220
0
230
1
0
LINE
5
156
100
AcDbEntity
8
SK2
62
256
6
ByLayer
370
13
48
1
60
0
100
AcDbLine
10
-146.87046
20
-15.925
30
0
11
-147.288457
21
-12.750002
31
0
39
0
210
0
220
0
230
1
0
LINE
5
157
100
AcDbEntity
8
SK2
62
256
6
ByLayer
370
13
48
1
60
0
100
AcDbLine
10
-146.87046
20
-15.925
30
0
11
-146.452464
21
-12.749998
31
0
39
0
210
0
220
0
230
1
0
LINE
5
158
100
AcDbEntity
8
SK2
62
256
6
ByLayer
370
13
48
1
60
0
100
AcDbLine
10
-147.288457
20
-12.750002
30
0
11
-146.452464
21
-12.749998
31
0
39
0
210
0
220
0
230
1
0
LINE
5
159
100
AcDbEntity
8
SK2
62
256
6
ByLayer
370
13
48
1
60
0
100
AcDbLine
10
-146.87046
20
15.925
30
0
11
-146.452464
21
12.750002
31
0
39
0
210
0
220
0
230
1
0
LINE
5
15A
100
AcDbEntity
8
SK2
62
256
6
ByLayer
370
13
48
1
60
0
100
AcDbLine
10
-146.87046
20
15.925
30
0
11
-147.288457
21
12.749998
31
0
39
0
210
0
220
0
230
1
0
LINE
5
15B
100
AcDbEntity
8
SK2
62
256
6
ByLayer
370
13
48
1
60
0
100
AcDbLine
10
-146.452464
20
12.750002
30
0
11
-147.288457
21
12.749998
31
0
39
0
210
0
220
0
230
1
0
ENDBLK
5
15D
100
AcDbEntity
8
0
100
AcDbBlockEnd
0
BLOCK
5
16A
100
AcDbEntity
8
0
100
AcDbBlockBegin
2
DimnDraft3D3
70
0
10
0
20
0
30
0
3
DimnDraft3D3
0
MTEXT
5
160
100
AcDbEntity
8
2
62
256
6
ByLayer
370
18
48
1
60
0
100
AcDbMText
10
53.35454
20
-0.143421
30
0
210
0
220
0
230
1
1
\W0.7640;40.0
40
4.5
41
0
44
1.084337
50
90
71
7
72
5
7
iso_b_vert
0
LINE
5
161
100
AcDbEntity
8
2
62
256
6
ByLayer
370
13
48
1
60
0
100
AcDbLine
10
2
20
-15.925
30
0
11
56.47954
21
-15.925
31
0
39
0
210
0
220
0
230
1
0
LINE
5
162
100
AcDbEntity
8
2
62
256
6
ByLayer
370
13
48
1
60
0
100
AcDbLine
10
34.22954
20
24.425
30
0
11
56.47954
21
24.425
31
0
39
0
210
0
220
0
230
1
0
LINE
5
163
100
AcDbEntity
8
2
62
256
6
ByLayer
370
13
48
1
60
0
100
AcDbLine
10
54.47954
20
-15.925
30
0
11
54.47954
21
24.425
31
0
39
0
210
0
220
0
230
1
0
LINE
5
164
100
AcDbEntity
8
2
62
256
6
ByLayer
370
13
48
1
60
0
100
AcDbLine
10
54.47954
20
-15.925
30
0
11
54.061543
21
-12.750002
31
0
39
0
210
0
220
0
230
1
0
LINE
5
165
100
AcDbEntity
8
2
62
256
6
ByLayer
370
13
48
1
60
0
100
AcDbLine
10
54.47954
20
-15.925
30
0
11
54.897536
21
-12.749998
31
0
39
0
210
0
220
0
230
1
0
LINE
5
166
100
AcDbEntity
8
2
62
256
6
ByLayer
370
13
48
1
60
0
100
AcDbLine
10
54.061543
20
-12.750002
30
0
11
54.897536
21
-12.749998
31
0
39
0
210
0
220
0
230
1
0
LINE
5
167
100
AcDbEntity
8
2
62
256
6
ByLayer
370
13
48
1
60
0
100
AcDbLine
10
54.47954
20
24.425
30
0
11
54.897536
21
21.250002
31
0
39
0
210
0
220
0
230
1
0
LINE
5
168
100
AcDbEntity
8
2
62
256
6
ByLayer
370
13
48
1
60
0
100
AcDbLine
10
54.47954
20
24.425
30
0
11
54.061543
21
21.249998
31
0
39
0
210
0
220
0
230
1
0
LINE
5
169
100
AcDbEntity
8
2
62
256
6
ByLayer
370
13
48
1
60
0
100
AcDbLine
10
54.897536
20
21.250002
30
0
11
54.061543
21
21.249998
31
0
39
0
210
0
220
0
230
1
0
ENDBLK
5
16B
100
AcDbEntity
8
0
100
AcDbBlockEnd
0
BLOCK
5
178
100
AcDbEntity
8
0
100
AcDbBlockBegin
2
DimnDraft3D4
70
0
10
0
20
0
30
0
3
DimnDraft3D4
0
MTEXT
5
16E
100
AcDbEntity
8
2
62
256
6
ByLayer
370
18
48
1
60
0
100
AcDbMText
10
11.958191
20
55.3
30
0
210
0
220
0
230
1
1
\W0.7346;32.2
40
4.5
41
0
44
1.084337
50
0
71
7
72
5
7
iso_b_vert
0
LINE
5
16F
100
AcDbEntity
8
2
62
256
6
ByLayer
370
13
48
1
60
0
100
AcDbLine
10
0
20
17.925
30
0
11
0
21
56.175
31
0
39
0
210
0
220
0
230
1
0
LINE
5
170
100
AcDbEntity
8
2
62
256
6
ByLayer
370
13
48
1
60
0
100
AcDbLine
10
32.22954
20
26.425
30
0
11
32.22954
21
56.175
31
0
39
0
210
0
220
0
230
1
0
LINE
5
171
100
AcDbEntity
8
2
62
256
6
ByLayer
370
13
48
1
60
0
100
AcDbLine
10
0
20
54.175
30
0
11
32.22954
21
54.175
31
0
39
0
210
0
220
0
230
1
0
LINE
5
172
100
AcDbEntity
8
2
62
256
6
ByLayer
370
13
48
1
60
0
100
AcDbLine
10
0
20
54.175
30
0
11
3.174998
21
54.592997
31
0
39
0
210
0
220
0
230
1
0
LINE
5
173
100
AcDbEntity
8
2
62
256
6
ByLayer
370
13
48
1
60
0
100
AcDbLine
10
0
20
54.175
30
0
11
3.175002
21
53.757003
31
0
39
0
210
0
220
0
230
1
0
LINE
5
174
100
AcDbEntity
8
2
62
256
6
ByLayer
370
13
48
1
60
0
100
AcDbLine
10
3.174998
20
54.592997
30
0
11
3.175002
21
53.757003
31
0
39
0
210
0
220
0
230
1
0
LINE
5
175
100
AcDbEntity
8
2
62
256
6
ByLayer
370
13
48
1
60
0
100
AcDbLine
10
32.22954
20
54.175
30
0
11
29.054541
21
53.757003
31
0
39
0
210
0
220
0
230
1
0
LINE
5
176
100
AcDbEntity
8
2
62
256
6
ByLayer
370
13
48
1
60
0
100
AcDbLine
10
32.22954
20
54.175
30
0
11
29.054538
21
54.592997
31
0
39
0
210
0
220
0
230
1
0
LINE
5
177
100
AcDbEntity
8
2
62
256
6
ByLayer
370
13
48
1
60
0
100
AcDbLine
10
29.054541
20
53.757003
30
0
11
29.054538
21
54.592997
31
0
39
0
210
0
220
0
230
1
0
ENDBLK
5
179
100
AcDbEntity
8
0
100
AcDbBlockEnd
0
BLOCK
5
186
100
AcDbEntity
8
0
100
AcDbBlockBegin
2
DimnDraft3D5
70
0
10
0
20
0
30
0
3
DimnDraft3D5
0
MTEXT
5
17C
100
AcDbEntity
8
SK2
62
256
6
ByLayer
370
18
48
1
60
0
100
AcDbMText
10
-58.721118
20
65.3
30
0
210
0
220
0
230
1
1
\W0.6864;170.0
40
4.5
41
0
44
1.084337
50
0
71
7
72
5
7
iso_b_vert
0
LINE
5
17D
100
AcDbEntity
8
SK2
62
256
6
ByLayer
370
13
48
1
60
0
100
AcDbLine
10
32.22954
20
26.425
30
0
11
32.22954
21
66.175
31
0
39
0
210
0
220
0
230
1
0
LINE
5
17E
100
AcDbEntity
8
SK2
62
256
6
ByLayer
370
13
48
1
60
0
100
AcDbLine
10
-139.12046
20
17.925
30
0
11
-139.12046
21
66.175
31
0
39
0
210
0
220
0
230
1
0
LINE
5
17F
100
AcDbEntity
8
SK2
62
256
6
ByLayer
370
13
48
1
60
0
100
AcDbLine
10
32.22954
20
64.175
30
0
11
-139.12046
21
64.175
31
0
39
0
210
0
220
0
230
1
0
LINE
5
180
100
AcDbEntity
8
SK2
62
256
6
ByLayer
370
13
48
1
60
0
100
AcDbLine
10
32.22954
20
64.175
30
0
11
29.054541
21
63.757003
31
0
39
0
210
0
220
0
230
1
0
LINE
5
181
100
AcDbEntity
8
SK2
62
256
6
ByLayer
370
13
48
1
60
0
100
AcDbLine
10
32.22954
20
64.175
30
0
11
29.054538
21
64.592997
31
0
39
0
210
0
220
0
230
1
0
LINE
5
182
100
AcDbEntity
8
SK2
62
256
6
ByLayer
370
13
48
1
60
0
100
AcDbLine
10
29.054541
20
63.757003
30
0
11
29.054538
21
64.592997
31
0
39
0
210
0
220
0
230
1
0
LINE
5
183
100
AcDbEntity
8
SK2
62
256
6
ByLayer
370
13
48
1
60
0
100
AcDbLine
10
-139.12046
20
64.175
30
0
11
-135.945462
21
64.592997
31
0
39
0
210
0
220
0
230
1
0
LINE
5
184
100
AcDbEntity
8
SK2
62
256
6
ByLayer
370
13
48
1
60
0
100
AcDbLine
10
-139.12046
20
64.175
30
0
11
-135.945459
21
63.757003
31
0
39
0
210
0
220
0
230
1
0
LINE
5
185
100
AcDbEntity
8
SK2
62
256
6
ByLayer
370
13
48
1
60
0
100
AcDbLine
10
-135.945462
20
64.592997
30
0
11
-135.945459
21
63.757003
31
0
39
0
210
0
220
0
230
1
0
ENDBLK
5
187
100
AcDbEntity
8
0
100
AcDbBlockEnd
0
ENDSEC
0
SECTION
2
ENTITIES
0
ELLIPSE
5
CE
100
AcDbEntity
8
1
62
256
6
ByLayer
370
18
48
1
60
0
100
AcDbEllipse
10
25.394289
20
17.589749
30
0
11
1.82433549546547
21
-1.82433549545711
31
0
210
0
220
0
230
1
40
0.989133
41
0.0601632530895649
42
2.72619714852581
0
ELLIPSE
5
CF
100
AcDbEntity
8
1
62
256
6
ByLayer
370
18
48
1
60
0
100
AcDbEllipse
10
19.770897
20
22.223426
30
0
11
0.561442784263405
21
-0.561442784260832
31
0
210
0
220
0
230
1
40
0.989133
41
3.14159259036298
42
-3.05733670707359
0
ELLIPSE
5
D0
100
AcDbEntity
8
1
62
256
6
ByLayer
370
18
48
1
60
0
100
AcDbEllipse
10
30.027966
20
11.966357
30
0
11
0.561442784263405
21
-0.561442784260832
31
0
210
0
220
0
230
1
40
0.989133
41
-0.0842560729599523
42
-6.32268315408462E-08
0
ELLIPSE
5
D1
100
AcDbEntity
8
1
62
256
6
ByLayer
370
18
48
1
60
0
100
AcDbEllipse
10
6.130451
20
11.124656
30
0
11
2.08176526554851
21
-2.16015123988015
31
0
210
0
220
0
230
1
40
0.986455
41
-0.15628028298103
42
-0.0604884076533423
0
ELLIPSE
5
D2
100
AcDbEntity
8
1
62
256
6
ByLayer
370
18
48
1
60
0
100
AcDbEllipse
10
14.609014
20
10.209045
30
0
11
-2.87977528400876
21
2.98820921516755
31
0
210
0
220
0
230
1
40
0.986455
41
-3.0893007431201
42
-0.156280282981027
0
ELLIPSE
5
D3
100
AcDbEntity
8
1
62
256
6
ByLayer
370
18
48
1
60
0
100
AcDbEllipse
10
12.884466
20
9.007495
30
0
11
-1.80419656347537
21
1.8721310745628
31
0
210
0
220
0
230
1
40
0.986455
41
1.31064721821957
42
1.52142843609831
0
ELLIPSE
5
D4
100
AcDbEntity
8
1
62
256
6
ByLayer
370
18
48
1
60
0
100
AcDbEllipse
10
14.227323
20
8.648583
30
0
11
-0.268700576851502
21
0.268700576850274
31
0
210
0
220
0
230
1
40
0.989133
41
-2.82335423483984
42
-2.422253409795
0
ELLIPSE
5
D5
100
AcDbEntity
8
1
62
256
6
ByLayer
370
18
48
1
60
0
100
AcDbEllipse
10
12.977626
20
10.426293
30
0
11
-0.268700576851502
21
0.268700576850274
31
0
210
0
220
0
230
1
40
0.989133
41
-1.06840509419361
42
-0.318251980072677
0
ELLIPSE
5
D6
100
AcDbEntity
8
1
62
256
6
ByLayer
370
18
48
1
60
0
100
AcDbEllipse
10
15.026492
20
8.591368
30
0
11
0.300520382004971
21
-0.300520382003594
31
0
210
0
220
0
230
1
40
0.989133
41
3.14158919864642
42
-2.422253409795
0
ELLIPSE
5
D7
100
AcDbEntity
8
1
62
256
6
ByLayer
370
18
48
1
60
0
100
AcDbEllipse
10
13.196996
20
11.193848
30
0
11
0.300520382004971
21
-0.300520382003594
31
0
210
0
220
0
230
1
40
0.989133
41
-1.06840509419364
42
-3.51676190266462E-06
0
ELLIPSE
5
D8
100
AcDbEntity
8
1
62
256
6
ByLayer
370
18
48
1
60
0
100
AcDbEllipse
10
15.245862
20
9.358924
30
0
11
-0.268700576851502
21
0.268700576850274
31
0
210
0
220
0
230
1
40
0.989133
41
-2.82331226018584
42
-1.37505585859845
0
ELLIPSE
5
D9
100
AcDbEntity
8
1
62
256
6
ByLayer
370
18
48
1
60
0
100
AcDbEllipse
10
13.996165
20
11.136634
30
0
11
-0.268700576851502
21
0.268700576850274
31
0
210
0
220
0
230
1
40
0.989133
41
-2.11560264539018
42
-0.318294813050675
0
ELLIPSE
5
DA
100
AcDbEntity
8
1
62
256
6
ByLayer
370
18
48
1
60
0
100
AcDbEllipse
10
15.687436
20
10.021917
30
0
11
0.300520382004971
21
-0.300520382003594
31
0
210
0
220
0
230
1
40
0.989133
41
-3.14157045834446
42
-1.3750558585984
0
ELLIPSE
5
DB
100
AcDbEntity
8
1
62
256
6
ByLayer
370
18
48
1
60
0
100
AcDbEllipse
10
14.028575
20
9.809439
30
0
11
2.82842712475267
21
-2.82842712473971
31
0
210
0
220
0
230
1
40
0.989133
41
3.14154186687325
42
-0.790861354621181
0
ELLIPSE
5
DC
100
AcDbEntity
8
1
62
256
6
ByLayer
370
18
48
1
60
0
100
AcDbEllipse
10
14.028575
20
9.809439
30
0
11
2.82842712475267
21
-2.82842712473971
31
0
210
0
220
0
230
1
40
0.989133
41
-0.790861354621178
42
-4.48968146700254E-16
0
ELLIPSE
5
DD
100
AcDbEntity
8
1
62
256
6
ByLayer
370
18
48
1
60
0
100
AcDbEllipse
10
15.130283
20
10.60295
30
0
11
-0.268700576851502
21
0.268700576850274
31
0
210
0
220
0
230
1
40
0.989133
41
-3.11070847430903
42
-0.327858307401839
0
ELLIPSE
5
DE
100
AcDbEntity
8
1
62
256
6
ByLayer
370
18
48
1
60
0
100
AcDbEllipse
10
14.111744
20
9.892608
30
0
11
0.813172798366393
21
-0.813172798362666
31
0
210
0
220
0
230
1
40
0.989133
41
-0.871548499668286
42
-0.790861769890211
0
ELLIPSE
5
DF
100
AcDbEntity
8
1
62
256
6
ByLayer
370
18
48
1
60
0
100
AcDbEllipse
10
14.111744
20
9.892608
30
0
11
0.813172798366393
21
-0.813172798362666
31
0
210
0
220
0
230
1
40
0.989133
41
-2.11748433396723
42
-1.45431416230868
0
ELLIPSE
5
E0
100
AcDbEntity
8
1
62
256
6
ByLayer
370
18
48
1
60
0
100
AcDbEllipse
10
14.111744
20
9.892608
30
0
11
0.813172798366393
21
-0.813172798362666
31
0
210
0
220
0
230
1
40
0.989133
41
0.0350958709234867
42
-2.63663229861767
0
ELLIPSE
5
E1
100
AcDbEntity
8
1
62
256
6
ByLayer
370
18
48
1
60
0
100
AcDbEllipse
10
14.111744
20
9.892608
30
0
11
0.813172798366393
21
-0.813172798362666
31
0
210
0
220
0
230
1
40
0.989133
41
-0.790860895639595
42
-0.118448983741292
0
ELLIPSE
5
E2
100
AcDbEntity
8
1
62
256
6
ByLayer
370
18
48
1
60
0
100
AcDbEllipse
10
14.059763
20
9.840627
30
0
11
0.813172798366393
21
-0.813172798362666
31
0
210
0
220
0
230
1
40
0.989133
41
0.0827105325832792
42
3.10924201807355
0
ELLIPSE
5
E3
100
AcDbEntity
8
1
62
256
6
ByLayer
370
18
48
1
60
0
100
AcDbEllipse
10
15.374218
20
-7.268238
30
0
11
-0.614082237536546
21
-0.517526257693646
31
0
210
0
220
0
230
1
40
0.012586
41
1.42434272205399
42
2.99513904886124
0
ELLIPSE
5
E4
100
AcDbEntity
8
1
62
256
6
ByLayer
370
18
48
1
60
0
100
AcDbEllipse
10
1.555472
20
12.3891
30
0
11
-0.618768166579597
21
1.85497269604761
31
0
210
0
220
0
230
1
40
0.304658
41
-0.649022127698491
42
0.921774199096799
0
ELLIPSE
5
E5
100
AcDbEntity
8
1
62
256
6
ByLayer
370
18
48
1
60
0
100
AcDbEllipse
10
25.792013
20
17.96046
30
0
11
-0.701994003634699
21
2.17713231394336
31
0
210
0
220
0
230
1
40
0.799417
41
-2.21179764079173
42
-1.35658630731781
0
ELLIPSE
5
E6
100
AcDbEntity
8
1
62
256
6
ByLayer
370
18
48
1
60
0
100
AcDbEllipse
10
10.033561
20
10.096118
30
0
11
4.49946397613839
21
3.16304029810448
31
0
210
0
220
0
230
1
40
0.02553
41
1.97217033322267
42
2.41393807250863
0
ELLIPSE
5
E7
100
AcDbEntity
8
1
62
256
6
ByLayer
370
18
48
1
60
0
100
AcDbEllipse
10
13.023097
20
5.843466
30
0
11
4.49946397613839
21
3.16304029810448
31
0
210
0
220
0
230
1
40
0.02553
41
1.97217033322267
42
2.41393807250878
0
ELLIPSE
5
E8
100
AcDbEntity
8
1
62
256
6
ByLayer
370
18
48
1
60
0
100
AcDbEllipse
10
9.249794
20
-2.347226
30
0
11
5.72659051508523
21
4.02568765213297
31
0
210
0
220
0
230
1
40
0.02553
41
-0.823354940523065
42
-0.808573903783043
0
ELLIPSE
5
E9
100
AcDbEntity
8
1
62
256
6
ByLayer
370
18
48
1
60
0
100
AcDbEllipse
10
8.726256
20
11.362107
30
0
11
-4.14474739179428
21
-0.189995050043396
31
0
210
0
220
0
230
1
40
0.485394
41
-0.655408047093772
42
-0.295792313735377
0
ELLIPSE
5
EA
100
AcDbEntity
8
1
62
256
6
ByLayer
370
18
48
1
60
0
100
AcDbEllipse
10
11.566054
20
2.918394
30
0
11
1.84475298056335
21
-0.772584261231505
31
0
210
0
220
0
230
1
40
0.769512
41
-2.03706734224383
42
-0.624391847984243
0
ELLIPSE
5
EB
100
AcDbEntity
8
1
62
256
6
ByLayer
370
18
48
1
60
0
100
AcDbEllipse
10
8.771264
20
11.89175
30
0
11
-4.6145723590218
21
-2.99900970735582
31
0
210
0
220
0
230
1
40
0.211917
41
0.562020382372754
42
0.615012695027169
0
ELLIPSE
5
EC
100
AcDbEntity
8
1
62
256
6
ByLayer
370
18
48
1
60
0
100
AcDbEllipse
10
13.555506
20
4.492438
30
0
11
-1.23592287958559
21
-4.14806483890707
31
0
210
0
220
0
230
1
40
0.51148
41
0.211573503665218
42
0.571189237034538
0
ELLIPSE
5
ED
100
AcDbEntity
8
1
62
256
6
ByLayer
370
18
48
1
60
0
100
AcDbEllipse
10
11.185861
20
2.473714
30
0
11
-2.64176164546803
21
1.42549993633549
31
0
210
0
220
0
230
1
40
0.99535
41
1.10568333560494
42
2.15737239866883
0
ELLIPSE
5
EE
100
AcDbEntity
8
1
62
256
6
ByLayer
370
18
48
1
60
0
100
AcDbEllipse
10
15.434522
20
2.591141
30
0
11
-2.73155517433372
21
-2.19821380472722
31
0
210
0
220
0
230
1
40
0.397671
41
-0.633132940018501
42
0.090085166382364
0
ELLIPSE
5
EF
100
AcDbEntity
8
1
62
256
6
ByLayer
370
18
48
1
60
0
100
AcDbEllipse
10
7.769056
20
13.495362
30
0
11
-2.98777498566839
21
-1.83435464436772
31
0
210
0
220
0
230
1
40
0.346844
41
-0.094360451737544
42
0.628857654660394
0
ELLIPSE
5
F0
100
AcDbEntity
8
1
62
256
6
ByLayer
370
18
48
1
60
0
100
AcDbEllipse
10
25.792013
20
17.96046
30
0
11
-1.96901555077982
21
1.05721853420455
31
0
210
0
220
0
230
1
40
0.792316
41
-1.97966637434933
42
-1.12445504087466
0
ELLIPSE
5
F1
100
AcDbEntity
8
1
62
256
6
ByLayer
370
18
48
1
60
0
100
AcDbEllipse
10
6.356611
20
9.343383
30
0
11
-2.64176164548586
21
1.42549993630002
31
0
210
0
220
0
230
1
40
0.99535
41
0.0539942725272217
42
1.1056833355915
0
ELLIPSE
5
F2
100
AcDbEntity
8
1
62
256
6
ByLayer
370
18
48
1
60
0
100
AcDbEllipse
10
14.285396
20
4.047834
30
0
11
-4.38100592386294
21
-3.33109083183343
31
0
210
0
220
0
230
1
40
0.262905
41
-0.617119553152401
42
-0.564127262686601
0
ELLIPSE
5
F3
100
AcDbEntity
8
1
62
256
6
ByLayer
370
18
48
1
60
0
100
AcDbEllipse
10
6.729298
20
9.798738
30
0
11
0.210927185793125
21
-1.98884632948184
31
0
210
0
220
0
230
1
40
0.785865
41
-2.5871282117106
42
-1.17445271745099
0
ELLIPSE
5
F4
100
AcDbEntity
8
1
62
256
6
ByLayer
370
18
48
1
60
0
100
AcDbEllipse
10
14.772688
20
11.323157
30
0
11
0.300520382004971
21
-0.300520382003594
31
0
210
0
220
0
230
1
40
0.989133
41
-2.11560264539028
42
-0.327858307401933
0
ELLIPSE
5
F5
100
AcDbEntity
8
1
62
256
6
ByLayer
370
18
48
1
60
0
100
AcDbEllipse
10
14.393662
20
8.814921
30
0
11
-0.268700576851502
21
0.268700576850274
31
0
210
0
220
0
230
1
40
0.989133
41
1.02599000819961
42
-2.42225340979503
0
ELLIPSE
5
F6
100
AcDbEntity
8
1
62
256
6
ByLayer
370
18
48
1
60
0
100
AcDbEllipse
10
13.363335
20
11.360187
30
0
11
0.300520382004971
21
-0.300520382003594
31
0
210
0
220
0
230
1
40
0.989133
41
-1.06840509419361
42
0.719339243794657
0
ELLIPSE
5
F7
100
AcDbEntity
8
1
62
256
6
ByLayer
370
18
48
1
60
0
100
AcDbEllipse
10
15.412201
20
9.525263
30
0
11
-0.268700576851502
21
0.268700576850274
31
0
210
0
220
0
230
1
40
0.989133
41
2.07318755939619
42
-1.37505585859842
0
ELLIPSE
5
F8
100
AcDbEntity
8
1
62
256
6
ByLayer
370
18
48
1
60
0
100
AcDbEllipse
10
14.162504
20
11.302972
30
0
11
-0.268700576851502
21
0.268700576850274
31
0
210
0
220
0
230
1
40
0.989133
41
-2.11560264539019
42
0.719339243794789
0
ELLIPSE
5
F9
100
AcDbEntity
8
1
62
256
6
ByLayer
370
18
48
1
60
0
100
AcDbEllipse
10
12.702391
20
9.929638
30
0
11
0.300520382004971
21
-0.300520382003594
31
0
210
0
220
0
230
1
40
0.989133
41
-0.0212075429970701
42
1.76653679499129
0
ELLIPSE
5
FA
100
AcDbEntity
8
1
62
256
6
ByLayer
370
18
48
1
60
0
100
AcDbEllipse
10
13.143965
20
10.592631
30
0
11
-0.268700576851502
21
0.268700576850274
31
0
210
0
220
0
230
1
40
0.989133
41
-1.0684050941936
42
1.76653679499133
0
ELLIPSE
5
FB
100
AcDbEntity
8
1
62
256
6
ByLayer
370
18
48
1
60
0
100
AcDbEllipse
10
15.192831
20
8.757707
30
0
11
0.300520382004971
21
-0.300520382003594
31
0
210
0
220
0
230
1
40
0.989133
41
2.07318755939617
42
-2.42225340979506
0
ELLIPSE
5
FC
100
AcDbEntity
8
1
62
256
6
ByLayer
370
18
48
1
60
0
100
AcDbEllipse
10
14.201771
20
9.982635
30
0
11
-2.82842712475265
21
2.82842712473973
31
0
210
0
220
0
230
1
40
0.989133
41
0
42
6.28318530717959
0
ELLIPSE
5
FD
100
AcDbEntity
8
1
62
256
6
ByLayer
370
18
48
1
60
0
100
AcDbEllipse
10
15.296622
20
10.769288
30
0
11
-0.268700576851502
21
0.268700576850274
31
0
210
0
220
0
230
1
40
0.989133
41
3.12038511059279
42
-0.327858307401874
0
ELLIPSE
5
FE
100
AcDbEntity
8
1
62
256
6
ByLayer
370
18
48
1
60
0
100
AcDbEllipse
10
13.617139
20
8.628398
30
0
11
0.300520382004971
21
-0.300520382003594
31
0
210
0
220
0
230
1
40
0.989133
41
1.0259900081995
42
2.81373434618792
0
ELLIPSE
5
FF
100
AcDbEntity
8
1
62
256
6
ByLayer
370
18
48
1
60
0
100
AcDbEllipse
10
15.853775
20
10.188256
30
0
11
0.300520382004971
21
-0.300520382003594
31
0
210
0
220
0
230
1
40
0.989133
41
3.12038511059276
42
-1.3750558585985
0
ELLIPSE
5
100
100
AcDbEntity
8
1
62
256
6
ByLayer
370
18
48
1
60
0
100
AcDbEllipse
10
13.259544
20
9.348606
30
0
11
-0.268700576851502
21
0.268700576850274
31
0
210
0
220
0
230
1
40
0.989133
41
-0.0212075429970015
42
2.81373434618802
0
ELLIPSE
5
101
100
AcDbEntity
8
1
62
256
6
ByLayer
370
18
48
1
60
0
100
AcDbEllipse
10
14.939027
20
11.489496
30
0
11
0.300520382004971
21
-0.300520382003594
31
0
210
0
220
0
230
1
40
0.989133
41
-2.11560264539028
42
-0.327858307401977
0
ELLIPSE
5
102
100
AcDbEntity
8
1
62
256
6
ByLayer
370
18
48
1
60
0
100
AcDbEllipse
10
14.278083
20
10.058947
30
0
11
-1.62634559673278
21
1.62634559672534
31
0
210
0
220
0
230
1
40
0.989133
41
0
42
6.28318530717959
0
ELLIPSE
5
103
100
AcDbEntity
8
1
62
256
6
ByLayer
370
18
48
1
60
0
100
AcDbEllipse
10
31.439819
20
23.635279
30
0
11
-0.561442784263401
21
0.561442784260836
31
0
210
0
220
0
230
1
40
0.989133
41
-2.4434609527921
42
-0.698131700797735
0
ELLIPSE
5
104
100
AcDbEntity
8
1
62
256
6
ByLayer
370
18
48
1
60
0
100
AcDbEllipse
10
20.265754
20
22.718283
30
0
11
-0.561442784263401
21
0.561442784260836
31
0
210
0
220
0
230
1
40
0.989133
41
-0.698131700797713
42
0.698131700797725
0
ELLIPSE
5
105
100
AcDbEntity
8
1
62
256
6
ByLayer
370
18
48
1
60
0
100
AcDbEllipse
10
30.522823
20
12.461214
30
0
11
-0.561442784263401
21
0.561442784260836
31
0
210
0
220
0
230
1
40
0.989133
41
2.443460952792
42
-2.4434609527921
0
POINT
5
6C
100
AcDbEntity
8
2
62
256
6
ByLayer
370
18
48
1
60
0
100
AcDbPoint
10
32.22954
20
24.425
30
0
39
0
210
0
220
0
230
1
50
360
0
POINT
5
6E
100
AcDbEntity
8
80
62
256
6
ByLayer
370
18
48
1
60
0
100
AcDbPoint
10
0
20
0
30
0
39
0
210
0
220
0
230
1
50
360
0
POINT
5
70
100
AcDbEntity
8
81
62
256
6
ByLayer
370
18
48
1
60
0
100
AcDbPoint
10
32.22954
20
24.425
30
0
39
0
210
0
220
0
230
1
50
360
0
SPLINE
5
106
100
AcDbEntity
8
1
62
256
6
ByLayer
370
18
48
1
60
0
100
AcDbSpline
70
4
71
3
72
11
73
7
40
0
40
0
40
0
40
0
40
0.561302936805731
40
0.561302936805731
40
0.561302936805731
40
1
40
1
40
1
40
1
41
1
10
4.6395913398552
20
11.8216574316445
30
0
41
1
10
4.43657894397376
20
11.6493822345835
30
0
41
1
10
4.23383303257441
20
11.451030616513
30
0
41
1
10
4.04686687008825
20
11.222815429463
30
0
41
1
10
3.89955069887247
20
11.0429979313529
30
0
41
1
10
3.76078134114596
20
10.8426625019758
30
0
41
1
10
3.64212532582388
20
10.6248973405253
30
0
0
SPLINE
5
107
100
AcDbEntity
8
1
62
256
6
ByLayer
370
18
48
1
60
0
100
AcDbSpline
70
4
71
3
72
8
73
4
40
0
40
0
40
0
40
0
40
1
40
1
40
1
40
1
41
1
10
25.4707890968522
20
19.8538087563458
30
0
41
1
10
25.3855578510295
20
19.860061876181
30
0
41
1
10
25.3019949948894
20
19.8623904042928
30
0
41
1
10
25.221552962537
20
19.8609096158297
30
0
0
SPLINE
5
108
100
AcDbEntity
8
1
62
256
6
ByLayer
370
18
48
1
60
0
100
AcDbSpline
70
4
71
3
72
10
73
6
40
0
40
0
40
0
40
0
40
0.5
40
0.5
40
1
40
1
40
1
40
1
41
1
10
24.5496005754074
20
14.6571325994334
30
0
41
1
10
24.9949685495234
20
14.4581720523591
30
0
41
1
10
25.4451707293471
20
14.3237847732068
30
0
41
1
10
26.3747398659941
20
14.4445809267974
30
0
41
1
10
26.8545657359528
20
14.7308319845311
30
0
41
1
10
27.2092155093758
20
15.3784434422079
30
0
0
SPLINE
5
109
100
AcDbEntity
8
1
62
256
6
ByLayer
370
18
48
1
60
0
100
AcDbSpline
70
4
71
3
72
8
73
4
40
0
40
0
40
0
40
0
40
1
40
1
40
1
40
1
41
1.01923193622652
10
26.1457625207563
20
12.3308110575382
30
0
41
1.02059843499303
10
26.3850201082733
20
12.8484043083124
30
0
41
1.02233811057541
10
26.6628049722818
20
13.502598773643
30
0
41
1.02417041321379
10
26.9025140746145
20
14.183779585098
30
0
0
SPLINE
5
10A
100
AcDbEntity
8
1
62
256
6
ByLayer
370
18
48
1
60
0
100
AcDbSpline
70
4
71
3
72
11
73
7
40
0
40
0
40
0
40
0
40
0.423407924939469
40
0.74096386864407
40
0.899741840496371
40
1
40
1
40
1
40
1
41
1.02805999725225
10
18.9101368358171
20
5.78213856242009
30
0
41
1.02767136955277
10
19.5491011932336
20
6.3622928326277
30
0
41
1.02349884684923
10
21.3107110639844
20
9.1205143200869
30
0
41
1.01876555595691
10
23.2707443888621
20
12.8366241963604
30
0
41
1.01635405201137
10
24.0156284974627
20
14.2254823616132
30
0
41
1.01722454828226
10
24.3892970631708
20
14.5358181613697
30
0
41
1.01774327987904
10
24.5496005754077
20
14.6571325994336
30
0
0
SPLINE
5
10B
100
AcDbEntity
8
1
62
256
6
ByLayer
370
18
48
1
60
0
100
AcDbSpline
70
4
71
3
72
8
73
4
40
0
40
0
40
0
40
0
40
1
40
1
40
1
40
1
41
1
10
18.0082662006274
20
7.68594357081167
30
0
41
1
10
17.8129141982777
20
7.47982542671454
30
0
41
1
10
17.5943489098003
20
7.28951256472129
30
0
41
1
10
17.3595782569197
20
7.12578064938739
30
0
0
SPLINE
5
10C
100
AcDbEntity
8
1
62
256
6
ByLayer
370
18
48
1
60
0
100
AcDbSpline
70
4
71
3
72
10
73
6
40
0
40
0
40
0
40
0
40
0.655488757716277
40
0.655488757716277
40
1
40
1
40
1
40
1
41
1
10
13.2179068015524
20
0.282063872142942
30
0
41
1
10
12.9197471188934
20
0.0617430909831853
30
0
41
1
10
12.5640381916934
20
-0.154326619216221
30
0
41
1
10
11.9405941186755
20
-0.395485865281103
30
0
41
1
10
11.7085543420753
20
-0.463142969309956
30
0
41
1
10
11.4664164164387
20
-0.505253584879966
30
0
0
SPLINE
5
10D
100
AcDbEntity
8
1
62
256
6
ByLayer
370
18
48
1
60
0
100
AcDbSpline
70
4
71
3
72
8
73
4
40
0
40
0
40
0
40
0
40
1
40
1
40
1
40
1
41
1
10
8.76120869007173
20
9.45443357326667
30
0
41
1
10
7.40589112648701
20
9.3018561355243
30
0
41
1
10
6.16464914512352
20
9.11103984340261
30
0
41
1
10
5.36892496717201
20
8.87803804762231
30
0
0
SPLINE
5
10E
100
AcDbEntity
8
1
62
256
6
ByLayer
370
18
48
1
60
0
100
AcDbSpline
70
4
71
3
72
8
73
4
40
0
40
0
40
0
40
0
40
1
40
1
40
1
40
1
41
1
10
11.8324669274912
20
5.08553071453017
30
0
41
1
10
11.5997508626423
20
4.98088452177808
30
0
41
1
10
11.3871436613289
20
4.85462269509213
30
0
41
1
10
11.1908950167843
20
4.71346182438421
30
0
0
SPLINE
5
10F
100
AcDbEntity
8
1
62
256
6
ByLayer
370
18
48
1
60
0
100
AcDbSpline
70
4
71
3
72
10
73
6
40
0
40
0
40
0
40
0
40
0.967465556419485
40
0.967465556419485
40
1
40
1
40
1
40
1
41
1
10
23.91650194811
20
17.4594151660985
30
0
41
1
10
24.3266690829096
20
17.4783459687651
30
0
41
1
10
24.7303408643753
20
17.5057556541278
30
0
41
1
10
25.1351666664491
20
17.5467919779018
30
0
41
1
10
25.1483350695316
20
17.5481427217503
30
0
41
1
10
25.1614891919863
20
17.5495082142723
30
0
0
SPLINE
5
110
100
AcDbEntity
8
1
62
256
6
ByLayer
370
18
48
1
60
0
100
AcDbSpline
70
4
71
3
72
8
73
4
40
0
40
0
40
0
40
0
40
1
40
1
40
1
40
1
41
1
10
13.3365089519415
20
14.3315760725295
30
0
41
1
10
13.0710581275992
20
14.2154500657899
30
0
41
1
10
12.8211995863467
20
14.0764301822417
30
0
41
1
10
12.5878187834334
20
13.9136675652182
30
0
0
SPLINE
5
111
100
AcDbEntity
8
1
62
256
6
ByLayer
370
18
48
1
60
0
100
AcDbSpline
70
4
71
3
72
10
73
6
40
0
40
0
40
0
40
0
40
0.5
40
0.5
40
1
40
1
40
1
40
1
41
1
10
5.20518206305712
20
8.83292331542728
30
0
41
1
10
4.81334754180727
20
9.44509223369667
30
0
41
1
10
4.60333136503266
20
10.0914558244605
30
0
41
1
10
4.48900627105456
20
11.0581527443268
30
0
41
1
10
4.52743122446975
20
11.4005348149439
30
0
41
1
10
4.73462611970535
20
11.7668078208953
30
0
0
SPLINE
5
112
100
AcDbEntity
8
1
62
256
6
ByLayer
370
18
48
1
60
0
100
AcDbSpline
70
4
71
3
72
12
73
8
40
0
40
0
40
0
40
0
40
0.471343086678529
40
0.471343086678529
40
0.892619726108231
40
0.892619726108231
40
1
40
1
40
1
40
1
41
1
10
11.8324669274912
20
5.08553071453017
30
0
41
1
10
11.9944927852375
20
5.15838941103462
30
0
41
1
10
12.1691796992989
20
5.2206193083986
30
0
41
1
10
12.507214367161
20
5.30233140256425
30
0
41
1
10
12.6734119074091
20
5.32616021627791
30
0
41
1
10
12.8740824016666
20
5.33276679753985
30
0
41
1
10
12.915007257553
20
5.33293462256952
30
0
41
1
10
12.9553857231069
20
5.33192109580725
30
0
0
SPLINE
5
113
100
AcDbEntity
8
1
62
256
6
ByLayer
370
18
48
1
60
0
100
AcDbSpline
70
4
71
3
72
8
73
4
40
0
40
0
40
0
40
0
40
1
40
1
40
1
40
1
41
1
10
9.43524555952854
20
10.6333197230598
30
0
41
1
10
9.41793007108532
20
10.5645434541669
30
0
41
1
10
9.39740645353675
20
10.4957720044375
30
0
41
1
10
9.37356902652994
20
10.427099682432
30
0
0
SPLINE
5
114
100
AcDbEntity
8
1
62
256
6
ByLayer
370
18
48
1
60
0
100
AcDbSpline
70
4
71
3
72
8
73
4
40
0
40
0
40
0
40
0
40
1
40
1
40
1
40
1
41
1.02417048357497
10
22.6939300353267
20
20.1705816563442
30
0
41
1.02233815524058
10
21.9692840028014
20
20.1792173390945
30
0
41
1.02059845272928
10
21.2570728983699
20
20.142983803152
30
0
41
1.01923193651505
10
20.6869169368241
20
20.0960866516668
30
0
0
SPLINE
5
115
100
AcDbEntity
8
1
62
256
6
ByLayer
370
18
48
1
60
0
100
AcDbSpline
70
4
71
3
72
12
73
8
40
0
40
0
40
0
40
0
40
0.108854002841679
40
0.502629245107339
40
0.699516866240169
40
0.896404487372998
40
1
40
1
40
1
40
1
41
1.0244126255267
10
17.6334127550583
20
13.864162788417
30
0
41
1.02394775696077
10
17.9270061969646
20
14.0338317277938
30
0
41
1.02173322391444
10
19.3201829646297
20
14.8305728688571
30
0
41
1.01876555595691
10
21.3013176445663
20
15.909312299872
30
0
41
1.01610930227499
10
22.6428882251904
20
16.6051292358598
30
0
41
1.01814069306376
10
23.2101968842734
20
17.0021364268238
30
0
41
1.0200519600697
10
23.7264512719237
20
17.3385129800287
30
0
41
1.02076673234771
10
23.9165019480947
20
17.4594151660888
30
0
0
SPLINE
5
116
100
AcDbEntity
8
1
62
256
6
ByLayer
370
18
48
1
60
0
100
AcDbSpline
70
4
71
3
72
10
73
6
40
0
40
0
40
0
40
0
40
0.5
40
0.5
40
1
40
1
40
1
40
1
41
1
10
24.5220759944999
20
10.3834053796007
30
0
41
1
10
23.8229715673873
20
9.26911103690583
30
0
41
1
10
23.039878715423
20
8.21653461697596
30
0
41
1
10
21.2735162381791
20
6.2584793641532
30
0
41
1
10
20.3276281506774
20
5.32732230121542
30
0
41
1
10
19.2458219320633
20
4.55751083051788
30
0
0
SPLINE
5
117
100
AcDbEntity
8
1
62
256
6
ByLayer
370
18
48
1
60
0
100
AcDbSpline
70
4
71
3
72
8
73
4
40
0
40
0
40
0
40
0
40
1
40
1
40
1
40
1
41
1
10
5.72708959381839
20
11.4023500784024
30
0
41
1
10
6.54066098467285
20
11.3506437602958
30
0
41
1
10
7.91135832630516
20
10.9524365143838
30
0
41
1
10
9.37356902652613
20
10.4270996824242
30
0
0
SPLINE
5
118
100
AcDbEntity
8
1
62
256
6
ByLayer
370
18
48
1
60
0
100
AcDbSpline
70
4
71
2
72
6
73
3
40
0
40
0
40
0
40
1
40
1
40
1
41
0.937301687603847
10
18.0082662188299
20
7.68594355555136
30
0
41
0.930554446910518
10
18.7323726262728
20
6.43064808274784
30
0
41
1.02805999725225
10
18.9101368358171
20
5.78213856242009
30
0
0
SPLINE
5
119
100
AcDbEntity
8
1
62
256
6
ByLayer
370
18
48
1
60
0
100
AcDbSpline
70
4
71
3
72
8
73
4
40
0
40
0
40
0
40
0
40
1
40
1
40
1
40
1
41
1
10
26.9025535527501
20
14.1838917712485
30
0
41
1
10
27.0058250117988
20
14.5809399680268
30
0
41
1
10
27.1082297605067
20
14.9798172889063
30
0
41
1
10
27.2092155093758
20
15.3784434422078
30
0
0
SPLINE
5
11A
100
AcDbEntity
8
1
62
256
6
ByLayer
370
18
48
1
60
0
100
AcDbSpline
70
4
71
3
72
8
73
4
40
0
40
0
40
0
40
0
40
1
40
1
40
1
40
1
41
1
10
10.2056806522143
20
1.99769321633076
30
0
41
1
10
10.6568931014069
20
2.70808193942693
30
0
41
1
10
11.2399488753272
20
3.84975616344323
30
0
41
1
10
11.8324669274912
20
5.08553071453017
30
0
0
SPLINE
5
11B
100
AcDbEntity
8
1
62
256
6
ByLayer
370
18
48
1
60
0
100
AcDbSpline
70
4
71
3
72
8
73
4
40
0
40
0
40
0
40
0
40
1
40
1
40
1
40
1
41
1
10
24.5220759945
20
10.3834053796009
30
0
41
1
10
24.9542114902947
20
11.07218107543
30
0
41
1
10
25.4416315569539
20
11.6784855996762
30
0
41
1
10
25.9197126853008
20
12.1145349422815
30
0
0
SPLINE
5
11C
100
AcDbEntity
8
1
62
256
6
ByLayer
370
18
48
1
60
0
100
AcDbSpline
70
4
71
3
72
8
73
4
40
0
40
0
40
0
40
0
40
1
40
1
40
1
40
1
41
1
10
22.6940216009334
20
20.1705805649092
30
0
41
1
10
23.1015471566731
20
20.1348235431911
30
0
41
1
10
23.5109979817224
20
20.0969240199646
30
0
41
1
10
23.9202392891822
20
20.0570528256882
30
0
0
SPLINE
5
11D
100
AcDbEntity
8
1
62
256
6
ByLayer
370
18
48
1
60
0
100
AcDbSpline
70
4
71
3
72
12
73
8
40
0
40
0
40
0
40
0
40
0.108853988607132
40
0.502629237162304
40
0.69951686143989
40
0.896404485717477
40
1
40
1
40
1
40
1
41
1.02441262532206
10
19.0205614696433
20
11.8909268302485
30
0
41
1.02394775682001
10
19.2824228955291
20
12.1057348729849
30
0
41
1.02173322384668
10
20.5181835400785
20
13.1264023101832
30
0
41
1.01876555595691
10
22.2332359657587
20
14.5836469527043
30
0
41
1.01610930227499
10
23.367434180516
20
15.5744536459851
30
0
41
1.01814069306376
10
23.9455125389197
20
15.9561408063603
30
0
41
1.02005196006971
10
24.449093684531
20
16.3105452032412
30
0
41
1.02076673234773
10
24.6318489090289
20
16.4418252596138
30
0
0
SPLINE
5
11E
100
AcDbEntity
8
1
62
256
6
ByLayer
370
18
48
1
60
0
100
AcDbSpline
70
4
71
3
72
11
73
7
40
0
40
0
40
0
40
0
40
0.564783939443773
40
0.564783939443773
40
0.564783939443773
40
1
40
1
40
1
40
1
41
1
10
20.3997073208196
20
19.9668108998332
30
0
41
1
10
20.0733766166055
20
19.810582482761
30
0
41
1
10
19.6916248796989
20
19.6504283132166
30
0
41
1
10
19.2785047780117
20
19.5273089383663
30
0
41
1
10
18.9575328972804
20
19.4316518712354
30
0
41
1
10
18.6159326374478
20
19.3493739953285
30
0
41
1
10
18.2705672554874
20
19.2762539419661
30
0
0
SPLINE
5
11F
100
AcDbEntity
8
1
62
256
6
ByLayer
370
18
48
1
60
0
100
AcDbSpline
70
4
71
3
72
8
73
4
40
0
40
0
40
0
40
0
40
1
40
1
40
1
40
1
41
1
10
9.43524555952848
20
10.6333197230597
30
0
41
1
10
9.64703825442905
20
11.4745498957919
30
0
41
1
10
10.1634800222072
20
12.2229041587904
30
0
41
1
10
10.9207585152019
20
12.751039411548
30
0
0
SPLINE
5
120
100
AcDbEntity
8
1
62
256
6
ByLayer
370
18
48
1
60
0
100
AcDbSpline
70
4
71
3
72
8
73
4
40
0
40
0
40
0
40
0
40
1
40
1
40
1
40
1
41
1
10
15.6925179886882
20
5.96315249571731
30
0
41
1
10
14.9375507369533
20
5.4366291307899
30
0
41
1
10
14.0421984429998
20
5.21812660201081
30
0
41
1
10
13.1725676646366
20
5.31693276800351
30
0
0
SPLINE
5
121
100
AcDbEntity
8
1
62
256
6
ByLayer
370
18
48
1
60
0
100
AcDbSpline
70
4
71
3
72
8
73
4
40
0
40
0
40
0
40
0
40
1
40
1
40
1
40
1
41
1
10
8.76120869007173
20
9.45443357326667
30
0
41
1
10
8.58591243807882
20
9.26810698598484
30
0
41
1
10
8.39760760565071
20
9.10727473874508
30
0
41
1
10
8.20135896110617
20
8.96611386803713
30
0
0
SPLINE
5
122
100
AcDbEntity
8
1
62
256
6
ByLayer
370
18
48
1
60
0
100
AcDbSpline
70
4
71
3
72
15
73
11
40
0
40
0
40
0
40
0
40
0.322163720426458
40
0.322163720426458
40
0.644833452600231
40
0.644833452600231
40
0.912233455904554
40
0.912233455904554
40
0.912233455904554
40
1
40
1
40
1
40
1
41
1
10
13.3365089659121
20
14.3315760786412
30
0
41
1
10
13.7804471322668
20
14.5251749236039
30
0
41
1
10
14.264168356344
20
14.6443025609104
30
0
41
1
10
15.2297287020152
20
14.7250328678215
30
0
41
1
10
15.7251651189287
20
14.6878807862832
30
0
41
1
10
16.5837161162876
20
14.4704169911247
30
0
41
1
10
16.9650470715716
20
14.3119734863347
30
0
41
1
10
17.3061186910947
20
14.0971129281496
30
0
41
1
10
17.4194649165833
20
14.0257096454295
30
0
41
1
10
17.5290373268043
20
13.9478194439433
30
0
41
1
10
17.6334128842528
20
13.8641628630791
30
0
0
SPLINE
5
123
100
AcDbEntity
8
1
62
256
6
ByLayer
370
18
48
1
60
0
100
AcDbSpline
70
4
71
3
72
10
73
6
40
0
40
0
40
0
40
0
40
0.5
40
0.5
40
1
40
1
40
1
40
1
41
1
10
12.7926864143814
20
0.304117309119732
30
0
41
1
10
12.3590147407787
20
0.257099718930704
30
0
41
1
10
12.0036946659208
20
0.365519370938529
30
0
41
1
10
11.1098382152078
20
0.839593279249954
30
0
41
1
10
10.5557819093216
20
1.27627729887115
30
0
41
1
10
10.1149531180166
20
1.84871321664483
30
0
0
SPLINE
5
124
100
AcDbEntity
8
1
62
256
6
ByLayer
370
18
48
1
60
0
100
AcDbSpline
70
4
71
3
72
8
73
4
40
0
40
0
40
0
40
0
40
1
40
1
40
1
40
1
41
1
10
20.3997073208196
20
19.9668108998332
30
0
41
1
10
20.4942098815028
20
20.0120533035487
30
0
41
1
10
20.5899969180898
20
20.0550947575622
30
0
41
1
10
20.686864323944
20
20.0960823240257
30
0
0
SPLINE
5
125
100
AcDbEntity
8
1
62
256
6
ByLayer
370
18
48
1
60
0
100
AcDbSpline
70
4
71
3
72
10
73
6
40
0
40
0
40
0
40
0
40
0.264715639145577
40
0.264715639145577
40
1
40
1
40
1
40
1
41
1
10
25.1614891919702
20
17.5495082142706
30
0
41
1
10
25.1126524696853
20
17.4557277691706
30
0
41
1
10
25.0644435628105
20
17.3606774906506
30
0
41
1
10
24.8844815988405
20
16.9976500371603
30
0
41
1
10
24.7563822583457
20
16.7225776746764
30
0
41
1
10
24.6318489090374
20
16.4418252596199
30
0
0
SPLINE
5
126
100
AcDbEntity
8
1
62
256
6
ByLayer
370
18
48
1
60
0
100
AcDbSpline
70
4
71
2
72
6
73
3
40
0
40
0
40
0
40
1
40
1
40
1
41
1.02805999725224
10
11.9220441499646
20
15.7227869065947
30
0
41
0.930554446072479
10
12.4264425936884
20
15.400911612602
30
0
41
0.937301687719829
10
13.3365089659099
20
14.3315760786437
30
0
0
SPLINE
5
127
100
AcDbEntity
8
1
62
256
6
ByLayer
370
18
48
1
60
0
100
AcDbSpline
70
4
71
3
72
8
73
4
40
0
40
0
40
0
40
0
40
1
40
1
40
1
40
1
41
1
10
5.24423346338347
20
8.77472604439055
30
0
41
1
10
5.23071106579351
20
8.79396182234234
30
0
41
1
10
5.21770191325436
20
8.8133633666823
30
0
41
1
10
5.20518206305712
20
8.83292331542725
30
0
0
SPLINE
5
128
100
AcDbEntity
8
1
62
256
6
ByLayer
370
18
48
1
60
0
100
AcDbSpline
70
4
71
3
72
8
73
4
40
0
40
0
40
0
40
0
40
1
40
1
40
1
40
1
41
1
10
12.9553857231069
20
5.33192109580725
30
0
41
1
10
12.964747662067
20
3.76250585907391
30
0
41
1
10
12.9020865140378
20
2.30296615777746
30
0
41
1
10
12.715182279671
20
1.46170173422783
30
0
0
SPLINE
5
129
100
AcDbEntity
8
1
62
256
6
ByLayer
370
18
48
1
60
0
100
AcDbSpline
70
4
71
3
72
12
73
8
40
0
40
0
40
0
40
0
40
0.286978363858291
40
0.286978363858291
40
0.569998995185617
40
0.569998995185617
40
1
40
1
40
1
40
1
41
1
10
17.633412884252
20
13.8641628630789
30
0
41
1
10
17.8158512873064
20
13.7179235542677
30
0
41
1
10
17.9871351323056
20
13.5560045577218
30
0
41
1
10
18.2981668018572
20
13.2101986290043
30
0
41
1
10
18.4393854583659
20
13.0254587508791
30
0
41
1
10
18.7537129617475
20
12.5381504834679
30
0
41
1
10
18.9082271288107
20
12.2197178223396
30
0
41
1
10
19.0205614696433
20
11.8909268302485
30
0
0
SPLINE
5
12A
100
AcDbEntity
8
1
62
256
6
ByLayer
370
18
48
1
60
0
100
AcDbSpline
70
4
71
3
72
8
73
4
40
0
40
0
40
0
40
0
40
1
40
1
40
1
40
1
41
1
10
27.474918995899
20
16.655468541228
30
0
41
1
10
27.5048362130877
20
16.7288215046571
30
0
41
1
10
27.5320794738922
20
16.8066082980331
30
0
41
1
10
27.5560208006077
20
16.8875408467741
30
0
0
SPLINE
5
12B
100
AcDbEntity
8
1
62
256
6
ByLayer
370
18
48
1
60
0
100
AcDbSpline
70
4
71
3
72
8
73
4
40
0
40
0
40
0
40
0
40
1
40
1
40
1
40
1
41
1
10
26.1457404927941
20
12.3307634039249
30
0
41
1
10
26.0719941407154
20
12.2568858522708
30
0
41
1
10
25.9966739953443
20
12.1847299921605
30
0
41
1
10
25.9197126853007
20
12.1145349422814
30
0
0
SPLINE
5
12C
100
AcDbEntity
8
1
62
256
6
ByLayer
370
18
48
1
60
0
100
AcDbSpline
70
4
71
3
72
20
73
16
40
0
40
0
40
0
40
0
40
0.332873226652387
40
0.332873226652387
40
0.501657261698204
40
0.501657261698204
40
0.631212321676506
40
0.631212321676506
40
0.722542323637669
40
0.722542323637669
40
0.814765347404191
40
0.814765347404191
40
0.896421359038804
40
0.896421359038804
40
1
40
1
40
1
40
1
41
1
10
24.6318489090374
20
16.4418252596199
30
0
41
1
10
24.5479436388736
20
16.2527711505886
30
0
41
1
10
24.4690899863895
20
16.0520096850371
30
0
41
1
10
24.3746674561235
20
15.7245919858794
30
0
41
1
10
24.3468813923383
20
15.6087062946412
30
0
41
1
10
24.3139625893676
20
15.3967830356868
30
0
41
1
10
24.3049492212206
20
15.3006176617148
30
0
41
1
10
24.3057160922843
20
15.1396765209082
30
0
41
1
10
24.310917028422
20
15.0726727519807
30
0
41
1
10
24.3331689547711
20
14.9489335863241
30
0
41
1
10
24.3507856629967
20
14.8907616193421
30
0
41
1
10
24.3930816359937
20
14.7997787586608
30
0
41
1
10
24.4171213215877
20
14.7636626780622
30
0
41
1
10
24.47588103299
20
14.6989243503699
30
0
41
1
10
24.5123737654212
20
14.6737593344947
30
0
41
1
10
24.5496005754074
20
14.6571325994334
30
0
0
SPLINE
5
12D
100
AcDbEntity
8
1
62
256
6
ByLayer
370
18
48
1
60
0
100
AcDbSpline
70
4
71
3
72
8
73
4
40
0
40
0
40
0
40
0
40
1
40
1
40
1
40
1
41
1
10
12.9553857231069
20
5.33192109580725
30
0
41
1
10
13.0283202004778
20
5.33009039115564
30
0
41
1
10
13.1008838310234
20
5.325077379417
30
0
41
1
10
13.1725676646366
20
5.31693276800351
30
0
0
SPLINE
5
12E
100
AcDbEntity
8
1
62
256
6
ByLayer
370
18
48
1
60
0
100
AcDbSpline
70
4
71
3
72
12
73
8
40
0
40
0
40
0
40
0
40
0.466938972358619
40
0.466938972358619
40
0.928803236876549
40
0.928803236876549
40
1
40
1
40
1
40
1
41
1
10
9.37356902652994
20
10.427099682432
30
0
41
1
10
9.31743745666461
20
10.2653924126253
30
0
41
1
10
9.2365615242116
20
10.098783223674
30
0
41
1
10
9.04590270999654
20
9.79138781299272
30
0
41
1
10
8.9342887792896
20
9.64590587566062
30
0
41
1
10
8.7983600445969
20
9.494384560962
30
0
41
1
10
8.77986039881841
20
9.47425892148854
30
0
41
1
10
8.76120869007173
20
9.45443357326667
30
0
0
SPLINE
5
12F
100
AcDbEntity
8
1
62
256
6
ByLayer
370
18
48
1
60
0
100
AcDbSpline
70
4
71
3
72
10
73
6
40
0
40
0
40
0
40
0
40
0.5
40
0.5
40
1
40
1
40
1
40
1
41
1
10
23.9202392891585
20
20.0570528256854
30
0
41
1
10
23.1875927166737
20
19.9668101510477
30
0
41
1
10
22.7234813214384
20
19.6458129039177
30
0
41
1
10
22.2488695404015
20
18.8847236519281
30
0
41
1
10
22.1965433828545
20
18.4394799975641
30
0
41
1
10
22.2101820546288
20
17.9849844025279
30
0
0
SPLINE
5
130
100
AcDbEntity
8
1
62
256
6
ByLayer
370
18
48
1
60
0
100
AcDbSpline
70
4
71
3
72
15
73
11
40
0
40
0
40
0
40
0
40
0.227604479949748
40
0.227604479949748
40
0.47942370921844
40
0.47942370921844
40
0.785574270382838
40
0.785574270382838
40
0.785574270382838
40
1
40
1
40
1
40
1
41
1
10
19.0205614696433
20
11.8909268302485
30
0
41
1
10
19.1309275018831
20
11.5678443513034
30
0
41
1
10
19.1942837308768
20
11.2225933907551
30
0
41
1
10
19.2295009154058
20
10.5002314330451
30
0
41
1
10
19.1922539359927
20
10.1152210697105
30
0
41
1
10
19.0043782231049
20
9.29698815490286
30
0
41
1
10
18.828809303092
20
8.85931601268211
30
0
41
1
10
18.5939836318064
20
8.46314983901269
30
0
41
1
10
18.4285003048575
20
8.18396870824239
30
0
41
1
10
18.23127167857
20
7.92143940335055
30
0
41
1
10
18.0082662064707
20
7.68594357697694
30
0
0
SPLINE
5
131
100
AcDbEntity
8
1
62
256
6
ByLayer
370
18
48
1
60
0
100
AcDbSpline
70
4
71
2
72
6
73
3
40
0
40
0
40
0
40
1
40
1
40
1
41
1.02805999725224
10
18.9101368358172
20
5.78213856242009
30
0
41
1.02805999725224
10
19.0779793839402
20
5.16982469646898
30
0
41
1.02805999725224
10
19.2458219320633
20
4.5575108305179
30
0
0
SPLINE
5
132
100
AcDbEntity
8
1
62
256
6
ByLayer
370
18
48
1
60
0
100
AcDbSpline
70
4
71
3
72
8
73
4
40
0
40
0
40
0
40
0
40
1
40
1
40
1
40
1
41
1
10
10.0734840148635
20
1.90505735848959
30
0
41
1
10
10.0870064124535
20
1.88582158053774
30
0
41
1
10
10.1008340527179
20
1.86704745492912
30
0
41
1
10
10.1149531180166
20
1.84871321664483
30
0
0
SPLINE
5
133
100
AcDbEntity
8
1
62
256
6
ByLayer
370
18
48
1
60
0
100
AcDbSpline
70
4
71
3
72
20
73
16
40
0
40
0
40
0
40
0
40
0.110576036200125
40
0.110576036200125
40
0.197179369122811
40
0.197179369122811
40
0.284291117387373
40
0.284291117387373
40
0.36590421791808
40
0.36590421791808
40
0.497270233392073
40
0.497270233392073
40
0.733496364826707
40
0.733496364826707
40
1
40
1
40
1
40
1
41
1
10
22.2101820546299
20
17.9849844025286
30
0
41
1
10
22.2113923786119
20
17.9445292637273
30
0
41
1
10
22.2220626410422
20
17.9014823920036
30
0
41
1
10
22.2653966900261
20
17.8239469414816
30
0
41
1
10
22.2934889776076
20
17.7889133573192
30
0
41
1
10
22.367272394495
20
17.7223969969753
30
0
41
1
10
22.4140911303904
20
17.6901311812847
30
0
41
1
10
22.5149693495974
20
17.6351097035019
30
0
41
1
10
22.5693897871404
20
17.6112039056391
30
0
41
1
10
22.7146093880499
20
17.5580368765812
30
0
41
1
10
22.8097741336505
20
17.5331681150587
30
0
41
1
10
23.0698612311186
20
17.4810501370314
30
0
41
1
10
23.2359272240313
20
17.4654138881483
30
0
41
1
10
23.5742532853817
20
17.4494613068803
30
0
41
1
10
23.7481197427382
20
17.4516118808595
30
0
41
1
10
23.91650194811
20
17.4594151660985
30
0
0
SPLINE
5
134
100
AcDbEntity
8
1
62
256
6
ByLayer
370
18
48
1
60
0
100
AcDbSpline
70
4
71
1
72
4
73
2
40
0
40
0
40
1
40
1
41
1
10
11.9220441499646
20
15.7227869065947
30
0
41
1
10
10.9695518628276
20
16.3306074476031
30
0
0
SPLINE
5
135
100
AcDbEntity
8
1
62
256
6
ByLayer
370
18
48
1
60
0
100
AcDbSpline
70
4
71
3
72
11
73
7
40
0
40
0
40
0
40
0
40
0.423407924946042
40
0.740963868655573
40
0.899741840510338
40
1
40
1
40
1
40
1
41
1.02805999725224
10
11.9220441499646
20
15.7227869065947
30
0
41
1.02767136955277
10
12.6852343653621
20
16.1262283561055
30
0
41
1.02349884684923
10
15.8686910522348
20
16.8618551479542
30
0
41
1.01876555595691
10
20.0410784593762
20
17.4308639577942
30
0
41
1.01635405201144
10
21.6117907283396
20
17.6449713428073
30
0
41
1.01722454828215
10
22.0381649097451
20
17.8803327518136
30
0
41
1.0177432798788
10
22.2101820545582
20
17.9849844024851
30
0
0
SPLINE
5
136
100
AcDbEntity
8
1
62
256
6
ByLayer
370
18
48
1
60
0
100
AcDbSpline
70
4
71
3
72
10
73
6
40
0
40
0
40
0
40
0
40
0.5
40
0.5
40
1
40
1
40
1
40
1
41
1
10
10.9695518628276
20
16.3306074476031
30
0
41
1
10
12.069104060173
20
17.0820561872706
30
0
41
1
10
13.2571049923434
20
17.6410279963308
30
0
41
1
10
15.6960132502938
20
18.6220784233674
30
0
41
1
10
16.97406256789
20
19.0017606172336
30
0
41
1
10
18.2705672554871
20
19.276253941966
30
0
0
LINE
5
72
100
AcDbEntity
8
1
62
256
6
ByLayer
370
18
48
1
60
0
100
AcDbLine
10
5.163689
20
12.268155
30
0
11
4.641221
21
11.82306
31
0
39
0
210
0
220
0
230
1
0
LINE
5
74
100
AcDbEntity
8
1
62
256
6
ByLayer
370
18
48
1
60
0
100
AcDbLine
10
12.982769
20
9.608975
30
0
11
13.002911
21
9.629118
31
0
39
0
210
0
220
0
230
1
0
LINE
5
75
100
AcDbEntity
8
1
62
256
6
ByLayer
370
18
48
1
60
0
100
AcDbLine
10
13.497517
20
10.893328
30
0
11
13.663855
21
11.059667
31
0
39
0
210
0
220
0
230
1
0
LINE
5
76
100
AcDbEntity
8
1
62
256
6
ByLayer
370
18
48
1
60
0
100
AcDbLine
10
16.857002
20
6.981012
30
0
11
17.030198
21
7.154208
31
0
39
0
210
0
220
0
230
1
0
LINE
5
77
100
AcDbEntity
8
1
62
256
6
ByLayer
370
18
48
1
60
0
100
AcDbLine
10
11.373344
20
12.811062
30
0
11
11.200148
21
12.637866
31
0
39
0
210
0
220
0
230
1
0
LINE
5
78
100
AcDbEntity
8
1
62
256
6
ByLayer
370
18
48
1
60
0
100
AcDbLine
10
30.589408
20
11.404914
30
0
11
31.084266
21
11.899772
31
0
39
0
210
0
220
0
230
1
0
LINE
5
79
100
AcDbEntity
8
1
62
256
6
ByLayer
370
18
48
1
60
0
100
AcDbLine
10
19.704311
20
23.279726
30
0
11
19.209454
21
22.784869
31
0
39
0
210
0
220
0
230
1
0
LINE
5
7A
100
AcDbEntity
8
1
62
256
6
ByLayer
370
18
48
1
60
0
100
AcDbLine
10
8.079587
20
8.844309
30
0
11
8.458707
21
9.167286
31
0
39
0
210
0
220
0
230
1
0
LINE
5
7B
100
AcDbEntity
8
1
62
256
6
ByLayer
370
18
48
1
60
0
100
AcDbLine
10
14.89231
20
9.058227
30
0
11
14.725972
21
8.891889
31
0
39
0
210
0
220
0
230
1
0
LINE
5
7C
100
AcDbEntity
8
1
62
256
6
ByLayer
370
18
48
1
60
0
100
AcDbLine
10
15.553254
20
10.488776
30
0
11
15.386916
21
10.322437
31
0
39
0
210
0
220
0
230
1
0
LINE
5
7D
100
AcDbEntity
8
80
62
256
6
ByLayer
370
18
48
1
60
0
100
AcDbLine
10
0
20
0
30
0
11
-5
21
0
31
0
39
0
210
0
220
0
230
1
0
LINE
5
7E
100
AcDbEntity
8
81
62
256
6
ByLayer
370
18
48
1
60
0
100
AcDbLine
10
32.22954
20
24.425
30
0
11
42.22954
21
24.425
31
0
39
0
210
0
220
0
230
1
0
LINE
5
7F
100
AcDbEntity
8
1
62
256
6
ByLayer
370
18
48
1
60
0
100
AcDbLine
10
25.107909
20
11.223784
30
0
11
30.595946
21
11.674158
31
0
39
0
210
0
220
0
230
1
0
LINE
5
80
100
AcDbEntity
8
1
62
256
6
ByLayer
370
18
48
1
60
0
100
AcDbLine
10
19.478697
20
22.791407
30
0
11
19.209287
21
19.508501
31
0
39
0
210
0
220
0
230
1
0
LINE
5
81
100
AcDbEntity
8
1
62
256
6
ByLayer
370
18
48
1
60
0
100
AcDbLine
10
30.524594
20
11.602805
30
0
11
30.595946
21
11.674158
31
0
39
0
210
0
220
0
230
1
0
LINE
5
82
100
AcDbEntity
8
1
62
256
6
ByLayer
370
18
48
1
60
0
100
AcDbLine
10
19.478697
20
22.791407
30
0
11
19.400077
21
22.712786
31
0
39
0
210
0
220
0
230
1
0
LINE
5
83
100
AcDbEntity
8
1
62
256
6
ByLayer
370
18
48
1
60
0
100
AcDbLine
10
12.985266
20
9.611607
30
0
11
12.99654
21
9.622882
31
0
39
0
210
0
220
0
230
1
0
LINE
5
84
100
AcDbEntity
8
1
62
256
6
ByLayer
370
18
48
1
60
0
100
AcDbLine
10
16.857002
20
6.981012
30
0
11
16.857135
21
6.981145
31
0
39
0
210
0
220
0
230
1
0
LINE
5
85
100
AcDbEntity
8
1
62
256
6
ByLayer
370
18
48
1
60
0
100
AcDbLine
10
18.597076
20
-4.508985
30
0
11
14.540647
21
1.261335
31
0
39
0
210
0
220
0
230
1
0
LINE
5
86
100
AcDbEntity
8
1
62
256
6
ByLayer
370
18
48
1
60
0
100
AcDbLine
10
6.256485
20
13.045658
30
0
11
4.133239
21
16.066002
31
0
39
0
210
0
220
0
230
1
0
LINE
5
87
100
AcDbEntity
8
1
62
256
6
ByLayer
370
18
48
1
60
0
100
AcDbLine
10
16.00347
20
-6.736588
30
0
11
11.597086
21
-0.468452
31
0
39
0
210
0
220
0
230
1
0
LINE
5
88
100
AcDbEntity
8
1
62
256
6
ByLayer
370
18
48
1
60
0
100
AcDbLine
10
3.718986
20
10.738243
30
0
11
1.610138
21
13.738105
31
0
39
0
210
0
220
0
230
1
0
LINE
5
89
100
AcDbEntity
8
1
62
256
6
ByLayer
370
18
48
1
60
0
100
AcDbLine
10
19.048175
20
19.464839
30
0
11
19.317663
21
22.748681
31
0
39
0
210
0
220
0
230
1
0
LINE
5
8A
100
AcDbEntity
8
1
62
256
6
ByLayer
370
18
48
1
60
0
100
AcDbLine
10
24.973293
20
11.050579
30
0
11
30.554869
21
11.533203
31
0
39
0
210
0
220
0
230
1
0
LINE
5
8B
100
AcDbEntity
8
1
62
256
6
ByLayer
370
18
48
1
60
0
100
AcDbLine
10
15.291049
20
-7.351407
30
0
11
10.413746
21
-0.413384
31
0
39
0
210
0
220
0
230
1
0
LINE
5
8C
100
AcDbEntity
8
1
62
256
6
ByLayer
370
18
48
1
60
0
100
AcDbLine
10
3.368855
20
9.608062
30
0
11
0.731257
21
13.360077
31
0
39
0
210
0
220
0
230
1
0
LINE
5
8D
100
AcDbEntity
8
1
62
256
6
ByLayer
370
18
48
1
60
0
100
AcDbLine
10
19.428294
20
22.700502
30
0
11
19.165379
21
19.496745
31
0
39
0
210
0
220
0
230
1
0
LINE
5
8E
100
AcDbEntity
8
1
62
256
6
ByLayer
370
18
48
1
60
0
100
AcDbLine
10
25.069195
20
11.173803
30
0
11
25.946138
21
11.24963
31
0
39
0
210
0
220
0
230
1
0
LINE
5
8F
100
AcDbEntity
8
1
62
256
6
ByLayer
370
18
48
1
60
0
100
AcDbLine
10
30.554869
20
11.533203
30
0
11
30.512325
21
11.631035
31
0
39
0
210
0
220
0
230
1
0
LINE
5
90
100
AcDbEntity
8
1
62
256
6
ByLayer
370
18
48
1
60
0
100
AcDbLine
10
15.982677
20
-6.75738
30
0
11
11.567414
21
-0.476613
31
0
39
0
210
0
220
0
230
1
0
LINE
5
91
100
AcDbEntity
8
1
62
256
6
ByLayer
370
18
48
1
60
0
100
AcDbLine
10
3.701579
20
10.712634
30
0
11
1.404084
21
13.980849
31
0
39
0
210
0
220
0
230
1
0
LINE
5
92
100
AcDbEntity
8
1
62
256
6
ByLayer
370
18
48
1
60
0
100
AcDbLine
10
3.517952
20
-15.94035
30
0
11
0.731257
21
13.360077
31
0
39
0
210
0
220
0
230
1
0
LINE
5
93
100
AcDbEntity
8
1
62
256
6
ByLayer
370
18
48
1
60
0
100
AcDbLine
10
30.025824
20
5.086517
30
0
11
18.597076
21
-4.508985
31
0
39
0
210
0
220
0
230
1
0
LINE
5
94
100
AcDbEntity
8
1
62
256
6
ByLayer
370
18
48
1
60
0
100
AcDbLine
10
5.934513
20
-15.786027
30
0
11
26.40859
21
1.469284
31
0
39
0
210
0
220
0
230
1
0
LINE
5
95
100
AcDbEntity
8
1
62
256
6
ByLayer
370
18
48
1
60
0
100
AcDbLine
10
5.06201
20
-15.939642
30
0
11
15.291049
21
-7.351407
31
0
39
0
210
0
220
0
230
1
0
LINE
5
96
100
AcDbEntity
8
1
62
256
6
ByLayer
370
18
48
1
60
0
100
AcDbLine
10
30.025824
20
5.086517
30
0
11
30.554869
21
11.533203
31
0
39
0
210
0
220
0
230
1
0
LINE
5
97
100
AcDbEntity
8
1
62
256
6
ByLayer
370
18
48
1
60
0
100
AcDbLine
10
19.317663
20
22.748681
30
0
11
5.706702
21
21.631702
31
0
39
0
210
0
220
0
230
1
0
LINE
5
98
100
AcDbEntity
8
1
62
256
6
ByLayer
370
18
48
1
60
0
100
AcDbLine
10
15.982677
20
-6.75738
30
0
11
16.00347
21
-6.736588
31
0
39
0
210
0
220
0
230
1
0
LINE
5
99
100
AcDbEntity
8
1
62
256
6
ByLayer
370
18
48
1
60
0
100
AcDbLine
10
1.610138
20
13.738105
30
0
11
4.133239
21
16.066002
31
0
39
0
210
0
220
0
230
1
0
LINE
5
9A
100
AcDbEntity
8
1
62
256
6
ByLayer
370
18
48
1
60
0
100
AcDbLine
10
3.786522
20
19.711522
30
0
11
0
21
15.925
31
0
39
0
210
0
220
0
230
1
0
LINE
5
9B
100
AcDbEntity
8
1
62
256
6
ByLayer
370
18
48
1
60
0
100
AcDbLine
10
1.404084
20
13.980849
30
0
11
1.610138
21
13.738105
31
0
39
0
210
0
220
0
230
1
0
LINE
5
9C
100
AcDbEntity
8
1
62
256
6
ByLayer
370
18
48
1
60
0
100
AcDbLine
10
5.06201
20
-15.939642
30
0
11
3.517952
21
-15.94035
31
0
39
0
210
0
220
0
230
1
0
LINE
5
9D
100
AcDbEntity
8
1
62
256
6
ByLayer
370
18
48
1
60
0
100
AcDbLine
10
0
20
-15.925
30
0
11
0
21
15.925
31
0
39
0
210
0
220
0
230
1
0
LINE
5
9E
100
AcDbEntity
8
1
62
256
6
ByLayer
370
18
48
1
60
0
100
AcDbLine
10
16.00347
20
-6.736588
30
0
11
18.597076
21
-4.508985
31
0
39
0
210
0
220
0
230
1
0
LINE
5
9F
100
AcDbEntity
8
1
62
256
6
ByLayer
370
18
48
1
60
0
100
AcDbLine
10
26.40859
20
1.469284
30
0
11
30.025824
21
5.086517
31
0
39
0
210
0
220
0
230
1
0
LINE
5
A0
100
AcDbEntity
8
1
62
256
6
ByLayer
370
18
48
1
60
0
100
AcDbLine
10
5.06201
20
-15.939642
30
0
11
5.934513
21
-15.786027
31
0
39
0
210
0
220
0
230
1
0
LINE
5
A1
100
AcDbEntity
8
1
62
256
6
ByLayer
370
18
48
1
60
0
100
AcDbLine
10
4.133239
20
16.066002
30
0
11
3.786522
21
19.711522
31
0
39
0
210
0
220
0
230
1
0
LINE
5
A2
100
AcDbEntity
8
1
62
256
6
ByLayer
370
18
48
1
60
0
100
AcDbLine
10
0
20
-15.925
30
0
11
3.517952
21
-15.94035
31
0
39
0
210
0
220
0
230
1
0
LINE
5
A3
100
AcDbEntity
8
1
62
256
6
ByLayer
370
18
48
1
60
0
100
AcDbLine
10
3.786522
20
19.711522
30
0
11
5.706702
21
21.631702
31
0
39
0
210
0
220
0
230
1
0
LINE
5
A4
100
AcDbEntity
8
1
62
256
6
ByLayer
370
18
48
1
60
0
100
AcDbLine
10
19.317663
20
22.748681
30
0
11
19.428294
21
22.700502
31
0
39
0
210
0
220
0
230
1
0
LINE
5
A5
100
AcDbEntity
8
SK1
62
256
6
ByLayer
370
18
48
1
60
0
100
AcDbLine
10
-139.12046
20
15.925
30
0
11
-139.12046
21
-15.925
31
0
39
0
210
0
220
0
230
1
0
LINE
5
A7
100
AcDbEntity
8
SK1
62
256
6
ByLayer
370
18
48
1
60
0
100
AcDbLine
10
-139.12046
20
-15.925
30
0
11
0
21
-15.925
31
0
39
0
210
0
220
0
230
1
0
LINE
5
A8
100
AcDbEntity
8
SK1
62
256
6
ByLayer
370
18
48
1
60
0
100
AcDbLine
10
0
20
15.925
30
0
11
0
21
-15.925
31
0
39
0
210
0
220
0
230
1
0
LINE
5
A9
100
AcDbEntity
8
SK1
62
256
6
ByLayer
370
18
48
1
60
0
100
AcDbLine
10
0
20
15.925
30
0
11
-139.12046
21
15.925
31
0
39
0
210
0
220
0
230
1
0
LINE
5
AA
100
AcDbEntity
8
1
62
256
6
ByLayer
370
18
48
1
60
0
100
AcDbLine
10
27.448096
20
16.417912
30
0
11
27.474919
21
16.655469
31
0
39
0
210
0
220
0
230
1
0
LINE
5
AB
100
AcDbEntity
8
1
62
256
6
ByLayer
370
18
48
1
60
0
100
AcDbLine
10
14.831358
20
1.476041
30
0
11
13.27852
21
0.326886
31
0
39
0
210
0
220
0
230
1
0
LINE
5
AC
100
AcDbEntity
8
1
62
256
6
ByLayer
370
18
48
1
60
0
100
AcDbLine
10
25.221553
20
19.86091
30
0
11
24.98826
21
19.917058
31
0
39
0
210
0
220
0
230
1
0
LINE
5
AD
100
AcDbEntity
8
1
62
256
6
ByLayer
370
18
48
1
60
0
100
AcDbLine
10
7.855183
20
8.671203
30
0
11
6.619937
21
7.810565
31
0
39
0
210
0
220
0
230
1
0
LINE
5
AE
100
AcDbEntity
8
1
62
256
6
ByLayer
370
18
48
1
60
0
100
AcDbLine
10
8.201359
20
8.966114
30
0
11
7.855183
21
8.671203
31
0
39
0
210
0
220
0
230
1
0
LINE
5
AF
100
AcDbEntity
8
1
62
256
6
ByLayer
370
18
48
1
60
0
100
AcDbLine
10
10.563358
20
12.446567
30
0
11
12.223134
21
13.602989
31
0
39
0
210
0
220
0
230
1
0
LINE
5
B0
100
AcDbEntity
8
1
62
256
6
ByLayer
370
18
48
1
60
0
100
AcDbLine
10
6.619937
20
7.810565
30
0
11
9.609473
21
3.557913
31
0
39
0
210
0
220
0
230
1
0
LINE
5
B1
100
AcDbEntity
8
1
62
256
6
ByLayer
370
18
48
1
60
0
100
AcDbLine
10
10.920759
20
12.751039
30
0
11
12.587819
21
13.913668
31
0
39
0
210
0
220
0
230
1
0
LINE
5
B2
100
AcDbEntity
8
1
62
256
6
ByLayer
370
18
48
1
60
0
100
AcDbLine
10
8.732823
20
0.762935
30
0
11
3.903572
21
7.632604
31
0
39
0
210
0
220
0
230
1
0
LINE
5
B3
100
AcDbEntity
8
1
62
256
6
ByLayer
370
18
48
1
60
0
100
AcDbLine
10
25.697641
20
19.824073
30
0
11
25.470789
21
19.853809
31
0
39
0
210
0
220
0
230
1
0
LINE
5
B4
100
AcDbEntity
8
1
62
256
6
ByLayer
370
18
48
1
60
0
100
AcDbLine
10
10.920759
20
12.751039
30
0
11
10.563358
21
12.446567
31
0
39
0
210
0
220
0
230
1
0
LINE
5
B5
100
AcDbEntity
8
1
62
256
6
ByLayer
370
18
48
1
60
0
100
AcDbLine
10
5.244233
20
8.774726
30
0
11
10.073484
21
1.905057
31
0
39
0
210
0
220
0
230
1
0
LINE
5
B6
100
AcDbEntity
8
1
62
256
6
ByLayer
370
18
48
1
60
0
100
AcDbLine
10
13.66281
20
0.661082
30
0
11
13.217907
21
0.282064
31
0
39
0
210
0
220
0
230
1
0
LINE
5
B7
100
AcDbEntity
8
1
62
256
6
ByLayer
370
18
48
1
60
0
100
AcDbLine
10
13.66281
20
0.661082
30
0
11
14.831358
21
1.476041
31
0
39
0
210
0
220
0
230
1
0
LINE
5
B8
100
AcDbEntity
8
1
62
256
6
ByLayer
370
18
48
1
60
0
100
AcDbLine
10
6.552642
20
13.252616
30
0
11
5.384095
21
12.437656
31
0
39
0
210
0
220
0
230
1
0
LINE
5
B9
100
AcDbEntity
8
1
62
256
6
ByLayer
370
18
48
1
60
0
100
AcDbLine
10
6.552642
20
13.252616
30
0
11
6.558021
21
13.253952
31
0
39
0
210
0
220
0
230
1
0
LINE
5
BA
100
AcDbEntity
8
1
62
256
6
ByLayer
370
18
48
1
60
0
100
AcDbLine
10
27.448096
20
16.417912
30
0
11
27.209216
21
15.378443
31
0
39
0
210
0
220
0
230
1
0
LINE
5
BB
100
AcDbEntity
8
1
62
256
6
ByLayer
370
18
48
1
60
0
100
AcDbLine
10
25.161489
20
17.549508
30
0
11
27.343445
21
18.971625
31
0
39
0
210
0
220
0
230
1
0
LINE
5
BC
100
AcDbEntity
8
1
62
256
6
ByLayer
370
18
48
1
60
0
100
AcDbLine
10
14.831358
20
1.476041
30
0
11
14.834291
21
1.480855
31
0
39
0
210
0
220
0
230
1
0
LINE
5
BD
100
AcDbEntity
8
1
62
256
6
ByLayer
370
18
48
1
60
0
100
AcDbLine
10
5.72709
20
11.40235
30
0
11
11.922044
21
15.722787
31
0
39
0
210
0
220
0
230
1
0
LINE
5
BE
100
AcDbEntity
8
1
62
256
6
ByLayer
370
18
48
1
60
0
100
AcDbLine
10
10.969552
20
16.330607
30
0
11
6.558021
21
13.253952
31
0
39
0
210
0
220
0
230
1
0
LINE
5
BF
100
AcDbEntity
8
1
62
256
6
ByLayer
370
18
48
1
60
0
100
AcDbLine
10
17.359578
20
7.125781
30
0
11
15.692518
21
5.963152
31
0
39
0
210
0
220
0
230
1
0
LINE
5
C0
100
AcDbEntity
8
1
62
256
6
ByLayer
370
18
48
1
60
0
100
AcDbLine
10
24.98826
20
19.917058
30
0
11
23.920239
21
20.057053
31
0
39
0
210
0
220
0
230
1
0
LINE
5
C1
100
AcDbEntity
8
1
62
256
6
ByLayer
370
18
48
1
60
0
100
AcDbLine
10
5.244233
20
8.774726
30
0
11
3.903572
21
7.632604
31
0
39
0
210
0
220
0
230
1
0
LINE
5
C2
100
AcDbEntity
8
1
62
256
6
ByLayer
370
18
48
1
60
0
100
AcDbLine
10
12.715182
20
1.461702
30
0
11
18.910137
21
5.782139
31
0
39
0
210
0
220
0
230
1
0
LINE
5
C3
100
AcDbEntity
8
1
62
256
6
ByLayer
370
18
48
1
60
0
100
AcDbLine
10
12.587819
20
13.913668
30
0
11
12.223134
21
13.602989
31
0
39
0
210
0
220
0
230
1
0
LINE
5
C4
100
AcDbEntity
8
1
62
256
6
ByLayer
370
18
48
1
60
0
100
AcDbLine
10
10.073484
20
1.905057
30
0
11
8.732823
21
0.762935
31
0
39
0
210
0
220
0
230
1
0
LINE
5
C5
100
AcDbEntity
8
1
62
256
6
ByLayer
370
18
48
1
60
0
100
AcDbLine
10
27.60676
20
17.108328
30
0
11
27.556021
21
16.887541
31
0
39
0
210
0
220
0
230
1
0
LINE
5
C6
100
AcDbEntity
8
1
62
256
6
ByLayer
370
18
48
1
60
0
100
AcDbLine
10
19.245822
20
4.557511
30
0
11
14.834291
21
1.480855
31
0
39
0
210
0
220
0
230
1
0
LINE
5
C7
100
AcDbEntity
8
1
62
256
6
ByLayer
370
18
48
1
60
0
100
AcDbLine
10
14.362723
20
11.224682
30
0
11
14.529061
21
11.391021
31
0
39
0
210
0
220
0
230
1
0
LINE
5
C8
100
AcDbEntity
8
1
62
256
6
ByLayer
370
18
48
1
60
0
100
AcDbLine
10
13.08118
20
10.788617
30
0
11
13.247519
21
10.954956
31
0
39
0
210
0
220
0
230
1
0
LINE
5
C9
100
AcDbEntity
8
1
62
256
6
ByLayer
370
18
48
1
60
0
100
AcDbLine
10
14.604571
20
8.621575
30
0
11
14.770909
21
8.787913
31
0
39
0
210
0
220
0
230
1
0
LINE
5
CA
100
AcDbEntity
8
1
62
256
6
ByLayer
370
18
48
1
60
0
100
AcDbLine
10
14.961481
20
10.942923
30
0
11
15.127819
21
11.109262
31
0
39
0
210
0
220
0
230
1
0
LINE
5
CB
100
AcDbEntity
8
1
62
256
6
ByLayer
370
18
48
1
60
0
100
AcDbLine
10
15.454307
20
9.67189
30
0
11
15.620646
21
9.838228
31
0
39
0
210
0
220
0
230
1
0
LINE
5
CC
100
AcDbEntity
8
1
62
256
6
ByLayer
370
18
48
1
60
0
100
AcDbLine
10
31.366695
20
24.422336
30
0
11
20.192631
21
23.50534
31
0
39
0
210
0
220
0
230
1
0
LINE
5
CD
100
AcDbEntity
8
1
62
256
6
ByLayer
370
18
48
1
60
0
100
AcDbLine
10
31.30988
20
12.388091
30
0
11
32.226876
21
23.562156
31
0
39
0
210
0
220
0
230
1
0
MTEXT
5
137
100
AcDbEntity
8
SK6
62
256
6
ByLayer
370
18
48
1
60
0
100
AcDbMText
10
-67.57046
20
-26.807675
30
0
210
0
220
0
230
1
1
\W0.7470;DCLNR 3232P 12
40
3.5
41
0
44
1.084337
50
0
71
7
72
5
7
iso_b_vert
0
DIMENSION
5
148
100
AcDbEntity
8
2
62
256
6
ByLayer
370
13
48
1
60
0
100
AcDbDimension
2
DimnDraft3D1
10
30.37422
20
24.340551
30
0
11
13.543128
21
41.708542
31
0
70
34
71
5
72
1
41
1
210
0
220
0
230
1
3
Standard
100
AcDb2LineAngularDimension
13
32.22954
23
24.425
33
0
14
32.22954
24
22.8375
34
0
15
31.370869
25
24.422341
35
0
16
16.852678
26
38.659464
36
0
40
0
0
DIMENSION
5
15E
100
AcDbEntity
8
SK2
62
256
6
ByLayer
370
13
48
1
60
0
100
AcDbDimension
2
DimnDraft3D2
10
-146.87046
20
15.925
30
0
11
-146.87046
21
-5.281579
31
0
70
32
71
5
72
1
41
1
210
0
220
0
230
1
3
Standard
100
AcDbAlignedDimension
13
-141.12046
23
-15.925
33
0
14
-141.12046
24
15.925
34
0
50
90
100
AcDbRotatedDimension
1001
ACAD
1000
DSTYLE
1002
{
1070
    74
1070
     0
1070
   279
1070
     0
1070
   172
1070
     1
1070
   173
1070
     1
1070
   340
1005
138
1070
    77
1070
     1
1070
    73
1070
     0
1070
   171
1070
     3
1070
   274
1070
     4
1070
   177
1070
     2
1070
   176
1070
     2
1070
   178
1070
     7
1070
    78
1070
     8
1070
    41
1041
3.175
1070
   147
1041
2.25
1070
    42
1041
2.0
1070
    44
1041
2.0
1070
   140
1041
4.5
1070
   343
1005
149
1070
   344
1005
149
1002
}
0
DIMENSION
5
16C
100
AcDbEntity
8
2
62
256
6
ByLayer
370
13
48
1
60
0
100
AcDbDimension
2
DimnDraft3D3
10
54.47954
20
24.425
30
0
11
54.47954
21
-1.268421
31
0
70
32
71
5
72
1
41
1
210
0
220
0
230
1
3
Standard
100
AcDbAlignedDimension
13
2
23
-15.925
33
0
14
34.22954
24
24.425
34
0
50
90
100
AcDbRotatedDimension
1001
ACAD
1000
DSTYLE
1002
{
1070
    74
1070
     0
1070
   279
1070
     0
1070
   172
1070
     1
1070
   173
1070
     1
1070
   340
1005
138
1070
    77
1070
     1
1070
    73
1070
     0
1070
   171
1070
     3
1070
   274
1070
     4
1070
   177
1070
     2
1070
   176
1070
     2
1070
   178
1070
     7
1070
    78
1070
     8
1070
    41
1041
3.175
1070
   147
1041
2.25
1070
    42
1041
2.0
1070
    44
1041
2.0
1070
   140
1041
4.5
1070
   343
1005
149
1070
   344
1005
149
1002
}
0
DIMENSION
5
17A
100
AcDbEntity
8
2
62
256
6
ByLayer
370
13
48
1
60
0
100
AcDbDimension
2
DimnDraft3D4
10
32.22954
20
54.175
30
0
11
10.833191
21
54.175
31
0
70
32
71
5
72
1
41
1
210
0
220
0
230
1
3
Standard
100
AcDbAlignedDimension
13
0
23
17.925
33
0
14
32.22954
24
26.425
34
0
50
0
100
AcDbRotatedDimension
1001
ACAD
1000
DSTYLE
1002
{
1070
   279
1070
     0
1070
   172
1070
     1
1070
   173
1070
     1
1070
   340
1005
138
1070
    77
1070
     1
1070
    73
1070
     0
1070
   171
1070
     3
1070
   274
1070
     4
1070
   177
1070
     2
1070
   176
1070
     2
1070
   178
1070
     7
1070
    78
1070
     8
1070
    41
1041
3.175
1070
   147
1041
2.25
1070
    42
1041
2.0
1070
    44
1041
2.0
1070
   140
1041
4.5
1070
   343
1005
149
1070
   344
1005
149
1002
}
0
DIMENSION
5
188
100
AcDbEntity
8
SK2
62
256
6
ByLayer
370
13
48
1
60
0
100
AcDbDimension
2
DimnDraft3D5
10
-139.12046
20
64.175
30
0
11
-59.846118
21
64.175
31
0
70
32
71
5
72
1
41
1
210
0
220
0
230
1
3
Standard
100
AcDbAlignedDimension
13
32.22954
23
26.425
33
0
14
-139.12046
24
17.925
34
0
50
0
100
AcDbRotatedDimension
1001
ACAD
1000
DSTYLE
1002
{
1070
   279
1070
     0
1070
   172
1070
     1
1070
   173
1070
     1
1070
   340
1005
138
1070
    77
1070
     1
1070
    73
1070
     0
1070
   171
1070
     3
1070
   274
1070
     4
1070
   177
1070
     2
1070
   176
1070
     2
1070
   178
1070
     7
1070
    78
1070
     8
1070
    41
1041
3.175
1070
   147
1041
2.25
1070
    42
1041
2.0
1070
    44
1041
2.0
1070
   140
1041
4.5
1070
   343
1005
149
1070
   344
1005
149
1002
}
0
ENDSEC
0
SECTION
2
OBJECTS
0
DICTIONARY
5
1f2
330
0
100
AcDbDictionary
280
0
281
1
3
ACAD_GROUP
350
1f3
3
ACAD_MLINESTYLE
350
1f4
0
DICTIONARY
5
1f3
330
0
100
AcDbDictionary
280
0
281
1
0
DICTIONARY
5
1f4
330
0
100
AcDbDictionary
280
0
281
1
3
Standard
350
18
0
MLINESTYLE
5
18
330
1f4
100
AcDbMlineStyle
2
Standard
70
0
3

62
256
51
90
52
90
71
2
49
-0.5
62
256
6
ByLayer
49
0.5
62
256
6
ByLayer
0
RASTERVARIABLES
5
1e1
330

100
AcDbRasterVariables
90
0
70
1
71
1
72
1
0
ENDSEC
0
EOF
