0
SECTION
2
HEADER
9
$ACADVER
1
AC1015
9
$DWGCODEPAGE
3
ANSI_1252
9
$HANDSEED
5
1ff
9
$ANGBASE
50
0
9
$ANGDIR
70
0
9
$ATTMODE
70
1
9
$AUNITS
70
0
9
$AUPREC
70
0
9
$CECOLOR
62
256
9
$CELTSCALE
40
1
9
$CELTYPE
6
ByLayer
9
$CELWEIGHT
370
18
9
$CLAYER
8
0
9
$CMLJUST
70
0
9
$CMLSCALE
40
1
9
$CMLSTYLE
2
Standard
9
$DIMSTYLE
2
Standard
9
$TEXTSIZE
40
0.2
9
$TEXTSTYLE
7
Standard
9
$LUNITS
70
2
9
$LUPREC
70
4
9
$EXTNAMES
290
1
9
$INSUNITS
70
4
9
$LTSCALE
40
1
9
$LWDISPLAY
290
1
9
$PDMODE
70
0
9
$PDSIZE
40
0
9
$PLINEGEN
70
0
0
ENDSEC
0
SECTION
2
CLASSES
0
CLASS
1
RASTERVARIABLES
2
AcDbRasterVariables
3
ISM
90
0
280
0
281
0
0
ENDSEC
0
SECTION
2
TABLES
0
TABLE
2
VPORT
5
1f5
100
AcDbSymbolTable
0
VPORT
5
1
100
AcDbSymbolTableRecord
100
AcDbViewportTableRecord
2
*Active
70
0
10
0
20
0
11
1
21
1
12
-1
22
1
13
0
23
0
14
0.5
24
0.5
15
10
25
10
16
0
26
0
36
1
17
0
27
0
37
0
0
ENDTAB
0
TABLE
2
LTYPE
5
1f6
100
AcDbSymbolTable
0
LTYPE
5
14
100
AcDbSymbolTableRecord
100
AcDbLinetypeTableRecord
70
0
2
ByBlock
3

72
65
73
0
40
0
0
LTYPE
5
15
100
AcDbSymbolTableRecord
100
AcDbLinetypeTableRecord
70
0
2
ByLayer
3

72
65
73
0
40
0
0
LTYPE
5
16
100
AcDbSymbolTableRecord
100
AcDbLinetypeTableRecord
70
0
2
CONTINUOUS
3
Solid line
72
65
73
0
40
0
0
LTYPE
5
6A
100
AcDbSymbolTableRecord
100
AcDbLinetypeTableRecord
70
0
2
CENTER
3
____ _ ____ _ ____ _ ____
72
65
73
4
40
47.5
49
22
74
0
49
-8.5
74
0
49
8.5
74
0
49
-8.5
74
0
0
LTYPE
5
6B
100
AcDbSymbolTableRecord
100
AcDbLinetypeTableRecord
70
0
2
DASHED
3
__ __ __ __ __ __ __ __ __
72
65
73
2
40
25.72
49
12.86
74
0
49
-12.86
74
0
0
ENDTAB
0
TABLE
2
LAYER
5
1f7
100
AcDbSymbolTable
0
LAYER
5
10
100
AcDbSymbolTableRecord
100
AcDbLayerTableRecord
2
0
70
0
62
7
6
CONTINUOUS
290
1
370
-3
390
0
0
LAYER
5
6D
100
AcDbSymbolTableRecord
100
AcDbLayerTableRecord
2
2
70
0
62
7
6
CONTINUOUS
290
1
370
-3
390
0
0
LAYER
5
6F
100
AcDbSymbolTableRecord
100
AcDbLayerTableRecord
2
80
70
0
62
-6
6
CONTINUOUS
290
1
370
-3
390
0
0
LAYER
5
71
100
AcDbSymbolTableRecord
100
AcDbLayerTableRecord
2
81
70
0
62
-3
6
CONTINUOUS
290
1
370
-3
390
0
0
LAYER
5
73
100
AcDbSymbolTableRecord
100
AcDbLayerTableRecord
2
1
70
0
62
4
6
CONTINUOUS
290
1
370
-3
390
0
0
LAYER
5
1e2
100
AcDbSymbolTableRecord
100
AcDbLayerTableRecord
2
SK1
70
0
62
4
6
CONTINUOUS
290
1
370
-3
390
0
0
LAYER
5
1e3
100
AcDbSymbolTableRecord
100
AcDbLayerTableRecord
2
SK6
70
0
62
5
6
CONTINUOUS
290
1
370
-3
390
0
0
LAYER
5
1e4
100
AcDbSymbolTableRecord
100
AcDbLayerTableRecord
2
SK2
70
0
62
7
6
CONTINUOUS
290
1
370
-3
390
0
0
ENDTAB
0
TABLE
2
STYLE
5
1f8
100
AcDbSymbolTable
0
STYLE
5
11
100
AcDbSymbolTableRecord
100
AcDbTextStyleTableRecord
2
Standard
3
txt
70
0
71
0
40
0
41
1
42
0
50
0
0
STYLE
5
138
100
AcDbSymbolTableRecord
100
AcDbTextStyleTableRecord
2
iso_b_vert
3
simplex.shx
70
0
71
0
40
0
41
1
42
0
50
0
0
STYLE
5
139
100
AcDbSymbolTableRecord
100
AcDbTextStyleTableRecord
2
DWGDirectTextStyle
3
simplex
70
0
71
0
40
0
41
1
42
0
50
0
0
ENDTAB
0
TABLE
2
DIMSTYLE
5
1f9
100
AcDbSymbolTable
100
AcDbDimStyleTable
0
DIMSTYLE
105
27
100
AcDbSymbolTableRecord
100
AcDbDimStyleTableRecord
2
Standard
70
0
3
<>
41
0.18
42
0.0625
44
0.18
140
0.18
147
0.09
73
0
74
0
77
1
271
2
275
0
278
52
280
0
340
11
0
ENDTAB
0
TABLE
2
VIEW
5
1fa
100
AcDbSymbolTable
0
ENDTAB
0
TABLE
2
UCS
5
1fb
100
AcDbSymbolTable
0
ENDTAB
0
TABLE
2
APPID
5
1fc
100
AcDbSymbolTable
0
APPID
5
12
100
AcDbSymbolTableRecord
100
AcDbRegAppTableRecord
2
ACAD
70
0
0
ENDTAB
0
TABLE
2
BLOCK_RECORD
5
1fd
100
AcDbSymbolTable
0
BLOCK_RECORD
5
1F
100
AcDbSymbolTableRecord
100
AcDbBlockTableRecord
2
*Model_Space
340
0
70
0
0
BLOCK_RECORD
5
1B
100
AcDbSymbolTableRecord
100
AcDbBlockTableRecord
2
*Paper_Space
340
0
70
0
0
BLOCK_RECORD
5
23
100
AcDbSymbolTableRecord
100
AcDbBlockTableRecord
2
*Paper_Space0
340
0
70
0
0
BLOCK_RECORD
5
13B
100
AcDbSymbolTableRecord
100
AcDbBlockTableRecord
2
DimnDraft3D1
340
0
70
0
0
BLOCK_RECORD
5
149
100
AcDbSymbolTableRecord
100
AcDbBlockTableRecord
2
_CLOSED
340
0
70
0
0
BLOCK_RECORD
5
150
100
AcDbSymbolTableRecord
100
AcDbBlockTableRecord
2
DimnDraft3D2
340
0
70
0
0
BLOCK_RECORD
5
15F
100
AcDbSymbolTableRecord
100
AcDbBlockTableRecord
2
DimnDraft3D3
340
0
70
0
0
BLOCK_RECORD
5
16D
100
AcDbSymbolTableRecord
100
AcDbBlockTableRecord
2
DimnDraft3D4
340
0
70
0
0
BLOCK_RECORD
5
17B
100
AcDbSymbolTableRecord
100
AcDbBlockTableRecord
2
DimnDraft3D5
340
0
70
0
0
ENDTAB
0
ENDSEC
0
SECTION
2
BLOCKS
0
BLOCK
5
20
100
AcDbEntity
8
0
100
AcDbBlockBegin
2
*Model_Space
70
0
10
0
20
0
30
0
3
*Model_Space
0
ENDBLK
5
21
100
AcDbEntity
8
0
100
AcDbBlockEnd
0
BLOCK
5
1C
100
AcDbEntity
8
0
100
AcDbBlockBegin
2
*Paper_Space
70
0
10
0
20
0
30
0
3
*Paper_Space
0
ENDBLK
5
1D
100
AcDbEntity
8
0
100
AcDbBlockEnd
0
BLOCK
5
24
100
AcDbEntity
8
0
100
AcDbBlockBegin
2
*Paper_Space0
70
0
10
0
20
0
30
0
3
*Paper_Space0
0
ENDBLK
5
25
100
AcDbEntity
8
0
100
AcDbBlockEnd
0
BLOCK
5
146
100
AcDbEntity
8
0
100
AcDbBlockBegin
2
DimnDraft3D1
70
0
10
0
20
0
30
0
3
DimnDraft3D1
0
MTEXT
5
13C
100
AcDbEntity
8
2
62
256
6
ByLayer
370
18
48
1
60
0
100
AcDbMText
10
14.047401
20
32.762381
30
0
210
0
220
0
230
1
1
\W0.7399;95%%d
40
4.5
41
0
44
1.084337
50
47.3457231599999
71
7
72
5
7
iso_b_vert
0
LINE
5
13D
100
AcDbEntity
8
2
62
256
6
ByLayer
370
13
48
1
60
0
100
AcDbLine
10
32.22954
20
21.9125
30
0
11
32.22954
21
42.88825
31
0
39
0
210
0
220
0
230
1
0
LINE
5
13E
100
AcDbEntity
8
2
62
256
6
ByLayer
370
13
48
1
60
0
100
AcDbLine
10
28.38092
20
19.664471
30
0
11
9.398348
21
18.106673
31
0
39
0
210
0
220
0
230
1
0
ARC
5
13F
100
AcDbEntity
8
2
62
256
6
ByLayer
370
13
48
1
60
0
100
AcDbCircle
39
0
10
32.22954
20
19.980307
30
0
40
20.9079424705682
210
0
220
0
230
1
100
AcDbArc
50
90
51
184.691446
0
LINE
5
140
100
AcDbEntity
8
2
62
256
6
ByLayer
370
13
48
1
60
0
100
AcDbLine
10
32.22954
20
40.88825
30
0
11
29.072655
21
40.350277
31
0
39
0
210
0
220
0
230
1
0
LINE
5
141
100
AcDbEntity
8
2
62
256
6
ByLayer
370
13
48
1
60
0
100
AcDbLine
10
32.22954
20
40.88825
30
0
11
29.040983
21
41.18567
31
0
39
0
210
0
220
0
230
1
0
LINE
5
142
100
AcDbEntity
8
2
62
256
6
ByLayer
370
13
48
1
60
0
100
AcDbLine
10
29.072655
20
40.350277
30
0
11
29.040983
21
41.18567
31
0
39
0
210
0
220
0
230
1
0
LINE
5
143
100
AcDbEntity
8
2
62
256
6
ByLayer
370
13
48
1
60
0
100
AcDbLine
10
11.391647
20
18.270252
30
0
11
10.834432
21
21.423798
31
0
39
0
210
0
220
0
230
1
0
LINE
5
144
100
AcDbEntity
8
2
62
256
6
ByLayer
370
13
48
1
60
0
100
AcDbLine
10
11.391647
20
18.270252
30
0
11
11.669617
21
21.460564
31
0
39
0
210
0
220
0
230
1
0
LINE
5
145
100
AcDbEntity
8
2
62
256
6
ByLayer
370
13
48
1
60
0
100
AcDbLine
10
10.834432
20
21.423798
30
0
11
11.669617
21
21.460564
31
0
39
0
210
0
220
0
230
1
0
ENDBLK
5
147
100
AcDbEntity
8
0
100
AcDbBlockEnd
0
BLOCK
5
14A
100
AcDbEntity
8
0
100
AcDbBlockBegin
2
_CLOSED
70
0
10
0
20
0
30
0
3
_CLOSED
0
LINE
5
14C
100
AcDbEntity
8
0
62
256
6
ByLayer
370
-2
48
1
60
0
100
AcDbLine
10
-1
20
0.166667
30
0
11
0
21
0
31
0
39
0
210
0
220
0
230
1
0
LINE
5
14D
100
AcDbEntity
8
0
62
256
6
ByLayer
370
-2
48
1
60
0
100
AcDbLine
10
0
20
0
30
0
11
-1
21
-0.166667
31
0
39
0
210
0
220
0
230
1
0
LINE
5
14E
100
AcDbEntity
8
0
62
256
6
ByLayer
370
-2
48
1
60
0
100
AcDbLine
10
-1
20
0.166667
30
0
11
-1
21
-0.166667
31
0
39
0
210
0
220
0
230
1
0
LINE
5
14F
100
AcDbEntity
8
0
62
256
6
ByLayer
370
-2
48
1
60
0
100
AcDbLine
10
0
20
0
30
0
11
-1
21
0
31
0
39
0
210
0
220
0
230
1
0
ENDBLK
5
14B
100
AcDbEntity
8
0
100
AcDbBlockEnd
0
BLOCK
5
15C
100
AcDbEntity
8
0
100
AcDbBlockBegin
2
DimnDraft3D2
70
0
10
0
20
0
30
0
3
DimnDraft3D2
0
MTEXT
5
151
100
AcDbEntity
8
SK2
62
256
6
ByLayer
370
18
48
1
60
0
100
AcDbMText
10
-147.99546
20
-4.156579
30
0
210
0
220
0
230
1
1
\W0.7346;25.0
40
4.5
41
0
44
1.084337
50
90
71
7
72
5
7
iso_b_vert
0
LINE
5
153
100
AcDbEntity
8
SK2
62
256
6
ByLayer
370
13
48
1
60
0
100
AcDbLine
10
-141.12046
20
-12.4375
30
0
11
-148.87046
21
-12.4375
31
0
39
0
210
0
220
0
230
1
0
LINE
5
154
100
AcDbEntity
8
SK2
62
256
6
ByLayer
370
13
48
1
60
0
100
AcDbLine
10
-141.12046
20
12.4375
30
0
11
-148.87046
21
12.4375
31
0
39
0
210
0
220
0
230
1
0
LINE
5
155
100
AcDbEntity
8
SK2
62
256
6
ByLayer
370
13
48
1
60
0
100
AcDbLine
10
-146.87046
20
-12.4375
30
0
11
-146.87046
21
12.4375
31
0
39
0
210
0
220
0
230
1
0
LINE
5
156
100
AcDbEntity
8
SK2
62
256
6
ByLayer
370
13
48
1
60
0
100
AcDbLine
10
-146.87046
20
-12.4375
30
0
11
-147.288457
21
-9.262502
31
0
39
0
210
0
220
0
230
1
0
LINE
5
157
100
AcDbEntity
8
SK2
62
256
6
ByLayer
370
13
48
1
60
0
100
AcDbLine
10
-146.87046
20
-12.4375
30
0
11
-146.452464
21
-9.262498
31
0
39
0
210
0
220
0
230
1
0
LINE
5
158
100
AcDbEntity
8
SK2
62
256
6
ByLayer
370
13
48
1
60
0
100
AcDbLine
10
-147.288457
20
-9.262502
30
0
11
-146.452464
21
-9.262498
31
0
39
0
210
0
220
0
230
1
0
LINE
5
159
100
AcDbEntity
8
SK2
62
256
6
ByLayer
370
13
48
1
60
0
100
AcDbLine
10
-146.87046
20
12.4375
30
0
11
-146.452464
21
9.262502
31
0
39
0
210
0
220
0
230
1
0
LINE
5
15A
100
AcDbEntity
8
SK2
62
256
6
ByLayer
370
13
48
1
60
0
100
AcDbLine
10
-146.87046
20
12.4375
30
0
11
-147.288457
21
9.262498
31
0
39
0
210
0
220
0
230
1
0
LINE
5
15B
100
AcDbEntity
8
SK2
62
256
6
ByLayer
370
13
48
1
60
0
100
AcDbLine
10
-146.452464
20
9.262502
30
0
11
-147.288457
21
9.262498
31
0
39
0
210
0
220
0
230
1
0
ENDBLK
5
15D
100
AcDbEntity
8
0
100
AcDbBlockEnd
0
BLOCK
5
16A
100
AcDbEntity
8
0
100
AcDbBlockBegin
2
DimnDraft3D3
70
0
10
0
20
0
30
0
3
DimnDraft3D3
0
MTEXT
5
160
100
AcDbEntity
8
2
62
256
6
ByLayer
370
18
48
1
60
0
100
AcDbMText
10
53.35454
20
-0.419079
30
0
210
0
220
0
230
1
1
\W0.7346;32.0
40
4.5
41
0
44
1.084337
50
90
71
7
72
5
7
iso_b_vert
0
LINE
5
161
100
AcDbEntity
8
2
62
256
6
ByLayer
370
13
48
1
60
0
100
AcDbLine
10
2
20
-12.4375
30
0
11
56.47954
21
-12.4375
31
0
39
0
210
0
220
0
230
1
0
LINE
5
162
100
AcDbEntity
8
2
62
256
6
ByLayer
370
13
48
1
60
0
100
AcDbLine
10
34.22954
20
19.9125
30
0
11
56.47954
21
19.9125
31
0
39
0
210
0
220
0
230
1
0
LINE
5
163
100
AcDbEntity
8
2
62
256
6
ByLayer
370
13
48
1
60
0
100
AcDbLine
10
54.47954
20
-12.4375
30
0
11
54.47954
21
19.9125
31
0
39
0
210
0
220
0
230
1
0
LINE
5
164
100
AcDbEntity
8
2
62
256
6
ByLayer
370
13
48
1
60
0
100
AcDbLine
10
54.47954
20
-12.4375
30
0
11
54.061543
21
-9.262502
31
0
39
0
210
0
220
0
230
1
0
LINE
5
165
100
AcDbEntity
8
2
62
256
6
ByLayer
370
13
48
1
60
0
100
AcDbLine
10
54.47954
20
-12.4375
30
0
11
54.897536
21
-9.262498
31
0
39
0
210
0
220
0
230
1
0
LINE
5
166
100
AcDbEntity
8
2
62
256
6
ByLayer
370
13
48
1
60
0
100
AcDbLine
10
54.061543
20
-9.262502
30
0
11
54.897536
21
-9.262498
31
0
39
0
210
0
220
0
230
1
0
LINE
5
167
100
AcDbEntity
8
2
62
256
6
ByLayer
370
13
48
1
60
0
100
AcDbLine
10
54.47954
20
19.9125
30
0
11
54.897536
21
16.737502
31
0
39
0
210
0
220
0
230
1
0
LINE
5
168
100
AcDbEntity
8
2
62
256
6
ByLayer
370
13
48
1
60
0
100
AcDbLine
10
54.47954
20
19.9125
30
0
11
54.061543
21
16.737498
31
0
39
0
210
0
220
0
230
1
0
LINE
5
169
100
AcDbEntity
8
2
62
256
6
ByLayer
370
13
48
1
60
0
100
AcDbLine
10
54.897536
20
16.737502
30
0
11
54.061543
21
16.737498
31
0
39
0
210
0
220
0
230
1
0
ENDBLK
5
16B
100
AcDbEntity
8
0
100
AcDbBlockEnd
0
BLOCK
5
178
100
AcDbEntity
8
0
100
AcDbBlockBegin
2
DimnDraft3D4
70
0
10
0
20
0
30
0
3
DimnDraft3D4
0
MTEXT
5
16E
100
AcDbEntity
8
2
62
256
6
ByLayer
370
18
48
1
60
0
100
AcDbMText
10
11.958191
20
50.7875
30
0
210
0
220
0
230
1
1
\W0.7346;32.2
40
4.5
41
0
44
1.084337
50
0
71
7
72
5
7
iso_b_vert
0
LINE
5
16F
100
AcDbEntity
8
2
62
256
6
ByLayer
370
13
48
1
60
0
100
AcDbLine
10
0
20
14.4375
30
0
11
0
21
51.6625
31
0
39
0
210
0
220
0
230
1
0
LINE
5
170
100
AcDbEntity
8
2
62
256
6
ByLayer
370
13
48
1
60
0
100
AcDbLine
10
32.22954
20
21.9125
30
0
11
32.22954
21
51.6625
31
0
39
0
210
0
220
0
230
1
0
LINE
5
171
100
AcDbEntity
8
2
62
256
6
ByLayer
370
13
48
1
60
0
100
AcDbLine
10
0
20
49.6625
30
0
11
32.22954
21
49.6625
31
0
39
0
210
0
220
0
230
1
0
LINE
5
172
100
AcDbEntity
8
2
62
256
6
ByLayer
370
13
48
1
60
0
100
AcDbLine
10
0
20
49.6625
30
0
11
3.174998
21
50.080497
31
0
39
0
210
0
220
0
230
1
0
LINE
5
173
100
AcDbEntity
8
2
62
256
6
ByLayer
370
13
48
1
60
0
100
AcDbLine
10
0
20
49.6625
30
0
11
3.175002
21
49.244503
31
0
39
0
210
0
220
0
230
1
0
LINE
5
174
100
AcDbEntity
8
2
62
256
6
ByLayer
370
13
48
1
60
0
100
AcDbLine
10
3.174998
20
50.080497
30
0
11
3.175002
21
49.244503
31
0
39
0
210
0
220
0
230
1
0
LINE
5
175
100
AcDbEntity
8
2
62
256
6
ByLayer
370
13
48
1
60
0
100
AcDbLine
10
32.22954
20
49.6625
30
0
11
29.054541
21
49.244503
31
0
39
0
210
0
220
0
230
1
0
LINE
5
176
100
AcDbEntity
8
2
62
256
6
ByLayer
370
13
48
1
60
0
100
AcDbLine
10
32.22954
20
49.6625
30
0
11
29.054538
21
50.080497
31
0
39
0
210
0
220
0
230
1
0
LINE
5
177
100
AcDbEntity
8
2
62
256
6
ByLayer
370
13
48
1
60
0
100
AcDbLine
10
29.054541
20
49.244503
30
0
11
29.054538
21
50.080497
31
0
39
0
210
0
220
0
230
1
0
ENDBLK
5
179
100
AcDbEntity
8
0
100
AcDbBlockEnd
0
BLOCK
5
186
100
AcDbEntity
8
0
100
AcDbBlockBegin
2
DimnDraft3D5
70
0
10
0
20
0
30
0
3
DimnDraft3D5
0
MTEXT
5
17C
100
AcDbEntity
8
SK2
62
256
6
ByLayer
370
18
48
1
60
0
100
AcDbMText
10
-58.721118
20
60.7875
30
0
210
0
220
0
230
1
1
\W0.6864;170.0
40
4.5
41
0
44
1.084337
50
0
71
7
72
5
7
iso_b_vert
0
LINE
5
17D
100
AcDbEntity
8
SK2
62
256
6
ByLayer
370
13
48
1
60
0
100
AcDbLine
10
32.22954
20
21.9125
30
0
11
32.22954
21
61.6625
31
0
39
0
210
0
220
0
230
1
0
LINE
5
17E
100
AcDbEntity
8
SK2
62
256
6
ByLayer
370
13
48
1
60
0
100
AcDbLine
10
-139.12046
20
14.4375
30
0
11
-139.12046
21
61.6625
31
0
39
0
210
0
220
0
230
1
0
LINE
5
17F
100
AcDbEntity
8
SK2
62
256
6
ByLayer
370
13
48
1
60
0
100
AcDbLine
10
32.22954
20
59.6625
30
0
11
-139.12046
21
59.6625
31
0
39
0
210
0
220
0
230
1
0
LINE
5
180
100
AcDbEntity
8
SK2
62
256
6
ByLayer
370
13
48
1
60
0
100
AcDbLine
10
32.22954
20
59.6625
30
0
11
29.054541
21
59.244503
31
0
39
0
210
0
220
0
230
1
0
LINE
5
181
100
AcDbEntity
8
SK2
62
256
6
ByLayer
370
13
48
1
60
0
100
AcDbLine
10
32.22954
20
59.6625
30
0
11
29.054538
21
60.080497
31
0
39
0
210
0
220
0
230
1
0
LINE
5
182
100
AcDbEntity
8
SK2
62
256
6
ByLayer
370
13
48
1
60
0
100
AcDbLine
10
29.054541
20
59.244503
30
0
11
29.054538
21
60.080497
31
0
39
0
210
0
220
0
230
1
0
LINE
5
183
100
AcDbEntity
8
SK2
62
256
6
ByLayer
370
13
48
1
60
0
100
AcDbLine
10
-139.12046
20
59.6625
30
0
11
-135.945462
21
60.080497
31
0
39
0
210
0
220
0
230
1
0
LINE
5
184
100
AcDbEntity
8
SK2
62
256
6
ByLayer
370
13
48
1
60
0
100
AcDbLine
10
-139.12046
20
59.6625
30
0
11
-135.945459
21
59.244503
31
0
39
0
210
0
220
0
230
1
0
LINE
5
185
100
AcDbEntity
8
SK2
62
256
6
ByLayer
370
13
48
1
60
0
100
AcDbLine
10
-135.945462
20
60.080497
30
0
11
-135.945459
21
59.244503
31
0
39
0
210
0
220
0
230
1
0
ENDBLK
5
187
100
AcDbEntity
8
0
100
AcDbBlockEnd
0
ENDSEC
0
SECTION
2
ENTITIES
0
ELLIPSE
5
CE
100
AcDbEntity
8
1
62
256
6
ByLayer
370
18
48
1
60
0
100
AcDbEllipse
10
14.227323
20
4.136083
30
0
11
-0.268700576851502
21
0.268700576850274
31
0
210
0
220
0
230
1
40
0.989133
41
-2.82335423483986
42
-2.42225340979502
0
ELLIPSE
5
CF
100
AcDbEntity
8
1
62
256
6
ByLayer
370
18
48
1
60
0
100
AcDbEllipse
10
12.977626
20
5.913793
30
0
11
-0.268700576851502
21
0.268700576850274
31
0
210
0
220
0
230
1
40
0.989133
41
-1.0684050941936
42
-0.31825198007266
0
ELLIPSE
5
D0
100
AcDbEntity
8
1
62
256
6
ByLayer
370
18
48
1
60
0
100
AcDbEllipse
10
15.026492
20
4.078868
30
0
11
0.300520382004963
21
-0.300520382003603
31
0
210
0
220
0
230
1
40
0.989133
41
3.14158919864642
42
-2.422253409795
0
ELLIPSE
5
D1
100
AcDbEntity
8
1
62
256
6
ByLayer
370
18
48
1
60
0
100
AcDbEllipse
10
13.196996
20
6.681348
30
0
11
0.300520382004963
21
-0.300520382003603
31
0
210
0
220
0
230
1
40
0.989133
41
-1.06840509419362
42
-3.51676188576229E-06
0
ELLIPSE
5
D2
100
AcDbEntity
8
1
62
256
6
ByLayer
370
18
48
1
60
0
100
AcDbEllipse
10
15.245862
20
4.846424
30
0
11
-0.268700576851502
21
0.268700576850274
31
0
210
0
220
0
230
1
40
0.989133
41
-2.82331226018584
42
-1.37505585859845
0
ELLIPSE
5
D3
100
AcDbEntity
8
1
62
256
6
ByLayer
370
18
48
1
60
0
100
AcDbEllipse
10
13.996165
20
6.624134
30
0
11
-0.268700576851502
21
0.268700576850274
31
0
210
0
220
0
230
1
40
0.989133
41
-2.11560264539018
42
-0.318294813050675
0
ELLIPSE
5
D4
100
AcDbEntity
8
1
62
256
6
ByLayer
370
18
48
1
60
0
100
AcDbEllipse
10
15.687436
20
5.509417
30
0
11
0.300520382004963
21
-0.300520382003603
31
0
210
0
220
0
230
1
40
0.989133
41
-3.14157045834443
42
-1.37505585859837
0
ELLIPSE
5
D5
100
AcDbEntity
8
1
62
256
6
ByLayer
370
18
48
1
60
0
100
AcDbEllipse
10
14.028575
20
5.296939
30
0
11
2.82842712475259
21
-2.82842712473979
31
0
210
0
220
0
230
1
40
0.989133
41
3.14154186687325
42
-0.790861354621182
0
ELLIPSE
5
D6
100
AcDbEntity
8
1
62
256
6
ByLayer
370
18
48
1
60
0
100
AcDbEllipse
10
14.028575
20
5.296939
30
0
11
2.82842712475259
21
-2.82842712473979
31
0
210
0
220
0
230
1
40
0.989133
41
-0.790861354621173
42
-2.24484073350127E-16
0
ELLIPSE
5
D7
100
AcDbEntity
8
1
62
256
6
ByLayer
370
18
48
1
60
0
100
AcDbEllipse
10
15.130283
20
6.09045
30
0
11
-0.268700576851502
21
0.268700576850274
31
0
210
0
220
0
230
1
40
0.989133
41
-3.11070847430897
42
-0.32785830740178
0
ELLIPSE
5
D8
100
AcDbEntity
8
1
62
256
6
ByLayer
370
18
48
1
60
0
100
AcDbEllipse
10
14.111744
20
5.380108
30
0
11
0.81317279836637
21
-0.81317279836269
31
0
210
0
220
0
230
1
40
0.989133
41
-0.871548499668286
42
-0.790861769890211
0
ELLIPSE
5
D9
100
AcDbEntity
8
1
62
256
6
ByLayer
370
18
48
1
60
0
100
AcDbEllipse
10
14.111744
20
5.380108
30
0
11
0.81317279836637
21
-0.81317279836269
31
0
210
0
220
0
230
1
40
0.989133
41
-2.11748433396723
42
-1.45431416230867
0
ELLIPSE
5
DA
100
AcDbEntity
8
1
62
256
6
ByLayer
370
18
48
1
60
0
100
AcDbEllipse
10
14.111744
20
5.380108
30
0
11
0.81317279836637
21
-0.81317279836269
31
0
210
0
220
0
230
1
40
0.989133
41
0.0350958709234867
42
-2.63663229861767
0
ELLIPSE
5
DB
100
AcDbEntity
8
1
62
256
6
ByLayer
370
18
48
1
60
0
100
AcDbEllipse
10
14.111744
20
5.380108
30
0
11
0.81317279836637
21
-0.81317279836269
31
0
210
0
220
0
230
1
40
0.989133
41
-0.790860895639599
42
-0.118448983741295
0
ELLIPSE
5
DC
100
AcDbEntity
8
1
62
256
6
ByLayer
370
18
48
1
60
0
100
AcDbEllipse
10
14.059763
20
5.328127
30
0
11
0.81317279836637
21
-0.81317279836269
31
0
210
0
220
0
230
1
40
0.989133
41
0.0827105325832807
42
3.10924201807354
0
ELLIPSE
5
DD
100
AcDbEntity
8
1
62
256
6
ByLayer
370
18
48
1
60
0
100
AcDbEllipse
10
25.394289
20
13.077249
30
0
11
1.82433549546542
21
-1.82433549545716
31
0
210
0
220
0
230
1
40
0.989133
41
0.0601632530895621
42
2.72619714852581
0
ELLIPSE
5
DE
100
AcDbEntity
8
1
62
256
6
ByLayer
370
18
48
1
60
0
100
AcDbEllipse
10
30.027966
20
7.453857
30
0
11
0.561442784263389
21
-0.561442784260848
31
0
210
0
220
0
230
1
40
0.989133
41
-0.0842560729599343
42
-6.32268123155099E-08
0
ELLIPSE
5
DF
100
AcDbEntity
8
1
62
256
6
ByLayer
370
18
48
1
60
0
100
AcDbEllipse
10
19.770897
20
17.710926
30
0
11
0.561442784263389
21
-0.561442784260848
31
0
210
0
220
0
230
1
40
0.989133
41
3.14159259036299
42
-3.05733670707358
0
ELLIPSE
5
E0
100
AcDbEntity
8
1
62
256
6
ByLayer
370
18
48
1
60
0
100
AcDbEllipse
10
6.130451
20
6.612156
30
0
11
2.08176526554851
21
-2.16015123988015
31
0
210
0
220
0
230
1
40
0.986455
41
-0.156280282981035
42
-0.0604884076533481
0
ELLIPSE
5
E1
100
AcDbEntity
8
1
62
256
6
ByLayer
370
18
48
1
60
0
100
AcDbEllipse
10
14.609014
20
5.696545
30
0
11
-2.87977528400876
21
2.98820921516755
31
0
210
0
220
0
230
1
40
0.986455
41
-3.0893007431201
42
-0.156280282981025
0
ELLIPSE
5
E2
100
AcDbEntity
8
1
62
256
6
ByLayer
370
18
48
1
60
0
100
AcDbEllipse
10
12.884466
20
4.494995
30
0
11
-1.80419656347537
21
1.8721310745628
31
0
210
0
220
0
230
1
40
0.986455
41
1.31064721821957
42
1.5214284360983
0
ELLIPSE
5
E3
100
AcDbEntity
8
1
62
256
6
ByLayer
370
18
48
1
60
0
100
AcDbEllipse
10
7.769056
20
8.982862
30
0
11
-2.98777498567058
21
-1.83435464436928
31
0
210
0
220
0
230
1
40
0.346844
41
-0.094360451737542
42
0.628857654660127
0
ELLIPSE
5
E4
100
AcDbEntity
8
1
62
256
6
ByLayer
370
18
48
1
60
0
100
AcDbEllipse
10
6.356611
20
4.830883
30
0
11
-2.64176164512043
21
1.4254999369515
31
0
210
0
220
0
230
1
40
0.99535
41
0.0539942727748235
42
1.10568333584166
0
ELLIPSE
5
E5
100
AcDbEntity
8
1
62
256
6
ByLayer
370
18
48
1
60
0
100
AcDbEllipse
10
25.792013
20
13.44796
30
0
11
-0.701994003615573
21
2.17713231393324
31
0
210
0
220
0
230
1
40
0.799417
41
-2.21179764078791
42
-1.35658630730812
0
ELLIPSE
5
E6
100
AcDbEntity
8
1
62
256
6
ByLayer
370
18
48
1
60
0
100
AcDbEllipse
10
25.792013
20
13.44796
30
0
11
-1.96901555077038
21
1.05721853420063
31
0
210
0
220
0
230
1
40
0.792316
41
-1.97966637435073
42
-1.12445504087192
0
ELLIPSE
5
E7
100
AcDbEntity
8
1
62
256
6
ByLayer
370
18
48
1
60
0
100
AcDbEllipse
10
8.726256
20
6.849607
30
0
11
-4.14474739163294
21
-0.18999505008742
31
0
210
0
220
0
230
1
40
0.485394
41
-0.655408047112338
42
-0.295792313746086
0
ELLIPSE
5
E8
100
AcDbEntity
8
1
62
256
6
ByLayer
370
18
48
1
60
0
100
AcDbEllipse
10
10.033561
20
5.583618
30
0
11
4.49946397613839
21
3.16304029810448
31
0
210
0
220
0
230
1
40
0.02553
41
1.97217033322271
42
2.41393807250878
0
ELLIPSE
5
E9
100
AcDbEntity
8
1
62
256
6
ByLayer
370
18
48
1
60
0
100
AcDbEllipse
10
8.771265
20
7.379251
30
0
11
-4.6145735432724
21
-2.99901069923765
31
0
210
0
220
0
230
1
40
0.211917
41
0.56202030363513
42
0.615012607550824
0
ELLIPSE
5
EA
100
AcDbEntity
8
1
62
256
6
ByLayer
370
18
48
1
60
0
100
AcDbEllipse
10
15.434522
20
-1.921359
30
0
11
-2.73155517434356
21
-2.19821380473386
31
0
210
0
220
0
230
1
40
0.397671
41
-0.633132940017279
42
0.0900851663822857
0
ELLIPSE
5
EB
100
AcDbEntity
8
1
62
256
6
ByLayer
370
18
48
1
60
0
100
AcDbEllipse
10
6.729298
20
5.286238
30
0
11
0.210927185793125
21
-1.98884632948184
31
0
210
0
220
0
230
1
40
0.785865
41
-2.58712821171059
42
-1.17445271745099
0
ELLIPSE
5
EC
100
AcDbEntity
8
1
62
256
6
ByLayer
370
18
48
1
60
0
100
AcDbEllipse
10
11.185861
20
-2.038786
30
0
11
-2.64176164547048
21
1.42549993633215
31
0
210
0
220
0
230
1
40
0.99535
41
1.10568333560367
42
2.15737239866734
0
ELLIPSE
5
ED
100
AcDbEntity
8
1
62
256
6
ByLayer
370
18
48
1
60
0
100
AcDbEllipse
10
14.285396
20
-0.464666
30
0
11
-4.38100563017226
21
-3.33109067368349
31
0
210
0
220
0
230
1
40
0.262905
41
-0.617119572791895
42
-0.564127280434622
0
ELLIPSE
5
EE
100
AcDbEntity
8
1
62
256
6
ByLayer
370
18
48
1
60
0
100
AcDbEllipse
10
13.555506
20
-0.020062
30
0
11
-1.23592287958322
21
-4.14806483897206
31
0
210
0
220
0
230
1
40
0.51148
41
0.21157350366155
42
0.571189237028016
0
ELLIPSE
5
EF
100
AcDbEntity
8
1
62
256
6
ByLayer
370
18
48
1
60
0
100
AcDbEllipse
10
13.023097
20
1.330966
30
0
11
4.49946397613839
21
3.16304029810448
31
0
210
0
220
0
230
1
40
0.02553
41
1.97217033322271
42
2.4139380725088
0
ELLIPSE
5
F0
100
AcDbEntity
8
1
62
256
6
ByLayer
370
18
48
1
60
0
100
AcDbEllipse
10
9.249794
20
-6.859726
30
0
11
5.72659051508523
21
4.02568765213297
31
0
210
0
220
0
230
1
40
0.02553
41
-0.82335494052313
42
-0.808573903783159
0
ELLIPSE
5
F1
100
AcDbEntity
8
1
62
256
6
ByLayer
370
18
48
1
60
0
100
AcDbEllipse
10
11.566054
20
-1.594106
30
0
11
1.84475298056335
21
-0.772584261231505
31
0
210
0
220
0
230
1
40
0.769512
41
-2.03706734224384
42
-0.624391847984236
0
ELLIPSE
5
F2
100
AcDbEntity
8
1
62
256
6
ByLayer
370
18
48
1
60
0
100
AcDbEllipse
10
15.192831
20
4.245207
30
0
11
0.300520382004963
21
-0.300520382003603
31
0
210
0
220
0
230
1
40
0.989133
41
2.07318755939606
42
-2.42225340979512
0
ELLIPSE
5
F3
100
AcDbEntity
8
1
62
256
6
ByLayer
370
18
48
1
60
0
100
AcDbEllipse
10
14.393662
20
4.302421
30
0
11
-0.268700576851502
21
0.268700576850274
31
0
210
0
220
0
230
1
40
0.989133
41
1.02599000819956
42
-2.422253409795
0
ELLIPSE
5
F4
100
AcDbEntity
8
1
62
256
6
ByLayer
370
18
48
1
60
0
100
AcDbEllipse
10
14.201771
20
5.470135
30
0
11
-2.82842712475265
21
2.82842712473973
31
0
210
0
220
0
230
1
40
0.989133
41
0
42
6.28318530717959
0
ELLIPSE
5
F5
100
AcDbEntity
8
1
62
256
6
ByLayer
370
18
48
1
60
0
100
AcDbEllipse
10
15.412201
20
5.012763
30
0
11
-0.268700576851502
21
0.268700576850274
31
0
210
0
220
0
230
1
40
0.989133
41
2.07318755939614
42
-1.37505585859849
0
ELLIPSE
5
F6
100
AcDbEntity
8
1
62
256
6
ByLayer
370
18
48
1
60
0
100
AcDbEllipse
10
13.363335
20
6.847687
30
0
11
0.300520382004963
21
-0.300520382003603
31
0
210
0
220
0
230
1
40
0.989133
41
-1.06840509419366
42
0.719339243794727
0
ELLIPSE
5
F7
100
AcDbEntity
8
1
62
256
6
ByLayer
370
18
48
1
60
0
100
AcDbEllipse
10
12.702391
20
5.417138
30
0
11
0.300520382004963
21
-0.300520382003603
31
0
210
0
220
0
230
1
40
0.989133
41
-0.0212075429971356
42
1.76653679499126
0
ELLIPSE
5
F8
100
AcDbEntity
8
1
62
256
6
ByLayer
370
18
48
1
60
0
100
AcDbEllipse
10
14.939027
20
6.976996
30
0
11
0.300520382004963
21
-0.300520382003603
31
0
210
0
220
0
230
1
40
0.989133
41
-2.11560264539024
42
-0.327858307401975
0
ELLIPSE
5
F9
100
AcDbEntity
8
1
62
256
6
ByLayer
370
18
48
1
60
0
100
AcDbEllipse
10
13.143965
20
6.080131
30
0
11
-0.268700576851502
21
0.268700576850274
31
0
210
0
220
0
230
1
40
0.989133
41
-1.06840509419369
42
1.76653679499138
0
ELLIPSE
5
FA
100
AcDbEntity
8
1
62
256
6
ByLayer
370
18
48
1
60
0
100
AcDbEllipse
10
13.617139
20
4.115898
30
0
11
0.300520382004963
21
-0.300520382003603
31
0
210
0
220
0
230
1
40
0.989133
41
1.02599000819955
42
2.81373434618788
0
ELLIPSE
5
FB
100
AcDbEntity
8
1
62
256
6
ByLayer
370
18
48
1
60
0
100
AcDbEllipse
10
13.259544
20
4.836106
30
0
11
-0.268700576851502
21
0.268700576850274
31
0
210
0
220
0
230
1
40
0.989133
41
-0.0212075429970015
42
2.81373434618799
0
ELLIPSE
5
FC
100
AcDbEntity
8
1
62
256
6
ByLayer
370
18
48
1
60
0
100
AcDbEllipse
10
14.772688
20
6.810657
30
0
11
0.300520382004963
21
-0.300520382003603
31
0
210
0
220
0
230
1
40
0.989133
41
-2.11560264539024
42
-0.327858307401856
0
ELLIPSE
5
FD
100
AcDbEntity
8
1
62
256
6
ByLayer
370
18
48
1
60
0
100
AcDbEllipse
10
14.278083
20
5.546447
30
0
11
-1.62634559673278
21
1.62634559672534
31
0
210
0
220
0
230
1
40
0.989133
41
0
42
6.28318530717959
0
ELLIPSE
5
FE
100
AcDbEntity
8
1
62
256
6
ByLayer
370
18
48
1
60
0
100
AcDbEllipse
10
15.296622
20
6.256788
30
0
11
-0.268700576851502
21
0.268700576850274
31
0
210
0
220
0
230
1
40
0.989133
41
3.12038511059275
42
-0.327858307401791
0
ELLIPSE
5
FF
100
AcDbEntity
8
1
62
256
6
ByLayer
370
18
48
1
60
0
100
AcDbEllipse
10
14.162504
20
6.790472
30
0
11
-0.268700576851502
21
0.268700576850274
31
0
210
0
220
0
230
1
40
0.989133
41
-2.11560264539022
42
0.719339243794768
0
ELLIPSE
5
100
100
AcDbEntity
8
1
62
256
6
ByLayer
370
18
48
1
60
0
100
AcDbEllipse
10
15.853775
20
5.675756
30
0
11
0.300520382004963
21
-0.300520382003603
31
0
210
0
220
0
230
1
40
0.989133
41
3.12038511059279
42
-1.37505585859849
0
ELLIPSE
5
101
100
AcDbEntity
8
1
62
256
6
ByLayer
370
18
48
1
60
0
100
AcDbEllipse
10
13.761204
20
-9.486205
30
0
11
-0.681939391530087
21
-0.420996574531262
31
0
210
0
220
0
230
1
40
0.03414
41
1.42748616704734
42
2.99828249386752
0
ELLIPSE
5
102
100
AcDbEntity
8
1
62
256
6
ByLayer
370
18
48
1
60
0
100
AcDbEllipse
10
1.555472
20
7.8766
30
0
11
-0.618768166580133
21
1.85497269604899
31
0
210
0
220
0
230
1
40
0.304658
41
-0.649022127698262
42
0.921774199096438
0
ELLIPSE
5
103
100
AcDbEntity
8
1
62
256
6
ByLayer
370
18
48
1
60
0
100
AcDbEllipse
10
31.439819
20
19.122779
30
0
11
-0.561442784263401
21
0.561442784260836
31
0
210
0
220
0
230
1
40
0.989133
41
-2.44346095279204
42
-0.698131700797777
0
ELLIPSE
5
104
100
AcDbEntity
8
1
62
256
6
ByLayer
370
18
48
1
60
0
100
AcDbEllipse
10
20.265754
20
18.205783
30
0
11
-0.561442784263401
21
0.561442784260836
31
0
210
0
220
0
230
1
40
0.989133
41
-0.69813170079778
42
0.698131700797725
0
ELLIPSE
5
105
100
AcDbEntity
8
1
62
256
6
ByLayer
370
18
48
1
60
0
100
AcDbEllipse
10
30.522823
20
7.948714
30
0
11
-0.561442784263401
21
0.561442784260836
31
0
210
0
220
0
230
1
40
0.989133
41
2.44346095279203
42
-2.44346095279207
0
POINT
5
6C
100
AcDbEntity
8
2
62
256
6
ByLayer
370
18
48
1
60
0
100
AcDbPoint
10
32.22954
20
19.9125
30
0
39
0
210
0
220
0
230
1
50
360
0
POINT
5
6E
100
AcDbEntity
8
80
62
256
6
ByLayer
370
18
48
1
60
0
100
AcDbPoint
10
0
20
0
30
0
39
0
210
0
220
0
230
1
50
360
0
POINT
5
70
100
AcDbEntity
8
81
62
256
6
ByLayer
370
18
48
1
60
0
100
AcDbPoint
10
32.22954
20
19.9125
30
0
39
0
210
0
220
0
230
1
50
360
0
SPLINE
5
106
100
AcDbEntity
8
1
62
256
6
ByLayer
370
18
48
1
60
0
100
AcDbSpline
70
4
71
3
72
11
73
7
40
0
40
0
40
0
40
0
40
0.561302936805731
40
0.561302936805731
40
0.561302936805731
40
1
40
1
40
1
40
1
41
1
10
4.63959133985526
20
7.30915743164454
30
0
41
1
10
4.43657894397381
20
7.13688223458348
30
0
41
1
10
4.23383303257447
20
6.93853061651305
30
0
41
1
10
4.04686687008831
20
6.71031542946301
30
0
41
1
10
3.89955069887253
20
6.53049793135284
30
0
41
1
10
3.76078134114601
20
6.33016250197576
30
0
41
1
10
3.64212532582394
20
6.11239734052529
30
0
0
SPLINE
5
107
100
AcDbEntity
8
1
62
256
6
ByLayer
370
18
48
1
60
0
100
AcDbSpline
70
4
71
3
72
8
73
4
40
0
40
0
40
0
40
0
40
1
40
1
40
1
40
1
41
1
10
25.4707890968522
20
15.3413087563457
30
0
41
1
10
25.3855578510295
20
15.347561876181
30
0
41
1
10
25.3019949948894
20
15.3498904042928
30
0
41
1
10
25.2215529625371
20
15.3484096158297
30
0
0
SPLINE
5
108
100
AcDbEntity
8
1
62
256
6
ByLayer
370
18
48
1
60
0
100
AcDbSpline
70
4
71
3
72
10
73
6
40
0
40
0
40
0
40
0
40
0.5
40
0.5
40
1
40
1
40
1
40
1
41
1
10
24.5496005754075
20
10.1446325994334
30
0
41
1
10
24.9949685495234
20
9.94567205235899
30
0
41
1
10
25.4451707293471
20
9.81128477320704
30
0
41
1
10
26.3747398659941
20
9.9320809267972
30
0
41
1
10
26.854565735953
20
10.218331984531
30
0
41
1
10
27.209215509376
20
10.8659434422078
30
0
0
SPLINE
5
109
100
AcDbEntity
8
1
62
256
6
ByLayer
370
18
48
1
60
0
100
AcDbSpline
70
4
71
3
72
12
73
8
40
0
40
0
40
0
40
0
40
0.471343086678529
40
0.471343086678529
40
0.892619726108231
40
0.892619726108231
40
1
40
1
40
1
40
1
41
1
10
11.8324669274913
20
0.573030714530148
30
0
41
1
10
11.9944927852376
20
0.645889411034602
30
0
41
1
10
12.169179699299
20
0.70811930839858
30
0
41
1
10
12.5072143671611
20
0.789831402564232
30
0
41
1
10
12.6734119074092
20
0.813660216277924
30
0
41
1
10
12.8740824016666
20
0.82026679753983
30
0
41
1
10
12.9150072575531
20
0.820434622569508
30
0
41
1
10
12.955385723107
20
0.819421095807229
30
0
0
SPLINE
5
10A
100
AcDbEntity
8
1
62
256
6
ByLayer
370
18
48
1
60
0
100
AcDbSpline
70
4
71
3
72
8
73
4
40
0
40
0
40
0
40
0
40
1
40
1
40
1
40
1
41
1
10
8.76120869007178
20
4.94193357326665
30
0
41
1
10
8.58591243807888
20
4.75560698598483
30
0
41
1
10
8.39760760565076
20
4.59477473874506
30
0
41
1
10
8.20135896110622
20
4.45361386803714
30
0
0
SPLINE
5
10B
100
AcDbEntity
8
1
62
256
6
ByLayer
370
18
48
1
60
0
100
AcDbSpline
70
4
71
2
72
6
73
3
40
0
40
0
40
0
40
1
40
1
40
1
41
1.02805999725224
10
18.9101368358172
20
1.26963856242005
30
0
41
1.02805999725224
10
19.0779793839403
20
0.657324696468944
30
0
41
1.02805999725224
10
19.2458219320634
20
0.0450108305178651
30
0
0
SPLINE
5
10C
100
AcDbEntity
8
1
62
256
6
ByLayer
370
18
48
1
60
0
100
AcDbSpline
70
4
71
3
72
12
73
8
40
0
40
0
40
0
40
0
40
0.10885400284168
40
0.502629245107339
40
0.699516866240168
40
0.896404487372997
40
1
40
1
40
1
40
1
41
1.0244126255267
10
17.6334127550583
20
9.35166278841696
30
0
41
1.02394775696077
10
17.9270061969647
20
9.52133172779375
30
0
41
1.02173322391444
10
19.3201829646299
20
10.3180728688571
30
0
41
1.01876555595691
10
21.3013176445664
20
11.396812299872
30
0
41
1.01610930227499
10
22.6428882251904
20
12.0926292358598
30
0
41
1.01814069306376
10
23.2101968842734
20
12.4896364268238
30
0
41
1.0200519600697
10
23.7264512719237
20
12.8260129800287
30
0
41
1.02076673234771
10
23.9165019480947
20
12.9469151660888
30
0
0
SPLINE
5
10D
100
AcDbEntity
8
1
62
256
6
ByLayer
370
18
48
1
60
0
100
AcDbSpline
70
4
71
3
72
10
73
6
40
0
40
0
40
0
40
0
40
0.5
40
0.5
40
1
40
1
40
1
40
1
41
1
10
10.9695518628277
20
11.8181074476031
30
0
41
1
10
12.069104060173
20
12.5695561872706
30
0
41
1
10
13.2571049923434
20
13.1285279963307
30
0
41
1
10
15.6960132502939
20
14.1095784233673
30
0
41
1
10
16.9740625678901
20
14.4892606172335
30
0
41
1
10
18.2705672554872
20
14.763753941966
30
0
0
SPLINE
5
10E
100
AcDbEntity
8
1
62
256
6
ByLayer
370
18
48
1
60
0
100
AcDbSpline
70
4
71
3
72
10
73
6
40
0
40
0
40
0
40
0
40
0.5
40
0.5
40
1
40
1
40
1
40
1
41
1
10
12.7926864143815
20
-4.20838269088028
30
0
41
1
10
12.3590147407787
20
-4.25540028106931
30
0
41
1
10
12.0036946659208
20
-4.14698062906146
30
0
41
1
10
11.1098382152079
20
-3.67290672075006
30
0
41
1
10
10.5557819093217
20
-3.23622270112884
30
0
41
1
10
10.1149531180167
20
-2.66378678335519
30
0
0
SPLINE
5
10F
100
AcDbEntity
8
1
62
256
6
ByLayer
370
18
48
1
60
0
100
AcDbSpline
70
4
71
3
72
8
73
4
40
0
40
0
40
0
40
0
40
1
40
1
40
1
40
1
41
1
10
18.0082662006275
20
3.17344357081166
30
0
41
1
10
17.8129141982777
20
2.96732542671452
30
0
41
1
10
17.5943489098004
20
2.77701256472128
30
0
41
1
10
17.3595782569198
20
2.61328064938741
30
0
0
SPLINE
5
110
100
AcDbEntity
8
1
62
256
6
ByLayer
370
18
48
1
60
0
100
AcDbSpline
70
4
71
3
72
8
73
4
40
0
40
0
40
0
40
0
40
1
40
1
40
1
40
1
41
1
10
10.2056806522143
20
-2.51480678366926
30
0
41
1
10
10.656893101407
20
-1.80441806057308
30
0
41
1
10
11.2399488753272
20
-0.662743836556785
30
0
41
1
10
11.8324669274913
20
0.573030714530148
30
0
0
SPLINE
5
111
100
AcDbEntity
8
1
62
256
6
ByLayer
370
18
48
1
60
0
100
AcDbSpline
70
4
71
3
72
15
73
11
40
0
40
0
40
0
40
0
40
0.227604479949748
40
0.227604479949748
40
0.479423709218441
40
0.479423709218441
40
0.785574270382839
40
0.785574270382839
40
0.785574270382839
40
1
40
1
40
1
40
1
41
1
10
19.0205614696433
20
7.37842683024846
30
0
41
1
10
19.1309275018832
20
7.05534435130343
30
0
41
1
10
19.1942837308769
20
6.71009339075505
30
0
41
1
10
19.2295009154058
20
5.9877314330451
30
0
41
1
10
19.1922539359927
20
5.60272106971053
30
0
41
1
10
19.0043782231049
20
4.78448815490285
30
0
41
1
10
18.8288093030921
20
4.3468160126821
30
0
41
1
10
18.5939836318064
20
3.95064983901267
30
0
41
1
10
18.4285003048576
20
3.67146870824237
30
0
41
1
10
18.2312716785701
20
3.40893940335056
30
0
41
1
10
18.0082662064708
20
3.17344357697692
30
0
0
SPLINE
5
112
100
AcDbEntity
8
1
62
256
6
ByLayer
370
18
48
1
60
0
100
AcDbSpline
70
4
71
3
72
8
73
4
40
0
40
0
40
0
40
0
40
1
40
1
40
1
40
1
41
1
10
26.1457404927942
20
7.81826340392493
30
0
41
1
10
26.0719941407155
20
7.74438585227074
30
0
41
1
10
25.9966739953444
20
7.67222999216042
30
0
41
1
10
25.9197126853008
20
7.60203494228139
30
0
0
SPLINE
5
113
100
AcDbEntity
8
1
62
256
6
ByLayer
370
18
48
1
60
0
100
AcDbSpline
70
4
71
3
72
10
73
6
40
0
40
0
40
0
40
0
40
0.264715639145577
40
0.264715639145577
40
1
40
1
40
1
40
1
41
1
10
25.1614891919704
20
13.0370082142706
30
0
41
1
10
25.1126524696854
20
12.9432277691705
30
0
41
1
10
25.0644435628106
20
12.8481774906506
30
0
41
1
10
24.8844815988405
20
12.4851500371603
30
0
41
1
10
24.7563822583458
20
12.2100776746765
30
0
41
1
10
24.6318489090375
20
11.9293252596199
30
0
0
SPLINE
5
114
100
AcDbEntity
8
1
62
256
6
ByLayer
370
18
48
1
60
0
100
AcDbSpline
70
4
71
3
72
8
73
4
40
0
40
0
40
0
40
0
40
1
40
1
40
1
40
1
41
1
10
13.3365089519415
20
9.81907607252944
30
0
41
1
10
13.0710581275993
20
9.70295006578988
30
0
41
1
10
12.8211995863467
20
9.56393018224165
30
0
41
1
10
12.5878187834334
20
9.40116756521817
30
0
0
SPLINE
5
115
100
AcDbEntity
8
1
62
256
6
ByLayer
370
18
48
1
60
0
100
AcDbSpline
70
4
71
3
72
8
73
4
40
0
40
0
40
0
40
0
40
1
40
1
40
1
40
1
41
1.02417048357497
10
22.6939300353268
20
15.6580816563442
30
0
41
1.02233815524058
10
21.9692840028015
20
15.6667173390945
30
0
41
1.02059845272928
10
21.2570728983701
20
15.6304838031521
30
0
41
1.01923193651505
10
20.6869169368242
20
15.5835866516668
30
0
0
SPLINE
5
116
100
AcDbEntity
8
1
62
256
6
ByLayer
370
18
48
1
60
0
100
AcDbSpline
70
4
71
3
72
12
73
8
40
0
40
0
40
0
40
0
40
0.108853988607133
40
0.502629237162305
40
0.699516861439891
40
0.896404485717477
40
1
40
1
40
1
40
1
41
1.02441262532206
10
19.0205614696434
20
7.37842683024852
30
0
41
1.02394775682001
10
19.2824228955292
20
7.59323487298489
30
0
41
1.02173322384668
10
20.5181835400786
20
8.61390231018321
30
0
41
1.01876555595691
10
22.2332359657587
20
10.0711469527043
30
0
41
1.01610930227499
10
23.3674341805161
20
11.061953645985
30
0
41
1.01814069306376
10
23.9455125389197
20
11.4436408063603
30
0
41
1.02005196006971
10
24.449093684531
20
11.7980452032412
30
0
41
1.02076673234773
10
24.631848909029
20
11.9293252596138
30
0
0
SPLINE
5
117
100
AcDbEntity
8
1
62
256
6
ByLayer
370
18
48
1
60
0
100
AcDbSpline
70
4
71
3
72
10
73
6
40
0
40
0
40
0
40
0
40
0.5
40
0.5
40
1
40
1
40
1
40
1
41
1
10
24.5220759944999
20
5.87090537960069
30
0
41
1
10
23.8229715673874
20
4.75661103690578
30
0
41
1
10
23.0398787154232
20
3.70403461697595
30
0
41
1
10
21.2735162381792
20
1.74597936415324
30
0
41
1
10
20.3276281506773
20
0.814822301215401
30
0
41
1
10
19.2458219320633
20
0.0450108305178674
30
0
0
SPLINE
5
118
100
AcDbEntity
8
1
62
256
6
ByLayer
370
18
48
1
60
0
100
AcDbSpline
70
4
71
1
72
4
73
2
40
0
40
0
40
1
40
1
41
1
10
11.9220441499647
20
11.2102869065947
30
0
41
1
10
10.9695518628277
20
11.8181074476031
30
0
0
SPLINE
5
119
100
AcDbEntity
8
1
62
256
6
ByLayer
370
18
48
1
60
0
100
AcDbSpline
70
4
71
3
72
8
73
4
40
0
40
0
40
0
40
0
40
1
40
1
40
1
40
1
41
1
10
9.4352455595286
20
6.12081972305975
30
0
41
1
10
9.41793007108538
20
6.05204345416695
30
0
41
1
10
9.3974064535368
20
5.98327200443745
30
0
41
1
10
9.37356902652999
20
5.914599682432
30
0
0
SPLINE
5
11A
100
AcDbEntity
8
1
62
256
6
ByLayer
370
18
48
1
60
0
100
AcDbSpline
70
4
71
3
72
8
73
4
40
0
40
0
40
0
40
0
40
1
40
1
40
1
40
1
41
1
10
15.6925179886882
20
1.45065249571729
30
0
41
1
10
14.9375507369534
20
0.924129130789879
30
0
41
1
10
14.0421984429999
20
0.705626602010796
30
0
41
1
10
13.1725676646367
20
0.804432768003494
30
0
0
SPLINE
5
11B
100
AcDbEntity
8
1
62
256
6
ByLayer
370
18
48
1
60
0
100
AcDbSpline
70
4
71
3
72
10
73
6
40
0
40
0
40
0
40
0
40
0.5
40
0.5
40
1
40
1
40
1
40
1
41
1
10
5.20518206305718
20
4.32042331542726
30
0
41
1
10
4.81334754180733
20
4.93259223369665
30
0
41
1
10
4.60333136503272
20
5.57895582446054
30
0
41
1
10
4.48900627105462
20
6.54565274432676
30
0
41
1
10
4.52743122446981
20
6.88803481494392
30
0
41
1
10
4.73462611970541
20
7.25430782089529
30
0
0
SPLINE
5
11C
100
AcDbEntity
8
1
62
256
6
ByLayer
370
18
48
1
60
0
100
AcDbSpline
70
4
71
3
72
8
73
4
40
0
40
0
40
0
40
0
40
1
40
1
40
1
40
1
41
1.01923193622652
10
26.1457625207564
20
7.81831105753813
30
0
41
1.02059843499303
10
26.3850201082733
20
8.33590430831241
30
0
41
1.02233811057541
10
26.6628049722819
20
8.99009877364295
30
0
41
1.02417041321379
10
26.9025140746147
20
9.67127958509799
30
0
0
SPLINE
5
11D
100
AcDbEntity
8
1
62
256
6
ByLayer
370
18
48
1
60
0
100
AcDbSpline
70
4
71
3
72
8
73
4
40
0
40
0
40
0
40
0
40
1
40
1
40
1
40
1
41
1
10
12.955385723107
20
0.819421095807229
30
0
41
1
10
13.0283202004778
20
0.817590391155619
30
0
41
1
10
13.1008838310234
20
0.812577379416979
30
0
41
1
10
13.1725676646367
20
0.804432768003494
30
0
0
SPLINE
5
11E
100
AcDbEntity
8
1
62
256
6
ByLayer
370
18
48
1
60
0
100
AcDbSpline
70
4
71
3
72
12
73
8
40
0
40
0
40
0
40
0
40
0.466938972358619
40
0.466938972358619
40
0.928803236876549
40
0.928803236876549
40
1
40
1
40
1
40
1
41
1
10
9.37356902652999
20
5.914599682432
30
0
41
1
10
9.31743745666466
20
5.75289241262533
30
0
41
1
10
9.23656152421165
20
5.58628322367395
30
0
41
1
10
9.0459027099966
20
5.27888781299271
30
0
41
1
10
8.93428877928966
20
5.1334058756606
30
0
41
1
10
8.79836004459696
20
4.98188456096199
30
0
41
1
10
8.77986039881847
20
4.96175892148852
30
0
41
1
10
8.76120869007178
20
4.94193357326665
30
0
0
SPLINE
5
11F
100
AcDbEntity
8
1
62
256
6
ByLayer
370
18
48
1
60
0
100
AcDbSpline
70
4
71
2
72
6
73
3
40
0
40
0
40
0
40
1
40
1
40
1
41
0.937301687603847
10
18.0082662188299
20
3.17344355555134
30
0
41
0.930554446910518
10
18.7323726262728
20
1.91814808274784
30
0
41
1.02805999725225
10
18.9101368358172
20
1.26963856242005
30
0
0
SPLINE
5
120
100
AcDbEntity
8
1
62
256
6
ByLayer
370
18
48
1
60
0
100
AcDbSpline
70
4
71
3
72
15
73
11
40
0
40
0
40
0
40
0
40
0.322163720426458
40
0.322163720426458
40
0.644833452600231
40
0.644833452600231
40
0.912233455904555
40
0.912233455904555
40
0.912233455904555
40
1
40
1
40
1
40
1
41
1
10
13.3365089659122
20
9.81907607864116
30
0
41
1
10
13.7804471322669
20
10.0126749236039
30
0
41
1
10
14.2641683563441
20
10.1318025609104
30
0
41
1
10
15.2297287020153
20
10.2125328678215
30
0
41
1
10
15.7251651189287
20
10.1753807862832
30
0
41
1
10
16.5837161162876
20
9.95791699112468
30
0
41
1
10
16.9650470715716
20
9.79947348633465
30
0
41
1
10
17.3061186910948
20
9.5846129281496
30
0
41
1
10
17.4194649165833
20
9.5132096454295
30
0
41
1
10
17.5290373268043
20
9.43531944394329
30
0
41
1
10
17.6334128842529
20
9.35166286307907
30
0
0
SPLINE
5
121
100
AcDbEntity
8
1
62
256
6
ByLayer
370
18
48
1
60
0
100
AcDbSpline
70
4
71
2
72
6
73
3
40
0
40
0
40
0
40
1
40
1
40
1
41
1.02805999725224
10
11.9220441499647
20
11.2102869065947
30
0
41
0.93055444607248
10
12.4264425936884
20
10.888411612602
30
0
41
0.937301687719828
10
13.33650896591
20
9.81907607864367
30
0
0
SPLINE
5
122
100
AcDbEntity
8
1
62
256
6
ByLayer
370
18
48
1
60
0
100
AcDbSpline
70
4
71
3
72
8
73
4
40
0
40
0
40
0
40
0
40
1
40
1
40
1
40
1
41
1
10
22.6940216009335
20
15.6580805649092
30
0
41
1
10
23.1015471566732
20
15.622323543191
30
0
41
1
10
23.5109979817225
20
15.5844240199646
30
0
41
1
10
23.9202392891822
20
15.5445528256882
30
0
0
SPLINE
5
123
100
AcDbEntity
8
1
62
256
6
ByLayer
370
18
48
1
60
0
100
AcDbSpline
70
4
71
3
72
8
73
4
40
0
40
0
40
0
40
0
40
1
40
1
40
1
40
1
41
1
10
5.72708959381845
20
6.88985007840242
30
0
41
1
10
6.54066098467291
20
6.83814376029579
30
0
41
1
10
7.91135832630522
20
6.43993651438382
30
0
41
1
10
9.37356902652618
20
5.91459968242418
30
0
0
SPLINE
5
124
100
AcDbEntity
8
1
62
256
6
ByLayer
370
18
48
1
60
0
100
AcDbSpline
70
4
71
3
72
10
73
6
40
0
40
0
40
0
40
0
40
0.5
40
0.5
40
1
40
1
40
1
40
1
41
1
10
23.9202392891586
20
15.5445528256853
30
0
41
1
10
23.1875927166738
20
15.4543101510476
30
0
41
1
10
22.7234813214384
20
15.1333129039177
30
0
41
1
10
22.2488695404016
20
14.3722236519281
30
0
41
1
10
22.1965433828546
20
13.9269799975641
30
0
41
1
10
22.2101820546288
20
13.4724844025279
30
0
0
SPLINE
5
125
100
AcDbEntity
8
1
62
256
6
ByLayer
370
18
48
1
60
0
100
AcDbSpline
70
4
71
3
72
8
73
4
40
0
40
0
40
0
40
0
40
1
40
1
40
1
40
1
41
1
10
5.24423346338352
20
4.26222604439053
30
0
41
1
10
5.23071106579357
20
4.28146182234232
30
0
41
1
10
5.21770191325442
20
4.30086336668228
30
0
41
1
10
5.20518206305718
20
4.32042331542723
30
0
0
SPLINE
5
126
100
AcDbEntity
8
1
62
256
6
ByLayer
370
18
48
1
60
0
100
AcDbSpline
70
4
71
3
72
8
73
4
40
0
40
0
40
0
40
0
40
1
40
1
40
1
40
1
41
1
10
12.955385723107
20
0.819421095807229
30
0
41
1
10
12.9647476620671
20
-0.749994140926077
30
0
41
1
10
12.9020865140379
20
-2.20953384222255
30
0
41
1
10
12.715182279671
20
-3.05079826577219
30
0
0
SPLINE
5
127
100
AcDbEntity
8
1
62
256
6
ByLayer
370
18
48
1
60
0
100
AcDbSpline
70
4
71
3
72
10
73
6
40
0
40
0
40
0
40
0
40
0.967465556419485
40
0.967465556419485
40
1
40
1
40
1
40
1
41
1
10
23.91650194811
20
12.9469151660984
30
0
41
1
10
24.3266690829096
20
12.9658459687651
30
0
41
1
10
24.7303408643754
20
12.9932556541278
30
0
41
1
10
25.1351666664492
20
13.0342919779017
30
0
41
1
10
25.1483350695316
20
13.0356427217503
30
0
41
1
10
25.1614891919864
20
13.0370082142722
30
0
0
SPLINE
5
128
100
AcDbEntity
8
1
62
256
6
ByLayer
370
18
48
1
60
0
100
AcDbSpline
70
4
71
3
72
10
73
6
40
0
40
0
40
0
40
0
40
0.655488757716277
40
0.655488757716277
40
1
40
1
40
1
40
1
41
1
10
13.2179068015525
20
-4.23043612785708
30
0
41
1
10
12.9197471188934
20
-4.45075690901683
30
0
41
1
10
12.5640381916934
20
-4.66682661921624
30
0
41
1
10
11.9405941186755
20
-4.90798586528109
30
0
41
1
10
11.7085543420754
20
-4.97564296930997
30
0
41
1
10
11.4664164164387
20
-5.01775358487998
30
0
0
SPLINE
5
129
100
AcDbEntity
8
1
62
256
6
ByLayer
370
18
48
1
60
0
100
AcDbSpline
70
4
71
3
72
11
73
7
40
0
40
0
40
0
40
0
40
0.423407924939465
40
0.740963868644063
40
0.899741840496363
40
1
40
1
40
1
40
1
41
1.02805999725225
10
18.9101368358172
20
1.26963856242005
30
0
41
1.02767136955277
10
19.5491011932336
20
1.84979283262766
30
0
41
1.02349884684923
10
21.3107110639844
20
4.60801432008684
30
0
41
1.01876555595691
10
23.2707443888621
20
8.32412419636036
30
0
41
1.01635405201137
10
24.0156284974628
20
9.71298236161323
30
0
41
1.01722454828226
10
24.3892970631709
20
10.0233181613697
30
0
41
1.01774327987904
10
24.5496005754078
20
10.1446325994336
30
0
0
SPLINE
5
12A
100
AcDbEntity
8
1
62
256
6
ByLayer
370
18
48
1
60
0
100
AcDbSpline
70
4
71
3
72
8
73
4
40
0
40
0
40
0
40
0
40
1
40
1
40
1
40
1
41
1
10
26.9025535527501
20
9.67139177124852
30
0
41
1
10
27.0058250117988
20
10.0684399680268
30
0
41
1
10
27.1082297605067
20
10.4673172889063
30
0
41
1
10
27.2092155093758
20
10.8659434422078
30
0
0
SPLINE
5
12B
100
AcDbEntity
8
1
62
256
6
ByLayer
370
18
48
1
60
0
100
AcDbSpline
70
4
71
3
72
20
73
16
40
0
40
0
40
0
40
0
40
0.110576036200125
40
0.110576036200125
40
0.19717936912281
40
0.19717936912281
40
0.284291117387372
40
0.284291117387372
40
0.36590421791808
40
0.36590421791808
40
0.497270233392072
40
0.497270233392072
40
0.733496364826699
40
0.733496364826699
40
1
40
1
40
1
40
1
41
1
10
22.2101820546299
20
13.4724844025286
30
0
41
1
10
22.211392378612
20
13.4320292637272
30
0
41
1
10
22.2220626410422
20
13.3889823920036
30
0
41
1
10
22.2653966900262
20
13.3114469414816
30
0
41
1
10
22.2934889776077
20
13.2764133573192
30
0
41
1
10
22.3672723944951
20
13.2098969969753
30
0
41
1
10
22.4140911303904
20
13.1776311812846
30
0
41
1
10
22.5149693495975
20
13.1226097035019
30
0
41
1
10
22.5693897871405
20
13.0987039056391
30
0
41
1
10
22.71460938805
20
13.0455368765812
30
0
41
1
10
22.8097741336506
20
13.0206681150586
30
0
41
1
10
23.0698612311187
20
12.9685501370314
30
0
41
1
10
23.2359272240313
20
12.9529138881482
30
0
41
1
10
23.5742532853818
20
12.9369613068802
30
0
41
1
10
23.7481197427383
20
12.9391118808595
30
0
41
1
10
23.91650194811
20
12.9469151660984
30
0
0
SPLINE
5
12C
100
AcDbEntity
8
1
62
256
6
ByLayer
370
18
48
1
60
0
100
AcDbSpline
70
4
71
3
72
8
73
4
40
0
40
0
40
0
40
0
40
1
40
1
40
1
40
1
41
1
10
11.8324669274913
20
0.573030714530148
30
0
41
1
10
11.5997508626423
20
0.468384521778063
30
0
41
1
10
11.3871436613289
20
0.342122695092115
30
0
41
1
10
11.1908950167843
20
0.200961824384194
30
0
0
SPLINE
5
12D
100
AcDbEntity
8
1
62
256
6
ByLayer
370
18
48
1
60
0
100
AcDbSpline
70
4
71
3
72
20
73
16
40
0
40
0
40
0
40
0
40
0.332873226652398
40
0.332873226652398
40
0.501657261698218
40
0.501657261698218
40
0.631212321676522
40
0.631212321676522
40
0.722542323637681
40
0.722542323637681
40
0.814765347404197
40
0.814765347404197
40
0.896421359038799
40
0.896421359038799
40
1
40
1
40
1
40
1
41
1
10
24.6318489090375
20
11.9293252596199
30
0
41
1
10
24.5479436388736
20
11.7402711505886
30
0
41
1
10
24.4690899863895
20
11.5395096850371
30
0
41
1
10
24.3746674561235
20
11.2120919858795
30
0
41
1
10
24.3468813923383
20
11.0962062946412
30
0
41
1
10
24.3139625893677
20
10.8842830356868
30
0
41
1
10
24.3049492212206
20
10.7881176617148
30
0
41
1
10
24.3057160922844
20
10.6271765209082
30
0
41
1
10
24.3109170284221
20
10.5601727519807
30
0
41
1
10
24.3331689547711
20
10.4364335863241
30
0
41
1
10
24.3507856629968
20
10.3782616193421
30
0
41
1
10
24.3930816359937
20
10.2872787586609
30
0
41
1
10
24.4171213215878
20
10.2511626780621
30
0
41
1
10
24.47588103299
20
10.1864243503699
30
0
41
1
10
24.5123737654213
20
10.1612593344947
30
0
41
1
10
24.5496005754075
20
10.1446325994334
30
0
0
SPLINE
5
12E
100
AcDbEntity
8
1
62
256
6
ByLayer
370
18
48
1
60
0
100
AcDbSpline
70
4
71
3
72
12
73
8
40
0
40
0
40
0
40
0
40
0.286978363858291
40
0.286978363858291
40
0.569998995185617
40
0.569998995185617
40
1
40
1
40
1
40
1
41
1
10
17.633412884252
20
9.35166286307887
30
0
41
1
10
17.8158512873064
20
9.20542355426767
30
0
41
1
10
17.9871351323057
20
9.0435045577218
30
0
41
1
10
18.2981668018572
20
8.69769862900432
30
0
41
1
10
18.439385458366
20
8.51295875087905
30
0
41
1
10
18.7537129617476
20
8.0256504834679
30
0
41
1
10
18.9082271288108
20
7.7072178223396
30
0
41
1
10
19.0205614696433
20
7.37842683024846
30
0
0
SPLINE
5
12F
100
AcDbEntity
8
1
62
256
6
ByLayer
370
18
48
1
60
0
100
AcDbSpline
70
4
71
3
72
8
73
4
40
0
40
0
40
0
40
0
40
1
40
1
40
1
40
1
41
1
10
8.76120869007178
20
4.94193357326665
30
0
41
1
10
7.40589112648706
20
4.78935613552432
30
0
41
1
10
6.16464914512358
20
4.59853984340259
30
0
41
1
10
5.36892496717206
20
4.36553804762229
30
0
0
SPLINE
5
130
100
AcDbEntity
8
1
62
256
6
ByLayer
370
18
48
1
60
0
100
AcDbSpline
70
4
71
3
72
11
73
7
40
0
40
0
40
0
40
0
40
0.564783939443774
40
0.564783939443774
40
0.564783939443774
40
1
40
1
40
1
40
1
41
1
10
20.3997073208197
20
15.4543108998332
30
0
41
1
10
20.0733766166056
20
15.2980824827609
30
0
41
1
10
19.691624879699
20
15.1379283132166
30
0
41
1
10
19.2785047780118
20
15.0148089383662
30
0
41
1
10
18.9575328972805
20
14.9191518712354
30
0
41
1
10
18.6159326374479
20
14.8368739953285
30
0
41
1
10
18.2705672554875
20
14.763753941966
30
0
0
SPLINE
5
131
100
AcDbEntity
8
1
62
256
6
ByLayer
370
18
48
1
60
0
100
AcDbSpline
70
4
71
3
72
8
73
4
40
0
40
0
40
0
40
0
40
1
40
1
40
1
40
1
41
1
10
27.474918995899
20
12.142968541228
30
0
41
1
10
27.5048362130877
20
12.216321504657
30
0
41
1
10
27.5320794738922
20
12.2941082980331
30
0
41
1
10
27.5560208006078
20
12.3750408467741
30
0
0
SPLINE
5
132
100
AcDbEntity
8
1
62
256
6
ByLayer
370
18
48
1
60
0
100
AcDbSpline
70
4
71
3
72
8
73
4
40
0
40
0
40
0
40
0
40
1
40
1
40
1
40
1
41
1
10
10.0734840148636
20
-2.60744264151043
30
0
41
1
10
10.0870064124535
20
-2.62667841946228
30
0
41
1
10
10.100834052718
20
-2.6454525450709
30
0
41
1
10
10.1149531180167
20
-2.66378678335519
30
0
0
SPLINE
5
133
100
AcDbEntity
8
1
62
256
6
ByLayer
370
18
48
1
60
0
100
AcDbSpline
70
4
71
3
72
8
73
4
40
0
40
0
40
0
40
0
40
1
40
1
40
1
40
1
41
1
10
24.5220759945001
20
5.87090537960091
30
0
41
1
10
24.9542114902948
20
6.55968107543001
30
0
41
1
10
25.4416315569541
20
7.16598559967605
30
0
41
1
10
25.9197126853009
20
7.60203494228145
30
0
0
SPLINE
5
134
100
AcDbEntity
8
1
62
256
6
ByLayer
370
18
48
1
60
0
100
AcDbSpline
70
4
71
3
72
11
73
7
40
0
40
0
40
0
40
0
40
0.423407924946041
40
0.740963868655572
40
0.899741840510338
40
1
40
1
40
1
40
1
41
1.02805999725224
10
11.9220441499647
20
11.2102869065947
30
0
41
1.02767136955277
10
12.6852343653621
20
11.6137283561054
30
0
41
1.02349884684923
10
15.8686910522349
20
12.3493551479542
30
0
41
1.01876555595691
10
20.0410784593763
20
12.9183639577941
30
0
41
1.01635405201144
10
21.6117907283396
20
13.1324713428072
30
0
41
1.01722454828215
10
22.0381649097452
20
13.3678327518136
30
0
41
1.0177432798788
10
22.2101820545584
20
13.472484402485
30
0
0
SPLINE
5
135
100
AcDbEntity
8
1
62
256
6
ByLayer
370
18
48
1
60
0
100
AcDbSpline
70
4
71
3
72
8
73
4
40
0
40
0
40
0
40
0
40
1
40
1
40
1
40
1
41
1
10
20.3997073208197
20
15.4543108998332
30
0
41
1
10
20.4942098815029
20
15.4995533035487
30
0
41
1
10
20.5899969180899
20
15.5425947575622
30
0
41
1
10
20.686864323944
20
15.5835823240257
30
0
0
SPLINE
5
136
100
AcDbEntity
8
1
62
256
6
ByLayer
370
18
48
1
60
0
100
AcDbSpline
70
4
71
3
72
8
73
4
40
0
40
0
40
0
40
0
40
1
40
1
40
1
40
1
41
1
10
9.43524555952854
20
6.12081972305967
30
0
41
1
10
9.64703825442911
20
6.96204989579189
30
0
41
1
10
10.1634800222073
20
7.71040415879037
30
0
41
1
10
10.920758515202
20
8.238539411548
30
0
0
LINE
5
72
100
AcDbEntity
8
1
62
256
6
ByLayer
370
18
48
1
60
0
100
AcDbLine
10
12.982769
20
5.096475
30
0
11
13.002911
21
5.116618
31
0
39
0
210
0
220
0
230
1
0
LINE
5
74
100
AcDbEntity
8
1
62
256
6
ByLayer
370
18
48
1
60
0
100
AcDbLine
10
13.497517
20
6.380828
30
0
11
13.663855
21
6.547167
31
0
39
0
210
0
220
0
230
1
0
LINE
5
75
100
AcDbEntity
8
1
62
256
6
ByLayer
370
18
48
1
60
0
100
AcDbLine
10
16.857002
20
2.468512
30
0
11
17.030198
21
2.641708
31
0
39
0
210
0
220
0
230
1
0
LINE
5
76
100
AcDbEntity
8
1
62
256
6
ByLayer
370
18
48
1
60
0
100
AcDbLine
10
11.373344
20
8.298562
30
0
11
11.200148
21
8.125366
31
0
39
0
210
0
220
0
230
1
0
LINE
5
77
100
AcDbEntity
8
1
62
256
6
ByLayer
370
18
48
1
60
0
100
AcDbLine
10
5.163689
20
7.755655
30
0
11
4.641221
21
7.31056
31
0
39
0
210
0
220
0
230
1
0
LINE
5
78
100
AcDbEntity
8
1
62
256
6
ByLayer
370
18
48
1
60
0
100
AcDbLine
10
30.589408
20
6.892414
30
0
11
31.084266
21
7.387272
31
0
39
0
210
0
220
0
230
1
0
LINE
5
79
100
AcDbEntity
8
1
62
256
6
ByLayer
370
18
48
1
60
0
100
AcDbLine
10
19.704311
20
18.767226
30
0
11
19.209454
21
18.272369
31
0
39
0
210
0
220
0
230
1
0
LINE
5
7A
100
AcDbEntity
8
1
62
256
6
ByLayer
370
18
48
1
60
0
100
AcDbLine
10
8.079587
20
4.331809
30
0
11
8.458707
21
4.654786
31
0
39
0
210
0
220
0
230
1
0
LINE
5
7B
100
AcDbEntity
8
1
62
256
6
ByLayer
370
18
48
1
60
0
100
AcDbLine
10
14.89231
20
4.545727
30
0
11
14.725972
21
4.379389
31
0
39
0
210
0
220
0
230
1
0
LINE
5
7C
100
AcDbEntity
8
1
62
256
6
ByLayer
370
18
48
1
60
0
100
AcDbLine
10
15.553254
20
5.976276
30
0
11
15.386916
21
5.809937
31
0
39
0
210
0
220
0
230
1
0
LINE
5
7D
100
AcDbEntity
8
80
62
256
6
ByLayer
370
18
48
1
60
0
100
AcDbLine
10
0
20
0
30
0
11
-5
21
0
31
0
39
0
210
0
220
0
230
1
0
LINE
5
7E
100
AcDbEntity
8
81
62
256
6
ByLayer
370
18
48
1
60
0
100
AcDbLine
10
32.22954
20
19.9125
30
0
11
42.22954
21
19.9125
31
0
39
0
210
0
220
0
230
1
0
LINE
5
7F
100
AcDbEntity
8
1
62
256
6
ByLayer
370
18
48
1
60
0
100
AcDbLine
10
12.985266
20
5.099107
30
0
11
12.99654
21
5.110382
31
0
39
0
210
0
220
0
230
1
0
LINE
5
80
100
AcDbEntity
8
1
62
256
6
ByLayer
370
18
48
1
60
0
100
AcDbLine
10
16.857002
20
2.468512
30
0
11
16.857135
21
2.468645
31
0
39
0
210
0
220
0
230
1
0
LINE
5
81
100
AcDbEntity
8
1
62
256
6
ByLayer
370
18
48
1
60
0
100
AcDbLine
10
17.309637
20
-7.190088
30
0
11
14.540741
21
-3.251298
31
0
39
0
210
0
220
0
230
1
0
LINE
5
82
100
AcDbEntity
8
1
62
256
6
ByLayer
370
18
48
1
60
0
100
AcDbLine
10
6.256492
20
8.533148
30
0
11
4.133239
21
11.553502
31
0
39
0
210
0
220
0
230
1
0
LINE
5
83
100
AcDbEntity
8
1
62
256
6
ByLayer
370
18
48
1
60
0
100
AcDbLine
10
14.458997
20
-9.052057
30
0
11
11.597115
21
-4.980993
31
0
39
0
210
0
220
0
230
1
0
LINE
5
84
100
AcDbEntity
8
1
62
256
6
ByLayer
370
18
48
1
60
0
100
AcDbLine
10
3.718957
20
6.225784
30
0
11
1.610138
21
9.225605
31
0
39
0
210
0
220
0
230
1
0
LINE
5
85
100
AcDbEntity
8
1
62
256
6
ByLayer
370
18
48
1
60
0
100
AcDbLine
10
19.048175
20
14.952339
30
0
11
19.317663
21
18.236181
31
0
39
0
210
0
220
0
230
1
0
LINE
5
86
100
AcDbEntity
8
1
62
256
6
ByLayer
370
18
48
1
60
0
100
AcDbLine
10
24.973293
20
6.538079
30
0
11
30.554869
21
7.020703
31
0
39
0
210
0
220
0
230
1
0
LINE
5
87
100
AcDbEntity
8
1
62
256
6
ByLayer
370
18
48
1
60
0
100
AcDbLine
10
19.428294
20
18.188002
30
0
11
19.165379
21
14.984245
31
0
39
0
210
0
220
0
230
1
0
LINE
5
88
100
AcDbEntity
8
1
62
256
6
ByLayer
370
18
48
1
60
0
100
AcDbLine
10
13.678034
20
-9.569374
30
0
11
10.413626
21
-4.925713
31
0
39
0
210
0
220
0
230
1
0
LINE
5
89
100
AcDbEntity
8
1
62
256
6
ByLayer
370
18
48
1
60
0
100
AcDbLine
10
3.368759
20
5.095698
30
0
11
0.731257
21
8.847577
31
0
39
0
210
0
220
0
230
1
0
LINE
5
8A
100
AcDbEntity
8
1
62
256
6
ByLayer
370
18
48
1
60
0
100
AcDbLine
10
25.069195
20
6.661303
30
0
11
25.946138
21
6.73713
31
0
39
0
210
0
220
0
230
1
0
LINE
5
8B
100
AcDbEntity
8
1
62
256
6
ByLayer
370
18
48
1
60
0
100
AcDbLine
10
30.554869
20
7.020703
30
0
11
30.512325
21
7.118535
31
0
39
0
210
0
220
0
230
1
0
LINE
5
8C
100
AcDbEntity
8
1
62
256
6
ByLayer
370
18
48
1
60
0
100
AcDbLine
10
14.438205
20
-9.072849
30
0
11
11.56744
21
-4.98915
31
0
39
0
210
0
220
0
230
1
0
LINE
5
8D
100
AcDbEntity
8
1
62
256
6
ByLayer
370
18
48
1
60
0
100
AcDbLine
10
3.701552
20
6.200173
30
0
11
1.404084
21
9.468349
31
0
39
0
210
0
220
0
230
1
0
LINE
5
8E
100
AcDbEntity
8
1
62
256
6
ByLayer
370
18
48
1
60
0
100
AcDbLine
10
25.107909
20
6.711284
30
0
11
30.595946
21
7.161658
31
0
39
0
210
0
220
0
230
1
0
LINE
5
8F
100
AcDbEntity
8
1
62
256
6
ByLayer
370
18
48
1
60
0
100
AcDbLine
10
19.478697
20
18.278907
30
0
11
19.209287
21
14.996001
31
0
39
0
210
0
220
0
230
1
0
LINE
5
90
100
AcDbEntity
8
1
62
256
6
ByLayer
370
18
48
1
60
0
100
AcDbLine
10
30.524594
20
7.090305
30
0
11
30.595946
21
7.161658
31
0
39
0
210
0
220
0
230
1
0
LINE
5
91
100
AcDbEntity
8
1
62
256
6
ByLayer
370
18
48
1
60
0
100
AcDbLine
10
19.478697
20
18.278907
30
0
11
19.400077
21
18.200286
31
0
39
0
210
0
220
0
230
1
0
LINE
5
92
100
AcDbEntity
8
1
62
256
6
ByLayer
370
18
48
1
60
0
100
AcDbLine
10
13.66281
20
-3.851418
30
0
11
13.217907
21
-4.230436
31
0
39
0
210
0
220
0
230
1
0
LINE
5
93
100
AcDbEntity
8
1
62
256
6
ByLayer
370
18
48
1
60
0
100
AcDbLine
10
14.831358
20
-3.036459
30
0
11
14.834291
21
-3.031645
31
0
39
0
210
0
220
0
230
1
0
LINE
5
94
100
AcDbEntity
8
1
62
256
6
ByLayer
370
18
48
1
60
0
100
AcDbLine
10
27.448096
20
11.905412
30
0
11
27.474919
21
12.142969
31
0
39
0
210
0
220
0
230
1
0
LINE
5
95
100
AcDbEntity
8
1
62
256
6
ByLayer
370
18
48
1
60
0
100
AcDbLine
10
6.552642
20
8.740116
30
0
11
6.558021
21
8.741452
31
0
39
0
210
0
220
0
230
1
0
LINE
5
96
100
AcDbEntity
8
1
62
256
6
ByLayer
370
18
48
1
60
0
100
AcDbLine
10
6.552642
20
8.740116
30
0
11
5.384095
21
7.925156
31
0
39
0
210
0
220
0
230
1
0
LINE
5
97
100
AcDbEntity
8
1
62
256
6
ByLayer
370
18
48
1
60
0
100
AcDbLine
10
5.72709
20
6.88985
30
0
11
11.922044
21
11.210287
31
0
39
0
210
0
220
0
230
1
0
LINE
5
98
100
AcDbEntity
8
1
62
256
6
ByLayer
370
18
48
1
60
0
100
AcDbLine
10
7.855183
20
4.158703
30
0
11
6.619937
21
3.298065
31
0
39
0
210
0
220
0
230
1
0
LINE
5
99
100
AcDbEntity
8
1
62
256
6
ByLayer
370
18
48
1
60
0
100
AcDbLine
10
25.161489
20
13.037008
30
0
11
27.343445
21
14.459125
31
0
39
0
210
0
220
0
230
1
0
LINE
5
9A
100
AcDbEntity
8
1
62
256
6
ByLayer
370
18
48
1
60
0
100
AcDbLine
10
8.732823
20
-3.749565
30
0
11
3.903572
21
3.120104
31
0
39
0
210
0
220
0
230
1
0
LINE
5
9B
100
AcDbEntity
8
1
62
256
6
ByLayer
370
18
48
1
60
0
100
AcDbLine
10
10.920759
20
8.238539
30
0
11
12.587819
21
9.401168
31
0
39
0
210
0
220
0
230
1
0
LINE
5
9C
100
AcDbEntity
8
1
62
256
6
ByLayer
370
18
48
1
60
0
100
AcDbLine
10
13.66281
20
-3.851418
30
0
11
14.831358
21
-3.036459
31
0
39
0
210
0
220
0
230
1
0
LINE
5
9D
100
AcDbEntity
8
1
62
256
6
ByLayer
370
18
48
1
60
0
100
AcDbLine
10
12.715182
20
-3.050798
30
0
11
18.910137
21
1.269639
31
0
39
0
210
0
220
0
230
1
0
LINE
5
9E
100
AcDbEntity
8
1
62
256
6
ByLayer
370
18
48
1
60
0
100
AcDbLine
10
10.969552
20
11.818107
30
0
11
6.558021
21
8.741452
31
0
39
0
210
0
220
0
230
1
0
LINE
5
9F
100
AcDbEntity
8
1
62
256
6
ByLayer
370
18
48
1
60
0
100
AcDbLine
10
10.563358
20
7.934067
30
0
11
12.223134
21
9.090489
31
0
39
0
210
0
220
0
230
1
0
LINE
5
A0
100
AcDbEntity
8
1
62
256
6
ByLayer
370
18
48
1
60
0
100
AcDbLine
10
19.245822
20
0.045011
30
0
11
14.834291
21
-3.031645
31
0
39
0
210
0
220
0
230
1
0
LINE
5
A1
100
AcDbEntity
8
1
62
256
6
ByLayer
370
18
48
1
60
0
100
AcDbLine
10
12.587819
20
9.401168
30
0
11
12.223134
21
9.090489
31
0
39
0
210
0
220
0
230
1
0
LINE
5
A2
100
AcDbEntity
8
1
62
256
6
ByLayer
370
18
48
1
60
0
100
AcDbLine
10
27.448096
20
11.905412
30
0
11
27.209216
21
10.865943
31
0
39
0
210
0
220
0
230
1
0
LINE
5
A3
100
AcDbEntity
8
1
62
256
6
ByLayer
370
18
48
1
60
0
100
AcDbLine
10
8.201359
20
4.453614
30
0
11
7.855183
21
4.158703
31
0
39
0
210
0
220
0
230
1
0
LINE
5
A4
100
AcDbEntity
8
1
62
256
6
ByLayer
370
18
48
1
60
0
100
AcDbLine
10
6.619937
20
3.298065
30
0
11
9.609473
21
-0.954587
31
0
39
0
210
0
220
0
230
1
0
LINE
5
A5
100
AcDbEntity
8
1
62
256
6
ByLayer
370
18
48
1
60
0
100
AcDbLine
10
17.359578
20
2.613281
30
0
11
15.692518
21
1.450652
31
0
39
0
210
0
220
0
230
1
0
LINE
5
A6
100
AcDbEntity
8
1
62
256
6
ByLayer
370
18
48
1
60
0
100
AcDbLine
10
25.221553
20
15.34841
30
0
11
24.98826
21
15.404558
31
0
39
0
210
0
220
0
230
1
0
LINE
5
A7
100
AcDbEntity
8
1
62
256
6
ByLayer
370
18
48
1
60
0
100
AcDbLine
10
24.98826
20
15.404558
30
0
11
23.920239
21
15.544553
31
0
39
0
210
0
220
0
230
1
0
LINE
5
A8
100
AcDbEntity
8
1
62
256
6
ByLayer
370
18
48
1
60
0
100
AcDbLine
10
14.831358
20
-3.036459
30
0
11
13.27852
21
-4.185614
31
0
39
0
210
0
220
0
230
1
0
LINE
5
A9
100
AcDbEntity
8
1
62
256
6
ByLayer
370
18
48
1
60
0
100
AcDbLine
10
25.697641
20
15.311573
30
0
11
25.470789
21
15.341309
31
0
39
0
210
0
220
0
230
1
0
LINE
5
AA
100
AcDbEntity
8
1
62
256
6
ByLayer
370
18
48
1
60
0
100
AcDbLine
10
10.920759
20
8.238539
30
0
11
10.563358
21
7.934067
31
0
39
0
210
0
220
0
230
1
0
LINE
5
AB
100
AcDbEntity
8
1
62
256
6
ByLayer
370
18
48
1
60
0
100
AcDbLine
10
5.244233
20
4.262226
30
0
11
3.903572
21
3.120104
31
0
39
0
210
0
220
0
230
1
0
LINE
5
AC
100
AcDbEntity
8
1
62
256
6
ByLayer
370
18
48
1
60
0
100
AcDbLine
10
27.60676
20
12.595828
30
0
11
27.556021
21
12.375041
31
0
39
0
210
0
220
0
230
1
0
LINE
5
AD
100
AcDbEntity
8
1
62
256
6
ByLayer
370
18
48
1
60
0
100
AcDbLine
10
5.244233
20
4.262226
30
0
11
10.073484
21
-2.607443
31
0
39
0
210
0
220
0
230
1
0
LINE
5
AE
100
AcDbEntity
8
1
62
256
6
ByLayer
370
18
48
1
60
0
100
AcDbLine
10
10.073484
20
-2.607443
30
0
11
8.732823
21
-3.749565
31
0
39
0
210
0
220
0
230
1
0
LINE
5
AF
100
AcDbEntity
8
1
62
256
6
ByLayer
370
18
48
1
60
0
100
AcDbLine
10
13.08118
20
6.276117
30
0
11
13.247519
21
6.442456
31
0
39
0
210
0
220
0
230
1
0
LINE
5
B0
100
AcDbEntity
8
1
62
256
6
ByLayer
370
18
48
1
60
0
100
AcDbLine
10
14.961481
20
6.430423
30
0
11
15.127819
21
6.596762
31
0
39
0
210
0
220
0
230
1
0
LINE
5
B1
100
AcDbEntity
8
1
62
256
6
ByLayer
370
18
48
1
60
0
100
AcDbLine
10
14.362723
20
6.712182
30
0
11
14.529061
21
6.878521
31
0
39
0
210
0
220
0
230
1
0
LINE
5
B2
100
AcDbEntity
8
1
62
256
6
ByLayer
370
18
48
1
60
0
100
AcDbLine
10
15.454307
20
5.15939
30
0
11
15.620646
21
5.325728
31
0
39
0
210
0
220
0
230
1
0
LINE
5
B3
100
AcDbEntity
8
1
62
256
6
ByLayer
370
18
48
1
60
0
100
AcDbLine
10
14.604571
20
4.109075
30
0
11
14.770909
21
4.275413
31
0
39
0
210
0
220
0
230
1
0
LINE
5
B4
100
AcDbEntity
8
1
62
256
6
ByLayer
370
18
48
1
60
0
100
AcDbLine
10
0
20
-12.4375
30
0
11
0
21
12.4375
31
0
39
0
210
0
220
0
230
1
0
LINE
5
B5
100
AcDbEntity
8
1
62
256
6
ByLayer
370
18
48
1
60
0
100
AcDbLine
10
4.133239
20
11.553502
30
0
11
3.697503
21
16.135003
31
0
39
0
210
0
220
0
230
1
0
LINE
5
B6
100
AcDbEntity
8
1
62
256
6
ByLayer
370
18
48
1
60
0
100
AcDbLine
10
3.697503
20
16.135003
30
0
11
4.590066
21
17.027566
31
0
39
0
210
0
220
0
230
1
0
LINE
5
B7
100
AcDbEntity
8
1
62
256
6
ByLayer
370
18
48
1
60
0
100
AcDbLine
10
0
20
-12.4375
30
0
11
2.756775
21
-12.449529
31
0
39
0
210
0
220
0
230
1
0
LINE
5
B8
100
AcDbEntity
8
1
62
256
6
ByLayer
370
18
48
1
60
0
100
AcDbLine
10
19.317663
20
18.236181
30
0
11
19.428294
21
18.188002
31
0
39
0
210
0
220
0
230
1
0
LINE
5
B9
100
AcDbEntity
8
1
62
256
6
ByLayer
370
18
48
1
60
0
100
AcDbLine
10
11.417226
20
-12.298527
30
0
11
26.40859
21
-3.043216
31
0
39
0
210
0
220
0
230
1
0
LINE
5
BA
100
AcDbEntity
8
1
62
256
6
ByLayer
370
18
48
1
60
0
100
AcDbLine
10
19.317663
20
18.236181
30
0
11
4.590066
21
17.027566
31
0
39
0
210
0
220
0
230
1
0
LINE
5
BB
100
AcDbEntity
8
1
62
256
6
ByLayer
370
18
48
1
60
0
100
AcDbLine
10
1.610138
20
9.225605
30
0
11
4.133239
21
11.553502
31
0
39
0
210
0
220
0
230
1
0
LINE
5
BC
100
AcDbEntity
8
1
62
256
6
ByLayer
370
18
48
1
60
0
100
AcDbLine
10
8.965532
20
-12.44668
30
0
11
2.756775
21
-12.449529
31
0
39
0
210
0
220
0
230
1
0
LINE
5
BD
100
AcDbEntity
8
1
62
256
6
ByLayer
370
18
48
1
60
0
100
AcDbLine
10
14.438205
20
-9.072849
30
0
11
14.458997
21
-9.052057
31
0
39
0
210
0
220
0
230
1
0
LINE
5
BE
100
AcDbEntity
8
1
62
256
6
ByLayer
370
18
48
1
60
0
100
AcDbLine
10
26.40859
20
-3.043216
30
0
11
30.025824
21
0.574017
31
0
39
0
210
0
220
0
230
1
0
LINE
5
BF
100
AcDbEntity
8
1
62
256
6
ByLayer
370
18
48
1
60
0
100
AcDbLine
10
2.756775
20
-12.449529
30
0
11
0.731257
21
8.847577
31
0
39
0
210
0
220
0
230
1
0
LINE
5
C0
100
AcDbEntity
8
1
62
256
6
ByLayer
370
18
48
1
60
0
100
AcDbLine
10
8.965532
20
-12.44668
30
0
11
13.678034
21
-9.569374
31
0
39
0
210
0
220
0
230
1
0
LINE
5
C1
100
AcDbEntity
8
1
62
256
6
ByLayer
370
18
48
1
60
0
100
AcDbLine
10
14.458997
20
-9.052057
30
0
11
17.309637
21
-7.190088
31
0
39
0
210
0
220
0
230
1
0
LINE
5
C2
100
AcDbEntity
8
1
62
256
6
ByLayer
370
18
48
1
60
0
100
AcDbLine
10
8.965532
20
-12.44668
30
0
11
11.417226
21
-12.298527
31
0
39
0
210
0
220
0
230
1
0
LINE
5
C3
100
AcDbEntity
8
1
62
256
6
ByLayer
370
18
48
1
60
0
100
AcDbLine
10
1.404084
20
9.468349
30
0
11
1.610138
21
9.225605
31
0
39
0
210
0
220
0
230
1
0
LINE
5
C4
100
AcDbEntity
8
1
62
256
6
ByLayer
370
18
48
1
60
0
100
AcDbLine
10
3.697503
20
16.135003
30
0
11
0
21
12.4375
31
0
39
0
210
0
220
0
230
1
0
LINE
5
C5
100
AcDbEntity
8
1
62
256
6
ByLayer
370
18
48
1
60
0
100
AcDbLine
10
30.025824
20
0.574017
30
0
11
30.554869
21
7.020703
31
0
39
0
210
0
220
0
230
1
0
LINE
5
C6
100
AcDbEntity
8
1
62
256
6
ByLayer
370
18
48
1
60
0
100
AcDbLine
10
30.025824
20
0.574017
30
0
11
17.309637
21
-7.190088
31
0
39
0
210
0
220
0
230
1
0
LINE
5
C7
100
AcDbEntity
8
SK1
62
256
6
ByLayer
370
18
48
1
60
0
100
AcDbLine
10
-139.12046
20
12.4375
30
0
11
-139.12046
21
-12.4375
31
0
39
0
210
0
220
0
230
1
0
LINE
5
C9
100
AcDbEntity
8
SK1
62
256
6
ByLayer
370
18
48
1
60
0
100
AcDbLine
10
-139.12046
20
-12.4375
30
0
11
0
21
-12.4375
31
0
39
0
210
0
220
0
230
1
0
LINE
5
CA
100
AcDbEntity
8
SK1
62
256
6
ByLayer
370
18
48
1
60
0
100
AcDbLine
10
0
20
12.4375
30
0
11
-139.12046
21
12.4375
31
0
39
0
210
0
220
0
230
1
0
LINE
5
CB
100
AcDbEntity
8
SK1
62
256
6
ByLayer
370
18
48
1
60
0
100
AcDbLine
10
0
20
12.4375
30
0
11
0
21
-12.4375
31
0
39
0
210
0
220
0
230
1
0
LINE
5
CC
100
AcDbEntity
8
1
62
256
6
ByLayer
370
18
48
1
60
0
100
AcDbLine
10
31.30988
20
7.875591
30
0
11
32.226876
21
19.049656
31
0
39
0
210
0
220
0
230
1
0
LINE
5
CD
100
AcDbEntity
8
1
62
256
6
ByLayer
370
18
48
1
60
0
100
AcDbLine
10
31.366695
20
19.909836
30
0
11
20.192631
21
18.99284
31
0
39
0
210
0
220
0
230
1
0
MTEXT
5
137
100
AcDbEntity
8
SK6
62
256
6
ByLayer
370
18
48
1
60
0
100
AcDbMText
10
-67.57046
20
-23.318514
30
0
210
0
220
0
230
1
1
\W0.7470;DCLNR 3225P 12
40
3.5
41
0
44
1.084337
50
0
71
7
72
5
7
iso_b_vert
0
DIMENSION
5
148
100
AcDbEntity
8
2
62
256
6
ByLayer
370
13
48
1
60
0
100
AcDbDimension
2
DimnDraft3D1
10
30.37422
20
19.828051
30
0
11
13.543128
21
37.196042
31
0
70
34
71
5
72
1
41
1
210
0
220
0
230
1
3
Standard
100
AcDb2LineAngularDimension
13
32.22954
23
19.9125
33
0
14
32.22954
24
18.325
34
0
15
31.370869
25
19.909841
35
0
16
16.852678
26
34.146964
36
0
40
0
0
DIMENSION
5
15E
100
AcDbEntity
8
SK2
62
256
6
ByLayer
370
13
48
1
60
0
100
AcDbDimension
2
DimnDraft3D2
10
-146.87046
20
12.4375
30
0
11
-146.87046
21
-5.281579
31
0
70
32
71
5
72
1
41
1
210
0
220
0
230
1
3
Standard
100
AcDbAlignedDimension
13
-141.12046
23
-12.4375
33
0
14
-141.12046
24
12.4375
34
0
50
90
100
AcDbRotatedDimension
1001
ACAD
1000
DSTYLE
1002
{
1070
    74
1070
     0
1070
   279
1070
     0
1070
   172
1070
     1
1070
   173
1070
     1
1070
   340
1005
138
1070
    77
1070
     1
1070
    73
1070
     0
1070
   171
1070
     3
1070
   274
1070
     4
1070
   177
1070
     2
1070
   176
1070
     2
1070
   178
1070
     7
1070
    78
1070
     8
1070
    41
1041
3.175
1070
   147
1041
2.25
1070
    42
1041
2.0
1070
    44
1041
2.0
1070
   140
1041
4.5
1070
   343
1005
149
1070
   344
1005
149
1002
}
0
DIMENSION
5
16C
100
AcDbEntity
8
2
62
256
6
ByLayer
370
13
48
1
60
0
100
AcDbDimension
2
DimnDraft3D3
10
54.47954
20
19.9125
30
0
11
54.47954
21
-1.544079
31
0
70
32
71
5
72
1
41
1
210
0
220
0
230
1
3
Standard
100
AcDbAlignedDimension
13
2
23
-12.4375
33
0
14
34.22954
24
19.9125
34
0
50
90
100
AcDbRotatedDimension
1001
ACAD
1000
DSTYLE
1002
{
1070
    74
1070
     0
1070
   279
1070
     0
1070
   172
1070
     1
1070
   173
1070
     1
1070
   340
1005
138
1070
    77
1070
     1
1070
    73
1070
     0
1070
   171
1070
     3
1070
   274
1070
     4
1070
   177
1070
     2
1070
   176
1070
     2
1070
   178
1070
     7
1070
    78
1070
     8
1070
    41
1041
3.175
1070
   147
1041
2.25
1070
    42
1041
2.0
1070
    44
1041
2.0
1070
   140
1041
4.5
1070
   343
1005
149
1070
   344
1005
149
1002
}
0
DIMENSION
5
17A
100
AcDbEntity
8
2
62
256
6
ByLayer
370
13
48
1
60
0
100
AcDbDimension
2
DimnDraft3D4
10
32.22954
20
49.6625
30
0
11
10.833191
21
49.6625
31
0
70
32
71
5
72
1
41
1
210
0
220
0
230
1
3
Standard
100
AcDbAlignedDimension
13
0
23
14.4375
33
0
14
32.22954
24
21.9125
34
0
50
0
100
AcDbRotatedDimension
1001
ACAD
1000
DSTYLE
1002
{
1070
   279
1070
     0
1070
   172
1070
     1
1070
   173
1070
     1
1070
   340
1005
138
1070
    77
1070
     1
1070
    73
1070
     0
1070
   171
1070
     3
1070
   274
1070
     4
1070
   177
1070
     2
1070
   176
1070
     2
1070
   178
1070
     7
1070
    78
1070
     8
1070
    41
1041
3.175
1070
   147
1041
2.25
1070
    42
1041
2.0
1070
    44
1041
2.0
1070
   140
1041
4.5
1070
   343
1005
149
1070
   344
1005
149
1002
}
0
DIMENSION
5
188
100
AcDbEntity
8
SK2
62
256
6
ByLayer
370
13
48
1
60
0
100
AcDbDimension
2
DimnDraft3D5
10
-139.12046
20
59.6625
30
0
11
-59.846118
21
59.6625
31
0
70
32
71
5
72
1
41
1
210
0
220
0
230
1
3
Standard
100
AcDbAlignedDimension
13
32.22954
23
21.9125
33
0
14
-139.12046
24
14.4375
34
0
50
0
100
AcDbRotatedDimension
1001
ACAD
1000
DSTYLE
1002
{
1070
   279
1070
     0
1070
   172
1070
     1
1070
   173
1070
     1
1070
   340
1005
138
1070
    77
1070
     1
1070
    73
1070
     0
1070
   171
1070
     3
1070
   274
1070
     4
1070
   177
1070
     2
1070
   176
1070
     2
1070
   178
1070
     7
1070
    78
1070
     8
1070
    41
1041
3.175
1070
   147
1041
2.25
1070
    42
1041
2.0
1070
    44
1041
2.0
1070
   140
1041
4.5
1070
   343
1005
149
1070
   344
1005
149
1002
}
0
ENDSEC
0
SECTION
2
OBJECTS
0
DICTIONARY
5
1f2
330
0
100
AcDbDictionary
280
0
281
1
3
ACAD_GROUP
350
1f3
3
ACAD_MLINESTYLE
350
1f4
0
DICTIONARY
5
1f3
330
0
100
AcDbDictionary
280
0
281
1
0
DICTIONARY
5
1f4
330
0
100
AcDbDictionary
280
0
281
1
3
Standard
350
18
0
MLINESTYLE
5
18
330
1f4
100
AcDbMlineStyle
2
Standard
70
0
3

62
256
51
90
52
90
71
2
49
-0.5
62
256
6
ByLayer
49
0.5
62
256
6
ByLayer
0
RASTERVARIABLES
5
1e1
330

100
AcDbRasterVariables
90
0
70
1
71
1
72
1
0
ENDSEC
0
EOF
