0
SECTION
2
HEADER
9
$ACADVER
1
AC1015
9
$DWGCODEPAGE
3
ANSI_1252
9
$HANDSEED
5
220
9
$ANGBASE
50
0
9
$ANGDIR
70
0
9
$ATTMODE
70
1
9
$AUNITS
70
0
9
$AUPREC
70
0
9
$CECOLOR
62
256
9
$CELTSCALE
40
1
9
$CELTYPE
6
ByLayer
9
$CELWEIGHT
370
18
9
$CLAYER
8
0
9
$CMLJUST
70
0
9
$CMLSCALE
40
1
9
$CMLSTYLE
2
Standard
9
$DIMSTYLE
2
Standard
9
$TEXTSIZE
40
0.2
9
$TEXTSTYLE
7
Standard
9
$LUNITS
70
2
9
$LUPREC
70
4
9
$EXTNAMES
290
1
9
$INSUNITS
70
4
9
$LTSCALE
40
1
9
$LWDISPLAY
290
1
9
$PDMODE
70
0
9
$PDSIZE
40
0
9
$PLINEGEN
70
0
0
ENDSEC
0
SECTION
2
CLASSES
0
CLASS
1
RASTERVARIABLES
2
AcDbRasterVariables
3
ISM
90
0
280
0
281
0
0
ENDSEC
0
SECTION
2
TABLES
0
TABLE
2
VPORT
5
216
100
AcDbSymbolTable
0
VPORT
5
1
100
AcDbSymbolTableRecord
100
AcDbViewportTableRecord
2
*Active
70
0
10
0
20
0
11
1
21
1
12
-1
22
1
13
0
23
0
14
0.5
24
0.5
15
10
25
10
16
0
26
0
36
1
17
0
27
0
37
0
0
ENDTAB
0
TABLE
2
LTYPE
5
217
100
AcDbSymbolTable
0
LTYPE
5
14
100
AcDbSymbolTableRecord
100
AcDbLinetypeTableRecord
70
0
2
ByBlock
3

72
65
73
0
40
0
0
LTYPE
5
15
100
AcDbSymbolTableRecord
100
AcDbLinetypeTableRecord
70
0
2
ByLayer
3

72
65
73
0
40
0
0
LTYPE
5
16
100
AcDbSymbolTableRecord
100
AcDbLinetypeTableRecord
70
0
2
CONTINUOUS
3
Solid line
72
65
73
0
40
0
0
LTYPE
5
6A
100
AcDbSymbolTableRecord
100
AcDbLinetypeTableRecord
70
0
2
CENTER
3
____ _ ____ _ ____ _ ____
72
65
73
4
40
47.5
49
22
74
0
49
-8.5
74
0
49
8.5
74
0
49
-8.5
74
0
0
LTYPE
5
6B
100
AcDbSymbolTableRecord
100
AcDbLinetypeTableRecord
70
0
2
DASHED
3
__ __ __ __ __ __ __ __ __
72
65
73
2
40
25.72
49
12.86
74
0
49
-12.86
74
0
0
ENDTAB
0
TABLE
2
LAYER
5
218
100
AcDbSymbolTable
0
LAYER
5
10
100
AcDbSymbolTableRecord
100
AcDbLayerTableRecord
2
0
70
0
62
7
6
CONTINUOUS
290
1
370
-3
390
0
0
LAYER
5
6D
100
AcDbSymbolTableRecord
100
AcDbLayerTableRecord
2
2
70
0
62
7
6
CONTINUOUS
290
1
370
-3
390
0
0
LAYER
5
6F
100
AcDbSymbolTableRecord
100
AcDbLayerTableRecord
2
80
70
0
62
-6
6
CONTINUOUS
290
1
370
-3
390
0
0
LAYER
5
71
100
AcDbSymbolTableRecord
100
AcDbLayerTableRecord
2
81
70
0
62
-3
6
CONTINUOUS
290
1
370
-3
390
0
0
LAYER
5
73
100
AcDbSymbolTableRecord
100
AcDbLayerTableRecord
2
1
70
0
62
4
6
CONTINUOUS
290
1
370
-3
390
0
0
LAYER
5
203
100
AcDbSymbolTableRecord
100
AcDbLayerTableRecord
2
SK1
70
0
62
4
6
CONTINUOUS
290
1
370
-3
390
0
0
LAYER
5
204
100
AcDbSymbolTableRecord
100
AcDbLayerTableRecord
2
SK6
70
0
62
5
6
CONTINUOUS
290
1
370
-3
390
0
0
LAYER
5
205
100
AcDbSymbolTableRecord
100
AcDbLayerTableRecord
2
SK2
70
0
62
7
6
CONTINUOUS
290
1
370
-3
390
0
0
ENDTAB
0
TABLE
2
STYLE
5
219
100
AcDbSymbolTable
0
STYLE
5
11
100
AcDbSymbolTableRecord
100
AcDbTextStyleTableRecord
2
Standard
3
txt
70
0
71
0
40
0
41
1
42
0
50
0
0
STYLE
5
159
100
AcDbSymbolTableRecord
100
AcDbTextStyleTableRecord
2
iso_b_vert
3
simplex.shx
70
0
71
0
40
0
41
1
42
0
50
0
0
STYLE
5
15A
100
AcDbSymbolTableRecord
100
AcDbTextStyleTableRecord
2
DWGDirectTextStyle
3
simplex
70
0
71
0
40
0
41
1
42
0
50
0
0
ENDTAB
0
TABLE
2
DIMSTYLE
5
21a
100
AcDbSymbolTable
100
AcDbDimStyleTable
0
DIMSTYLE
105
27
100
AcDbSymbolTableRecord
100
AcDbDimStyleTableRecord
2
Standard
70
0
3
<>
41
0.18
42
0.0625
44
0.18
140
0.18
147
0.09
73
0
74
0
77
1
271
2
275
0
278
52
280
0
340
11
0
ENDTAB
0
TABLE
2
VIEW
5
21b
100
AcDbSymbolTable
0
ENDTAB
0
TABLE
2
UCS
5
21c
100
AcDbSymbolTable
0
ENDTAB
0
TABLE
2
APPID
5
21d
100
AcDbSymbolTable
0
APPID
5
12
100
AcDbSymbolTableRecord
100
AcDbRegAppTableRecord
2
ACAD
70
0
0
ENDTAB
0
TABLE
2
BLOCK_RECORD
5
21e
100
AcDbSymbolTable
0
BLOCK_RECORD
5
1F
100
AcDbSymbolTableRecord
100
AcDbBlockTableRecord
2
*Model_Space
340
0
70
0
0
BLOCK_RECORD
5
1B
100
AcDbSymbolTableRecord
100
AcDbBlockTableRecord
2
*Paper_Space
340
0
70
0
0
BLOCK_RECORD
5
23
100
AcDbSymbolTableRecord
100
AcDbBlockTableRecord
2
*Paper_Space0
340
0
70
0
0
BLOCK_RECORD
5
15C
100
AcDbSymbolTableRecord
100
AcDbBlockTableRecord
2
DimnDraft3D1
340
0
70
0
0
BLOCK_RECORD
5
16A
100
AcDbSymbolTableRecord
100
AcDbBlockTableRecord
2
_CLOSED
340
0
70
0
0
BLOCK_RECORD
5
171
100
AcDbSymbolTableRecord
100
AcDbBlockTableRecord
2
DimnDraft3D2
340
0
70
0
0
BLOCK_RECORD
5
180
100
AcDbSymbolTableRecord
100
AcDbBlockTableRecord
2
DimnDraft3D3
340
0
70
0
0
BLOCK_RECORD
5
18E
100
AcDbSymbolTableRecord
100
AcDbBlockTableRecord
2
DimnDraft3D4
340
0
70
0
0
BLOCK_RECORD
5
19C
100
AcDbSymbolTableRecord
100
AcDbBlockTableRecord
2
DimnDraft3D5
340
0
70
0
0
ENDTAB
0
ENDSEC
0
SECTION
2
BLOCKS
0
BLOCK
5
20
100
AcDbEntity
8
0
100
AcDbBlockBegin
2
*Model_Space
70
0
10
0
20
0
30
0
3
*Model_Space
0
ENDBLK
5
21
100
AcDbEntity
8
0
100
AcDbBlockEnd
0
BLOCK
5
1C
100
AcDbEntity
8
0
100
AcDbBlockBegin
2
*Paper_Space
70
0
10
0
20
0
30
0
3
*Paper_Space
0
ENDBLK
5
1D
100
AcDbEntity
8
0
100
AcDbBlockEnd
0
BLOCK
5
24
100
AcDbEntity
8
0
100
AcDbBlockBegin
2
*Paper_Space0
70
0
10
0
20
0
30
0
3
*Paper_Space0
0
ENDBLK
5
25
100
AcDbEntity
8
0
100
AcDbBlockEnd
0
BLOCK
5
167
100
AcDbEntity
8
0
100
AcDbBlockBegin
2
DimnDraft3D1
70
0
10
0
20
0
30
0
3
DimnDraft3D1
0
MTEXT
5
15D
100
AcDbEntity
8
2
62
256
6
ByLayer
370
18
48
1
60
0
100
AcDbMText
10
21.064539
20
32.780079
30
0
210
0
220
0
230
1
1
\W0.7399;95%%d
40
4.5
41
0
44
1.084337
50
47.3457231600001
71
7
72
5
7
iso_b_vert
0
LINE
5
15E
100
AcDbEntity
8
2
62
256
6
ByLayer
370
13
48
1
60
0
100
AcDbLine
10
39.229088
20
21.9125
30
0
11
39.229088
21
42.898236
31
0
39
0
210
0
220
0
230
1
0
LINE
5
15F
100
AcDbEntity
8
2
62
256
6
ByLayer
370
13
48
1
60
0
100
AcDbLine
10
34.951134
20
19.663142
30
0
11
16.421733
21
18.142533
31
0
39
0
210
0
220
0
230
1
0
ARC
5
160
100
AcDbEntity
8
2
62
256
6
ByLayer
370
13
48
1
60
0
100
AcDbCircle
39
0
10
39.229088
20
20.014211
30
0
40
20.8840256708074
210
0
220
0
230
1
100
AcDbArc
50
90
51
184.691446
0
LINE
5
161
100
AcDbEntity
8
2
62
256
6
ByLayer
370
13
48
1
60
0
100
AcDbLine
10
39.229088
20
40.898236
30
0
11
36.072227
21
40.360127
31
0
39
0
210
0
220
0
230
1
0
LINE
5
162
100
AcDbEntity
8
2
62
256
6
ByLayer
370
13
48
1
60
0
100
AcDbLine
10
39.229088
20
40.898236
30
0
11
36.040518
21
41.195519
31
0
39
0
210
0
220
0
230
1
0
LINE
5
163
100
AcDbEntity
8
2
62
256
6
ByLayer
370
13
48
1
60
0
100
AcDbLine
10
36.072227
20
40.360127
30
0
11
36.040518
21
41.195519
31
0
39
0
210
0
220
0
230
1
0
LINE
5
164
100
AcDbEntity
8
2
62
256
6
ByLayer
370
13
48
1
60
0
100
AcDbLine
10
18.415032
20
18.306112
30
0
11
17.857954
21
21.459681
31
0
39
0
210
0
220
0
230
1
0
LINE
5
165
100
AcDbEntity
8
2
62
256
6
ByLayer
370
13
48
1
60
0
100
AcDbLine
10
18.415032
20
18.306112
30
0
11
18.69314
21
21.496412
31
0
39
0
210
0
220
0
230
1
0
LINE
5
166
100
AcDbEntity
8
2
62
256
6
ByLayer
370
13
48
1
60
0
100
AcDbLine
10
17.857954
20
21.459681
30
0
11
18.69314
21
21.496412
31
0
39
0
210
0
220
0
230
1
0
ENDBLK
5
168
100
AcDbEntity
8
0
100
AcDbBlockEnd
0
BLOCK
5
16B
100
AcDbEntity
8
0
100
AcDbBlockBegin
2
_CLOSED
70
0
10
0
20
0
30
0
3
_CLOSED
0
LINE
5
16D
100
AcDbEntity
8
0
62
256
6
ByLayer
370
-2
48
1
60
0
100
AcDbLine
10
-1
20
0.166667
30
0
11
0
21
0
31
0
39
0
210
0
220
0
230
1
0
LINE
5
16E
100
AcDbEntity
8
0
62
256
6
ByLayer
370
-2
48
1
60
0
100
AcDbLine
10
0
20
0
30
0
11
-1
21
-0.166667
31
0
39
0
210
0
220
0
230
1
0
LINE
5
16F
100
AcDbEntity
8
0
62
256
6
ByLayer
370
-2
48
1
60
0
100
AcDbLine
10
-1
20
0.166667
30
0
11
-1
21
-0.166667
31
0
39
0
210
0
220
0
230
1
0
LINE
5
170
100
AcDbEntity
8
0
62
256
6
ByLayer
370
-2
48
1
60
0
100
AcDbLine
10
0
20
0
30
0
11
-1
21
0
31
0
39
0
210
0
220
0
230
1
0
ENDBLK
5
16C
100
AcDbEntity
8
0
100
AcDbBlockEnd
0
BLOCK
5
17D
100
AcDbEntity
8
0
100
AcDbBlockBegin
2
DimnDraft3D2
70
0
10
0
20
0
30
0
3
DimnDraft3D2
0
MTEXT
5
172
100
AcDbEntity
8
SK2
62
256
6
ByLayer
370
18
48
1
60
0
100
AcDbMText
10
-120.995912
20
-4.156579
30
0
210
0
220
0
230
1
1
\W0.7346;25.0
40
4.5
41
0
44
1.084337
50
90
71
7
72
5
7
iso_b_vert
0
LINE
5
174
100
AcDbEntity
8
SK2
62
256
6
ByLayer
370
13
48
1
60
0
100
AcDbLine
10
-114.120912
20
-12.4375
30
0
11
-121.870912
21
-12.4375
31
0
39
0
210
0
220
0
230
1
0
LINE
5
175
100
AcDbEntity
8
SK2
62
256
6
ByLayer
370
13
48
1
60
0
100
AcDbLine
10
-114.120912
20
12.4375
30
0
11
-121.870912
21
12.4375
31
0
39
0
210
0
220
0
230
1
0
LINE
5
176
100
AcDbEntity
8
SK2
62
256
6
ByLayer
370
13
48
1
60
0
100
AcDbLine
10
-119.870912
20
-12.4375
30
0
11
-119.870912
21
12.4375
31
0
39
0
210
0
220
0
230
1
0
LINE
5
177
100
AcDbEntity
8
SK2
62
256
6
ByLayer
370
13
48
1
60
0
100
AcDbLine
10
-119.870912
20
-12.4375
30
0
11
-120.288908
21
-9.262502
31
0
39
0
210
0
220
0
230
1
0
LINE
5
178
100
AcDbEntity
8
SK2
62
256
6
ByLayer
370
13
48
1
60
0
100
AcDbLine
10
-119.870912
20
-12.4375
30
0
11
-119.452915
21
-9.262498
31
0
39
0
210
0
220
0
230
1
0
LINE
5
179
100
AcDbEntity
8
SK2
62
256
6
ByLayer
370
13
48
1
60
0
100
AcDbLine
10
-120.288908
20
-9.262502
30
0
11
-119.452915
21
-9.262498
31
0
39
0
210
0
220
0
230
1
0
LINE
5
17A
100
AcDbEntity
8
SK2
62
256
6
ByLayer
370
13
48
1
60
0
100
AcDbLine
10
-119.870912
20
12.4375
30
0
11
-119.452915
21
9.262502
31
0
39
0
210
0
220
0
230
1
0
LINE
5
17B
100
AcDbEntity
8
SK2
62
256
6
ByLayer
370
13
48
1
60
0
100
AcDbLine
10
-119.870912
20
12.4375
30
0
11
-120.288908
21
9.262498
31
0
39
0
210
0
220
0
230
1
0
LINE
5
17C
100
AcDbEntity
8
SK2
62
256
6
ByLayer
370
13
48
1
60
0
100
AcDbLine
10
-119.452915
20
9.262502
30
0
11
-120.288908
21
9.262498
31
0
39
0
210
0
220
0
230
1
0
ENDBLK
5
17E
100
AcDbEntity
8
0
100
AcDbBlockEnd
0
BLOCK
5
18B
100
AcDbEntity
8
0
100
AcDbBlockBegin
2
DimnDraft3D3
70
0
10
0
20
0
30
0
3
DimnDraft3D3
0
MTEXT
5
181
100
AcDbEntity
8
2
62
256
6
ByLayer
370
18
48
1
60
0
100
AcDbMText
10
60.354088
20
-0.419079
30
0
210
0
220
0
230
1
1
\W0.7346;32.0
40
4.5
41
0
44
1.084337
50
90
71
7
72
5
7
iso_b_vert
0
LINE
5
182
100
AcDbEntity
8
2
62
256
6
ByLayer
370
13
48
1
60
0
100
AcDbLine
10
2
20
-12.4375
30
0
11
63.479088
21
-12.4375
31
0
39
0
210
0
220
0
230
1
0
LINE
5
183
100
AcDbEntity
8
2
62
256
6
ByLayer
370
13
48
1
60
0
100
AcDbLine
10
41.229088
20
19.9125
30
0
11
63.479088
21
19.9125
31
0
39
0
210
0
220
0
230
1
0
LINE
5
184
100
AcDbEntity
8
2
62
256
6
ByLayer
370
13
48
1
60
0
100
AcDbLine
10
61.479088
20
-12.4375
30
0
11
61.479088
21
19.9125
31
0
39
0
210
0
220
0
230
1
0
LINE
5
185
100
AcDbEntity
8
2
62
256
6
ByLayer
370
13
48
1
60
0
100
AcDbLine
10
61.479088
20
-12.4375
30
0
11
61.061092
21
-9.262502
31
0
39
0
210
0
220
0
230
1
0
LINE
5
186
100
AcDbEntity
8
2
62
256
6
ByLayer
370
13
48
1
60
0
100
AcDbLine
10
61.479088
20
-12.4375
30
0
11
61.897085
21
-9.262498
31
0
39
0
210
0
220
0
230
1
0
LINE
5
187
100
AcDbEntity
8
2
62
256
6
ByLayer
370
13
48
1
60
0
100
AcDbLine
10
61.061092
20
-9.262502
30
0
11
61.897085
21
-9.262498
31
0
39
0
210
0
220
0
230
1
0
LINE
5
188
100
AcDbEntity
8
2
62
256
6
ByLayer
370
13
48
1
60
0
100
AcDbLine
10
61.479088
20
19.9125
30
0
11
61.897085
21
16.737502
31
0
39
0
210
0
220
0
230
1
0
LINE
5
189
100
AcDbEntity
8
2
62
256
6
ByLayer
370
13
48
1
60
0
100
AcDbLine
10
61.479088
20
19.9125
30
0
11
61.061092
21
16.737498
31
0
39
0
210
0
220
0
230
1
0
LINE
5
18A
100
AcDbEntity
8
2
62
256
6
ByLayer
370
13
48
1
60
0
100
AcDbLine
10
61.897085
20
16.737502
30
0
11
61.061092
21
16.737498
31
0
39
0
210
0
220
0
230
1
0
ENDBLK
5
18C
100
AcDbEntity
8
0
100
AcDbBlockEnd
0
BLOCK
5
199
100
AcDbEntity
8
0
100
AcDbBlockBegin
2
DimnDraft3D4
70
0
10
0
20
0
30
0
3
DimnDraft3D4
0
MTEXT
5
18F
100
AcDbEntity
8
2
62
256
6
ByLayer
370
18
48
1
60
0
100
AcDbMText
10
15.457965
20
50.7875
30
0
210
0
220
0
230
1
1
\W0.7346;39.2
40
4.5
41
0
44
1.084337
50
0
71
7
72
5
7
iso_b_vert
0
LINE
5
190
100
AcDbEntity
8
2
62
256
6
ByLayer
370
13
48
1
60
0
100
AcDbLine
10
0
20
14.4375
30
0
11
0
21
51.6625
31
0
39
0
210
0
220
0
230
1
0
LINE
5
191
100
AcDbEntity
8
2
62
256
6
ByLayer
370
13
48
1
60
0
100
AcDbLine
10
39.229088
20
21.9125
30
0
11
39.229088
21
51.6625
31
0
39
0
210
0
220
0
230
1
0
LINE
5
192
100
AcDbEntity
8
2
62
256
6
ByLayer
370
13
48
1
60
0
100
AcDbLine
10
0
20
49.6625
30
0
11
39.229088
21
49.6625
31
0
39
0
210
0
220
0
230
1
0
LINE
5
193
100
AcDbEntity
8
2
62
256
6
ByLayer
370
13
48
1
60
0
100
AcDbLine
10
0
20
49.6625
30
0
11
3.174998
21
50.080497
31
0
39
0
210
0
220
0
230
1
0
LINE
5
194
100
AcDbEntity
8
2
62
256
6
ByLayer
370
13
48
1
60
0
100
AcDbLine
10
0
20
49.6625
30
0
11
3.175002
21
49.244503
31
0
39
0
210
0
220
0
230
1
0
LINE
5
195
100
AcDbEntity
8
2
62
256
6
ByLayer
370
13
48
1
60
0
100
AcDbLine
10
3.174998
20
50.080497
30
0
11
3.175002
21
49.244503
31
0
39
0
210
0
220
0
230
1
0
LINE
5
196
100
AcDbEntity
8
2
62
256
6
ByLayer
370
13
48
1
60
0
100
AcDbLine
10
39.229088
20
49.6625
30
0
11
36.05409
21
49.244503
31
0
39
0
210
0
220
0
230
1
0
LINE
5
197
100
AcDbEntity
8
2
62
256
6
ByLayer
370
13
48
1
60
0
100
AcDbLine
10
39.229088
20
49.6625
30
0
11
36.054087
21
50.080497
31
0
39
0
210
0
220
0
230
1
0
LINE
5
198
100
AcDbEntity
8
2
62
256
6
ByLayer
370
13
48
1
60
0
100
AcDbLine
10
36.05409
20
49.244503
30
0
11
36.054087
21
50.080497
31
0
39
0
210
0
220
0
230
1
0
ENDBLK
5
19A
100
AcDbEntity
8
0
100
AcDbBlockEnd
0
BLOCK
5
1A7
100
AcDbEntity
8
0
100
AcDbBlockBegin
2
DimnDraft3D5
70
0
10
0
20
0
30
0
3
DimnDraft3D5
0
MTEXT
5
19D
100
AcDbEntity
8
SK2
62
256
6
ByLayer
370
18
48
1
60
0
100
AcDbMText
10
-41.721569
20
60.7875
30
0
210
0
220
0
230
1
1
\W0.6864;150.0
40
4.5
41
0
44
1.084337
50
0
71
7
72
5
7
iso_b_vert
0
LINE
5
19E
100
AcDbEntity
8
SK2
62
256
6
ByLayer
370
13
48
1
60
0
100
AcDbLine
10
39.229088
20
21.9125
30
0
11
39.229088
21
61.6625
31
0
39
0
210
0
220
0
230
1
0
LINE
5
19F
100
AcDbEntity
8
SK2
62
256
6
ByLayer
370
13
48
1
60
0
100
AcDbLine
10
-112.120912
20
14.4375
30
0
11
-112.120912
21
61.6625
31
0
39
0
210
0
220
0
230
1
0
LINE
5
1A0
100
AcDbEntity
8
SK2
62
256
6
ByLayer
370
13
48
1
60
0
100
AcDbLine
10
39.229088
20
59.6625
30
0
11
-112.120912
21
59.6625
31
0
39
0
210
0
220
0
230
1
0
LINE
5
1A1
100
AcDbEntity
8
SK2
62
256
6
ByLayer
370
13
48
1
60
0
100
AcDbLine
10
39.229088
20
59.6625
30
0
11
36.05409
21
59.244503
31
0
39
0
210
0
220
0
230
1
0
LINE
5
1A2
100
AcDbEntity
8
SK2
62
256
6
ByLayer
370
13
48
1
60
0
100
AcDbLine
10
39.229088
20
59.6625
30
0
11
36.054087
21
60.080497
31
0
39
0
210
0
220
0
230
1
0
LINE
5
1A3
100
AcDbEntity
8
SK2
62
256
6
ByLayer
370
13
48
1
60
0
100
AcDbLine
10
36.05409
20
59.244503
30
0
11
36.054087
21
60.080497
31
0
39
0
210
0
220
0
230
1
0
LINE
5
1A4
100
AcDbEntity
8
SK2
62
256
6
ByLayer
370
13
48
1
60
0
100
AcDbLine
10
-112.120912
20
59.6625
30
0
11
-108.945913
21
60.080497
31
0
39
0
210
0
220
0
230
1
0
LINE
5
1A5
100
AcDbEntity
8
SK2
62
256
6
ByLayer
370
13
48
1
60
0
100
AcDbLine
10
-112.120912
20
59.6625
30
0
11
-108.94591
21
59.244503
31
0
39
0
210
0
220
0
230
1
0
LINE
5
1A6
100
AcDbEntity
8
SK2
62
256
6
ByLayer
370
13
48
1
60
0
100
AcDbLine
10
-108.945913
20
60.080497
30
0
11
-108.94591
21
59.244503
31
0
39
0
210
0
220
0
230
1
0
ENDBLK
5
1A8
100
AcDbEntity
8
0
100
AcDbBlockEnd
0
ENDSEC
0
SECTION
2
ENTITIES
0
ELLIPSE
5
D1
100
AcDbEntity
8
1
62
256
6
ByLayer
370
18
48
1
60
0
100
AcDbEllipse
10
24.387192
20
0.558591
30
0
11
2.47363954431159
21
-2.47363954429997
31
0
210
0
220
0
230
1
40
0.989133
41
0.353759079292443
42
0.660923429469327
0
ELLIPSE
5
D2
100
AcDbEntity
8
1
62
256
6
ByLayer
370
18
48
1
60
0
100
AcDbEllipse
10
24.998745
20
11.397817
30
0
11
-0.942887808119987
21
3.82930737048668
31
0
210
0
220
0
230
1
40
0.533007
41
0.722279790180964
42
0.834869712922039
0
ELLIPSE
5
D3
100
AcDbEntity
8
1
62
256
6
ByLayer
370
18
48
1
60
0
100
AcDbEllipse
10
25.707505
20
1.878904
30
0
11
2.36914480392047
21
-2.36914480390935
31
0
210
0
220
0
230
1
40
0.989133
41
-0.503527467500467
42
0.698131700797726
0
ELLIPSE
5
D4
100
AcDbEntity
8
1
62
256
6
ByLayer
370
18
48
1
60
0
100
AcDbEllipse
10
24.371598
20
0.542996
30
0
11
2.36757352713335
21
-2.36757352712224
31
0
210
0
220
0
230
1
40
0.989133
41
0.288006640584398
42
0.567043856927002
0
ELLIPSE
5
D5
100
AcDbEntity
8
1
62
256
6
ByLayer
370
18
48
1
60
0
100
AcDbEllipse
10
1.886737
20
6.345763
30
0
11
-0.618768166579516
21
1.8549726960472
31
0
210
0
220
0
230
1
40
0.304658
41
-0.649022127698538
42
0.921774199097028
0
ELLIPSE
5
D6
100
AcDbEntity
8
1
62
256
6
ByLayer
370
18
48
1
60
0
100
AcDbEllipse
10
15.098612
20
-12.448293
30
0
11
-0.977941403851968
21
7.14454667162008E-05
31
0
210
0
220
0
230
1
40
0.003571
41
-2.9937332075404
42
-1.42293688074436
0
ELLIPSE
5
D7
100
AcDbEntity
8
1
62
256
6
ByLayer
370
18
48
1
60
0
100
AcDbEllipse
10
10.057703
20
3.816593
30
0
11
-4.63714380004375
21
-0.107271033124102
31
0
210
0
220
0
230
1
40
0.533782
41
-0.677420796207471
42
0.440551877963037
0
ELLIPSE
5
D8
100
AcDbEntity
8
1
62
256
6
ByLayer
370
18
48
1
60
0
100
AcDbEllipse
10
7.540593
20
1.672242
30
0
11
-3.08205525301717
21
1.6630832591055
31
0
210
0
220
0
230
1
40
0.99535
41
-0.0665514950913543
42
1.10568333562068
0
ELLIPSE
5
D9
100
AcDbEntity
8
1
62
256
6
ByLayer
370
18
48
1
60
0
100
AcDbEllipse
10
31.201125
20
11.850156
30
0
11
-0.897950543956109
21
2.77148575036256
31
0
210
0
220
0
230
1
40
0.794417
41
-1.80970431868553
42
-1.35999434266203
0
ELLIPSE
5
DA
100
AcDbEntity
8
1
62
256
6
ByLayer
370
18
48
1
60
0
100
AcDbEllipse
10
13.715134
20
-7.11112
30
0
11
-3.08205525307032
21
1.6630832590105
31
0
210
0
220
0
230
1
40
0.99535
41
1.10568333558944
42
2.27791816630117
0
ELLIPSE
5
DB
100
AcDbEntity
8
1
62
256
6
ByLayer
370
18
48
1
60
0
100
AcDbEllipse
10
15.020759
20
-3.093453
30
0
11
4.4994639761384
21
3.16304029810447
31
0
210
0
220
0
230
1
40
0.02553
41
1.92165591251143
42
2.32707508452476
0
ELLIPSE
5
DC
100
AcDbEntity
8
1
62
256
6
ByLayer
370
18
48
1
60
0
100
AcDbEllipse
10
7.928735
20
3.035885
30
0
11
2.0817652655485
21
-2.16015123988016
31
0
210
0
220
0
230
1
40
0.986455
41
-0.156280282981027
42
-0.0604792845384528
0
ELLIPSE
5
DD
100
AcDbEntity
8
1
62
256
6
ByLayer
370
18
48
1
60
0
100
AcDbEllipse
10
31.201125
20
11.850156
30
0
11
-2.50367503221431
21
1.35073548482649
31
0
210
0
220
0
230
1
40
0.787101
41
-1.97655749918461
42
-1.52684752315592
0
ELLIPSE
5
DE
100
AcDbEntity
8
1
62
256
6
ByLayer
370
18
48
1
60
0
100
AcDbEllipse
10
16.232245
20
-4.966769
30
0
11
-1.28250598833283
21
-4.64708230247954
31
0
210
0
220
0
230
1
40
0.556435
41
-0.527165213425821
42
0.590807460744526
0
ELLIPSE
5
DF
100
AcDbEntity
8
1
62
256
6
ByLayer
370
18
48
1
60
0
100
AcDbEllipse
10
17.617061
20
2.475806
30
0
11
-3.57369703919159
21
3.70825962846094
31
0
210
0
220
0
230
1
40
0.986455
41
3.08108183140579
42
-0.156280282981027
0
ELLIPSE
5
E0
100
AcDbEntity
8
1
62
256
6
ByLayer
370
18
48
1
60
0
100
AcDbEllipse
10
11.571295
20
1.813453
30
0
11
4.4994639761384
21
3.16304029810447
31
0
210
0
220
0
230
1
40
0.02553
41
1.9216559125114
42
2.32707508452467
0
ELLIPSE
5
E1
100
AcDbEntity
8
1
62
256
6
ByLayer
370
18
48
1
60
0
100
AcDbEllipse
10
12.104969
20
-12.315729
30
0
11
5.72659051508524
21
4.02568765213296
31
0
210
0
220
0
230
1
40
0.02553
41
-0.839252960940403
42
-0.808573903783109
0
ELLIPSE
5
E2
100
AcDbEntity
8
1
62
256
6
ByLayer
370
18
48
1
60
0
100
AcDbEllipse
10
18.281688
20
0.746122
30
0
11
0.353553390594104
21
-0.353553390592444
31
0
210
0
220
0
230
1
40
0.989133
41
2.07407426478115
42
2.58803591680784
0
ELLIPSE
5
E3
100
AcDbEntity
8
1
62
256
6
ByLayer
370
18
48
1
60
0
100
AcDbEllipse
10
16.989199
20
2.068414
30
0
11
0.98994949366349
21
-0.989949493658843
31
0
210
0
220
0
230
1
40
0.989133
41
-0.845199859506949
42
-0.266134084374539
0
ELLIPSE
5
E4
100
AcDbEntity
8
1
62
256
6
ByLayer
370
18
48
1
60
0
100
AcDbEllipse
10
16.989199
20
2.068414
30
0
11
0.98994949366349
21
-0.989949493658843
31
0
210
0
220
0
230
1
40
0.989133
41
0.106742054852229
42
0.781063466822059
0
ELLIPSE
5
E5
100
AcDbEntity
8
1
62
256
6
ByLayer
370
18
48
1
60
0
100
AcDbEllipse
10
18.539767
20
1.652171
30
0
11
-0.318198051534673
21
0.31819805153322
31
0
210
0
220
0
230
1
40
0.989133
41
2.07407426478105
42
-1.37594256398332
0
ELLIPSE
5
E6
100
AcDbEntity
8
1
62
256
6
ByLayer
370
18
48
1
60
0
100
AcDbEllipse
10
15.909832
20
3.603828
30
0
11
0.353553390594104
21
-0.353553390592444
31
0
210
0
220
0
230
1
40
0.989133
41
-1.06751838880869
42
-0.433543974257164
0
ELLIPSE
5
E7
100
AcDbEntity
8
1
62
256
6
ByLayer
370
18
48
1
60
0
100
AcDbEllipse
10
17.197819
20
2.277034
30
0
11
0.98994949366349
21
-0.989949493658843
31
0
210
0
220
0
230
1
40
0.989133
41
-1.31333163557181
42
-1.13012931722088
0
ELLIPSE
5
E8
100
AcDbEntity
8
1
62
256
6
ByLayer
370
18
48
1
60
0
100
AcDbEllipse
10
18.848456
20
2.220993
30
0
11
0.353553390594104
21
-0.353553390592444
31
0
210
0
220
0
230
1
40
0.989133
41
-3.1415859918562
42
-2.5279390766504
0
ELLIPSE
5
E9
100
AcDbEntity
8
1
62
256
6
ByLayer
370
18
48
1
60
0
100
AcDbEllipse
10
16.001175
20
1.443842
30
0
11
-0.318198051534673
21
0.31819805153322
31
0
210
0
220
0
230
1
40
0.989133
41
-0.0203208376120903
42
2.81284764080292
0
ELLIPSE
5
EA
100
AcDbEntity
8
1
62
256
6
ByLayer
370
18
48
1
60
0
100
AcDbEllipse
10
17.202321
20
2.281536
30
0
11
1.0076271631932
21
-1.00762716318846
31
0
210
0
220
0
230
1
40
0.989133
41
2.83686282413255
42
3.09725663264817
0
ELLIPSE
5
EB
100
AcDbEntity
8
1
62
256
6
ByLayer
370
18
48
1
60
0
100
AcDbEllipse
10
17.202321
20
2.281536
30
0
11
1.0076271631932
21
-1.00762716318846
31
0
210
0
220
0
230
1
40
0.989133
41
-1.35192738065387
42
-1.09153357213824
0
ELLIPSE
5
EC
100
AcDbEntity
8
1
62
256
6
ByLayer
370
18
48
1
60
0
100
AcDbEllipse
10
16.122953
20
3.816949
30
0
11
0.353553390594104
21
-0.353553390592444
31
0
210
0
220
0
230
1
40
0.989133
41
0.204490886383047
42
0.718452538409768
0
ELLIPSE
5
ED
100
AcDbEntity
8
1
62
256
6
ByLayer
370
18
48
1
60
0
100
AcDbEllipse
10
17.202321
20
2.281536
30
0
11
1.0076271631932
21
-1.00762716318846
31
0
210
0
220
0
230
1
40
0.989133
41
0.742467721739338
42
1.00286153025496
0
ELLIPSE
5
EE
100
AcDbEntity
8
1
62
256
6
ByLayer
370
18
48
1
60
0
100
AcDbEllipse
10
17.1255
20
0.601356
30
0
11
-0.318198051534673
21
0.31819805153322
31
0
210
0
220
0
230
1
40
0.989133
41
-2.79623373661195
42
-2.42314011517998
0
ELLIPSE
5
EF
100
AcDbEntity
8
1
62
256
6
ByLayer
370
18
48
1
60
0
100
AcDbEllipse
10
16.852899
20
3.535472
30
0
11
-0.318198051534673
21
0.31819805153322
31
0
210
0
220
0
230
1
40
0.989133
41
-2.11471594000527
42
-0.345401656471058
0
ELLIPSE
5
F0
100
AcDbEntity
8
1
62
256
6
ByLayer
370
18
48
1
60
0
100
AcDbEllipse
10
17.98221
20
3.969529
30
0
11
0.353553390594104
21
-0.353553390592444
31
0
210
0
220
0
230
1
40
0.989133
41
-2.11471594000524
42
-1.6007542879785
0
ELLIPSE
5
F1
100
AcDbEntity
8
1
62
256
6
ByLayer
370
18
48
1
60
0
100
AcDbEllipse
10
16.93202
20
2.011235
30
0
11
0.98994949366349
21
-0.989949493658843
31
0
210
0
220
0
230
1
40
0.989133
41
3.11238420644166
42
-1.40718976785497
0
ELLIPSE
5
F2
100
AcDbEntity
8
1
62
256
6
ByLayer
370
18
48
1
60
0
100
AcDbEllipse
10
16.93202
20
2.011235
30
0
11
0.98994949366349
21
-0.989949493658843
31
0
210
0
220
0
230
1
40
0.989133
41
0.136215985086715
42
3.11238420644166
0
ELLIPSE
5
F3
100
AcDbEntity
8
1
62
256
6
ByLayer
370
18
48
1
60
0
100
AcDbEllipse
10
17.197819
20
2.277034
30
0
11
0.98994949366349
21
-0.989949493658843
31
0
210
0
220
0
230
1
40
0.989133
41
0.781063466822059
42
0.964265785172291
0
ELLIPSE
5
F4
100
AcDbEntity
8
1
62
256
6
ByLayer
370
18
48
1
60
0
100
AcDbEllipse
10
17.061521
20
2.140736
30
0
11
-3.53553390594081
21
3.53553390592466
31
0
210
0
220
0
230
1
40
0.989133
41
0
42
6.28318530717959
0
ELLIPSE
5
F5
100
AcDbEntity
8
1
62
256
6
ByLayer
370
18
48
1
60
0
100
AcDbEllipse
10
17.197819
20
2.277034
30
0
11
0.98994949366349
21
-0.989949493658843
31
0
210
0
220
0
230
1
40
0.989133
41
1.82826101801865
42
2.01146333636888
0
ELLIPSE
5
F6
100
AcDbEntity
8
1
62
256
6
ByLayer
370
18
48
1
60
0
100
AcDbEllipse
10
16.989199
20
2.068414
30
0
11
0.98994949366349
21
-0.989949493658843
31
0
210
0
220
0
230
1
40
0.989133
41
-2.09709674383292
42
-1.48318776289584
0
ELLIPSE
5
F7
100
AcDbEntity
8
1
62
256
6
ByLayer
370
18
48
1
60
0
100
AcDbEllipse
10
18.190344
20
2.906108
30
0
11
-0.318198051534673
21
0.31819805153322
31
0
210
0
220
0
230
1
40
0.989133
41
-3.11202227657917
42
-0.328745012786853
0
ELLIPSE
5
F8
100
AcDbEntity
8
1
62
256
6
ByLayer
370
18
48
1
60
0
100
AcDbEllipse
10
16.422432
20
0.593542
30
0
11
0.353553390594104
21
-0.353553390592444
31
0
210
0
220
0
230
1
40
0.989133
41
2.29888598877629
42
2.81284764080298
0
ELLIPSE
5
F9
100
AcDbEntity
8
1
62
256
6
ByLayer
370
18
48
1
60
0
100
AcDbEllipse
10
17.98221
20
3.969529
30
0
11
0.353553390594104
21
-0.353553390592444
31
0
210
0
220
0
230
1
40
0.989133
41
-0.842706664813487
42
-0.328745012786835
0
ELLIPSE
5
FA
100
AcDbEntity
8
1
62
256
6
ByLayer
370
18
48
1
60
0
100
AcDbEllipse
10
17.202321
20
2.281536
30
0
11
1.0076271631932
21
-1.00762716318846
31
0
210
0
220
0
230
1
40
0.989133
41
-2.39912493185045
42
-2.13873112333483
0
ELLIPSE
5
FB
100
AcDbEntity
8
1
62
256
6
ByLayer
370
18
48
1
60
0
100
AcDbEllipse
10
17.202321
20
2.281536
30
0
11
1.0076271631932
21
-1.00762716318846
31
0
210
0
220
0
230
1
40
0.989133
41
1.78966527293595
42
2.05005908145156
0
ELLIPSE
5
FC
100
AcDbEntity
8
1
62
256
6
ByLayer
370
18
48
1
60
0
100
AcDbEllipse
10
18.068567
20
0.533
30
0
11
0.353553390594104
21
-0.353553390592444
31
0
210
0
220
0
230
1
40
0.989133
41
-3.05711452973144
42
-2.42314011518
0
ELLIPSE
5
FD
100
AcDbEntity
8
1
62
256
6
ByLayer
370
18
48
1
60
0
100
AcDbEllipse
10
18.281688
20
0.746122
30
0
11
0.353553390594104
21
-0.353553390592444
31
0
210
0
220
0
230
1
40
0.989133
41
-2.93710176720672
42
-2.42314011518005
0
ELLIPSE
5
FE
100
AcDbEntity
8
1
62
256
6
ByLayer
370
18
48
1
60
0
100
AcDbEllipse
10
17.197819
20
2.277034
30
0
11
0.98994949366349
21
-0.989949493658843
31
0
210
0
220
0
230
1
40
0.989133
41
2.87545856921484
42
3.05866088756591
0
ELLIPSE
5
FF
100
AcDbEntity
8
1
62
256
6
ByLayer
370
18
48
1
60
0
100
AcDbEllipse
10
15.343064
20
2.128956
30
0
11
0.353553390594104
21
-0.353553390592444
31
0
210
0
220
0
230
1
40
0.989133
41
1.25168843757964
42
1.76565008960641
0
ELLIPSE
5
100
100
AcDbEntity
8
1
62
256
6
ByLayer
370
18
48
1
60
0
100
AcDbEllipse
10
16.989199
20
2.068414
30
0
11
0.98994949366349
21
-0.989949493658843
31
0
210
0
220
0
230
1
40
0.989133
41
2.01146333636888
42
2.87545856921525
0
ELLIPSE
5
101
100
AcDbEntity
8
1
62
256
6
ByLayer
370
18
48
1
60
0
100
AcDbEllipse
10
19.061577
20
2.434115
30
0
11
0.353553390594104
21
-0.353553390592444
31
0
210
0
220
0
230
1
40
0.989133
41
-1.88990421601007
42
-1.37594256398341
0
ELLIPSE
5
102
100
AcDbEntity
8
1
62
256
6
ByLayer
370
18
48
1
60
0
100
AcDbEllipse
10
17.769088
20
3.756407
30
0
11
0.353553390594104
21
-0.353553390592444
31
0
210
0
220
0
230
1
40
0.989133
41
-2.11471594000524
42
-1.48074152545371
0
ELLIPSE
5
103
100
AcDbEntity
8
1
62
256
6
ByLayer
370
18
48
1
60
0
100
AcDbEllipse
10
18.326645
20
1.43905
30
0
11
-0.318198051534673
21
0.31819805153322
31
0
210
0
220
0
230
1
40
0.989133
41
-2.79615610031133
42
-1.37594256398335
0
ELLIPSE
5
104
100
AcDbEntity
8
1
62
256
6
ByLayer
370
18
48
1
60
0
100
AcDbEllipse
10
16.422432
20
0.593542
30
0
11
0.353553390594104
21
-0.353553390592444
31
0
210
0
220
0
230
1
40
0.989133
41
1.02687671358456
42
1.54083836561121
0
ELLIPSE
5
105
100
AcDbEntity
8
1
62
256
6
ByLayer
370
18
48
1
60
0
100
AcDbEllipse
10
15.651753
20
2.697779
30
0
11
-0.318198051534673
21
0.31819805153322
31
0
210
0
220
0
230
1
40
0.989133
41
-1.06751838880869
42
-0.34536976054971
0
ELLIPSE
5
106
100
AcDbEntity
8
1
62
256
6
ByLayer
370
18
48
1
60
0
100
AcDbEllipse
10
17.202321
20
2.281536
30
0
11
1.0076271631932
21
-1.00762716318846
31
0
210
0
220
0
230
1
40
0.989133
41
-0.304729829457281
42
-0.0443360209416337
0
ELLIPSE
5
107
100
AcDbEntity
8
1
62
256
6
ByLayer
370
18
48
1
60
0
100
AcDbEllipse
10
16.989199
20
2.068414
30
0
11
0.98994949366349
21
-0.989949493658843
31
0
210
0
220
0
230
1
40
0.989133
41
0.964265785172291
42
1.82826101801867
0
ELLIPSE
5
108
100
AcDbEntity
8
1
62
256
6
ByLayer
370
18
48
1
60
0
100
AcDbEllipse
10
18.848456
20
2.220993
30
0
11
0.353553390594104
21
-0.353553390592444
31
0
210
0
220
0
230
1
40
0.989133
41
-2.00991697853483
42
-1.3759425639834
0
ELLIPSE
5
109
100
AcDbEntity
8
1
62
256
6
ByLayer
370
18
48
1
60
0
100
AcDbEllipse
10
18.403466
20
3.119229
30
0
11
-0.318198051534673
21
0.31819805153322
31
0
210
0
220
0
230
1
40
0.989133
41
3.1212718159777
42
-0.328745012786803
0
ELLIPSE
5
10A
100
AcDbEntity
8
1
62
256
6
ByLayer
370
18
48
1
60
0
100
AcDbEllipse
10
15.343064
20
2.128956
30
0
11
0.353553390594104
21
-0.353553390592444
31
0
210
0
220
0
230
1
40
0.989133
41
-0.0203208376120175
42
0.493640814414671
0
ELLIPSE
5
10B
100
AcDbEntity
8
1
62
256
6
ByLayer
370
18
48
1
60
0
100
AcDbEllipse
10
16.122953
20
3.816949
30
0
11
0.353553390594104
21
-0.353553390592444
31
0
210
0
220
0
230
1
40
0.989133
41
-1.06751838880869
42
-0.553556736781988
0
ELLIPSE
5
10C
100
AcDbEntity
8
1
62
256
6
ByLayer
370
18
48
1
60
0
100
AcDbEllipse
10
19.061577
20
2.434115
30
0
11
0.353553390594104
21
-0.353553390592444
31
0
210
0
220
0
230
1
40
0.989133
41
3.12127181597775
42
-2.64795183917516
0
ELLIPSE
5
10D
100
AcDbEntity
8
1
62
256
6
ByLayer
370
18
48
1
60
0
100
AcDbEllipse
10
17.06602
20
3.748594
30
0
11
-0.318198051534673
21
0.31819805153322
31
0
210
0
220
0
230
1
40
0.989133
41
-2.11471594000526
42
0.718452538409764
0
ELLIPSE
5
10E
100
AcDbEntity
8
1
62
256
6
ByLayer
370
18
48
1
60
0
100
AcDbEllipse
10
16.890436
20
1.969651
30
0
11
3.53553390594103
21
-3.53553390592444
31
0
210
0
220
0
230
1
40
0.989133
41
4.73448724736807E-05
42
-1.40718982501423
0
ELLIPSE
5
10F
100
AcDbEntity
8
1
62
256
6
ByLayer
370
18
48
1
60
0
100
AcDbEllipse
10
16.890436
20
1.969651
30
0
11
3.53553390594103
21
-3.53553390592444
31
0
210
0
220
0
230
1
40
0.989133
41
-0.214071732482898
42
-2.69380888020153E-16
0
ELLIPSE
5
110
100
AcDbEntity
8
1
62
256
6
ByLayer
370
18
48
1
60
0
100
AcDbEllipse
10
17.197819
20
2.277034
30
0
11
0.98994949366349
21
-0.989949493658843
31
0
210
0
220
0
230
1
40
0.989133
41
-0.266134084374968
42
-0.0829317660243354
0
ELLIPSE
5
111
100
AcDbEntity
8
1
62
256
6
ByLayer
370
18
48
1
60
0
100
AcDbEllipse
10
15.864875
20
2.9109
30
0
11
-0.318198051534673
21
0.31819805153322
31
0
210
0
220
0
230
1
40
0.989133
41
-1.06751838880868
42
1.76565008960641
0
ELLIPSE
5
112
100
AcDbEntity
8
1
62
256
6
ByLayer
370
18
48
1
60
0
100
AcDbEllipse
10
17.769088
20
3.756407
30
0
11
0.353553390594104
21
-0.353553390592444
31
0
210
0
220
0
230
1
40
0.989133
41
-0.962719427338289
42
-0.328745012786801
0
ELLIPSE
5
113
100
AcDbEntity
8
1
62
256
6
ByLayer
370
18
48
1
60
0
100
AcDbEllipse
10
17.338621
20
0.814478
30
0
11
-0.318198051534673
21
0.31819805153322
31
0
210
0
220
0
230
1
40
0.989133
41
1.02687671358457
42
-2.42314011518003
0
ELLIPSE
5
114
100
AcDbEntity
8
1
62
256
6
ByLayer
370
18
48
1
60
0
100
AcDbEllipse
10
16.989199
20
2.068414
30
0
11
0.98994949366349
21
-0.989949493658843
31
0
210
0
220
0
230
1
40
0.989133
41
3.05866088756548
42
-2.67069007507049
0
ELLIPSE
5
115
100
AcDbEntity
8
1
62
256
6
ByLayer
370
18
48
1
60
0
100
AcDbEllipse
10
17.202321
20
2.281536
30
0
11
-1.76776695297041
21
1.76776695296233
31
0
210
0
220
0
230
1
40
0.989133
41
0
42
6.28318530717959
0
ELLIPSE
5
116
100
AcDbEntity
8
1
62
256
6
ByLayer
370
18
48
1
60
0
100
AcDbEllipse
10
17.197819
20
2.277034
30
0
11
0.98994949366349
21
-0.989949493658843
31
0
210
0
220
0
230
1
40
0.989133
41
-2.36052918676772
42
-2.17732686841752
0
ELLIPSE
5
117
100
AcDbEntity
8
1
62
256
6
ByLayer
370
18
48
1
60
0
100
AcDbEllipse
10
30.703584
20
11.386995
30
0
11
2.24506403027256
21
-2.24506403026202
31
0
210
0
220
0
230
1
40
0.989133
41
0.0999238899414956
42
2.69055980370839
0
ELLIPSE
5
118
100
AcDbEntity
8
1
62
256
6
ByLayer
370
18
48
1
60
0
100
AcDbEllipse
10
36.931024
20
5.159555
30
0
11
-0.842164176395101
21
0.842164176391256
31
0
210
0
220
0
230
1
40
0.989133
41
2.4434609527921
42
-2.44346095279205
0
ELLIPSE
5
119
100
AcDbEntity
8
1
62
256
6
ByLayer
370
18
48
1
60
0
100
AcDbEllipse
10
38.044507
20
18.727919
30
0
11
-0.842164176395101
21
0.842164176391256
31
0
210
0
220
0
230
1
40
0.989133
41
-2.44346095279207
42
-0.698131700797722
0
ELLIPSE
5
11A
100
AcDbEntity
8
1
62
256
6
ByLayer
370
18
48
1
60
0
100
AcDbEllipse
10
24.476144
20
17.614435
30
0
11
-0.842164176395101
21
0.842164176391256
31
0
210
0
220
0
230
1
40
0.989133
41
-0.698131700797703
42
0.698131700797733
0
POINT
5
6C
100
AcDbEntity
8
2
62
256
6
ByLayer
370
18
48
1
60
0
100
AcDbPoint
10
39.229088
20
19.9125
30
0
39
0
210
0
220
0
230
1
50
360
0
POINT
5
6E
100
AcDbEntity
8
80
62
256
6
ByLayer
370
18
48
1
60
0
100
AcDbPoint
10
0
20
0
30
0
39
0
210
0
220
0
230
1
50
360
0
POINT
5
70
100
AcDbEntity
8
81
62
256
6
ByLayer
370
18
48
1
60
0
100
AcDbPoint
10
39.229088
20
19.9125
30
0
39
0
210
0
220
0
230
1
50
360
0
SPLINE
5
11B
100
AcDbEntity
8
1
62
256
6
ByLayer
370
18
48
1
60
0
100
AcDbSpline
70
4
71
3
72
8
73
4
40
0
40
0
40
0
40
0
40
1
40
1
40
1
40
1
41
1
10
13.0999470399421
20
-7.71850007009701
30
0
41
1
10
13.4010034807164
20
-6.60785541195108
30
0
41
1
10
13.7656625497692
20
-5.1669292504933
30
0
41
1
10
14.1174494014353
20
-3.67129039377849
30
0
0
SPLINE
5
11C
100
AcDbEntity
8
1
62
256
6
ByLayer
370
18
48
1
60
0
100
AcDbSpline
70
4
71
3
72
14
73
10
40
0
40
0
40
0
40
0
40
0.264998964150957
40
0.264998964150957
40
0.633007150607457
40
0.633007150607457
40
0.984533813617863
40
0.984533813617863
40
1
40
1
40
1
40
1
41
1
10
33.2255036943845
20
9.99637134557582
30
0
41
1
10
33.2900053202795
20
10.1286852089582
30
0
41
1
10
33.3477561753658
20
10.2761779548295
30
0
41
1
10
33.4615545592759
20
10.6518914448468
30
0
41
1
10
33.5094297226422
20
10.8950231883366
30
0
41
1
10
33.5600078425821
20
11.3766851194174
30
0
41
1
10
33.5654884106546
20
11.6204765937907
30
0
41
1
10
33.5538800577764
20
11.8664886666327
30
0
41
1
10
33.5533541028097
20
11.8769458442678
30
0
41
1
10
33.5527964491138
20
11.8873923013015
30
0
0
SPLINE
5
11D
100
AcDbEntity
8
1
62
256
6
ByLayer
370
18
48
1
60
0
100
AcDbSpline
70
4
71
3
72
10
73
6
40
0
40
0
40
0
40
0
40
0.5
40
0.5
40
1
40
1
40
1
40
1
41
1
10
22.7843650405405
20
4.59475811586992
30
0
41
1
10
23.2004791893756
20
3.53975364000675
30
0
41
1
10
23.1760066908513
20
2.35225771628461
30
0
41
1
10
22.4966273108685
20
0.21772778265921
30
0
41
1
10
21.8450405054674
20
-0.755322848643488
30
0
41
1
10
20.9501299675764
20
-1.44076501980442
30
0
0
SPLINE
5
11E
100
AcDbEntity
8
1
62
256
6
ByLayer
370
18
48
1
60
0
100
AcDbSpline
70
4
71
3
72
8
73
4
40
0
40
0
40
0
40
0
40
1
40
1
40
1
40
1
41
1
10
15.0342913390351
20
6.9745886554937
30
0
41
1
10
14.5344961753432
20
7.53272047477276
30
0
41
1
10
14.1020279007695
20
7.94782623825859
30
0
41
1
10
13.7862371176743
20
8.17253664587611
30
0
0
SPLINE
5
11F
100
AcDbEntity
8
1
62
256
6
ByLayer
370
18
48
1
60
0
100
AcDbSpline
70
4
71
3
72
10
73
6
40
0
40
0
40
0
40
0
40
0.579529299651679
40
0.579529299651679
40
1
40
1
40
1
40
1
41
1
10
29.8272268139285
20
2.95025406585427
30
0
41
1
10
30.071777578234
20
3.34866555141923
30
0
41
1
10
30.3349808198841
20
3.7326247381495
30
0
41
1
10
30.8006795159396
20
4.30884784091927
30
0
41
1
10
31.0051208829447
20
4.52735322566639
30
0
41
1
10
31.2056484230335
20
4.70871732009101
30
0
0
SPLINE
5
120
100
AcDbEntity
8
1
62
256
6
ByLayer
370
18
48
1
60
0
100
AcDbSpline
70
4
71
3
72
8
73
4
40
0
40
0
40
0
40
0
40
1
40
1
40
1
40
1
41
1
10
24.5630382983409
20
14.1579124446355
30
0
41
1
10
24.705077553718
20
14.2266374146811
30
0
41
1
10
24.8486897151002
20
14.2927224065269
30
0
41
1
10
24.9944276309653
20
14.3548257788132
30
0
0
SPLINE
5
121
100
AcDbEntity
8
1
62
256
6
ByLayer
370
18
48
1
60
0
100
AcDbSpline
70
4
71
3
72
12
73
8
40
0
40
0
40
0
40
0
40
0.274077856982874
40
0.274077856982874
40
0.548155363965172
40
0.548155363965172
40
1
40
1
40
1
40
1
41
1
10
21.3282058957344
20
6.6661625236805
30
0
41
1
10
21.5035252371097
20
6.51178625218233
30
0
41
1
10
21.6693194338806
20
6.34545079592658
30
0
41
1
10
21.9773992347534
20
5.99351960029477
30
0
41
1
10
22.1203910282899
20
5.80711776656747
30
0
41
1
10
22.463844315156
20
5.29384234217392
30
0
41
1
10
22.6441099939056
20
4.95030382462218
30
0
41
1
10
22.7843650405405
20
4.59475811586998
30
0
0
SPLINE
5
122
100
AcDbEntity
8
1
62
256
6
ByLayer
370
18
48
1
60
0
100
AcDbSpline
70
4
71
3
72
8
73
4
40
0
40
0
40
0
40
0
40
1
40
1
40
1
40
1
41
1
10
13.8229792845263
20
-8.62393130585423
30
0
41
1
10
13.8163146171976
20
-8.6115429973504
30
0
41
1
10
13.8094555785553
20
-8.59895702841166
30
0
41
1
10
13.8024353526605
20
-8.58621397326885
30
0
0
SPLINE
5
123
100
AcDbEntity
8
1
62
256
6
ByLayer
370
18
48
1
60
0
100
AcDbSpline
70
4
71
3
72
8
73
4
40
0
40
0
40
0
40
0
40
1
40
1
40
1
40
1
41
1
10
12.8416968862747
20
-7.41305714309976
30
0
41
1
10
12.920388337782
20
-7.52499670691091
30
0
41
1
10
13.006848693652
20
-7.62621248877204
30
0
41
1
10
13.0999470399421
20
-7.71850007009701
30
0
0
SPLINE
5
124
100
AcDbEntity
8
1
62
256
6
ByLayer
370
18
48
1
60
0
100
AcDbSpline
70
4
71
3
72
10
73
6
40
0
40
0
40
0
40
0
40
0.731297369966787
40
0.731297369966787
40
1
40
1
40
1
40
1
41
1
10
14.1174494014353
20
-3.67129039377849
30
0
41
1
10
14.1956704798551
20
-3.6390935614977
30
0
41
1
10
14.2789147095197
20
-3.60947714806545
30
0
41
1
10
14.3919873003263
20
-3.5770218489337
30
0
41
1
10
14.4227081130206
20
-3.56897612176184
30
0
41
1
10
14.4530450707037
20
-3.56183538949892
30
0
0
SPLINE
5
125
100
AcDbEntity
8
1
62
256
6
ByLayer
370
18
48
1
60
0
100
AcDbSpline
70
4
71
3
72
12
73
8
40
0
40
0
40
0
40
0
40
0.499999999999996
40
0.499999999999996
40
0.749999999999998
40
0.749999999999998
40
1
40
1
40
1
40
1
41
1
10
29.8775062893532
20
10.1139590061243
30
0
41
1
10
29.7203030742894
20
9.76461922725835
30
0
41
1
10
29.5738144514725
20
9.39037481614386
30
0
41
1
10
29.4654458033593
20
8.72259940430988
30
0
41
1
10
29.4501473970338
20
8.47354422064709
30
0
41
1
10
29.5448431684059
20
8.06451889034702
30
0
41
1
10
29.6587908103062
20
7.95615530954404
30
0
41
1
10
29.7733852512217
20
7.9312716063753
30
0
0
SPLINE
5
126
100
AcDbEntity
8
1
62
256
6
ByLayer
370
18
48
1
60
0
100
AcDbSpline
70
4
71
3
72
10
73
6
40
0
40
0
40
0
40
0
40
0.5
40
0.5
40
1
40
1
40
1
40
1
41
1
10
15.0342913390351
20
6.9745886554937
30
0
41
1
10
15.9849272421551
20
7.57746249218306
30
0
41
1
10
17.1253322761394
20
7.86378559473047
30
0
41
1
10
19.3598545162756
20
7.78881255858172
30
0
41
1
10
20.4749912705687
20
7.41737444003661
30
0
41
1
10
21.3282058957344
20
6.66616252368053
30
0
0
SPLINE
5
127
100
AcDbEntity
8
1
62
256
6
ByLayer
370
18
48
1
60
0
100
AcDbSpline
70
4
71
2
72
6
73
3
40
0
40
0
40
0
40
1
40
1
40
1
41
0.943993462491077
10
20.9501300001983
20
-1.44076507955386
30
0
41
0.955129619920243
10
21.5218605229949
20
-2.48793221834893
30
0
41
1.0258173342201
10
21.7214686987277
20
-3.11542850039857
30
0
0
SPLINE
5
128
100
AcDbEntity
8
1
62
256
6
ByLayer
370
18
48
1
60
0
100
AcDbSpline
70
4
71
3
72
11
73
7
40
0
40
0
40
0
40
0
40
0.0598016998855024
40
0.468392215040457
40
0.740785891810427
40
1
40
1
40
1
40
1
41
1.02298250505371
10
22.7843650404741
20
4.59475811581976
30
0
41
1.02281639303115
10
22.9771685381696
20
4.74061994002694
30
0
41
1.02150796927554
10
24.4997952726396
20
5.89664256982704
30
0
41
1.01953314781965
10
26.9398623253172
20
7.80491977665593
30
0
41
1.0172623798868
10
28.707854927624
20
9.24753794691088
30
0
41
1.01931548101
10
29.4002848478036
20
9.74808873068199
30
0
41
1.02052415826788
10
29.8775062892124
20
10.1139590060164
30
0
0
SPLINE
5
129
100
AcDbEntity
8
1
62
256
6
ByLayer
370
18
48
1
60
0
100
AcDbSpline
70
4
71
3
72
8
73
4
40
0
40
0
40
0
40
0
40
1
40
1
40
1
40
1
41
1
10
10.5633677551288
20
1.3844347404837
30
0
41
1
10
9.04404219561945
20
1.55016163962455
30
0
41
1
10
7.58094402392004
20
1.67036423533008
30
0
41
1
10
6.46589773122275
20
1.71851718775983
30
0
0
SPLINE
5
12A
100
AcDbEntity
8
1
62
256
6
ByLayer
370
18
48
1
60
0
100
AcDbSpline
70
4
71
3
72
14
73
10
40
0
40
0
40
0
40
0
40
0.056061740082462
40
0.056061740082462
40
0.432699965147825
40
0.432699965147825
40
0.811345304670917
40
0.811345304670917
40
1
40
1
40
1
40
1
41
1
10
32.1532655875463
20
13.8782422752625
30
0
41
1
10
32.1186244012767
20
13.8926302496189
30
0
41
1
10
32.0836836874559
20
13.9067083396735
30
0
41
1
10
31.8142515200682
20
14.0118548501533
30
0
41
1
10
31.5641203913625
20
14.089119161179
30
0
41
1
10
31.0692239662583
20
14.1970616758815
30
0
41
1
10
30.8178972624341
20
14.2286746135021
30
0
41
1
10
30.4706283387618
20
14.2384266924798
30
0
41
1
10
30.3580946023128
20
14.235626111338
30
0
41
1
10
30.2512588261074
20
14.2272714858767
30
0
0
SPLINE
5
12B
100
AcDbEntity
8
1
62
256
6
ByLayer
370
18
48
1
60
0
100
AcDbSpline
70
4
71
3
72
10
73
6
40
0
40
0
40
0
40
0
40
0.31168179770978
40
0.31168179770978
40
1
40
1
40
1
40
1
41
1
10
30.477046105531
20
11.3794428299612
30
0
41
1
10
30.4130867479819
20
11.2511839622611
30
0
41
1
10
30.3496724248068
20
11.1218276727774
30
0
41
1
10
30.1478504375741
20
10.7037020074725
30
0
41
1
10
30.0112558478678
20
10.4113201902788
30
0
41
1
10
29.8775062893532
20
10.1139590061243
30
0
0
SPLINE
5
12C
100
AcDbEntity
8
1
62
256
6
ByLayer
370
18
48
1
60
0
100
AcDbSpline
70
4
71
3
72
11
73
7
40
0
40
0
40
0
40
0
40
0.425230898249523
40
0.744154071936666
40
0.956769521061428
40
1
40
1
40
1
40
1
41
1.0258173342201
10
21.7214686987277
20
-3.11542850039857
30
0
41
1.02559001729416
10
22.5919388090216
20
-2.37745264232666
30
0
41
1.0228008665691
10
25.1228519304308
20
0.82817888496902
30
0
41
1.01953314781965
10
28.194954475853
20
5.68996964681218
30
0
41
1.01775466813744
10
29.2550978578062
20
7.36859311537118
30
0
41
1.01823166218986
10
29.6982363804764
20
7.85347442208734
30
0
41
1.01834276704995
10
29.7733852512217
20
7.93127160637533
30
0
0
SPLINE
5
12D
100
AcDbEntity
8
1
62
256
6
ByLayer
370
18
48
1
60
0
100
AcDbSpline
70
4
71
3
72
8
73
4
40
0
40
0
40
0
40
0
40
1
40
1
40
1
40
1
41
1
10
11.1788572685414
20
2.66168529128325
30
0
41
1
10
11.3671718988568
20
3.81889637291573
30
0
41
1
10
12.0154717707956
20
4.87518817293005
30
0
41
1
10
13.0653064448126
20
5.60735567279269
30
0
0
SPLINE
5
12E
100
AcDbEntity
8
1
62
256
6
ByLayer
370
18
48
1
60
0
100
AcDbSpline
70
4
71
3
72
11
73
7
40
0
40
0
40
0
40
0
40
0.0598016998824433
40
0.468392215028713
40
0.740785891792893
40
1
40
1
40
1
40
1
41
1.0229825050537
10
21.3282058956643
20
6.66616252363634
30
0
41
1.02281639303114
10
21.5329403983056
20
6.79505234561396
30
0
41
1.02150796927553
10
23.154498274841
20
7.81034420124845
30
0
41
1.01953314781965
10
25.8175834997818
20
9.40137529753431
30
0
41
1.01726237988674
10
27.8146971661106
20
10.5180659182553
30
0
41
1.01931548101018
10
28.5369156489126
20
10.9762421030223
30
0
41
1.02052415826821
10
29.0558022717563
20
11.2828431421835
30
0
0
SPLINE
5
12F
100
AcDbEntity
8
1
62
256
6
ByLayer
370
18
48
1
60
0
100
AcDbSpline
70
4
71
3
72
8
73
4
40
0
40
0
40
0
40
0
40
1
40
1
40
1
40
1
41
1
10
5.91361397819844
20
2.63573207966621
30
0
41
1
10
5.90488027367064
20
2.64539737145802
30
0
41
1
10
5.89626094296886
20
2.65483306130327
30
0
41
1
10
5.88774770347294
20
2.66403384042042
30
0
0
SPLINE
5
130
100
AcDbEntity
8
1
62
256
6
ByLayer
370
18
48
1
60
0
100
AcDbSpline
70
4
71
3
72
10
73
6
40
0
40
0
40
0
40
0
40
0.731096563947331
40
0.731096563947331
40
1
40
1
40
1
40
1
41
1
10
10.7801476873336
20
1.66290660143579
30
0
41
1
10
10.7338801971062
20
1.59358156071957
30
0
41
1
10
10.6805111408546
20
1.52287381244349
30
0
41
1
10
10.6051382857614
20
1.43220875771064
30
0
41
1
10
10.5843177043208
20
1.40802446598582
30
0
41
1
10
10.5633677551288
20
1.3844347404837
30
0
0
SPLINE
5
131
100
AcDbEntity
8
1
62
256
6
ByLayer
370
18
48
1
60
0
100
AcDbSpline
70
4
71
3
72
10
73
6
40
0
40
0
40
0
40
0
40
0.300434803509637
40
0.926576302243942
40
1
40
1
40
1
40
1
41
1.01906281214953
10
31.5477960253513
20
5.03258973121695
30
0
41
1.01951662816455
10
31.6842680644849
20
5.31889434839953
30
0
41
1.02128725997138
10
32.1148134556665
20
6.27559850825682
30
0
41
1.02366220434836
10
32.777963696715
20
7.97132065485588
30
0
41
1.02527232143637
10
33.1014095888606
20
9.02367227697026
30
0
41
1.02543997666398
10
33.1338679274744
20
9.13241414227949
30
0
0
SPLINE
5
132
100
AcDbEntity
8
1
62
256
6
ByLayer
370
18
48
1
60
0
100
AcDbSpline
70
4
71
3
72
16
73
12
40
0
40
0
40
0
40
0
40
0.107738294188997
40
0.107738294188997
40
0.260376815889416
40
0.260376815889416
40
0.501548994683953
40
0.501548994683953
40
0.87966432874005
40
0.87966432874005
40
1
40
1
40
1
40
1
41
1
10
6.46589773122275
20
1.71851718775983
30
0
41
1
10
6.44324381027388
20
1.76694285284466
30
0
41
1
10
6.41784015227631
20
1.81689193744765
30
0
41
1
10
6.35764065335161
20
1.93157479817688
30
0
41
1
10
6.32207017773533
20
1.99634269040158
30
0
41
1
10
6.23637887583385
20
2.14968070948913
30
0
41
1
10
6.18770741022718
20
2.23382830544716
30
0
41
1
10
6.07538572338103
20
2.42006284756312
30
0
41
1
10
6.01608725340537
20
2.50926084622645
30
0
41
1
10
5.94606938871499
20
2.59843154019603
30
0
41
1
10
5.9296063043526
20
2.61803391984032
30
0
41
1
10
5.9136139781977
20
2.63573207967909
30
0
0
SPLINE
5
133
100
AcDbEntity
8
1
62
256
6
ByLayer
370
18
48
1
60
0
100
AcDbSpline
70
4
71
3
72
10
73
6
40
0
40
0
40
0
40
0
40
0.0734657164133875
40
0.699676314776435
40
1
40
1
40
1
40
1
41
1.02544020896672
10
29.4049902157438
20
14.4370034555623
30
0
41
1.02527247753992
10
29.2912471394186
20
14.4438219278642
30
0
41
1.02366228488755
10
28.187750638279
20
14.5010448365611
30
0
41
1.02128760257541
10
26.361333878127
20
14.4603760142692
30
0
41
1.01951717951064
10
25.3115500484196
20
14.3846540795611
30
0
41
1.01906346594983
10
24.9948918354712
20
14.3548694468909
30
0
0
SPLINE
5
134
100
AcDbEntity
8
1
62
256
6
ByLayer
370
18
48
1
60
0
100
AcDbSpline
70
4
71
3
72
10
73
6
40
0
40
0
40
0
40
0
40
0.914968234315956
40
0.914968234315956
40
1
40
1
40
1
40
1
41
1
10
29.0558022717563
20
11.2828431421835
30
0
41
1
10
29.4960079633929
20
11.3047918917456
30
0
41
1
10
29.9301742538333
20
11.3338029960403
30
0
41
1
10
30.3976954876238
20
11.3726498709972
30
0
41
1
10
30.4374012654245
20
11.3760148775826
30
0
41
1
10
30.4770461055117
20
11.3794428299595
30
0
0
SPLINE
5
135
100
AcDbEntity
8
1
62
256
6
ByLayer
370
18
48
1
60
0
100
AcDbSpline
70
4
71
3
72
11
73
7
40
0
40
0
40
0
40
0
40
0.425230898251465
40
0.744154071940064
40
0.956769521065796
40
1
40
1
40
1
40
1
41
1.0258173342201
10
13.7862371176743
20
8.1725366458761
30
0
41
1.02559001729416
10
14.7776111096364
20
8.73852523555925
30
0
41
1.0228008665691
10
18.6478512856144
20
10.0389474493054
30
0
41
1.01953314781965
10
24.2917323140879
20
11.2423514858581
30
0
41
1.01775466813745
10
26.2505836818969
20
11.6425517204073
30
0
41
1.01823166218985
10
26.8667893179826
20
11.8812429160858
30
0
41
1.01834276704992
10
26.9671649185576
20
11.9231547649213
30
0
0
SPLINE
5
136
100
AcDbEntity
8
1
62
256
6
ByLayer
370
18
48
1
60
0
100
AcDbSpline
70
4
71
3
72
16
73
12
40
0
40
0
40
0
40
0
40
0.474320436274426
40
0.474320436274426
40
0.658954025821059
40
0.658954025821059
40
0.845504004041766
40
0.845504004041766
40
0.957858191960716
40
0.957858191960716
40
1
40
1
40
1
40
1
41
1
10
13.8024353526607
20
-8.58621397326871
30
0
41
1
10
13.7524029502749
20
-8.49539557624243
30
0
41
1
10
13.6762377650193
20
-8.38695681429607
30
0
41
1
10
13.5283035566307
20
-8.20196864192505
30
0
41
1
10
13.4813926842629
20
-8.14521327519861
30
0
41
1
10
13.3782754110744
20
-8.0235412655905
30
0
41
1
10
13.3209169703154
20
-7.95713528447504
30
0
41
1
10
13.2230053473193
20
-7.84770605602128
30
0
41
1
10
13.1839718570271
20
-7.80494819913341
30
0
41
1
10
13.1298456644197
20
-7.74857717148564
30
0
41
1
10
13.1148401122233
20
-7.73326344317613
30
0
41
1
10
13.0999470399421
20
-7.71850007009701
30
0
0
SPLINE
5
137
100
AcDbEntity
8
1
62
256
6
ByLayer
370
18
48
1
60
0
100
AcDbSpline
70
4
71
3
72
8
73
4
40
0
40
0
40
0
40
0
40
1
40
1
40
1
40
1
41
1
10
14.1174494014352
20
-3.67129039377852
30
0
41
1
10
13.8576706026781
20
-3.77821878932951
30
0
41
1
10
13.6166089819168
20
-3.91629367462949
30
0
41
1
10
13.3984361577662
20
-4.0727314157424
30
0
0
SPLINE
5
138
100
AcDbEntity
8
1
62
256
6
ByLayer
370
18
48
1
60
0
100
AcDbSpline
70
4
71
3
72
8
73
4
40
0
40
0
40
0
40
0
40
1
40
1
40
1
40
1
41
1
10
6.6671551097395
20
1.37030496244503
30
0
41
1
10
6.58846365823229
20
1.48224452625615
30
0
41
1
10
6.5220368284896
20
1.59851265836514
30
0
41
1
10
6.46589773122275
20
1.71851718775983
30
0
0
SPLINE
5
139
100
AcDbEntity
8
1
62
256
6
ByLayer
370
18
48
1
60
0
100
AcDbSpline
70
4
71
3
72
8
73
4
40
0
40
0
40
0
40
0
40
1
40
1
40
1
40
1
41
1
10
15.0342913391668
20
6.97458865557761
30
0
41
1
10
14.9704959778429
20
6.93406525798542
30
0
41
1
10
14.9078001869029
20
6.89233326978621
30
0
41
1
10
14.8462147313621
20
6.84938282232324
30
0
0
SPLINE
5
13A
100
AcDbEntity
8
1
62
256
6
ByLayer
370
18
48
1
60
0
100
AcDbSpline
70
4
71
3
72
8
73
4
40
0
40
0
40
0
40
0
40
1
40
1
40
1
40
1
41
1
10
12.1938813168944
20
9.30562519760093
30
0
41
1
10
15.2710050094324
20
11.4243647080674
30
0
41
1
10
18.7601071898489
20
12.7581128315153
30
0
41
1
10
22.4146831514171
20
13.4946891781766
30
0
0
SPLINE
5
13B
100
AcDbEntity
8
1
62
256
6
ByLayer
370
18
48
1
60
0
100
AcDbSpline
70
4
71
3
72
10
73
6
40
0
40
0
40
0
40
0
40
0.5
40
0.5
40
1
40
1
40
1
40
1
41
1
10
29.8272268139285
20
2.9502540658543
30
0
41
1
10
28.8578797602612
20
1.37103594001297
30
0
41
1
10
27.7597941920456
20
-0.104896713884017
30
0
41
1
10
25.2848766689967
20
-2.83312690987359
30
0
41
1
10
23.9047699056387
20
-4.10554654493464
30
0
41
1
10
22.379210257423
20
-5.1831312942123
30
0
0
SPLINE
5
13C
100
AcDbEntity
8
1
62
256
6
ByLayer
370
18
48
1
60
0
100
AcDbSpline
70
4
71
3
72
10
73
6
40
0
40
0
40
0
40
0
40
0.5
40
0.5
40
1
40
1
40
1
40
1
41
1
10
29.7733852512217
20
7.9312716063753
30
0
41
1
10
30.3464394056826
20
7.81531229163551
30
0
41
1
10
30.9294855842319
20
7.71854956458841
30
0
41
1
10
32.0746749761413
20
8.04586136033981
30
0
41
1
10
32.6638939492863
20
8.36474205581519
30
0
41
1
10
33.1328849638507
20
9.12912202038032
30
0
0
SPLINE
5
13D
100
AcDbEntity
8
1
62
256
6
ByLayer
370
18
48
1
60
0
100
AcDbSpline
70
4
71
3
72
8
73
4
40
0
40
0
40
0
40
0
40
1
40
1
40
1
40
1
41
1
10
5.91361397819844
20
2.63573207966621
30
0
41
1
10
7.01477307239202
20
2.49817895355781
30
0
41
1
10
8.88442953675622
20
2.1212812222029
30
0
41
1
10
10.7801476873336
20
1.66290660143579
30
0
0
SPLINE
5
13E
100
AcDbEntity
8
1
62
256
6
ByLayer
370
18
48
1
60
0
100
AcDbSpline
70
4
71
3
72
8
73
4
40
0
40
0
40
0
40
0
40
1
40
1
40
1
40
1
41
1
10
10.5633677551287
20
1.3844347404837
30
0
41
1
10
10.3764091912574
20
1.17391865943932
30
0
41
1
10
10.1671443022881
20
0.990612529585434
30
0
41
1
10
9.94897147813759
20
0.834174788472552
30
0
0
SPLINE
5
13F
100
AcDbEntity
8
1
62
256
6
ByLayer
370
18
48
1
60
0
100
AcDbSpline
70
4
71
3
72
8
73
4
40
0
40
0
40
0
40
0
40
1
40
1
40
1
40
1
41
1
10
5.46385465975459
20
4.50152492165174
30
0
41
1
10
5.15348099463733
20
4.239093733072
30
0
41
1
10
4.84554254049266
20
3.92443202993724
30
0
41
1
10
4.57544493106957
20
3.53565409089933
30
0
0
SPLINE
5
140
100
AcDbEntity
8
1
62
256
6
ByLayer
370
18
48
1
60
0
100
AcDbSpline
70
4
71
3
72
8
73
4
40
0
40
0
40
0
40
0
40
1
40
1
40
1
40
1
41
1
10
20.9501299675764
20
-1.44076501980442
30
0
41
1
10
20.8904204560437
20
-1.48652437243987
30
0
41
1
10
20.8296549844718
20
-1.53099812095451
30
0
41
1
10
20.7677957647246
20
-1.57413949491243
30
0
0
SPLINE
5
141
100
AcDbEntity
8
1
62
256
6
ByLayer
370
18
48
1
60
0
100
AcDbSpline
70
4
71
3
72
8
73
4
40
0
40
0
40
0
40
0
40
1
40
1
40
1
40
1
41
1
10
31.5477927271742
20
5.0325828119762
30
0
41
1
10
31.4364234325633
20
4.92158965053713
30
0
41
1
10
31.3220144353069
20
4.81396279624067
30
0
41
1
10
31.2056484230335
20
4.70871732009101
30
0
0
SPLINE
5
142
100
AcDbEntity
8
1
62
256
6
ByLayer
370
18
48
1
60
0
100
AcDbSpline
70
4
71
1
72
4
73
2
40
0
40
0
40
1
40
1
41
1
10
13.7862371176743
20
8.17253664587611
30
0
41
1
10
12.1938813168944
20
9.30562519760093
30
0
0
SPLINE
5
143
100
AcDbEntity
8
1
62
256
6
ByLayer
370
18
48
1
60
0
100
AcDbSpline
70
4
71
3
72
8
73
4
40
0
40
0
40
0
40
0
40
1
40
1
40
1
40
1
41
1
10
16.0069209873692
20
-9.73528947528692
30
0
41
1
10
15.585467264234
20
-10.046232586831
30
0
41
1
10
15.0719884443985
20
-10.3454664664656
30
0
41
1
10
14.4589325066201
20
-10.523729323043
30
0
0
SPLINE
5
144
100
AcDbEntity
8
1
62
256
6
ByLayer
370
18
48
1
60
0
100
AcDbSpline
70
4
71
3
72
8
73
4
40
0
40
0
40
0
40
0
40
1
40
1
40
1
40
1
41
1
10
14.4530450707037
20
-3.56183538949892
30
0
41
1
10
14.2510255086232
20
-5.50999799812908
30
0
41
1
10
13.9974521262287
20
-7.43840184384285
30
0
41
1
10
13.8024353526607
20
-8.58621397326871
30
0
0
SPLINE
5
145
100
AcDbEntity
8
1
62
256
6
ByLayer
370
18
48
1
60
0
100
AcDbSpline
70
4
71
3
72
8
73
4
40
0
40
0
40
0
40
0
40
1
40
1
40
1
40
1
41
1
10
14.4530450707036
20
-3.56183538949892
30
0
41
1
10
14.8179276881291
20
-3.47594908851772
30
0
41
1
10
15.1898282158682
20
-3.46946338768782
30
0
41
1
10
15.5383034280721
20
-3.53968083183506
30
0
0
SPLINE
5
146
100
AcDbEntity
8
1
62
256
6
ByLayer
370
18
48
1
60
0
100
AcDbSpline
70
4
71
2
72
6
73
3
40
0
40
0
40
0
40
1
40
1
40
1
41
1.0258173342201
10
21.7214686987277
20
-3.11542850039857
30
0
41
1.0258173342201
10
22.0503394780753
20
-4.14927989730542
30
0
41
1.0258173342201
10
22.379210257423
20
-5.18313129421229
30
0
0
SPLINE
5
147
100
AcDbEntity
8
1
62
256
6
ByLayer
370
18
48
1
60
0
100
AcDbSpline
70
4
71
3
72
8
73
4
40
0
40
0
40
0
40
0
40
1
40
1
40
1
40
1
41
1
10
24.5630382983409
20
14.1579124446355
30
0
41
1
10
23.9748960976368
20
13.873342837321
30
0
41
1
10
23.2177316898508
20
13.656542855553
30
0
41
1
10
22.4146831514171
20
13.4946891781766
30
0
0
SPLINE
5
148
100
AcDbEntity
8
1
62
256
6
ByLayer
370
18
48
1
60
0
100
AcDbSpline
70
4
71
3
72
10
73
6
40
0
40
0
40
0
40
0
40
0.5
40
0.5
40
1
40
1
40
1
40
1
41
1
10
29.4013906097709
20
14.4372189259605
30
0
41
1
10
28.5000518538536
20
14.2859500875228
30
0
41
1
10
27.9728770905625
20
13.8822961588763
30
0
41
1
10
27.2181520600595
20
12.9972271933272
30
0
41
1
10
27.0818954306304
20
12.4593650353421
30
0
41
1
10
26.9671649185576
20
11.9231547649213
30
0
0
SPLINE
5
149
100
AcDbEntity
8
1
62
256
6
ByLayer
370
18
48
1
60
0
100
AcDbSpline
70
4
71
3
72
20
73
16
40
0
40
0
40
0
40
0
40
0.11896205633978
40
0.11896205633978
40
0.191173230286449
40
0.191173230286449
40
0.263712164126315
40
0.263712164126315
40
0.333306822588758
40
0.333306822588758
40
0.451479822004407
40
0.451479822004407
40
0.65441453400905
40
0.65441453400905
40
1
40
1
40
1
40
1
41
1
10
26.9671649185576
20
11.9231547649213
30
0
41
1
10
26.9572115739111
20
11.8729053966417
30
0
41
1
10
26.9607144929338
20
11.8177161250613
30
0
41
1
10
27.0049264526532
20
11.7259090556257
30
0
41
1
10
27.0313252965444
20
11.6897179115199
30
0
41
1
10
27.103125499497
20
11.6201725680552
30
0
41
1
10
27.1495425073703
20
11.5860167229458
30
0
41
1
10
27.2518329779005
20
11.5258419549557
30
0
41
1
10
27.3082045575241
20
11.4988217925175
30
0
41
1
10
27.4649144357301
20
11.4349449299565
30
0
41
1
10
27.5711573395139
20
11.4028579759132
30
0
41
1
10
27.8554109124245
20
11.3341269223665
30
0
41
1
10
28.036792367137
20
11.3084520309634
30
0
41
1
10
28.5055124810774
20
11.2670487552069
30
0
41
1
10
28.7872690323929
20
11.2694105232106
30
0
41
1
10
29.0558022717563
20
11.2828431421835
30
0
0
SPLINE
5
14A
100
AcDbEntity
8
1
62
256
6
ByLayer
370
18
48
1
60
0
100
AcDbSpline
70
4
71
3
72
8
73
4
40
0
40
0
40
0
40
0
40
1
40
1
40
1
40
1
41
1
10
11.1788572685414
20
2.66168529128325
30
0
41
1
10
11.1224058028322
20
2.31478573502622
30
0
41
1
10
10.9847789795489
20
1.96951654710003
30
0
41
1
10
10.7801476873336
20
1.66290660143579
30
0
0
SPLINE
5
14B
100
AcDbEntity
8
1
62
256
6
ByLayer
370
18
48
1
60
0
100
AcDbSpline
70
4
71
3
72
8
73
4
40
0
40
0
40
0
40
0
40
1
40
1
40
1
40
1
41
1
10
18.986887478175
20
-2.816166644443
30
0
41
1
10
17.9486424739887
20
-3.54025136727969
30
0
41
1
10
16.7022974343615
20
-3.77422458491117
30
0
41
1
10
15.538303428072
20
-3.53968083183503
30
0
0
SPLINE
5
14C
100
AcDbEntity
8
1
62
256
6
ByLayer
370
18
48
1
60
0
100
AcDbSpline
70
4
71
3
72
10
73
6
40
0
40
0
40
0
40
0
40
0.769561481283321
40
0.769561481283321
40
1
40
1
40
1
40
1
41
1
10
16.2398578695138
20
3.33234676336417
30
0
41
1
10
16.2526054565283
20
3.33431129510384
30
0
41
1
10
16.2659125367329
20
3.33710313247579
30
0
41
1
10
16.2839184585095
20
3.34209596304851
30
0
41
1
10
16.2881268217153
20
3.34334402714398
30
0
41
1
10
16.29238483186
20
3.34469408524862
30
0
0
SPLINE
5
14D
100
AcDbEntity
8
1
62
256
6
ByLayer
370
18
48
1
60
0
100
AcDbSpline
70
4
71
3
72
10
73
6
40
0
40
0
40
0
40
0
40
0.355593196477979
40
0.355593196477979
40
1
40
1
40
1
40
1
41
1
10
18.5845278958136
20
2.57975322623994
30
0
41
1
10
18.5820499610103
20
2.57277110096075
30
0
41
1
10
18.5796791731398
20
2.56563687768343
30
0
41
1
10
18.5733850117157
20
2.54518978484515
30
0
41
1
10
18.5697355609169
20
2.53148496555698
30
0
41
1
10
18.5666440887333
20
2.51727642548946
30
0
0
SPLINE
5
14E
100
AcDbEntity
8
1
62
256
6
ByLayer
370
18
48
1
60
0
100
AcDbSpline
70
4
71
3
72
10
73
6
40
0
40
0
40
0
40
0
40
0.276054056492172
40
0.276054056492172
40
1
40
1
40
1
40
1
41
1
10
16.5029732690505
20
1.07804723828417
30
0
41
1
10
16.4975779306849
20
1.07947312295664
30
0
41
1
10
16.4922769392057
20
1.08079766627304
30
0
41
1
10
16.4734974716477
20
1.08523497861111
30
0
41
1
10
16.4605458873717
20
1.08780645733742
30
0
41
1
10
16.4482022422312
20
1.08985367214402
30
0
0
SPLINE
5
14F
100
AcDbEntity
8
1
62
256
6
ByLayer
370
18
48
1
60
0
100
AcDbSpline
70
4
71
3
72
10
73
6
40
0
40
0
40
0
40
0
40
0.20115753023179
40
0.20115753023179
40
1
40
1
40
1
40
1
41
1
10
16.7825761278369
20
0.932506658707496
30
0
41
1
10
16.7796308567697
20
0.934943055362766
30
0
41
1
10
16.7766300314501
20
0.937386350557432
30
0
41
1
10
16.7614874349254
20
0.949513411561213
30
0
41
1
10
16.748456298144
20
0.959324849006947
30
0
41
1
10
16.7344279592669
20
0.96913112425878
30
0
0
SPLINE
5
150
100
AcDbEntity
8
1
62
256
6
ByLayer
370
18
48
1
60
0
100
AcDbSpline
70
4
71
3
72
10
73
6
40
0
40
0
40
0
40
0
40
0.355593196477675
40
0.355593196477675
40
1
40
1
40
1
40
1
41
1
10
15.8201133662977
20
1.98331787262941
30
0
41
1
10
15.8214112246703
20
1.98911992147788
30
0
41
1
10
15.8226338003973
20
1.99510593261161
30
0
41
1
10
15.8258188478685
20
2.01244391149709
30
0
41
1
10
15.8275909162394
20
2.0242713483573
30
0
41
1
10
15.8289938311738
20
2.03679133117563
30
0
0
SPLINE
5
151
100
AcDbEntity
8
1
62
256
6
ByLayer
370
18
48
1
60
0
100
AcDbSpline
70
4
71
3
72
10
73
6
40
0
40
0
40
0
40
0
40
0.230438518716702
40
0.230438518716702
40
1
40
1
40
1
40
1
41
1
10
17.8953862129628
20
1.06440477869307
30
0
41
1
10
17.8925696950931
20
1.06100417998439
30
0
41
1
10
17.8898629349463
20
1.05762006695056
30
0
41
1
10
17.8785915482201
20
1.04304727690865
30
0
41
1
10
17.8710629738789
20
1.03203544341977
30
0
41
1
10
17.8644859363363
20
1.02129322867731
30
0
0
SPLINE
5
152
100
AcDbEntity
8
1
62
256
6
ByLayer
370
18
48
1
60
0
100
AcDbSpline
70
4
71
3
72
10
73
6
40
0
40
0
40
0
40
0
40
0.53761684249531
40
0.53761684249531
40
1
40
1
40
1
40
1
41
1
10
15.8054060160412
20
2.29067633792275
30
0
41
1
10
15.8022040947548
20
2.30206963300233
30
0
41
1
10
15.7988267480509
20
2.3130636701629
30
0
41
1
10
15.7923194059643
20
2.33274420055616
30
0
41
1
10
15.7892138844832
20
2.34155956499711
30
0
41
1
10
15.7860369369446
20
2.35009599289992
30
0
0
SPLINE
5
153
100
AcDbEntity
8
1
62
256
6
ByLayer
370
18
48
1
60
0
100
AcDbSpline
70
4
71
3
72
10
73
6
40
0
40
0
40
0
40
0
40
0.276054056492212
40
0.276054056492212
40
1
40
1
40
1
40
1
41
1
10
17.8926646508563
20
3.47602051838058
30
0
41
1
10
17.8987869206836
20
3.47532156516991
30
0
41
1
10
17.9048497000324
20
3.47475880972303
30
0
41
1
10
17.9264836553468
20
3.47317598514135
30
0
41
1
10
17.9417020123659
20
3.4728712791582
30
0
41
1
10
17.9564390198824
20
3.47321742672759
30
0
0
SPLINE
5
154
100
AcDbEntity
8
1
62
256
6
ByLayer
370
18
48
1
60
0
100
AcDbSpline
70
4
71
3
72
10
73
6
40
0
40
0
40
0
40
0
40
0.230438518716792
40
0.230438518716792
40
1
40
1
40
1
40
1
41
1
10
16.5002517069441
20
3.48966297797173
30
0
41
1
10
16.5036736863082
20
3.49366903817486
30
0
41
1
10
16.5070100626889
20
3.49768276744263
30
0
41
1
10
16.5210995776389
20
3.51507368570833
30
0
41
1
10
16.5310319785649
20
3.52848934578202
30
0
41
1
10
16.5401553257759
20
3.54177787019293
30
0
0
SPLINE
5
155
100
AcDbEntity
8
1
62
256
6
ByLayer
370
18
48
1
60
0
100
AcDbSpline
70
4
71
3
72
10
73
6
40
0
40
0
40
0
40
0
40
0.769561481283166
40
0.769561481283166
40
1
40
1
40
1
40
1
41
1
10
18.1647833925985
20
1.2307243355061
30
0
41
1
10
18.1494894959155
20
1.22621349409798
30
0
41
1
10
18.1337785891261
20
1.22101783014119
30
0
41
1
10
18.1129545391258
20
1.21320687134471
30
0
41
1
10
18.108116559686
20
1.21132919101527
30
0
41
1
10
18.1032530880468
20
1.20937367141619
30
0
0
SPLINE
5
156
100
AcDbEntity
8
1
62
256
6
ByLayer
370
18
48
1
60
0
100
AcDbSpline
70
4
71
3
72
10
73
6
40
0
40
0
40
0
40
0
40
0.537616842495063
40
0.537616842495063
40
1
40
1
40
1
40
1
41
1
10
18.5902319038659
20
2.26339141874226
30
0
41
1
10
18.5948442264822
20
2.25340852499252
30
0
41
1
10
18.5997636659375
20
2.24395658058353
30
0
41
1
10
18.6093121870401
20
2.22731722920622
30
0
41
1
10
18.6138959354275
20
2.21998009167157
30
0
41
1
10
18.618604325169
20
2.21297510597162
30
0
0
SPLINE
5
157
100
AcDbEntity
8
1
62
256
6
ByLayer
370
18
48
1
60
0
100
AcDbSpline
70
4
71
3
72
10
73
6
40
0
40
0
40
0
40
0
40
0.201157530231464
40
0.201157530231464
40
1
40
1
40
1
40
1
41
1
10
17.6220651342759
20
3.63056444016331
30
0
41
1
10
17.6243420114438
20
3.62745964960877
30
0
41
1
10
17.6266847688143
20
3.62435828646497
30
0
41
1
10
17.6386269172349
20
3.60903077735705
30
0
41
1
10
17.6492748312365
20
3.59683611713155
30
0
41
1
10
17.6612099606401
20
3.58493663240625
30
0
0
LINE
5
72
100
AcDbEntity
8
1
62
256
6
ByLayer
370
18
48
1
60
0
100
AcDbLine
10
20.42597
20
-1.565883
30
0
11
20.597055
21
-1.394798
31
0
39
0
210
0
220
0
230
1
0
LINE
5
74
100
AcDbEntity
8
1
62
256
6
ByLayer
370
18
48
1
60
0
100
AcDbLine
10
13.525987
20
5.67627
30
0
11
13.356121
21
5.506404
31
0
39
0
210
0
220
0
230
1
0
LINE
5
75
100
AcDbEntity
8
1
62
256
6
ByLayer
370
18
48
1
60
0
100
AcDbLine
10
6.150289
20
5.085702
30
0
11
5.458216
21
4.496118
31
0
39
0
210
0
220
0
230
1
0
LINE
5
76
100
AcDbEntity
8
1
62
256
6
ByLayer
370
18
48
1
60
0
100
AcDbLine
10
37.329016
20
3.873219
30
0
11
37.773188
21
4.317391
31
0
39
0
210
0
220
0
230
1
0
LINE
5
77
100
AcDbEntity
8
1
62
256
6
ByLayer
370
18
48
1
60
0
100
AcDbLine
10
23.633979
20
18.4566
30
0
11
23.180462
21
18.003082
31
0
39
0
210
0
220
0
230
1
0
LINE
5
78
100
AcDbEntity
8
1
62
256
6
ByLayer
370
18
48
1
60
0
100
AcDbLine
10
9.877852
20
0.755521
30
0
11
10.202697
21
1.03226
31
0
39
0
210
0
220
0
230
1
0
LINE
5
79
100
AcDbEntity
8
1
62
256
6
ByLayer
370
18
48
1
60
0
100
AcDbLine
10
15.673823
20
1.752609
30
0
11
15.696617
21
1.775403
31
0
39
0
210
0
220
0
230
1
0
LINE
5
7A
100
AcDbEntity
8
1
62
256
6
ByLayer
370
18
48
1
60
0
100
AcDbLine
10
18.708024
20
2.787668
30
0
11
18.494903
21
2.574547
31
0
39
0
210
0
220
0
230
1
0
LINE
5
7B
100
AcDbEntity
8
80
62
256
6
ByLayer
370
18
48
1
60
0
100
AcDbLine
10
0
20
0
30
0
11
-5
21
0
31
0
39
0
210
0
220
0
230
1
0
LINE
5
7C
100
AcDbEntity
8
81
62
256
6
ByLayer
370
18
48
1
60
0
100
AcDbLine
10
39.229088
20
19.9125
30
0
11
49.229088
21
19.9125
31
0
39
0
210
0
220
0
230
1
0
LINE
5
7D
100
AcDbEntity
8
SK1
62
256
6
ByLayer
370
18
48
1
60
0
100
AcDbLine
10
-112.120912
20
12.4375
30
0
11
-112.120912
21
-12.4375
31
0
39
0
210
0
220
0
230
1
0
LINE
5
7F
100
AcDbEntity
8
SK1
62
256
6
ByLayer
370
18
48
1
60
0
100
AcDbLine
10
0
20
12.4375
30
0
11
0
21
-12.4375
31
0
39
0
210
0
220
0
230
1
0
LINE
5
80
100
AcDbEntity
8
SK1
62
256
6
ByLayer
370
18
48
1
60
0
100
AcDbLine
10
-112.120912
20
-12.4375
30
0
11
0
21
-12.4375
31
0
39
0
210
0
220
0
230
1
0
LINE
5
81
100
AcDbEntity
8
SK1
62
256
6
ByLayer
370
18
48
1
60
0
100
AcDbLine
10
0
20
12.4375
30
0
11
-112.120912
21
12.4375
31
0
39
0
210
0
220
0
230
1
0
LINE
5
82
100
AcDbEntity
8
1
62
256
6
ByLayer
370
18
48
1
60
0
100
AcDbLine
10
28.404518
20
0.861049
30
0
11
29.028683
21
1.570341
31
0
39
0
210
0
220
0
230
1
0
LINE
5
83
100
AcDbEntity
8
1
62
256
6
ByLayer
370
18
48
1
60
0
100
AcDbLine
10
29.028683
20
1.570341
30
0
11
29.045446
21
1.77461
31
0
39
0
210
0
220
0
230
1
0
LINE
5
84
100
AcDbEntity
8
1
62
256
6
ByLayer
370
18
48
1
60
0
100
AcDbLine
10
33.826348
20
-6.095472
30
0
11
36.752227
21
-3.169593
31
0
39
0
210
0
220
0
230
1
0
LINE
5
85
100
AcDbEntity
8
1
62
256
6
ByLayer
370
18
48
1
60
0
100
AcDbLine
10
37.330004
20
3.870922
30
0
11
37.281836
21
3.981688
31
0
39
0
210
0
220
0
230
1
0
LINE
5
86
100
AcDbEntity
8
1
62
256
6
ByLayer
370
18
48
1
60
0
100
AcDbLine
10
24.19529
20
-12.460448
30
0
11
25.457037
21
-12.328962
31
0
39
0
210
0
220
0
230
1
0
LINE
5
87
100
AcDbEntity
8
1
62
256
6
ByLayer
370
18
48
1
60
0
100
AcDbLine
10
1.941403
20
7.694768
30
0
11
4.885021
21
10.410648
31
0
39
0
210
0
220
0
230
1
0
LINE
5
88
100
AcDbEntity
8
1
62
256
6
ByLayer
370
18
48
1
60
0
100
AcDbLine
10
36.752227
20
-3.169593
30
0
11
24.19529
21
-12.460448
31
0
39
0
210
0
220
0
230
1
0
LINE
5
89
100
AcDbEntity
8
1
62
256
6
ByLayer
370
18
48
1
60
0
100
AcDbLine
10
0
20
-12.4375
30
0
11
0
21
12.4375
31
0
39
0
210
0
220
0
230
1
0
LINE
5
8A
100
AcDbEntity
8
1
62
256
6
ByLayer
370
18
48
1
60
0
100
AcDbLine
10
36.752227
20
-3.169593
30
0
11
37.330004
21
3.870922
31
0
39
0
210
0
220
0
230
1
0
LINE
5
8B
100
AcDbEntity
8
1
62
256
6
ByLayer
370
18
48
1
60
0
100
AcDbLine
10
20.964023
20
-12.461931
30
0
11
18.006865
21
-8.255337
31
0
39
0
210
0
220
0
230
1
0
LINE
5
8C
100
AcDbEntity
8
1
62
256
6
ByLayer
370
18
48
1
60
0
100
AcDbLine
10
16.101901
20
-12.448715
30
0
11
16.065883
21
-12.447849
31
0
39
0
210
0
220
0
230
1
0
LINE
5
8D
100
AcDbEntity
8
1
62
256
6
ByLayer
370
18
48
1
60
0
100
AcDbLine
10
23.161596
20
18.011289
30
0
11
23.272227
21
17.96311
31
0
39
0
210
0
220
0
230
1
0
LINE
5
8E
100
AcDbEntity
8
1
62
256
6
ByLayer
370
18
48
1
60
0
100
AcDbLine
10
16.065883
20
-12.447849
30
0
11
14.665521
21
-10.455817
31
0
39
0
210
0
220
0
230
1
0
LINE
5
8F
100
AcDbEntity
8
1
62
256
6
ByLayer
370
18
48
1
60
0
100
AcDbLine
10
4.706248
20
3.711372
30
0
11
1.73535
21
7.937513
31
0
39
0
210
0
220
0
230
1
0
LINE
5
90
100
AcDbEntity
8
1
62
256
6
ByLayer
370
18
48
1
60
0
100
AcDbLine
10
4.885021
20
10.410648
30
0
11
4.309284
21
16.46418
31
0
39
0
210
0
220
0
230
1
0
LINE
5
91
100
AcDbEntity
8
1
62
256
6
ByLayer
370
18
48
1
60
0
100
AcDbLine
10
7.804443
20
6.257734
30
0
11
4.885021
21
10.410648
31
0
39
0
210
0
220
0
230
1
0
LINE
5
92
100
AcDbEntity
8
1
62
256
6
ByLayer
370
18
48
1
60
0
100
AcDbLine
10
14.954541
20
-12.444828
30
0
11
2.942523
21
-12.450339
31
0
39
0
210
0
220
0
230
1
0
LINE
5
93
100
AcDbEntity
8
1
62
256
6
ByLayer
370
18
48
1
60
0
100
AcDbLine
10
20.964023
20
-12.461931
30
0
11
16.101901
21
-12.448715
31
0
39
0
210
0
220
0
230
1
0
LINE
5
94
100
AcDbEntity
8
1
62
256
6
ByLayer
370
18
48
1
60
0
100
AcDbLine
10
2.942523
20
-12.450339
30
0
11
1.062523
21
7.31674
31
0
39
0
210
0
220
0
230
1
0
LINE
5
95
100
AcDbEntity
8
1
62
256
6
ByLayer
370
18
48
1
60
0
100
AcDbLine
10
14.954541
20
-12.444828
30
0
11
13.657591
21
-10.5999
31
0
39
0
210
0
220
0
230
1
0
LINE
5
96
100
AcDbEntity
8
1
62
256
6
ByLayer
370
18
48
1
60
0
100
AcDbLine
10
4.229686
20
2.811411
30
0
11
1.062523
21
7.31674
31
0
39
0
210
0
220
0
230
1
0
LINE
5
97
100
AcDbEntity
8
1
62
256
6
ByLayer
370
18
48
1
60
0
100
AcDbLine
10
25.457037
20
-12.328962
30
0
11
33.826348
21
-6.095472
31
0
39
0
210
0
220
0
230
1
0
LINE
5
98
100
AcDbEntity
8
1
62
256
6
ByLayer
370
18
48
1
60
0
100
AcDbLine
10
22.797824
20
13.578533
30
0
11
23.161596
21
18.011289
31
0
39
0
210
0
220
0
230
1
0
LINE
5
99
100
AcDbEntity
8
1
62
256
6
ByLayer
370
18
48
1
60
0
100
AcDbLine
10
24.19529
20
-12.460448
30
0
11
20.964023
21
-12.461931
31
0
39
0
210
0
220
0
230
1
0
LINE
5
9A
100
AcDbEntity
8
1
62
256
6
ByLayer
370
18
48
1
60
0
100
AcDbLine
10
23.161596
20
18.011289
30
0
11
4.309284
21
16.46418
31
0
39
0
210
0
220
0
230
1
0
LINE
5
9B
100
AcDbEntity
8
1
62
256
6
ByLayer
370
18
48
1
60
0
100
AcDbLine
10
23.272227
20
17.96311
30
0
11
22.941966
21
13.938703
31
0
39
0
210
0
220
0
230
1
0
LINE
5
9C
100
AcDbEntity
8
1
62
256
6
ByLayer
370
18
48
1
60
0
100
AcDbLine
10
3.961144
20
16.398644
30
0
11
0
21
12.4375
31
0
39
0
210
0
220
0
230
1
0
LINE
5
9D
100
AcDbEntity
8
1
62
256
6
ByLayer
370
18
48
1
60
0
100
AcDbLine
10
16.101901
20
-12.448715
30
0
11
14.694259
21
-10.446327
31
0
39
0
210
0
220
0
230
1
0
LINE
5
9E
100
AcDbEntity
8
1
62
256
6
ByLayer
370
18
48
1
60
0
100
AcDbLine
10
4.724384
20
3.735944
30
0
11
1.941403
21
7.694768
31
0
39
0
210
0
220
0
230
1
0
LINE
5
9F
100
AcDbEntity
8
1
62
256
6
ByLayer
370
18
48
1
60
0
100
AcDbLine
10
0
20
-12.4375
30
0
11
2.942523
21
-12.450339
31
0
39
0
210
0
220
0
230
1
0
LINE
5
A0
100
AcDbEntity
8
1
62
256
6
ByLayer
370
18
48
1
60
0
100
AcDbLine
10
30.014851
20
3.238401
30
0
11
37.330004
21
3.870922
31
0
39
0
210
0
220
0
230
1
0
LINE
5
A1
100
AcDbEntity
8
1
62
256
6
ByLayer
370
18
48
1
60
0
100
AcDbLine
10
1.73535
20
7.937513
30
0
11
1.941403
21
7.694768
31
0
39
0
210
0
220
0
230
1
0
LINE
5
A2
100
AcDbEntity
8
1
62
256
6
ByLayer
370
18
48
1
60
0
100
AcDbLine
10
4.309284
20
16.46418
30
0
11
3.961144
21
16.398644
31
0
39
0
210
0
220
0
230
1
0
LINE
5
A3
100
AcDbEntity
8
1
62
256
6
ByLayer
370
18
48
1
60
0
100
AcDbLine
10
30.094148
20
3.360188
30
0
11
31.405024
21
3.473536
31
0
39
0
210
0
220
0
230
1
0
LINE
5
A4
100
AcDbEntity
8
1
62
256
6
ByLayer
370
18
48
1
60
0
100
AcDbLine
10
37.235151
20
3.977651
30
0
11
37.281836
21
3.981688
31
0
39
0
210
0
220
0
230
1
0
LINE
5
A5
100
AcDbEntity
8
1
62
256
6
ByLayer
370
18
48
1
60
0
100
AcDbLine
10
6.667155
20
1.370305
30
0
11
12.841697
21
-7.413057
31
0
39
0
210
0
220
0
230
1
0
LINE
5
A6
100
AcDbEntity
8
1
62
256
6
ByLayer
370
18
48
1
60
0
100
AcDbLine
10
10.853256
20
-9.107029
30
0
11
4.678715
21
-0.323667
31
0
39
0
210
0
220
0
230
1
0
LINE
5
A7
100
AcDbEntity
8
1
62
256
6
ByLayer
370
18
48
1
60
0
100
AcDbLine
10
33.133629
20
9.136088
30
0
11
33.225504
21
9.996371
31
0
39
0
210
0
220
0
230
1
0
LINE
5
A8
100
AcDbEntity
8
1
62
256
6
ByLayer
370
18
48
1
60
0
100
AcDbLine
10
18.187283
20
-8.12189
30
0
11
16.133694
21
-9.641617
31
0
39
0
210
0
220
0
230
1
0
LINE
5
A9
100
AcDbEntity
8
1
62
256
6
ByLayer
370
18
48
1
60
0
100
AcDbLine
10
9.653468
20
0.582432
30
0
11
8.424935
21
-0.273528
31
0
39
0
210
0
220
0
230
1
0
LINE
5
AA
100
AcDbEntity
8
1
62
256
6
ByLayer
370
18
48
1
60
0
100
AcDbLine
10
5.887748
20
2.664034
30
0
11
13.786237
21
8.172537
31
0
39
0
210
0
220
0
230
1
0
LINE
5
AB
100
AcDbEntity
8
1
62
256
6
ByLayer
370
18
48
1
60
0
100
AcDbLine
10
8.424935
20
-0.273528
30
0
11
11.8744
21
-5.180434
31
0
39
0
210
0
220
0
230
1
0
LINE
5
AC
100
AcDbEntity
8
1
62
256
6
ByLayer
370
18
48
1
60
0
100
AcDbLine
10
30.251259
20
14.227271
30
0
11
29.408524
21
14.435457
31
0
39
0
210
0
220
0
230
1
0
LINE
5
AD
100
AcDbEntity
8
1
62
256
6
ByLayer
370
18
48
1
60
0
100
AcDbLine
10
9.948971
20
0.834175
30
0
11
9.653468
21
0.582432
31
0
39
0
210
0
220
0
230
1
0
LINE
5
AE
100
AcDbEntity
8
1
62
256
6
ByLayer
370
18
48
1
60
0
100
AcDbLine
10
18.187283
20
-8.12189
30
0
11
18.200523
21
-8.097399
31
0
39
0
210
0
220
0
230
1
0
LINE
5
AF
100
AcDbEntity
8
1
62
256
6
ByLayer
370
18
48
1
60
0
100
AcDbLine
10
16.607506
20
-9.223645
30
0
11
18.187283
21
-8.12189
31
0
39
0
210
0
220
0
230
1
0
LINE
5
B0
100
AcDbEntity
8
1
62
256
6
ByLayer
370
18
48
1
60
0
100
AcDbLine
10
22.37921
20
-5.183131
30
0
11
18.200523
21
-8.097399
31
0
39
0
210
0
220
0
230
1
0
LINE
5
B1
100
AcDbEntity
8
1
62
256
6
ByLayer
370
18
48
1
60
0
100
AcDbLine
10
14.846215
20
6.849383
30
0
11
14.656271
21
6.687568
31
0
39
0
210
0
220
0
230
1
0
LINE
5
B2
100
AcDbEntity
8
1
62
256
6
ByLayer
370
18
48
1
60
0
100
AcDbLine
10
13.065306
20
5.607356
30
0
11
14.846215
21
6.849383
31
0
39
0
210
0
220
0
230
1
0
LINE
5
B3
100
AcDbEntity
8
1
62
256
6
ByLayer
370
18
48
1
60
0
100
AcDbLine
10
7.988365
20
6.386196
30
0
11
6.408589
21
5.284441
31
0
39
0
210
0
220
0
230
1
0
LINE
5
B4
100
AcDbEntity
8
1
62
256
6
ByLayer
370
18
48
1
60
0
100
AcDbLine
10
20.767796
20
-1.574139
30
0
11
18.986887
21
-2.816167
31
0
39
0
210
0
220
0
230
1
0
LINE
5
B5
100
AcDbEntity
8
1
62
256
6
ByLayer
370
18
48
1
60
0
100
AcDbLine
10
30.477046
20
11.379443
30
0
11
33.16621
21
13.127629
31
0
39
0
210
0
220
0
230
1
0
LINE
5
B6
100
AcDbEntity
8
1
62
256
6
ByLayer
370
18
48
1
60
0
100
AcDbLine
10
7.988365
20
6.386196
30
0
11
8.015194
21
6.391358
31
0
39
0
210
0
220
0
230
1
0
LINE
5
B7
100
AcDbEntity
8
1
62
256
6
ByLayer
370
18
48
1
60
0
100
AcDbLine
10
6.667155
20
1.370305
30
0
11
4.678715
21
-0.323667
31
0
39
0
210
0
220
0
230
1
0
LINE
5
B8
100
AcDbEntity
8
1
62
256
6
ByLayer
370
18
48
1
60
0
100
AcDbLine
10
12.841697
20
-7.413057
30
0
11
10.853256
21
-9.107029
31
0
39
0
210
0
220
0
230
1
0
LINE
5
B9
100
AcDbEntity
8
1
62
256
6
ByLayer
370
18
48
1
60
0
100
AcDbLine
10
16.607506
20
-9.223645
30
0
11
16.006921
21
-9.735289
31
0
39
0
210
0
220
0
230
1
0
LINE
5
BA
100
AcDbEntity
8
1
62
256
6
ByLayer
370
18
48
1
60
0
100
AcDbLine
10
12.193881
20
9.305625
30
0
11
8.015194
21
6.391358
31
0
39
0
210
0
220
0
230
1
0
LINE
5
BB
100
AcDbEntity
8
1
62
256
6
ByLayer
370
18
48
1
60
0
100
AcDbLine
10
12.883145
20
5.45217
30
0
11
14.656271
21
6.687568
31
0
39
0
210
0
220
0
230
1
0
LINE
5
BC
100
AcDbEntity
8
1
62
256
6
ByLayer
370
18
48
1
60
0
100
AcDbLine
10
13.822979
20
-8.623931
30
0
11
21.721469
21
-3.115429
31
0
39
0
210
0
220
0
230
1
0
LINE
5
BD
100
AcDbEntity
8
1
62
256
6
ByLayer
370
18
48
1
60
0
100
AcDbLine
10
16.292385
20
3.344694
30
0
11
16.083765
21
3.136074
31
0
39
0
210
0
220
0
230
1
0
LINE
5
BE
100
AcDbEntity
8
1
62
256
6
ByLayer
370
18
48
1
60
0
100
AcDbLine
10
18.381612
20
2.054772
30
0
11
18.590232
21
2.263391
31
0
39
0
210
0
220
0
230
1
0
LINE
5
BF
100
AcDbEntity
8
1
62
256
6
ByLayer
370
18
48
1
60
0
100
AcDbLine
10
15.774001
20
3.12696
30
0
11
15.987122
21
3.340081
31
0
39
0
210
0
220
0
230
1
0
LINE
5
C0
100
AcDbEntity
8
1
62
256
6
ByLayer
370
18
48
1
60
0
100
AcDbLine
10
15.676644
20
1.755576
30
0
11
15.689438
21
1.76837
31
0
39
0
210
0
220
0
230
1
0
LINE
5
C1
100
AcDbEntity
8
1
62
256
6
ByLayer
370
18
48
1
60
0
100
AcDbLine
10
17.990802
20
3.308881
30
0
11
18.203923
21
3.522002
31
0
39
0
210
0
220
0
230
1
0
LINE
5
C2
100
AcDbEntity
8
1
62
256
6
ByLayer
370
18
48
1
60
0
100
AcDbLine
10
17.286883
20
3.640126
30
0
11
17.500005
21
3.853247
31
0
39
0
210
0
220
0
230
1
0
LINE
5
C3
100
AcDbEntity
8
1
62
256
6
ByLayer
370
18
48
1
60
0
100
AcDbLine
10
16.291632
20
3.281043
30
0
11
16.500252
21
3.489663
31
0
39
0
210
0
220
0
230
1
0
LINE
5
C4
100
AcDbEntity
8
1
62
256
6
ByLayer
370
18
48
1
60
0
100
AcDbLine
10
18.573819
20
1.809444
30
0
11
18.78694
21
2.022565
31
0
39
0
210
0
220
0
230
1
0
LINE
5
C5
100
AcDbEntity
8
1
62
256
6
ByLayer
370
18
48
1
60
0
100
AcDbLine
10
17.686767
20
0.855785
30
0
11
17.895386
21
1.064405
31
0
39
0
210
0
220
0
230
1
0
LINE
5
C6
100
AcDbEntity
8
1
62
256
6
ByLayer
370
18
48
1
60
0
100
AcDbLine
10
17.66121
20
3.584937
30
0
11
17.45259
21
3.376317
31
0
39
0
210
0
220
0
230
1
0
LINE
5
C7
100
AcDbEntity
8
1
62
256
6
ByLayer
370
18
48
1
60
0
100
AcDbLine
10
18.566644
20
2.517276
30
0
11
18.358024
21
2.308657
31
0
39
0
210
0
220
0
230
1
0
LINE
5
C8
100
AcDbEntity
8
1
62
256
6
ByLayer
370
18
48
1
60
0
100
AcDbLine
10
20.42597
20
-1.565883
30
0
11
20.426135
21
-1.565717
31
0
39
0
210
0
220
0
230
1
0
LINE
5
C9
100
AcDbEntity
8
1
62
256
6
ByLayer
370
18
48
1
60
0
100
AcDbLine
10
17.684045
20
3.267401
30
0
11
17.892665
21
3.476021
31
0
39
0
210
0
220
0
230
1
0
LINE
5
CA
100
AcDbEntity
8
1
62
256
6
ByLayer
370
18
48
1
60
0
100
AcDbLine
10
17.572216
20
0.568977
30
0
11
17.785337
21
0.782098
31
0
39
0
210
0
220
0
230
1
0
LINE
5
CB
100
AcDbEntity
8
1
62
256
6
ByLayer
370
18
48
1
60
0
100
AcDbLine
10
23.295558
20
17.724121
30
0
11
23.24877
21
17.677332
31
0
39
0
210
0
220
0
230
1
0
LINE
5
CC
100
AcDbEntity
8
1
62
256
6
ByLayer
370
18
48
1
60
0
100
AcDbLine
10
37.002853
20
3.941114
30
0
11
37.040709
21
3.97897
31
0
39
0
210
0
220
0
230
1
0
LINE
5
CD
100
AcDbEntity
8
1
62
256
6
ByLayer
370
18
48
1
60
0
100
AcDbLine
10
23.295558
20
17.724121
30
0
11
22.958382
21
13.61545
31
0
39
0
210
0
220
0
230
1
0
LINE
5
CE
100
AcDbEntity
8
1
62
256
6
ByLayer
370
18
48
1
60
0
100
AcDbLine
10
30.127628
20
3.41165
30
0
11
37.040709
21
3.97897
31
0
39
0
210
0
220
0
230
1
0
LINE
5
CF
100
AcDbEntity
8
1
62
256
6
ByLayer
370
18
48
1
60
0
100
AcDbLine
10
38.111609
20
5.04987
30
0
11
39.225092
21
18.618233
31
0
39
0
210
0
220
0
230
1
0
LINE
5
D0
100
AcDbEntity
8
1
62
256
6
ByLayer
370
18
48
1
60
0
100
AcDbLine
10
37.934822
20
19.908504
30
0
11
24.366458
21
18.795021
31
0
39
0
210
0
220
0
230
1
0
MTEXT
5
158
100
AcDbEntity
8
SK6
62
256
6
ByLayer
370
18
48
1
60
0
100
AcDbMText
10
-50.570912
20
-23.324715
30
0
210
0
220
0
230
1
1
\W0.7484;DCLNR 2525M 16
40
3.5
41
0
44
1.084337
50
0
71
7
72
5
7
iso_b_vert
0
DIMENSION
5
169
100
AcDbEntity
8
2
62
256
6
ByLayer
370
13
48
1
60
0
100
AcDbDimension
2
DimnDraft3D1
10
36.944433
20
19.826721
30
0
11
20.560266
21
37.213741
31
0
70
34
71
5
72
1
41
1
210
0
220
0
230
1
3
Standard
100
AcDb2LineAngularDimension
13
39.229088
23
19.9125
33
0
14
39.229088
24
17.53125
34
0
15
37.941083
25
19.908511
35
0
16
23.869816
26
34.164662
36
0
40
0
0
DIMENSION
5
17F
100
AcDbEntity
8
SK2
62
256
6
ByLayer
370
13
48
1
60
0
100
AcDbDimension
2
DimnDraft3D2
10
-119.870912
20
12.4375
30
0
11
-119.870912
21
-5.281579
31
0
70
32
71
5
72
1
41
1
210
0
220
0
230
1
3
Standard
100
AcDbAlignedDimension
13
-114.120912
23
-12.4375
33
0
14
-114.120912
24
12.4375
34
0
50
90
100
AcDbRotatedDimension
1001
ACAD
1000
DSTYLE
1002
{
1070
    74
1070
     0
1070
   279
1070
     0
1070
   172
1070
     1
1070
   173
1070
     1
1070
   340
1005
159
1070
    77
1070
     1
1070
    73
1070
     0
1070
   171
1070
     3
1070
   274
1070
     4
1070
   177
1070
     2
1070
   176
1070
     2
1070
   178
1070
     7
1070
    78
1070
     8
1070
    41
1041
3.175
1070
   147
1041
2.25
1070
    42
1041
2.0
1070
    44
1041
2.0
1070
   140
1041
4.5
1070
   343
1005
16A
1070
   344
1005
16A
1002
}
0
DIMENSION
5
18D
100
AcDbEntity
8
2
62
256
6
ByLayer
370
13
48
1
60
0
100
AcDbDimension
2
DimnDraft3D3
10
61.479088
20
19.9125
30
0
11
61.479088
21
-1.544079
31
0
70
32
71
5
72
1
41
1
210
0
220
0
230
1
3
Standard
100
AcDbAlignedDimension
13
2
23
-12.4375
33
0
14
41.229088
24
19.9125
34
0
50
90
100
AcDbRotatedDimension
1001
ACAD
1000
DSTYLE
1002
{
1070
    74
1070
     0
1070
   279
1070
     0
1070
   172
1070
     1
1070
   173
1070
     1
1070
   340
1005
159
1070
    77
1070
     1
1070
    73
1070
     0
1070
   171
1070
     3
1070
   274
1070
     4
1070
   177
1070
     2
1070
   176
1070
     2
1070
   178
1070
     7
1070
    78
1070
     8
1070
    41
1041
3.175
1070
   147
1041
2.25
1070
    42
1041
2.0
1070
    44
1041
2.0
1070
   140
1041
4.5
1070
   343
1005
16A
1070
   344
1005
16A
1002
}
0
DIMENSION
5
19B
100
AcDbEntity
8
2
62
256
6
ByLayer
370
13
48
1
60
0
100
AcDbDimension
2
DimnDraft3D4
10
39.229088
20
49.6625
30
0
11
14.332965
21
49.6625
31
0
70
32
71
5
72
1
41
1
210
0
220
0
230
1
3
Standard
100
AcDbAlignedDimension
13
0
23
14.4375
33
0
14
39.229088
24
21.9125
34
0
50
0
100
AcDbRotatedDimension
1001
ACAD
1000
DSTYLE
1002
{
1070
   279
1070
     0
1070
   172
1070
     1
1070
   173
1070
     1
1070
   340
1005
159
1070
    77
1070
     1
1070
    73
1070
     0
1070
   171
1070
     3
1070
   274
1070
     4
1070
   177
1070
     2
1070
   176
1070
     2
1070
   178
1070
     7
1070
    78
1070
     8
1070
    41
1041
3.175
1070
   147
1041
2.25
1070
    42
1041
2.0
1070
    44
1041
2.0
1070
   140
1041
4.5
1070
   343
1005
16A
1070
   344
1005
16A
1002
}
0
DIMENSION
5
1A9
100
AcDbEntity
8
SK2
62
256
6
ByLayer
370
13
48
1
60
0
100
AcDbDimension
2
DimnDraft3D5
10
-112.120912
20
59.6625
30
0
11
-42.846569
21
59.6625
31
0
70
32
71
5
72
1
41
1
210
0
220
0
230
1
3
Standard
100
AcDbAlignedDimension
13
39.229088
23
21.9125
33
0
14
-112.120912
24
14.4375
34
0
50
0
100
AcDbRotatedDimension
1001
ACAD
1000
DSTYLE
1002
{
1070
   279
1070
     0
1070
   172
1070
     1
1070
   173
1070
     1
1070
   340
1005
159
1070
    77
1070
     1
1070
    73
1070
     0
1070
   171
1070
     3
1070
   274
1070
     4
1070
   177
1070
     2
1070
   176
1070
     2
1070
   178
1070
     7
1070
    78
1070
     8
1070
    41
1041
3.175
1070
   147
1041
2.25
1070
    42
1041
2.0
1070
    44
1041
2.0
1070
   140
1041
4.5
1070
   343
1005
16A
1070
   344
1005
16A
1002
}
0
ENDSEC
0
SECTION
2
OBJECTS
0
DICTIONARY
5
213
330
0
100
AcDbDictionary
280
0
281
1
3
ACAD_GROUP
350
214
3
ACAD_MLINESTYLE
350
215
0
DICTIONARY
5
214
330
0
100
AcDbDictionary
280
0
281
1
0
DICTIONARY
5
215
330
0
100
AcDbDictionary
280
0
281
1
3
Standard
350
18
0
MLINESTYLE
5
18
330
215
100
AcDbMlineStyle
2
Standard
70
0
3

62
256
51
90
52
90
71
2
49
-0.5
62
256
6
ByLayer
49
0.5
62
256
6
ByLayer
0
RASTERVARIABLES
5
202
330

100
AcDbRasterVariables
90
0
70
1
71
1
72
1
0
ENDSEC
0
EOF
